osu file format v14

[General]
AudioFilename: audio.ogg
AudioLeadIn: 0
PreviewTime: 67960
Countdown: 0
SampleSet: Soft
StackLeniency: 0.7
Mode: 0
LetterboxInBreaks: 0
EpilepsyWarning: 1
WidescreenStoryboard: 1

[Editor]
Bookmarks: 34972,58639,61972,62472,69139,79805,90639,119972
DistanceSpacing: 1.4
BeatDivisor: 8
GridSize: 4
TimelineZoom: 3.499999

[Metadata]
Title:Shadow World
TitleUnicode:Shadow World
Artist:BEMANI Sound Team "HuMeR x Nekomata Master" feat. Emi Evans
ArtistUnicode:BEMANI Sound Team "HuΣeR × 猫叉Master" feat. Emi Evans
Creator:Hakurei Yoru
Version:Gekka's HYPER
Source:beatmania IIDX 30 RESIDENT
Tags:Yours- necho video game english sodarose Tachibana Gekka VoiceCore liaoxingyao Atlust Ameth Otosaka-Yu 1112 konami electronic
BeatmapID:3909245
BeatmapSetID:1871338

[Difficulty]
HPDrainRate:5
CircleSize:4
OverallDifficulty:6
ApproachRate:8
SliderMultiplier:1.65
SliderTickRate:1

[Events]
//Background and Video events
0,0,"bg.jpg",0,0
//Break Periods
//Storyboard Layer 0 (Background)
Sprite,Background,Centre,"bg.jpg",320,240 F,0,0,,0
//Storyboard Layer 1 (Fail)
//Storyboard Layer 2 (Pass)
//Storyboard Layer 3 (Foreground)
Sprite,Foreground,Centre,"sb\glow1.png",0,0 M,0,106639,,172,219 S,0,106639,,0.6 C,0,106639,,188,98,245 P,0,106639,,A F,0,106639,107389,0.3,0 M,0,107393,,129.7125,205.9196 F,0,107393,108143,0.3,0 M,0,108147,,340.2181,80.46273 F,0,108147,108897,0.3,0 M,0,108901,,377.8281,301.747 F,0,108901,109651,0.3,0 M,0,109655,,445.8198,211.6404 F,0,109655,110405,0.3,0 M,0,110409,,275.0454,90.67815 F,0,110409,111159,0.3,0 M,0,111163,,254.2742,287.0825 F,0,111163,111913,0.3,0 M,0,111917,,320.6461,237.146 F,0,111917,112667,0.3,0 M,0,112671,,495.4218,220.5927 F,0,112671,113421,0.3,0 M,0,113425,,236.4839,101.1025 F,0,113425,114175,0.3,0 M,0,114179,,150.09,211.6732 F,0,114179,114929,0.3,0
Sprite,Foreground,Centre,"sb\glow1.png",0,0 M,0,107302,,168.3385,217.3753 S,0,107302,,0.6 C,0,107302,,104,104,255 P,0,107302,,A F,0,107302,108052,0.3,0 M,0,108134,,342.0533,74.97075 F,0,108134,108884,0.3,0 M,0,108888,,385.9103,298.2635 F,0,108888,109638,0.3,0 M,0,109642,,452.6891,220.8416 F,0,109642,110392,0.3,0 M,0,110396,,283.1184,95.09139 F,0,110396,111146,0.3,0 M,0,111150,,250.5518,269.4598 F,0,111150,111900,0.3,0 M,0,111904,,314.8314,240.7279 F,0,111904,112654,0.3,0 M,0,112658,,494.5119,226.3006 F,0,112658,113408,0.3,0 M,0,113412,,239.5526,102.0736 F,0,113412,114162,0.3,0 M,0,114166,,136.1294,203.3979 F,0,114166,114916,0.3,0
Sprite,Foreground,Centre,"sb\glow1.png",0,0 M,0,107315,,163.1512,214.807 S,0,107315,,0.6 C,0,107315,,104,104,255 P,0,107315,,A F,0,107315,108065,0.3,0 M,0,108160,,338.6159,86.02636 F,0,108160,108910,0.3,0 M,0,108914,,371.3259,304.5495 F,0,108914,109664,0.3,0 M,0,109668,,439.5685,203.267 F,0,109668,110418,0.3,0 M,0,110422,,268.7976,87.26269 F,0,110422,111172,0.3,0 M,0,111176,,257.6421,303.0268 F,0,111176,111926,0.3,0 M,0,111930,,324.9337,234.5048 F,0,111930,112680,0.3,0 M,0,112684,,496.5905,214.9181 F,0,112684,113434,0.3,0 M,0,113438,,234.3765,100.4356 F,0,113438,114188,0.3,0 M,0,114192,,162.5445,219.0557 F,0,114192,114942,0.3,0
Sprite,Foreground,Centre,"sb\glow1.png",0,0 M,0,107328,,157.7023,212.8607 S,0,107328,,0.6 C,0,107328,,104,104,255 P,0,107328,,A F,0,107328,108078,0.3,0 M,0,108173,,337.0448,91.59724 F,0,108173,108923,0.3,0 M,0,108927,,366.4037,306.671 F,0,108927,109677,0.3,0 M,0,109681,,433.9353,195.7213 F,0,109681,110431,0.3,0 M,0,110435,,264.375,84.845 F,0,110435,111185,0.3,0 M,0,111189,,260.6555,317.2928 F,0,111189,111939,0.3,0 M,0,111943,,327.6943,232.8043 F,0,111943,112693,0.3,0 M,0,112697,,498.4411,209.4378 F,0,112697,113447,0.3,0 M,0,113451,,233.2304,100.0729 F,0,113451,114201,0.3,0 M,0,114205,,173.4928,225.5455 F,0,114205,114955,0.3,0
Sprite,Foreground,Centre,"sb\glow1.png",0,0 M,0,107341,,152.2737,210.8901 S,0,107341,,0.6 C,0,107341,,104,104,255 P,0,107341,,A F,0,107341,108091,0.3,0 M,0,108186,,335.5822,97.19938 F,0,108186,108936,0.3,0 M,0,108940,,363.0614,308.1115 F,0,108940,109690,0.3,0 M,0,109694,,428.92,189.0035 F,0,109694,110444,0.3,0 M,0,110448,,261.7776,83.42509 F,0,110448,111198,0.3,0 M,0,111202,,263.3144,329.8804 F,0,111202,111952,0.3,0 M,0,111956,,328.9277,232.0445 F,0,111956,112706,0.3,0 M,0,112710,,500.2249,203.9417 F,0,112710,113460,0.3,0 M,0,113464,,232.579,101.7283 F,0,113464,114214,0.3,0 M,0,114218,,182.9351,231.1425 F,0,114218,114968,0.3,0
Sprite,Foreground,Centre,"sb\glow1.png",0,0 M,0,107354,,146.7354,209.2206 S,0,107354,,0.6 C,0,107354,,104,104,255 P,0,107354,,A F,0,107354,108104,0.3,0 M,0,108199,,334.3762,102.8628 F,0,108199,108949,0.3,0 M,0,108953,,361.2992,308.8711 F,0,108953,109703,0.3,0 M,0,109707,,424.5228,183.1134 F,0,109707,110457,0.3,0 M,0,110461,,261.4445,83.0136 F,0,110461,111211,0.3,0 M,0,111215,,265.6187,340.7897 F,0,111215,111965,0.3,0 M,0,111969,,332.9802,232.4841 F,0,111969,112719,0.3,0 M,0,112723,,502.4289,198.5933 F,0,112723,113473,0.3,0 M,0,113477,,231.1366,107.3253 F,0,113477,114227,0.3,0 M,0,114231,,190.8712,235.8467 F,0,114231,114981,0.3,0
Sprite,Foreground,Centre,"sb\glow1.png",0,0 M,0,107367,,141.0855,208.0027 S,0,107367,,0.6 C,0,107367,,104,104,255 P,0,107367,,A F,0,107367,108117,0.3,0 M,0,108212,,333.2094,108.5318 F,0,108212,108962,0.3,0 M,0,108966,,358.9658,309.9026 F,0,108966,109716,0.3,0 M,0,109720,,420.7435,178.0512 F,0,109720,110470,0.3,0 M,0,110474,,267.2232,83.19035 F,0,110474,111224,0.3,0 M,0,111228,,267.5685,350.0206 F,0,111228,111978,0.3,0 M,0,111982,,338.7293,233.1833 F,0,111982,112732,0.3,0 M,0,112736,,504.9119,193.3793 F,0,112736,113486,0.3,0 M,0,113490,,229.9771,112.9654 F,0,113490,114240,0.3,0 M,0,114244,,197.3012,239.6582 F,0,114244,114994,0.3,0
Sprite,Foreground,Centre,"sb\glow1.png",0,0 M,0,107380,,135.4249,206.8571 S,0,107380,,0.6 C,0,107380,,104,104,255 P,0,107380,,A F,0,107380,108130,0.3,0 M,0,108225,,332.1534,114.2236 F,0,108225,108975,0.3,0 M,0,108979,,353.7299,312.3669 F,0,108979,109729,0.3,0 M,0,109733,,417.5822,173.8167 F,0,109733,110483,0.3,0 M,0,110487,,272.983,83.33628 F,0,110487,111237,0.3,0 M,0,111241,,269.1639,357.5732 F,0,111241,111991,0.3,0 M,0,111995,,344.4785,233.8825 F,0,111995,112745,0.3,0 M,0,112749,,507.5262,188.2278 F,0,112749,113499,0.3,0 M,0,113503,,229.0988,118.6638 F,0,113503,114253,0.3,0 M,0,114257,,202.225,242.5768 F,0,114257,115007,0.3,0
Sprite,Foreground,Centre,"sb\glow1.png",0,0 M,0,107406,,123.9321,205.6609 S,0,107406,,0.6 C,0,107406,,104,104,255 P,0,107406,,A F,0,107406,108156,0.3,0 M,0,108238,,331.3028,119.9509 F,0,108238,108988,0.3,0 M,0,108992,,348.3789,314.5404 F,0,108992,109742,0.3,0 M,0,109746,,415.0389,170.41 F,0,109746,110496,0.3,0 M,0,110500,,278.7241,83.96532 F,0,110500,111250,0.3,0 M,0,111254,,270.4047,363.4474 F,0,111254,112004,0.3,0 M,0,112008,,350.2276,234.5817 F,0,112008,112758,0.3,0 M,0,112762,,510.3813,183.1922 F,0,112762,113512,0.3,0 M,0,113516,,228.7094,124.43 F,0,113516,114266,0.3,0 M,0,114270,,205.6428,244.6027 F,0,114270,115020,0.3,0
Sprite,Foreground,Centre,"sb\glow1.png",0,0 M,0,107419,,118.1642,205.3655 S,0,107419,,0.6 C,0,107419,,104,104,255 P,0,107419,,A F,0,107419,108169,0.3,0 M,0,108251,,330.5658,125.692 F,0,108251,109001,0.3,0 M,0,109005,,342.9902,316.6377 F,0,109005,109755,0.3,0 M,0,109759,,413.1136,167.8311 F,0,109759,110509,0.3,0 M,0,110513,,284.3781,85.11651 F,0,110513,111263,0.3,0 M,0,111267,,271.291,367.6433 F,0,111267,112017,0.3,0 M,0,112021,,355.9767,235.281 F,0,112021,112771,0.3,0 M,0,112775,,513.7708,178.5057 F,0,112775,113525,0.3,0 M,0,113529,,228.9026,130.1999 F,0,113529,114279,0.3,0 M,0,114283,,207.5544,245.7359 F,0,114283,115033,0.3,0
Sprite,Foreground,Centre,"sb\glow1.png",0,0 M,0,107432,,112.3797,205.4001 S,0,107432,,0.6 C,0,107432,,104,104,255 P,0,107432,,A F,0,107432,108182,0.3,0 M,0,108264,,329.9214,131.4443 F,0,108264,109014,0.3,0 M,0,109018,,337.4114,318.1725 F,0,109018,109768,0.3,0 M,0,109772,,411.8063,166.08 F,0,109772,110522,0.3,0 M,0,110526,,289.9481,86.57845 F,0,110526,111276,0.3,0 M,0,111280,,271.8228,370.1608 F,0,111280,112030,0.3,0 M,0,112034,,361.7259,235.9802 F,0,112034,112784,0.3,0 M,0,112788,,517.0447,173.7316 F,0,112788,113538,0.3,0 M,0,113542,,229.4438,135.9341 F,0,113542,114292,0.3,0 M,0,114296,,209.2873,246.3573 F,0,114296,115046,0.3,0
Sprite,Foreground,Centre,"sb\glow1.png",0,0 M,0,107445,,106.621,205.8868 S,0,107445,,0.6 C,0,107445,,104,104,255 P,0,107445,,A F,0,107445,108195,0.3,0 M,0,108277,,329.4174,137.2121 F,0,108277,109027,0.3,0 M,0,109031,,331.8325,319.6542 F,0,109031,109781,0.3,0 M,0,109785,,411.117,165.1567 F,0,109785,110535,0.3,0 M,0,110539,,295.4517,88.31808 F,0,110539,111289,0.3,0 M,0,111293,,272,371 F,0,111293,112043,0.3,0 M,0,112047,,367.475,236.6794 F,0,112047,112797,0.3,0 M,0,112801,,513.4712,166.2554 F,0,112801,113551,0.3,0 M,0,113555,,230.2526,141.6509 F,0,113555,114305,0.3,0 M,0,114309,,214.8623,247.9166 F,0,114309,115059,0.3,0
Sprite,Foreground,Centre,"sb\glow1.png",0,0 M,0,107458,,100.8474,206.3084 S,0,107458,,0.6 C,0,107458,,104,104,255 P,0,107458,,A F,0,107458,108208,0.3,0 M,0,108290,,329.096,142.9929 F,0,108290,109040,0.3,0 M,0,109044,,326.1886,320.9104 F,0,109044,109794,0.3,0 M,0,109798,,411,165 F,0,109798,110548,0.3,0 M,0,110552,,300.7794,90.56855 F,0,110552,111302,0.3,0 M,0,111306,,274.7405,365.9022 F,0,111306,112056,0.3,0 M,0,112060,,373.2241,237.3786 F,0,112060,112810,0.3,0 M,0,112814,,504.9281,157.1188 F,0,112814,113564,0.3,0 M,0,113568,,231.5831,147.282 F,0,113568,114318,0.3,0 M,0,114322,,220.4438,249.4314 F,0,114322,115072,0.3,0
Sprite,Foreground,Centre,"sb\glow1.png",0,0 M,0,107471,,117.2419,199.0304 S,0,107471,,0.6 C,0,107471,,104,104,255 P,0,107471,,A F,0,107471,108221,0.3,0 M,0,108303,,328.8973,148.7776 F,0,108303,109053,0.3,0 M,0,109057,,320.4629,321.7421 F,0,109057,109807,0.3,0 M,0,109967,,407.8884,165.0952 F,0,109967,110717,0.3,0 M,0,110721,,292.6061,87.51035 F,0,110721,111471,0.3,0 M,0,111475,,264.3604,298.8337 F,0,111475,112225,0.3,0 M,0,112229,,418.0785,282.4696 F,0,112229,112979,0.3,0 M,0,112983,,448.8214,109.1771 F,0,112983,113733,0.3,0 M,0,113737,,228.6871,124.5772 F,0,113737,114487,0.3,0 M,0,114491,,308.0025,237.4368 F,0,114491,115241,0.3,0
Sprite,Foreground,Centre,"sb\glow1.png",0,0 M,0,107484,,135.4116,191.1992 S,0,107484,,0.6 C,0,107484,,104,104,255 P,0,107484,,A F,0,107484,108234,0.3,0 M,0,108316,,328.7808,154.5656 F,0,108316,109066,0.3,0 M,0,109070,,314.7107,322.2595 F,0,109070,109820,0.3,0 M,0,109980,,402.1064,165.0115 F,0,109980,110730,0.3,0 M,0,110734,,287.1502,85.59751 F,0,110734,111484,0.3,0 M,0,111488,,243.0155,297.551 F,0,111488,112238,0.3,0 M,0,112242,,422.0273,286.7039 F,0,112242,112992,0.3,0 M,0,112996,,443.0682,109.8425 F,0,112996,113746,0.3,0 M,0,113750,,229.0942,118.812 F,0,113750,114500,0.3,0 M,0,114504,,317.4681,231.8961 F,0,114504,115254,0.3,0
Sprite,Foreground,Centre,"sb\glow1.png",0,0 M,0,107497,,152.0013,184.0489 S,0,107497,,0.6 C,0,107497,,104,104,255 P,0,107497,,A F,0,107497,108247,0.3,0 M,0,108329,,328.8165,160.3562 F,0,108329,109079,0.3,0 M,0,109083,,308.9438,322.6877 F,0,109083,109833,0.3,0 M,0,109993,,396.3721,165.6896 F,0,109993,110743,0.3,0 M,0,110747,,281.4821,84.48251 F,0,110747,111497,0.3,0 M,0,111501,,223.5777,296.3829 F,0,111501,112251,0.3,0 M,0,112255,,426.2541,290.6613 F,0,112255,113005,0.3,0 M,0,113009,,437.315,110.5078 F,0,113009,113759,0.3,0 M,0,113763,,229.9571,113.1123 F,0,113763,114513,0.3,0 M,0,114517,,325.9835,226.9116 F,0,114517,115267,0.3,0
Sprite,Foreground,Centre,"sb\glow1.png",0,0 M,0,107510,,167.0111,177.5796 S,0,107510,,0.6 C,0,107510,,104,104,255 P,0,107510,,A F,0,107510,108260,0.3,0 M,0,108342,,329.0857,166.1394 F,0,108342,109092,0.3,0 M,0,109096,,303.1602,322.515 F,0,109096,109846,0.3,0 M,0,110006,,390.6621,166.448 F,0,110006,110756,0.3,0 M,0,110760,,275.7748,83.7092 F,0,110760,111510,0.3,0 M,0,111514,,206.0469,295.3295 F,0,111514,112264,0.3,0 M,0,112268,,430.7,294.3711 F,0,112268,113018,0.3,0 M,0,113022,,431.5619,111.1731 F,0,113022,113772,0.3,0 M,0,113776,,231.0835,107.4645 F,0,113776,114526,0.3,0 M,0,114530,,333.5486,222.4834 F,0,114530,115280,0.3,0
Sprite,Foreground,Centre,"sb\glow1.png",0,0 M,0,107523,,180.4408,171.7913 S,0,107523,,0.6 C,0,107523,,104,104,255 P,0,107523,,A F,0,107523,108273,0.3,0 M,0,108355,,329.3854,171.92 F,0,108355,109105,0.3,0 M,0,109109,,297.3917,322.2988 F,0,109109,109859,0.3,0 M,0,110019,,384.9897,167.5485 F,0,110019,110769,0.3,0 M,0,110773,,270.042,82.99615 F,0,110773,111523,0.3,0 M,0,111527,,190.4233,294.3906 F,0,111527,112277,0.3,0 M,0,112281,,435.3368,297.8399 F,0,112281,113031,0.3,0 M,0,113035,,425.8087,111.8384 F,0,113035,113785,0.3,0 M,0,113789,,232.5439,101.8723 F,0,113789,114539,0.3,0 M,0,114543,,340.1636,218.6113 F,0,114543,115293,0.3,0
Sprite,Foreground,Centre,"sb\glow1.png",0,0 M,0,107536,,192.2906,166.684 S,0,107536,,0.6 C,0,107536,,104,104,255 P,0,107536,,A F,0,107536,108286,0.3,0 M,0,108368,,329.798,177.6956 F,0,108368,109118,0.3,0 M,0,109122,,291.6141,321.9146 F,0,109122,109872,0.3,0 M,0,110032,,379.5338,169.4613 F,0,110032,110782,0.3,0 M,0,110786,,264.2598,83.09971 F,0,110786,111536,0.3,0 M,0,111540,,176.7068,293.5663 F,0,111540,112290,0.3,0 M,0,112294,,440.2984,300.4509 F,0,112294,113044,0.3,0 M,0,113048,,420.0555,112.5038 F,0,113048,113798,0.3,0 M,0,113802,,225.4028,108.1037 F,0,113802,114552,0.3,0 M,0,114556,,345.8283,215.2954 F,0,114556,115306,0.3,0
Sprite,Foreground,Centre,"sb\glow1.png",0,0 M,0,107549,,202.5605,162.2576 S,0,107549,,0.6 C,0,107549,,104,104,255 P,0,107549,,A F,0,107549,108299,0.3,0 M,0,108381,,330.4857,183.4451 F,0,108381,109131,0.3,0 M,0,109135,,300.9865,326.3934 F,0,109135,109885,0.3,0 M,0,110045,,374.1335,171.4533 F,0,110045,110795,0.3,0 M,0,110799,,261,88.34753 F,0,110799,111549,0.3,0 M,0,111553,,164.8974,292.8567 F,0,111553,112303,0.3,0 M,0,112307,,448.2297,291.3534 F,0,112307,113057,0.3,0 M,0,113061,,414.3024,113.1691 F,0,113061,113811,0.3,0 M,0,113815,,214.7675,119.448 F,0,113815,114565,0.3,0 M,0,114569,,350.5428,212.5358 F,0,114569,115319,0.3,0
Sprite,Foreground,Centre,"sb\glow1.png",0,0 M,0,107562,,211.2503,158.5122 S,0,107562,,0.6 C,0,107562,,104,104,255 P,0,107562,,A F,0,107562,108312,0.3,0 M,0,108394,,331.1999,189.1887 F,0,108394,109144,0.3,0 M,0,109148,,320.712,334.3785 F,0,109148,109898,0.3,0 M,0,110058,,368.8484,173.7683 F,0,110058,110808,0.3,0 M,0,110812,,261,99.91649 F,0,110812,111562,0.3,0 M,0,111566,,154.9951,292.2617 F,0,111566,112316,0.3,0 M,0,112320,,455.5145,282.9974 F,0,112320,113070,0.3,0 M,0,113074,,408.5492,113.8344 F,0,113074,113824,0.3,0 M,0,113828,,205.0448,129.8189 F,0,113828,114578,0.3,0 M,0,114582,,354.3072,210.3323 F,0,114582,115332,0.3,0
Sprite,Foreground,Centre,"sb\glow1.png",0,0 M,0,107575,,218.3602,155.4478 S,0,107575,,0.6 C,0,107575,,104,104,255 P,0,107575,,A F,0,107575,108325,0.3,0 M,0,108407,,332.0262,194.9188 F,0,108407,109157,0.3,0 M,0,109161,,338.7449,341.6784 F,0,109161,109911,0.3,0 M,0,110071,,363.8589,176.684 F,0,110071,110821,0.3,0 M,0,110825,,261,110.512 F,0,110825,111575,0.3,0 M,0,111579,,146.9999,291.7812 F,0,111579,112329,0.3,0 M,0,112333,,462.1529,275.383 F,0,112333,113083,0.3,0 M,0,113087,,402.7961,114.4998 F,0,113087,113837,0.3,0 M,0,113841,,196.2347,139.2163 F,0,113841,114591,0.3,0 M,0,114595,,357.1212,208.6851 F,0,114595,115345,0.3,0
Sprite,Foreground,Centre,"sb\glow1.png",0,0 M,0,107588,,223.8901,153.0644 S,0,107588,,0.6 C,0,107588,,104,104,255 P,0,107588,,A F,0,107588,108338,0.3,0 M,0,108420,,333.0724,200.6137 F,0,108420,109170,0.3,0 M,0,109174,,355.0852,348.2931 F,0,109174,109924,0.3,0 M,0,110084,,359.0655,179.8764 F,0,110084,110834,0.3,0 M,0,110838,,261,120.1341 F,0,110838,111588,0.3,0 M,0,111592,,140.9118,291.4153 F,0,111592,112342,0.3,0 M,0,112346,,468.1448,268.5099 F,0,112346,113096,0.3,0 M,0,113100,,397.0429,115.1651 F,0,113100,113850,0.3,0 M,0,113854,,188.3372,147.6403 F,0,113854,114604,0.3,0 M,0,114608,,358.9851,207.5941 F,0,114608,115358,0.3,0
Sprite,Foreground,Centre,"sb\glow1.png",0,0 M,0,107601,,227.8401,151.362 S,0,107601,,0.6 C,0,107601,,104,104,255 P,0,107601,,A F,0,107601,108351,0.3,0 M,0,108433,,334.2153,206.2878 F,0,108433,109183,0.3,0 M,0,109187,,369.7329,354.2226 F,0,109187,109937,0.3,0 M,0,110097,,354.4228,183.2909 F,0,110097,110847,0.3,0 M,0,110851,,261,128.7827 F,0,110851,111601,0.3,0 M,0,111605,,136.7309,291.1641 F,0,111605,112355,0.3,0 M,0,112359,,473.4903,262.3784 F,0,112359,113109,0.3,0 M,0,113113,,391.2898,115.8304 F,0,113113,113863,0.3,0 M,0,113867,,181.3523,155.0909 F,0,113867,114617,0.3,0 M,0,114621,,359.8988,207.0592 F,0,114621,115371,0.3,0
Sprite,Foreground,Centre,"sb\glow1.png",0,0 M,0,107614,,230.21,150.3405 S,0,107614,,0.6 C,0,107614,,104,104,255 P,0,107614,,A F,0,107614,108364,0.3,0 M,0,108446,,335.4511,211.9428 F,0,108446,109196,0.3,0 M,0,109200,,382.6879,359.4669 F,0,109200,109950,0.3,0 M,0,110110,,349.9941,187.0171 F,0,110110,110860,0.3,0 M,0,110864,,261,136.4579 F,0,110864,111614,0.3,0 M,0,111618,,134.457,291.0275 F,0,111618,112368,0.3,0 M,0,112372,,478.1894,256.9884 F,0,112372,113122,0.3,0 M,0,113126,,385.5366,116.4958 F,0,113126,113876,0.3,0 M,0,113880,,175.28,161.568 F,0,113880,114630,0.3,0 M,0,114634,,360,207 F,0,114634,115384,0.3,0
Sprite,Foreground,Centre,"sb\glow1.png",0,0 M,0,107627,,231,150 S,0,107627,,0.6 C,0,107627,,104,104,255 P,0,107627,,A F,0,107627,108377,0.3,0 M,0,108459,,336.8344,217.5651 F,0,108459,109209,0.3,0 M,0,109213,,393.9504,364.026 F,0,109213,109963,0.3,0 M,0,110123,,345.9624,191.0147 F,0,110123,110873,0.3,0 M,0,110877,,261,143.1597 F,0,110877,111627,0.3,0 M,0,111631,,135.5795,291.8223 F,0,111631,112381,0.3,0 M,0,112385,,482.242,252.3398 F,0,112385,113135,0.3,0 M,0,113139,,379.7834,117.1611 F,0,113139,113889,0.3,0 M,0,113893,,170.1203,167.0717 F,0,113893,114643,0.3,0
Sprite,Foreground,Centre,"sb\glow1.png",0,0 M,0,107640,,236.2888,147.6532 S,0,107640,,0.6 C,0,107640,,104,104,255 P,0,107640,,A F,0,107640,108390,0.3,0 M,0,108472,,348.1818,221.0975 F,0,108472,109222,0.3,0 M,0,109226,,403.5202,367.9 F,0,109226,109976,0.3,0 M,0,110136,,347.6505,189.2863 F,0,110136,110886,0.3,0 M,0,110890,,261,148.888 F,0,110890,111640,0.3,0 M,0,111644,,140.689,294.5394 F,0,111644,112394,0.3,0 M,0,112398,,485.6483,248.4328 F,0,112398,113148,0.3,0 M,0,113152,,374.0303,117.8264 F,0,113152,113902,0.3,0 M,0,113906,,165.8732,171.6019 F,0,113906,114656,0.3,0
Sprite,Foreground,Centre,"sb\glow1.png",0,0 M,0,107653,,241.5254,145.2081 S,0,107653,,0.6 C,0,107653,,104,104,255 P,0,107653,,A F,0,107653,108403,0.3,0 M,0,108485,,359.7235,224.1353 F,0,108485,109235,0.3,0 M,0,109239,,411.3974,371.0887 F,0,109239,109989,0.3,0 M,0,110149,,352.0278,185.5045 F,0,110149,110899,0.3,0 M,0,110903,,261,153.6429 F,0,110903,111653,0.3,0 M,0,111657,,145.8707,297.0963 F,0,111657,112407,0.3,0 M,0,112411,,488.408,245.2672 F,0,112411,113161,0.3,0 M,0,113165,,368.2772,118.4918 F,0,113165,113915,0.3,0 M,0,113919,,162.5387,175.1587 F,0,113919,114669,0.3,0
Sprite,Foreground,Centre,"sb\glow1.png",0,0 M,0,107666,,246.9335,143.1522 S,0,107666,,0.6 C,0,107666,,104,104,255 P,0,107666,,A F,0,107666,108416,0.3,0 M,0,108498,,370.2549,226.9071 F,0,108498,109248,0.3,0 M,0,109252,,417.582,373.5923 F,0,109252,110002,0.3,0 M,0,110162,,356.2735,181.5804 F,0,110162,110912,0.3,0 M,0,110916,,261,157.4243 F,0,110916,111666,0.3,0 M,0,111670,,151.1299,299.4985 F,0,111670,112420,0.3,0 M,0,112424,,490.5214,242.8431 F,0,112424,113174,0.3,0 M,0,113178,,362.524,119.1571 F,0,113178,113928,0.3,0 M,0,113932,,160.1168,177.7421 F,0,113932,114682,0.3,0
Sprite,Foreground,Centre,"sb\glow1.png",0,0 M,0,107679,,252.4429,141.4178 S,0,107679,,0.6 C,0,107679,,104,104,255 P,0,107679,,A F,0,107679,108429,0.3,0 M,0,108511,,379.7758,229.413 F,0,108511,109261,0.3,0 M,0,109265,,422.0739,375.4107 F,0,109265,110015,0.3,0 M,0,110175,,361.081,178.3636 F,0,110175,110925,0.3,0 M,0,110929,,261,160.2323 F,0,110929,111679,0.3,0 M,0,111683,,156.5155,301.6178 F,0,111683,112433,0.3,0 M,0,112437,,491.9883,241.1605 F,0,112437,113187,0.3,0 M,0,113191,,356.7708,119.8224 F,0,113191,113941,0.3,0 M,0,113945,,158.6075,179.352 F,0,113945,114695,0.3,0
Sprite,Foreground,Centre,"sb\glow1.png",0,0 M,0,107692,,257.9838,139.7746 S,0,107692,,0.6 C,0,107692,,104,104,255 P,0,107692,,A F,0,107692,108442,0.3,0 M,0,108524,,388.2864,231.653 F,0,108524,109274,0.3,0 M,0,109278,,424.8733,376.5439 F,0,109278,110028,0.3,0 M,0,110188,,366.0539,175.4496 F,0,110188,110938,0.3,0 M,0,110942,,261,162.0669 F,0,110942,111692,0.3,0 M,0,111696,,162.0417,303.3221 F,0,111696,112446,0.3,0 M,0,112450,,492.8087,240.2194 F,0,112450,113200,0.3,0 M,0,113204,,351.0177,120.4877 F,0,113204,113954,0.3,0 M,0,113958,,158.0108,179.9885 F,0,113958,114708,0.3,0
Sprite,Foreground,Centre,"sb\glow1.png",0,0 M,0,107705,,263.6615,138.6597 S,0,107705,,0.6 C,0,107705,,104,104,255 P,0,107705,,A F,0,107705,108455,0.3,0 M,0,108537,,395.7866,233.627 F,0,108537,109287,0.3,0 M,0,109291,,425.98,376.9919 F,0,109291,110041,0.3,0 M,0,110201,,371.0773,172.6115 F,0,110201,110951,0.3,0 M,0,110955,,261,162.928 F,0,110955,111705,0.3,0 M,0,111709,,167.5863,304.9515 F,0,111709,112459,0.3,0 M,0,112463,,493,240 F,0,112463,113213,0.3,0 M,0,113217,,345.2645,121.1531 F,0,113217,113967,0.3,0 M,0,113971,,153.28,178.6901 F,0,113971,114721,0.3,0
Sprite,Foreground,Centre,"sb\glow1.png",0,0 M,0,107718,,269.3428,137.6452 S,0,107718,,0.6 C,0,107718,,104,104,255 P,0,107718,,A F,0,107718,108468,0.3,0 M,0,108550,,402.2764,235.3351 F,0,108550,109300,0.3,0 M,0,109304,,426.8542,372.1746 F,0,109304,110054,0.3,0 M,0,110214,,376.4142,170.3811 F,0,110214,110964,0.3,0 M,0,110968,,259.2663,166.1102 F,0,110968,111718,0.3,0 M,0,111722,,173.1968,306.367 F,0,111722,112472,0.3,0 M,0,112632,,493.2314,237.7867 F,0,112632,113382,0.3,0 M,0,113386,,248.5737,104.9284 F,0,113386,114136,0.3,0 M,0,114140,,103.6898,184.169 F,0,114140,114890,0.3,0
Sprite,Foreground,Centre,"sb\glow1.png",0,0 M,0,107731,,275.0661,136.84 S,0,107731,,0.6 C,0,107731,,104,104,255 P,0,107731,,A F,0,107731,108481,0.3,0 M,0,108563,,407.7558,236.7773 F,0,108563,109313,0.3,0 M,0,109317,,427.8489,366.4693 F,0,109317,110067,0.3,0 M,0,110227,,381.912,168.6275 F,0,110227,110977,0.3,0 M,0,110981,,256.2503,171.05 F,0,110981,111731,0.3,0 M,0,111735,,178.9158,307.2538 F,0,111735,112485,0.3,0 M,0,112645,,493.7142,232.0206 F,0,112645,113395,0.3,0 M,0,113399,,243.5825,103.3489 F,0,113399,114149,0.3,0 M,0,114153,,120.6627,194.2298 F,0,114153,114903,0.3,0
Sprite,Foreground,Centre,"sb\glow1.png",0,0 M,0,107744,,280.84,136.4687 S,0,107744,,0.6 C,0,107744,,104,104,255 P,0,107744,,A F,0,107744,108494,0.3,0 M,0,108576,,412.2248,237.9536 F,0,108576,109326,0.3,0 M,0,109330,,428.9054,360.7751 F,0,109330,110080,0.3,0 M,0,110240,,387.4732,167.1305 F,0,110240,110990,0.3,0 M,0,110994,,253.8163,176.2993 F,0,110994,111744,0.3,0 M,0,111748,,184.6338,308.0783 F,0,111748,112498,0.3,0 M,0,112827,,497.1132,148.7611 F,0,112827,113577,0.3,0 M,0,113581,,233.5912,152.6905 F,0,113581,114331,0.3,0 M,0,114335,,226.067,250.8 F,0,114335,115085,0.3,0
Sprite,Foreground,Centre,"sb\glow1.png",0,0 M,0,107757,,286.6154,136.4186 S,0,107757,,0.6 C,0,107757,,104,104,255 P,0,107757,,A F,0,107757,108507,0.3,0 M,0,108589,,415.6834,238.8639 F,0,108589,109339,0.3,0 M,0,109343,,429.9785,355.0841 F,0,109343,110093,0.3,0 M,0,110253,,393.128,165.9721 F,0,110253,111003,0.3,0 M,0,111007,,251.4009,181.544 F,0,111007,111757,0.3,0 M,0,111761,,190.3846,308.6816 F,0,111761,112511,0.3,0 M,0,112840,,490.0266,141.1822 F,0,112840,113590,0.3,0 M,0,113594,,235.6794,158.0626 F,0,113594,114344,0.3,0 M,0,114348,,231.755,251.8799 F,0,114348,115098,0.3,0
Sprite,Foreground,Centre,"sb\glow1.png",0,0 M,0,107770,,292.395,136.4693 S,0,107770,,0.6 C,0,107770,,104,104,255 P,0,107770,,A F,0,107770,108520,0.3,0 M,0,108602,,418.1317,239.5083 F,0,108602,109352,0.3,0 M,0,109356,,431.0776,349.398 F,0,109356,110106,0.3,0 M,0,110266,,398.8701,165.3559 F,0,110266,111016,0.3,0 M,0,111020,,249.2057,186.8948 F,0,111020,111770,0.3,0 M,0,111774,,196.1694,308.861 F,0,111774,112524,0.3,0 M,0,112853,,483.6683,134.3821 F,0,112853,113603,0.3,0 M,0,113607,,238.1118,163.3099 F,0,113607,114357,0.3,0 M,0,114361,,237.4814,252.7003 F,0,114361,115111,0.3,0
Sprite,Foreground,Centre,"sb\glow1.png",0,0 M,0,107783,,298.1496,137.0724 S,0,107783,,0.6 C,0,107783,,104,104,255 P,0,107783,,A F,0,107783,108533,0.3,0 M,0,108615,,419.5695,239.8867 F,0,108615,109365,0.3,0 M,0,109369,,432.2209,343.7206 F,0,109369,110119,0.3,0 M,0,110279,,404.6286,165.1949 F,0,110279,111029,0.3,0 M,0,111033,,247.5735,192.4459 F,0,111033,111783,0.3,0 M,0,111787,,201.9547,309.0189 F,0,111787,112537,0.3,0 M,0,112866,,478.0383,128.3609 F,0,112866,113616,0.3,0 M,0,113620,,241.3334,168.1102 F,0,113620,114370,0.3,0 M,0,114374,,243.2173,253.4603 F,0,114374,115124,0.3,0
Sprite,Foreground,Centre,"sb\glow1.png",0,0 M,0,107796,,304.005,135.5909 S,0,107796,,0.6 C,0,107796,,104,104,255 P,0,107796,,A F,0,107796,108546,0.3,0 M,0,108628,,420.4068,240.1805 F,0,108628,109378,0.3,0 M,0,109382,,433.406,338.0518 F,0,109382,110132,0.3,0 M,0,110292,,410.4073,165.0181 F,0,110292,111042,0.3,0 M,0,111046,,246.0215,198.0059 F,0,111046,111796,0.3,0 M,0,111800,,213.3378,303.2479 F,0,111800,112550,0.3,0 M,0,112879,,473.1365,123.1186 F,0,112879,113629,0.3,0 M,0,113633,,241.416,168.2333 F,0,113633,114383,0.3,0 M,0,114387,,248.9785,254.0581 F,0,114387,115137,0.3,0
Sprite,Foreground,Centre,"sb\glow1.png",0,0 M,0,107809,,309.9421,125.909 S,0,107809,,0.6 C,0,107809,,104,104,255 P,0,107809,,A F,0,107809,108559,0.3,0 M,0,108641,,425.6956,242.5274 F,0,108641,109391,0.3,0 M,0,109395,,434.6118,332.3875 F,0,109395,110145,0.3,0 M,0,110305,,390.735,153.9218 F,0,110305,111055,0.3,0 M,0,111059,,244.7011,203.633 F,0,111059,111809,0.3,0 M,0,111813,,231.3694,292.1405 F,0,111813,112563,0.3,0 M,0,112892,,468.963,118.6552 F,0,112892,113642,0.3,0 M,0,113646,,238.1945,163.433 F,0,113646,114396,0.3,0 M,0,114400,,254.7666,254.1664 F,0,114400,115150,0.3,0
Sprite,Foreground,Centre,"sb\glow1.png",0,0 M,0,107822,,315.3892,117.0262 S,0,107822,,0.6 C,0,107822,,104,104,255 P,0,107822,,A F,0,107822,108572,0.3,0 M,0,108654,,430.9445,244.9416 F,0,108654,109404,0.3,0 M,0,109408,,435.8425,326.7283 F,0,109408,110158,0.3,0 M,0,110318,,369.8856,142.5241 F,0,110318,111068,0.3,0 M,0,111072,,243.8065,209.3488 F,0,111072,111822,0.3,0 M,0,111826,,247.8738,281.9737 F,0,111826,112576,0.3,0 M,0,112905,,465.5178,114.9706 F,0,112905,113655,0.3,0 M,0,113659,,235.7489,158.1936 F,0,113659,114409,0.3,0 M,0,114413,,260.5495,254.3093 F,0,114413,115163,0.3,0
Sprite,Foreground,Centre,"sb\glow1.png",0,0 M,0,107835,,320.3462,108.9426 S,0,107835,,0.6 C,0,107835,,104,104,255 P,0,107835,,A F,0,107835,108585,0.3,0 M,0,108667,,436.3366,247.0407 F,0,108667,109417,0.3,0 M,0,109421,,437.144,321.085 F,0,109421,110171,0.3,0 M,0,110331,,350.8614,132.1242 F,0,110331,111081,0.3,0 M,0,111085,,243.2566,215.0991 F,0,111085,111835,0.3,0 M,0,111839,,262.8512,272.7477 F,0,111839,112589,0.3,0 M,0,112918,,462.8008,112.0648 F,0,112918,113668,0.3,0 M,0,113672,,233.6467,152.8279 F,0,113672,114422,0.3,0 M,0,114426,,266.3362,254.184 F,0,114426,115176,0.3,0
Sprite,Foreground,Centre,"sb\glow1.png",0,0 M,0,107848,,324.8132,101.6581 S,0,107848,,0.6 C,0,107848,,104,104,255 P,0,107848,,A F,0,107848,108598,0.3,0 M,0,108680,,441.872,248.7002 F,0,108680,109430,0.3,0 M,0,109434,,438.4505,315.4431 F,0,109434,110184,0.3,0 M,0,110344,,333.6624,122.7221 F,0,110344,111094,0.3,0 M,0,111098,,242.843,220.8612 F,0,111098,111848,0.3,0 M,0,111852,,276.3014,264.4623 F,0,111852,112602,0.3,0 M,0,112931,,460.812,109.9379 F,0,112931,113681,0.3,0 M,0,113685,,231.6009,147.4309 F,0,113685,114435,0.3,0 M,0,114439,,272.1097,253.8199 F,0,114439,115189,0.3,0
Sprite,Foreground,Centre,"sb\glow1.png",0,0 M,0,107861,,328.7901,95.17274 S,0,107861,,0.6 C,0,107861,,104,104,255 P,0,107861,,A F,0,107861,108611,0.3,0 M,0,108693,,447.4206,250.3112 F,0,108693,109443,0.3,0 M,0,109447,,439.7846,309.8074 F,0,109447,110197,0.3,0 M,0,110357,,318.2886,114.3178 F,0,110357,111107,0.3,0 M,0,111111,,242.6416,226.6502 F,0,111111,111861,0.3,0 M,0,111865,,288.2246,257.1177 F,0,111865,112615,0.3,0 M,0,112944,,459.5516,108.5899 F,0,112944,113694,0.3,0 M,0,113698,,230.2935,141.7934 F,0,113698,114448,0.3,0 M,0,114452,,277.8873,253.4429 F,0,114452,115202,0.3,0
Sprite,Foreground,Centre,"sb\glow1.png",0,0 M,0,107874,,332.2769,89.48655 S,0,107874,,0.6 C,0,107874,,104,104,255 P,0,107874,,A F,0,107874,108624,0.3,0 M,0,108706,,453.0922,251.4514 F,0,108706,109456,0.3,0 M,0,109460,,441.1815,304.187 F,0,109460,110210,0.3,0 M,0,110370,,304.74,106.9112 F,0,110370,111120,0.3,0 M,0,111124,,242.923,232.4334 F,0,111124,111874,0.3,0 M,0,111878,,298.6206,250.7137 F,0,111878,112628,0.3,0 M,0,112957,,459.0194,108.0207 F,0,112957,113707,0.3,0 M,0,113711,,229.4697,136.08 F,0,113711,114461,0.3,0 M,0,114465,,286.2207,250.1868 F,0,114465,115215,0.3,0
Sprite,Foreground,Centre,"sb\glow1.png",0,0 M,0,107887,,335.2738,84.59949 S,0,107887,,0.6 C,0,107887,,104,104,255 P,0,107887,,A F,0,107887,108637,0.3,0 M,0,108719,,458.7847,252.4078 F,0,108719,109469,0.3,0 M,0,109473,,442.5923,298.5703 F,0,109473,110223,0.3,0 M,0,110383,,293.0166,100.5024 F,0,110383,111133,0.3,0 M,0,111137,,246.4748,250.1588 F,0,111137,111887,0.3,0 M,0,111891,,307.4895,245.2504 F,0,111891,112641,0.3,0 M,0,112970,,454.5745,108.5118 F,0,112970,113720,0.3,0 M,0,113724,,228.8885,130.3495 F,0,113724,114474,0.3,0 M,0,114478,,297.5867,243.5337 F,0,114478,115228,0.3,0
Sprite,Foreground,Centre,"sb\glow1.png",0,0 M,0,107900,,337.7806,80.51157 S,0,107900,,0.6 C,0,107900,,104,104,255 P,0,107900,,A F,0,107900,108650,0.3,0 M,0,108732,,464.5107,253.1799 F,0,108732,109482,0.3,0 M,0,109486,,444.0294,292.96 F,0,109486,110236,0.3,0 M,0,110565,,305.8191,93.37318 F,0,110565,111315,0.3,0 M,0,111319,,277.5263,360.836 F,0,111319,112069,0.3,0 M,0,112073,,378.9732,238.0778 F,0,112073,112823,0.3,0 M,0,113230,,339.5114,121.8184 F,0,113230,113980,0.3,0 M,0,113984,,147.729,177.0551 F,0,113984,114734,0.3,0
Sprite,Foreground,Centre,"sb\glow1.png",0,0 M,0,107913,,339.7973,77.22279 S,0,107913,,0.6 C,0,107913,,104,104,255 P,0,107913,,A F,0,107913,108663,0.3,0 M,0,108745,,470.282,253.5978 F,0,108745,109495,0.3,0 M,0,109499,,445.512,287.3616 F,0,109499,110249,0.3,0 M,0,110578,,310.8004,96.2746 F,0,110578,111328,0.3,0 M,0,111332,,280.0033,355.6068 F,0,111332,112082,0.3,0 M,0,112086,,384.7224,238.7771 F,0,112086,112836,0.3,0 M,0,113243,,333.7582,122.4837 F,0,113243,113993,0.3,0 M,0,113997,,142.0827,175.7785 F,0,113997,114747,0.3,0
Sprite,Foreground,Centre,"sb\glow1.png",0,0 M,0,107926,,341.324,74.73316 S,0,107926,,0.6 C,0,107926,,104,104,255 P,0,107926,,A F,0,107926,108676,0.3,0 M,0,108758,,476.0603,253.5681 F,0,108758,109508,0.3,0 M,0,109512,,447.0345,281.774 F,0,109512,110262,0.3,0 M,0,110591,,315.6177,99.47973 F,0,110591,111341,0.3,0 M,0,111345,,282.2186,350.2672 F,0,111345,112095,0.3,0 M,0,112099,,390.4715,239.4763 F,0,112099,112849,0.3,0 M,0,113256,,328.005,123.1491 F,0,113256,114006,0.3,0 M,0,114010,,136.4218,174.5976 F,0,114010,114760,0.3,0
Sprite,Foreground,Centre,"sb\glow1.png",0,0 M,0,107939,,342.3606,73.04266 S,0,107939,,0.6 C,0,107939,,104,104,255 P,0,107939,,A F,0,107939,108689,0.3,0 M,0,108771,,481.8377,253.4843 F,0,108771,109521,0.3,0 M,0,109525,,448.5756,276.1916 F,0,109525,110275,0.3,0 M,0,110604,,319.8634,103.4039 F,0,110604,111354,0.3,0 M,0,111358,,284.3061,344.8775 F,0,111358,112108,0.3,0 M,0,112112,,396.2207,240.1755 F,0,112112,112862,0.3,0 M,0,113269,,322.2519,123.8144 F,0,113269,114019,0.3,0 M,0,114023,,130.7292,173.5652 F,0,114023,114773,0.3,0
Sprite,Foreground,Centre,"sb\glow1.png",0,0 M,0,107952,,342.9072,72.15131 S,0,107952,,0.6 C,0,107952,,104,104,255 P,0,107952,,A F,0,107952,108702,0.3,0 M,0,108784,,487.5959,252.9158 F,0,108784,109534,0.3,0 M,0,109538,,450.1425,270.6161 F,0,109538,110288,0.3,0 M,0,110617,,324.2458,107.1801 F,0,110617,111367,0.3,0 M,0,111371,,286.1971,339.4083 F,0,111371,112121,0.3,0 M,0,112125,,401.9698,240.8747 F,0,112125,112875,0.3,0 M,0,113282,,316.4987,124.4797 F,0,113282,114032,0.3,0 M,0,114036,,124.9921,172.7956 F,0,114036,114786,0.3,0
Sprite,Foreground,Centre,"sb\glow1.png",0,0 M,0,107965,,343,72 S,0,107965,,0.6 C,0,107965,,104,104,255 P,0,107965,,A F,0,107965,108715,0.3,0 M,0,108797,,486.7248,254.8119 F,0,108797,109547,0.3,0 M,0,109551,,451.7801,265.0611 F,0,109551,110301,0.3,0 M,0,110630,,326.1251,109.1043 F,0,110630,111380,0.3,0 M,0,111384,,287.7104,333.8213 F,0,111384,112134,0.3,0 M,0,112138,,402.9554,245.7518 F,0,112138,112888,0.3,0 M,0,113295,,310.4279,124.5025 F,0,113295,114045,0.3,0 M,0,114049,,119.23,172.2758 F,0,114049,114799,0.3,0
Sprite,Foreground,Centre,"sb\glow1.png",0,0 M,0,108810,,467.5828,263.0622 S,0,108810,,0.6 C,0,108810,,104,104,255 P,0,108810,,A F,0,108810,109560,0.3,0 M,0,109564,,453.4217,259.5073 F,0,109564,110314,0.3,0 M,0,110643,,322.1294,105.1019 F,0,110643,111393,0.3,0 M,0,111397,,288.9514,328.1754 F,0,111397,112147,0.3,0 M,0,112151,,403.4294,251.5203 F,0,112151,112901,0.3,0 M,0,113308,,298.7078,120.7936 F,0,113308,114058,0.3,0 M,0,114062,,113.4596,171.8753 F,0,114062,114812,0.3,0
Sprite,Foreground,Centre,"sb\glow1.png",0,0 M,0,108823,,450.0208,270.6315 S,0,108823,,0.6 C,0,108823,,104,104,255 P,0,108823,,A F,0,108823,109573,0.3,0 M,0,109577,,455.0904,253.9615 F,0,109577,110327,0.3,0 M,0,110656,,317.6861,101.3915 F,0,110656,111406,0.3,0 M,0,111410,,290.1059,322.5073 F,0,111410,112160,0.3,0 M,0,112164,,404.5042,257.2072 F,0,112164,112914,0.3,0 M,0,113321,,287.9489,117.3889 F,0,113321,114071,0.3,0 M,0,114075,,107.6759,171.6202 F,0,114075,114825,0.3,0
Sprite,Foreground,Centre,"sb\glow1.png",0,0 M,0,108836,,434.0388,277.5199 S,0,108836,,0.6 C,0,108836,,104,104,255 P,0,108836,,A F,0,108836,109586,0.3,0 M,0,109590,,456.8226,248.4353 F,0,109590,110340,0.3,0 M,0,110669,,313.0531,97.96534 F,0,110669,111419,0.3,0 M,0,111423,,290.7894,316.7601 F,0,111423,112173,0.3,0 M,0,112177,,406.1906,262.7438 F,0,112177,112927,0.3,0 M,0,113334,,278.1513,114.2884 F,0,113334,114084,0.3,0 M,0,114088,,101.8897,171.8036 F,0,114088,114838,0.3,0
Sprite,Foreground,Centre,"sb\glow1.png",0,0 M,0,108849,,419.6367,283.7273 S,0,108849,,0.6 C,0,108849,,104,104,255 P,0,108849,,A F,0,108849,109599,0.3,0 M,0,109603,,458.5662,242.9127 F,0,109603,110353,0.3,0 M,0,110682,,308.2754,94.74707 F,0,110682,111432,0.3,0 M,0,111436,,291.3839,311.0132 F,0,111436,112186,0.3,0 M,0,112190,,408.4419,268.0757 F,0,112190,112940,0.3,0 M,0,113347,,269.315,111.4921 F,0,113347,114097,0.3,0 M,0,114101,,96.10986,172.0037 F,0,114101,114851,0.3,0
Sprite,Foreground,Centre,"sb\glow1.png",0,0 M,0,108862,,406.8146,289.2537 S,0,108862,,0.6 C,0,108862,,104,104,255 P,0,108862,,A F,0,108862,109612,0.3,0 M,0,109616,,460.3362,237.3985 F,0,109616,110366,0.3,0 M,0,110695,,303.2786,91.84468 F,0,110695,111445,0.3,0 M,0,111449,,291.8707,305.2437 F,0,111449,112199,0.3,0 M,0,112203,,411.2221,273.1527 F,0,112203,112953,0.3,0 M,0,113360,,261.44,109 F,0,113360,114110,0.3,0 M,0,114114,,90.32716,172.3186 F,0,114114,114864,0.3,0
Sprite,Foreground,Centre,"sb\glow1.png",0,0 M,0,108875,,395.5724,294.0991 S,0,108875,,0.6 C,0,108875,,104,104,255 P,0,108875,,A F,0,108875,109625,0.3,0 M,0,109629,,460.1763,230.8706 F,0,109629,110379,0.3,0 M,0,110708,,298.0007,89.5163 F,0,110708,111458,0.3,0 M,0,111462,,287.6125,300.231 F,0,111462,112212,0.3,0 M,0,112216,,414.4521,277.9566 F,0,112216,112966,0.3,0 M,0,113373,,254.5262,106.8121 F,0,113373,114123,0.3,0 M,0,114127,,85.21082,173.2154 F,0,114127,114877,0.3,0
Sprite,Foreground,Centre,"sb\glow1.png",0,0 M,0,115972,,341,307 S,0,115972,,0.6 C,0,115972,,188,98,245 P,0,115972,,A F,0,115972,116722,0.3,0 M,0,116726,,309.4672,226.4015 F,0,116726,117476,0.3,0
Sprite,Foreground,Centre,"sb\glow1.png",0,0 M,0,116297,,341.5635,305.3094 S,0,116297,,0.6 C,0,116297,,174,174,255 P,0,116297,,A F,0,116297,117047,0.3,0 M,0,117051,,348.6599,167.0204 F,0,117051,117801,0.3,0
Sprite,Foreground,Centre,"sb\glow1.png",0,0 M,0,116310,,343.395,299.8152 S,0,116310,,0.6 C,0,116310,,174,174,255 P,0,116310,,A F,0,116310,117060,0.3,0 M,0,117064,,346.8284,172.5147 F,0,117064,117814,0.3,0
Sprite,Foreground,Centre,"sb\glow1.png",0,0 M,0,116323,,345.2264,294.3208 S,0,116323,,0.6 C,0,116323,,174,174,255 P,0,116323,,A F,0,116323,117073,0.3,0 M,0,117077,,344.997,178.009 F,0,117077,117827,0.3,0
Sprite,Foreground,Centre,"sb\glow1.png",0,0 M,0,116336,,347.0578,288.8266 S,0,116336,,0.6 C,0,116336,,174,174,255 P,0,116336,,A F,0,116336,117086,0.3,0 M,0,117090,,343.1656,183.5033 F,0,117090,117840,0.3,0
Sprite,Foreground,Centre,"sb\glow1.png",0,0 M,0,116349,,348.8893,283.3322 S,0,116349,,0.6 C,0,116349,,174,174,255 P,0,116349,,A F,0,116349,117099,0.3,0 M,0,117103,,341.3341,188.9976 F,0,117103,117853,0.3,0
Sprite,Foreground,Centre,"sb\glow1.png",0,0 M,0,116362,,350.7207,277.838 S,0,116362,,0.6 C,0,116362,,174,174,255 P,0,116362,,A F,0,116362,117112,0.3,0 M,0,117116,,339.5027,194.4919 F,0,117116,117866,0.3,0
Sprite,Foreground,Centre,"sb\glow1.png",0,0 M,0,116375,,352.5521,272.3437 S,0,116375,,0.6 C,0,116375,,174,174,255 P,0,116375,,A F,0,116375,117125,0.3,0 M,0,117129,,338.3287,198.0138 F,0,117129,117879,0.3,0
Sprite,Foreground,Centre,"sb\glow1.png",0,0 M,0,116388,,351.0964,276.7109 S,0,116388,,0.6 C,0,116388,,174,174,255 P,0,116388,,A F,0,116388,117138,0.3,0 M,0,117142,,340.1602,192.5195 F,0,117142,117892,0.3,0
Sprite,Foreground,Centre,"sb\glow1.png",0,0 M,0,116401,,349.2649,282.2052 S,0,116401,,0.6 C,0,116401,,174,174,255 P,0,116401,,A F,0,116401,117151,0.3,0 M,0,117155,,341.9916,187.0252 F,0,117155,117905,0.3,0
Sprite,Foreground,Centre,"sb\glow1.png",0,0 M,0,116414,,347.4335,287.6995 S,0,116414,,0.6 C,0,116414,,174,174,255 P,0,116414,,A F,0,116414,117164,0.3,0 M,0,117168,,343.823,181.5309 F,0,117168,117918,0.3,0
Sprite,Foreground,Centre,"sb\glow1.png",0,0 M,0,116427,,345.6021,293.1938 S,0,116427,,0.6 C,0,116427,,174,174,255 P,0,116427,,A F,0,116427,117177,0.3,0 M,0,117181,,345.6544,176.0367 F,0,117181,117931,0.3,0
Sprite,Foreground,Centre,"sb\glow1.png",0,0 M,0,116440,,343.7706,298.6881 S,0,116440,,0.6 C,0,116440,,174,174,255 P,0,116440,,A F,0,116440,117190,0.3,0 M,0,117194,,347.4859,170.5423 F,0,117194,117944,0.3,0
Sprite,Foreground,Centre,"sb\glow1.png",0,0 M,0,116453,,341.9392,304.1824 S,0,116453,,0.6 C,0,116453,,174,174,255 P,0,116453,,A F,0,116453,117203,0.3,0 M,0,117207,,349.3173,165.048 F,0,117207,117957,0.3,0
Sprite,Foreground,Centre,"sb\glow1.png",0,0 M,0,116466,,341.8922,304.3233 S,0,116466,,0.6 C,0,116466,,174,174,255 P,0,116466,,A F,0,116466,117216,0.3,0 M,0,117220,,347.0815,159.0745 F,0,117220,117970,0.3,0
Sprite,Foreground,Centre,"sb\glow1.png",0,0 M,0,116479,,343.7237,298.829 S,0,116479,,0.6 C,0,116479,,174,174,255 P,0,116479,,A F,0,116479,117229,0.3,0 M,0,117233,,344.135,153.8591 F,0,117233,117983,0.3,0
Sprite,Foreground,Centre,"sb\glow1.png",0,0 M,0,116492,,345.5551,293.3347 S,0,116492,,0.6 C,0,116492,,174,174,255 P,0,116492,,A F,0,116492,117242,0.3,0 M,0,117246,,341.7645,149.6633 F,0,117246,117996,0.3,0
Sprite,Foreground,Centre,"sb\glow1.png",0,0 M,0,116505,,347.3865,287.8404 S,0,116505,,0.6 C,0,116505,,174,174,255 P,0,116505,,A F,0,116505,117255,0.3,0 M,0,117259,,339.97,146.487 F,0,117259,118009,0.3,0
Sprite,Foreground,Centre,"sb\glow1.png",0,0 M,0,116518,,349.218,282.3461 S,0,116518,,0.6 C,0,116518,,174,174,255 P,0,116518,,A F,0,116518,117268,0.3,0 M,0,117272,,338.7515,144.3302 F,0,117272,118022,0.3,0
Sprite,Foreground,Centre,"sb\glow1.png",0,0 M,0,116531,,351.0494,276.8518 S,0,116531,,0.6 C,0,116531,,174,174,255 P,0,116531,,A F,0,116531,117281,0.3,0 M,0,117285,,338.1091,143.1931 F,0,117285,118035,0.3,0
Sprite,Foreground,Centre,"sb\glow1.png",0,0 M,0,116544,,351.9414,271.383 S,0,116544,,0.6 C,0,116544,,174,174,255 P,0,116544,,A F,0,116544,117294,0.3,0 M,0,117298,,337.0215,143.1507 F,0,117298,118048,0.3,0
Sprite,Foreground,Centre,"sb\glow1.png",0,0 M,0,116557,,342.4305,266.6529 S,0,116557,,0.6 C,0,116557,,174,174,255 P,0,116557,,A F,0,116557,117307,0.3,0
Sprite,Foreground,Centre,"sb\glow1.png",0,0 M,0,116570,,334.5359,262.7266 S,0,116570,,0.6 C,0,116570,,174,174,255 P,0,116570,,A F,0,116570,117320,0.3,0
Sprite,Foreground,Centre,"sb\glow1.png",0,0 M,0,116583,,328.2574,259.6041 S,0,116583,,0.6 C,0,116583,,174,174,255 P,0,116583,,A F,0,116583,117333,0.3,0
Sprite,Foreground,Centre,"sb\glow1.png",0,0 M,0,116596,,323.5952,257.2854 S,0,116596,,0.6 C,0,116596,,174,174,255 P,0,116596,,A F,0,116596,117346,0.3,0
Sprite,Foreground,Centre,"sb\glow1.png",0,0 M,0,116609,,320.5493,255.7705 S,0,116609,,0.6 C,0,116609,,174,174,255 P,0,116609,,A F,0,116609,117359,0.3,0
Sprite,Foreground,Centre,"sb\glow1.png",0,0 M,0,116622,,319.1195,255.0594 S,0,116622,,0.6 C,0,116622,,174,174,255 P,0,116622,,A F,0,116622,117372,0.3,0
Sprite,Foreground,Centre,"sb\glow1.png",0,0 M,0,116635,,317.873,251.6189 S,0,116635,,0.6 C,0,116635,,174,174,255 P,0,116635,,A F,0,116635,117385,0.3,0
Sprite,Foreground,Centre,"sb\glow1.png",0,0 M,0,116648,,316.0415,246.1246 S,0,116648,,0.6 C,0,116648,,174,174,255 P,0,116648,,A F,0,116648,117398,0.3,0
Sprite,Foreground,Centre,"sb\glow1.png",0,0 M,0,116661,,314.2101,240.6303 S,0,116661,,0.6 C,0,116661,,174,174,255 P,0,116661,,A F,0,116661,117411,0.3,0
Sprite,Foreground,Centre,"sb\glow1.png",0,0 M,0,116674,,312.3787,235.136 S,0,116674,,0.6 C,0,116674,,174,174,255 P,0,116674,,A F,0,116674,117424,0.3,0
Sprite,Foreground,Centre,"sb\glow1.png",0,0 M,0,116687,,310.5472,229.6417 S,0,116687,,0.6 C,0,116687,,174,174,255 P,0,116687,,A F,0,116687,117437,0.3,0
Sprite,Foreground,Centre,"sb\glow1.png",0,0 M,0,116700,,308.7158,224.1474 S,0,116700,,0.6 C,0,116700,,174,174,255 P,0,116700,,A F,0,116700,117450,0.3,0
Sprite,Foreground,Centre,"sb\glow1.png",0,0 M,0,116713,,307.6357,220.9072 S,0,116713,,0.6 C,0,116713,,174,174,255 P,0,116713,,A F,0,116713,117463,0.3,0
Sprite,Foreground,Centre,"sb\glow1.png",0,0 M,0,116739,,311.2986,231.8958 S,0,116739,,0.6 C,0,116739,,174,174,255 P,0,116739,,A F,0,116739,117489,0.3,0
Sprite,Foreground,Centre,"sb\glow1.png",0,0 M,0,116752,,313.13,237.3901 S,0,116752,,0.6 C,0,116752,,174,174,255 P,0,116752,,A F,0,116752,117502,0.3,0
Sprite,Foreground,Centre,"sb\glow1.png",0,0 M,0,116765,,314.9615,242.8844 S,0,116765,,0.6 C,0,116765,,174,174,255 P,0,116765,,A F,0,116765,117515,0.3,0
Sprite,Foreground,Centre,"sb\glow1.png",0,0 M,0,116778,,316.7929,248.3787 S,0,116778,,0.6 C,0,116778,,174,174,255 P,0,116778,,A F,0,116778,117528,0.3,0
Sprite,Foreground,Centre,"sb\glow1.png",0,0 M,0,116791,,318.6243,253.873 S,0,116791,,0.6 C,0,116791,,174,174,255 P,0,116791,,A F,0,116791,117541,0.3,0
Sprite,Foreground,Centre,"sb\glow1.png",0,0 M,0,116804,,317.5443,250.6327 S,0,116804,,0.6 C,0,116804,,174,174,255 P,0,116804,,A F,0,116804,117554,0.3,0
Sprite,Foreground,Centre,"sb\glow1.png",0,0 M,0,116817,,315.7128,245.1384 S,0,116817,,0.6 C,0,116817,,174,174,255 P,0,116817,,A F,0,116817,117567,0.3,0
Sprite,Foreground,Centre,"sb\glow1.png",0,0 M,0,116830,,313.8814,239.6441 S,0,116830,,0.6 C,0,116830,,174,174,255 P,0,116830,,A F,0,116830,117580,0.3,0
Sprite,Foreground,Centre,"sb\glow1.png",0,0 M,0,116843,,312.05,234.1498 S,0,116843,,0.6 C,0,116843,,174,174,255 P,0,116843,,A F,0,116843,117593,0.3,0
Sprite,Foreground,Centre,"sb\glow1.png",0,0 M,0,116856,,310.2185,228.6555 S,0,116856,,0.6 C,0,116856,,174,174,255 P,0,116856,,A F,0,116856,117606,0.3,0
Sprite,Foreground,Centre,"sb\glow1.png",0,0 M,0,116869,,308.3871,223.1612 S,0,116869,,0.6 C,0,116869,,174,174,255 P,0,116869,,A F,0,116869,117619,0.3,0
Sprite,Foreground,Centre,"sb\glow1.png",0,0 M,0,116882,,310.8521,217.3519 S,0,116882,,0.6 C,0,116882,,174,174,255 P,0,116882,,A F,0,116882,117632,0.3,0
Sprite,Foreground,Centre,"sb\glow1.png",0,0 M,0,116895,,319.1473,211.7444 S,0,116895,,0.6 C,0,116895,,174,174,255 P,0,116895,,A F,0,116895,117645,0.3,0
Sprite,Foreground,Centre,"sb\glow1.png",0,0 M,0,116908,,325.9343,207.1564 S,0,116908,,0.6 C,0,116908,,174,174,255 P,0,116908,,A F,0,116908,117658,0.3,0
Sprite,Foreground,Centre,"sb\glow1.png",0,0 M,0,116921,,331.213,203.588 S,0,116921,,0.6 C,0,116921,,174,174,255 P,0,116921,,A F,0,116921,117671,0.3,0
Sprite,Foreground,Centre,"sb\glow1.png",0,0 M,0,116934,,334.9836,201.0391 S,0,116934,,0.6 C,0,116934,,174,174,255 P,0,116934,,A F,0,116934,117684,0.3,0
Sprite,Foreground,Centre,"sb\glow1.png",0,0 M,0,116947,,337.2459,199.5098 S,0,116947,,0.6 C,0,116947,,174,174,255 P,0,116947,,A F,0,116947,117697,0.3,0
Sprite,Foreground,Centre,"sb\glow1.png",0,0 M,0,116960,,338,199 S,0,116960,,0.6 C,0,116960,,174,174,255 P,0,116960,,A F,0,116960,117710,0.3,0
Sprite,Foreground,Centre,"sb\glow1.png",0,0 M,0,116973,,339.8314,193.5057 S,0,116973,,0.6 C,0,116973,,174,174,255 P,0,116973,,A F,0,116973,117723,0.3,0
Sprite,Foreground,Centre,"sb\glow1.png",0,0 M,0,116986,,341.6629,188.0114 S,0,116986,,0.6 C,0,116986,,174,174,255 P,0,116986,,A F,0,116986,117736,0.3,0
Sprite,Foreground,Centre,"sb\glow1.png",0,0 M,0,116999,,343.4943,182.5171 S,0,116999,,0.6 C,0,116999,,174,174,255 P,0,116999,,A F,0,116999,117749,0.3,0
Sprite,Foreground,Centre,"sb\glow1.png",0,0 M,0,117012,,345.3257,177.0228 S,0,117012,,0.6 C,0,117012,,174,174,255 P,0,117012,,A F,0,117012,117762,0.3,0
Sprite,Foreground,Centre,"sb\glow1.png",0,0 M,0,117025,,347.1572,171.5285 S,0,117025,,0.6 C,0,117025,,174,174,255 P,0,117025,,A F,0,117025,117775,0.3,0
Sprite,Foreground,Centre,"sb\glow1.png",0,0 M,0,117038,,348.9886,166.0342 S,0,117038,,0.6 C,0,117038,,174,174,255 P,0,117038,,A F,0,117038,117788,0.3,0
Sprite,Foreground,Centre,"sb\glow1.png",0,0 C,0,48293,,104,104,255 M,0,48293,48334,236,168,237.7093,149.6216 F,2,48293,48659,1,0 S,2,48293,48659,1.5,0.3 P,0,48293,48659,A M,0,48334,48376,237.7093,149.6216,244.2777,132.4176 M,0,48376,48417,244.2777,132.4176,255.2132,117.6317 M,0,48417,48459,255.2132,117.6317,269.5404,106.0649
Sprite,Foreground,Centre,"sb\glow1.png",0,0 C,0,48627,,104,104,255 M,0,48627,48668,253,257,243.7197,272.9465 F,2,48627,48993,1,0 S,2,48627,48993,1.5,0.3 P,0,48627,48993,A M,0,48668,48710,243.7197,272.9465,230.008,285.2333 M,0,48710,48751,230.008,285.2333,213.2086,292.6847 M,0,48751,48793,213.2086,292.6847,194.9585,294.5941
Sprite,Foreground,Centre,"sb\glow1.png",129,356 C,0,48960,,104,104,255 F,2,48960,49160,1,0 S,2,48960,49160,1.5,0.3 P,0,48960,49160,A
Sprite,Foreground,Centre,"sb\glow1.png",200.704,408.704 C,0,49127,,104,104,255 F,2,49127,49327,1,0 S,2,49127,49327,1.5,0.3 P,0,49127,49327,A
Sprite,Foreground,Centre,"sb\glow1.png",204.352,412.352 C,0,49210,,104,104,255 F,2,49210,49410,1,0 S,2,49210,49410,1.5,0.3 P,0,49210,49410,A
Sprite,Foreground,Centre,"sb\glow1.png",0,0 C,0,49293,,174,174,255 M,0,49293,49334,208,416,226.4631,414.0818 F,2,49293,49659,1,0 S,2,49293,49659,1.5,0.3 P,0,49293,49659,A M,0,49334,49376,226.4631,414.0818,244.9262,412.1635 M,0,49376,49417,244.9262,412.1635,263.3893,410.2453 M,0,49417,49459,263.3893,410.2453,281.8525,408.327
Sprite,Foreground,Centre,"sb\glow1.png",369,426 C,0,49627,,174,174,255 F,2,49627,49827,1,0 S,2,49627,49827,1.5,0.3 P,0,49627,49827,A
Sprite,Foreground,Centre,"sb\glow1.png",351,339 C,0,49793,,174,174,255 F,2,49793,49993,1,0 S,2,49793,49993,1.5,0.3 P,0,49793,49993,A
Sprite,Foreground,Centre,"sb\glow1.png",0,0 C,0,49960,,174,174,255 M,0,49960,50001,433,371,435.2625,352.5768 F,2,49960,50493,1,0 S,2,49960,50493,1.5,0.3 P,0,49960,50493,A M,0,50001,50043,435.2625,352.5768,437.9994,334.2184 M,0,50043,50084,437.9994,334.2184,441.2087,315.937 M,0,50084,50126,441.2087,315.937,444.8452,297.7352 M,0,50126,50168,444.8452,297.7352,441.2087,315.937 M,0,50168,50209,441.2087,315.937,437.9994,334.2184 M,0,50209,50251,437.9994,334.2184,435.2625,352.5768 M,0,50251,50293,435.2625,352.5768,433,371
Sprite,Foreground,Centre,"sb\glow1.png",377,265 C,0,50460,,174,174,255 F,2,50460,50660,1,0 S,2,50460,50660,1.5,0.3 P,0,50460,50660,A
Sprite,Foreground,Centre,"sb\glow1.png",383,247 C,0,50543,,174,174,255 F,2,50543,50743,1,0 S,2,50543,50743,1.5,0.3 P,0,50543,50743,A
Sprite,Foreground,Centre,"sb\glow1.png",0,0 C,0,50627,,184,184,184 M,0,50627,50668,387,228,381.8682,210.161 F,2,50627,50993,1,0 S,2,50627,50993,1.5,0.3 P,0,50627,50993,A M,0,50668,50710,381.8682,210.161,376.7365,192.3219 M,0,50710,50751,376.7365,192.3219,371.6047,174.4829 M,0,50751,50793,371.6047,174.4829,366.4729,156.6439
Sprite,Foreground,Centre,"sb\glow1.png",284.352,91.352 C,0,50960,,184,184,184 F,2,50960,51160,1,0 S,2,50960,51160,1.5,0.3 P,0,50960,51160,A
Sprite,Foreground,Centre,"sb\glow1.png",288,95 C,0,51127,,184,184,184 F,2,51127,51327,1,0 S,2,51127,51327,1.5,0.3 P,0,51127,51327,A
Sprite,Foreground,Centre,"sb\glow1.png",0,0 C,0,51293,,184,184,184 M,0,51293,51334,212,147,193.5334,148.5808 F,2,51293,51742,1,0 S,2,51293,51742,1.5,0.3 P,0,51293,51742,A M,0,51334,51376,193.5334,148.5808,176.1467,154.8182 M,0,51376,51417,176.1467,154.8182,162.0253,166.7443 M,0,51417,51459,162.0253,166.7443,149.2025,180.1407 M,0,51459,51501,149.2025,180.1407,132.9029,188.7097 M,0,51501,51542,132.9029,188.7097,114.5385,190.9962
Sprite,Foreground,Centre,"sb\glow1.png",0,0 C,0,51627,,184,184,184 M,0,51627,51668,80,191,88.83035,207.2916 F,2,51627,51993,1,0 S,2,51627,51993,1.5,0.3 P,0,51627,51993,A M,0,51668,51710,88.83035,207.2916,94.95711,224.7673 M,0,51710,51751,94.95711,224.7673,98.22858,242.9848 M,0,51751,51793,98.22858,242.9848,98.5646,261.4835
Sprite,Foreground,Centre,"sb\glow1.png",0,0 C,0,51960,,104,104,255 M,0,51960,52001,166,333,184.5483,333.6792 F,2,51960,52493,1,0 S,2,51960,52493,1.5,0.3 P,0,51960,52493,A M,0,52001,52043,184.5483,333.6792,203.1084,333.6838 M,0,52043,52084,203.1084,333.6838,221.6559,333.0138 M,0,52084,52126,221.6559,333.0138,240.1664,331.6702 M,0,52126,52168,240.1664,331.6702,258.6237,329.7173 M,0,52168,52209,258.6237,329.7173,276.9847,327.0034 M,0,52209,52251,276.9847,327.0034,295.2345,323.6241 M,0,52251,52293,295.2345,323.6241,313.3602,319.6298
Sprite,Foreground,Centre,"sb\glow1.png",0,0 C,0,52460,,104,104,255 M,0,52460,52501,392,375,404.6263,361.508 F,2,52460,52993,1,0 S,2,52460,52993,1.5,0.3 P,0,52460,52993,A M,0,52501,52543,404.6263,361.508,413.6222,345.4059 M,0,52543,52584,413.6222,345.4059,418.4767,327.6317 M,0,52584,52626,418.4767,327.6317,419.1775,309.2048 M,0,52626,52668,419.1775,309.2048,414.9186,291.2482 M,0,52668,52709,414.9186,291.2482,406.478,274.8644 M,0,52709,52751,406.478,274.8644,394.5924,260.741 M,0,52751,52793,394.5924,260.741,379.374,250.2267
Sprite,Foreground,Centre,"sb\glow1.png",0,0 C,0,52960,,104,104,255 M,0,52960,53001,312,190,325.8811,177.8512 F,2,52960,53409,1,0 S,2,52960,53409,1.5,0.3 P,0,52960,53409,A M,0,53001,53043,325.8811,177.8512,343.0418,171.0826 M,0,53043,53084,343.0418,171.0826,325.8811,177.8512 M,0,53084,53126,325.8811,177.8512,312,190 M,0,53126,53168,312,190,325.8811,177.8512 M,0,53168,53209,325.8811,177.8512,343.0418,171.0826
Sprite,Foreground,Centre,"sb\glow1.png",0,0 C,0,53293,,174,174,255 M,0,53293,53334,360,151,341.4736,149.8421 F,2,53293,53659,1,0 S,2,53293,53659,1.5,0.3 P,0,53293,53659,A M,0,53334,53376,341.4736,149.8421,322.9473,148.6842 M,0,53376,53417,322.9473,148.6842,304.421,147.5263 M,0,53417,53459,304.421,147.5263,285.8946,146.3684
Sprite,Foreground,Centre,"sb\glow1.png",0,0 C,0,53627,,174,174,255 M,0,53627,53668,214,92,210.4621,110.2222 F,2,53627,53993,1,0 S,2,53627,53993,1.5,0.3 P,0,53627,53993,A M,0,53668,53710,210.4621,110.2222,206.7807,128.4158 M,0,53710,53751,206.7807,128.4158,202.9563,146.58 M,0,53751,53793,202.9563,146.58,198.9889,164.7134
Sprite,Foreground,Centre,"sb\glow1.png",0,0 C,0,53960,,174,174,255 M,0,53960,54001,126,217,143.0905,209.976 F,2,53960,54493,1,0 S,2,53960,54493,1.5,0.3 P,0,53960,54493,A M,0,54001,54043,143.0905,209.976,161.3399,207.3086 M,0,54043,54084,161.3399,207.3086,179.6713,209.1434 M,0,54084,54126,179.6713,209.1434,197.1257,215.0993 M,0,54126,54168,197.1257,215.0993,212.3251,225.5688 M,0,54168,54209,212.3251,225.5688,224.5158,239.3909 M,0,54209,54251,224.5158,239.3909,233.3615,255.6023 M,0,54251,54293,233.3615,255.6023,237.5265,273.6268
Sprite,Foreground,Centre,"sb\glow1.png",324,294 C,0,54460,,174,174,255 F,2,54460,54660,1,0 S,2,54460,54660,1.5,0.3 P,0,54460,54660,A
Sprite,Foreground,Centre,"sb\glow1.png",338,291 C,0,54543,,174,174,255 F,2,54543,54743,1,0 S,2,54543,54743,1.5,0.3 P,0,54543,54743,A
Sprite,Foreground,Centre,"sb\glow1.png",0,0 C,0,54627,,184,184,184 M,0,54627,54668,352,288,370.2163,284.4319 F,2,54627,54993,1,0 S,2,54627,54993,1.5,0.3 P,0,54627,54993,A M,0,54668,54710,370.2163,284.4319,388.4327,280.8637 M,0,54710,54751,388.4327,280.8637,406.649,277.2956 M,0,54751,54793,406.649,277.2956,424.8653,273.7274
Sprite,Foreground,Centre,"sb\glow1.png",489,323 C,0,54960,,184,184,184 F,2,54960,55160,1,0 S,2,54960,55160,1.5,0.3 P,0,54960,55160,A
Sprite,Foreground,Centre,"sb\glow1.png",466,401 C,0,55127,,184,184,184 F,2,55127,55327,1,0 S,2,55127,55327,1.5,0.3 P,0,55127,55327,A
Sprite,Foreground,Centre,"sb\glow1.png",0,0 C,0,55293,,184,184,184 M,0,55293,55334,385,393,367.487,386.8468 F,2,55293,55659,1,0 S,2,55293,55659,1.5,0.3 P,0,55293,55659,A M,0,55334,55376,367.487,386.8468,349.974,380.6936 M,0,55376,55417,349.974,380.6936,331.7623,382.7574 M,0,55417,55459,331.7623,382.7574,313.4618,385.865
Sprite,Foreground,Centre,"sb\glow1.png",248,423 C,0,55627,,184,184,184 F,2,55627,55827,1,0 S,2,55627,55827,1.5,0.3 P,0,55627,55827,A
Sprite,Foreground,Centre,"sb\glow1.png",176,384 C,0,55793,,184,184,184 F,2,55793,55993,1,0 S,2,55793,55993,1.5,0.3 P,0,55793,55993,A
Sprite,Foreground,Centre,"sb\glow1.png",173,370 C,0,55876,,184,184,184 F,2,55876,56076,1,0 S,2,55876,56076,1.5,0.3 P,0,55876,56076,A
Sprite,Foreground,Centre,"sb\glow1.png",0,0 C,0,55960,,104,104,255 M,0,55960,56001,170,356,172.508,337.6077 F,2,55960,56326,1,0 S,2,55960,56326,1.5,0.3 P,0,55960,56326,A M,0,56001,56043,172.508,337.6077,175.0161,319.2154 M,0,56043,56084,175.0161,319.2154,168.4658,303.6047 M,0,56084,56126,168.4658,303.6047,156.0677,289.7897
Sprite,Foreground,Centre,"sb\glow1.png",0,0 C,0,56293,,104,104,255 M,0,56293,56334,278,216,259.798,219.6404 F,2,56293,56659,1,0 S,2,56293,56659,1.5,0.3 P,0,56293,56659,A M,0,56334,56376,259.798,219.6404,241.5959,223.2808 M,0,56376,56417,241.5959,223.2808,231.9504,237.6115 M,0,56417,56459,231.9504,237.6115,224.4115,254.5742
Sprite,Foreground,Centre,"sb\glow1.png",0,0 C,0,56627,,104,104,255 M,0,56627,56668,124,200,142.202,196.3596 F,2,56627,56993,1,0 S,2,56627,56993,1.5,0.3 P,0,56627,56993,A M,0,56668,56710,142.202,196.3596,160.4041,192.7192 M,0,56710,56751,160.4041,192.7192,170.0496,178.3885 M,0,56751,56793,170.0496,178.3885,177.5885,161.4258
Sprite,Foreground,Centre,"sb\glow1.png",210.352,86.352 C,0,56960,,104,104,255 F,2,56960,57160,1,0 S,2,56960,57160,1.5,0.3 P,0,56960,57160,A
Sprite,Foreground,Centre,"sb\glow1.png",214,90 C,0,57127,,104,104,255 F,2,57127,57327,1,0 S,2,57127,57327,1.5,0.3 P,0,57127,57327,A
Sprite,Foreground,Centre,"sb\glow1.png",0,0 C,0,57293,,174,174,255 M,0,57293,57334,284,130,301.4814,136.2363 F,2,57293,57826,1,0 S,2,57293,57826,1.5,0.3 P,0,57293,57826,A M,0,57334,57376,301.4814,136.2363,319.1902,141.7913 M,0,57376,57417,319.1902,141.7913,337.1002,146.6569 M,0,57417,57459,337.1002,146.6569,355.1847,150.8258 M,0,57459,57501,355.1847,150.8258,373.4091,154.3351 M,0,57501,57542,373.4091,154.3351,391.7679,157.0591 M,0,57542,57584,391.7679,157.0591,410.2177,159.0706 M,0,57584,57626,410.2177,159.0706,428.7312,160.3669
Sprite,Foreground,Centre,"sb\glow1.png",0,0 C,0,57793,,174,174,255 M,0,57793,57834,488,94,475.5255,107.6587 F,2,57793,58326,1,0 S,2,57793,58326,1.5,0.3 P,0,57793,58326,A M,0,57834,57876,475.5255,107.6587,466.3305,123.679 M,0,57876,57917,466.3305,123.679,460.8429,141.2977 M,0,57917,57959,460.8429,141.2977,459.3176,159.678 M,0,57959,58001,459.3176,159.678,461.5665,178.0012 M,0,58001,58042,461.5665,178.0012,468.1752,195.2561 M,0,58042,58084,468.1752,195.2561,478.3651,210.6452 M,0,58084,58126,478.3651,210.6452,491.6483,223.4429
Sprite,Foreground,Centre,"sb\glow1.png",0,0 C,0,58293,,174,174,255 M,0,58293,58334,547,284,529.8854,291.0677 F,2,58293,58742,1,0 S,2,58293,58742,1.5,0.3 P,0,58293,58742,A M,0,58334,58376,529.8854,291.0677,515,302 M,0,58376,58417,515,302,529.8855,291.0677 M,0,58417,58459,529.8855,291.0677,547,284 M,0,58459,58501,547,284,529.8854,291.0677 M,0,58501,58542,529.8854,291.0677,515,302
Sprite,Foreground,Centre,"sb\glow1.png",0,0 C,0,58627,,184,184,184 M,0,58627,58668,488,299,492.2893,317.0601 F,2,58627,58993,1,0 S,2,58627,58993,1.5,0.3 P,0,58627,58993,A M,0,58668,58710,492.2893,317.0601,496.5786,335.1203 M,0,58710,58751,496.5786,335.1203,500.8679,353.1804 M,0,58751,58793,500.8679,353.1804,505.1571,371.2405
Sprite,Foreground,Centre,"sb\glow1.png",366,424 C,0,58960,,184,184,184 F,2,58960,59160,1,0 S,2,58960,59160,1.5,0.3 P,0,58960,59160,A
Sprite,Foreground,Centre,"sb\glow1.png",420,353 C,0,59127,,184,184,184 F,2,59127,59327,1,0 S,2,59127,59327,1.5,0.3 P,0,59127,59327,A
Sprite,Foreground,Centre,"sb\glow1.png",0,0 C,0,59293,,184,184,184 M,0,59293,59334,352,295,349.9778,276.5595 F,2,59293,59659,1,0 S,2,59293,59659,1.5,0.3 P,0,59293,59659,A M,0,59334,59376,349.9778,276.5595,349.7432,258.0144 M,0,59376,59417,349.7432,258.0144,351.2975,239.5366 M,0,59417,59459,351.2975,239.5366,354.626,221.2974
Sprite,Foreground,Centre,"sb\glow1.png",420,159 C,0,59627,,184,184,184 F,2,59627,59827,1,0 S,2,59627,59827,1.5,0.3 P,0,59627,59827,A
Sprite,Foreground,Centre,"sb\glow1.png",358,98 C,0,59793,,184,184,184 F,2,59793,59993,1,0 S,2,59793,59993,1.5,0.3 P,0,59793,59993,A
Sprite,Foreground,Centre,"sb\glow1.png",339,102 C,0,59877,,184,184,184 F,2,59877,60077,1,0 S,2,59877,60077,1.5,0.3 P,0,59877,60077,A
Sprite,Foreground,Centre,"sb\glow1.png",0,0 C,0,59960,,104,104,255 M,0,59960,60001,321,106,302.9014,110.1237 F,2,59960,60326,1,0 S,2,59960,60326,1.5,0.3 P,0,59960,60326,A M,0,60001,60043,302.9014,110.1237,284.8027,114.2475 M,0,60043,60084,284.8027,114.2475,266.704,118.3712 M,0,60084,60126,266.704,118.3712,248.6054,122.495
Sprite,Foreground,Centre,"sb\glow1.png",177,176 C,0,60293,,104,104,255 F,2,60293,60493,1,0 S,2,60293,60493,1.5,0.3 P,0,60293,60493,A
Sprite,Foreground,Centre,"sb\glow1.png",175,86 C,0,60460,,104,104,255 F,2,60460,60660,1,0 S,2,60460,60660,1.5,0.3 P,0,60460,60660,A
Sprite,Foreground,Centre,"sb\glow1.png",0,0 C,0,60627,,104,104,255 M,0,60627,60668,95,157,97.04988,175.449 F,2,60627,60993,1,0 S,2,60627,60993,1.5,0.3 P,0,60627,60993,A M,0,60668,60710,97.04988,175.449,99.09977,193.8979 M,0,60710,60751,99.09977,193.8979,101.1497,212.3469 M,0,60751,60793,101.1497,212.3469,103.1995,230.7959
Sprite,Foreground,Centre,"sb\glow1.png",0,0 C,0,60960,,104,104,255 M,0,60960,61001,162,286,156.8223,303.8116 F,2,60960,61409,1,0 S,2,60960,61409,1.5,0.3 P,0,60960,61409,A M,0,61001,61043,156.8223,303.8116,154,322 M,0,61043,61084,154,322,156.8223,303.8116 M,0,61084,61126,156.8223,303.8116,162,286 M,0,61126,61168,162,286,156.8223,303.8116 M,0,61168,61209,156.8223,303.8116,154,322
Sprite,Foreground,Centre,"sb\glow1.png",0,0 C,0,61293,,174,174,255 M,0,61293,61334,179,338,196.8655,343.039 F,2,61293,61659,1,0 S,2,61293,61659,1.5,0.3 P,0,61293,61659,A M,0,61334,61376,196.8655,343.039,214.7309,348.078 M,0,61376,61417,214.7309,348.078,232.6881,345.2231 M,0,61417,61459,232.6881,345.2231,250.6657,340.6003
Sprite,Foreground,Centre,"sb\glow1.png",0,0 C,0,61627,,174,174,255 M,0,61627,61668,347,263,329.1345,257.961 F,2,61627,61993,1,0 S,2,61627,61993,1.5,0.3 P,0,61627,61993,A M,0,61668,61710,329.1345,257.961,311.269,252.922 M,0,61710,61751,311.269,252.922,293.312,255.7769 M,0,61751,61793,293.312,255.7769,275.3343,260.3997
Sprite,Foreground,Centre,"sb\glow1.png",0,0 C,0,61960,,174,174,255 M,0,61960,62001,411,315,422.0905,300.208 F,2,61960,62409,1,0 S,2,61960,62409,1.5,0.3 P,0,61960,62409,A M,0,62001,62043,422.0905,300.208,429.3846,283.2526 M,0,62043,62084,429.3846,283.2526,432.4874,265.0793 M,0,62084,62126,432.4874,265.0793,431.2338,246.6987 M,0,62126,62168,431.2338,246.6987,426.0183,228.9967 M,0,62168,62209,426.0183,228.9967,416.3148,213.2792
Sprite,Foreground,Centre,"sb\glow1.png",0,0 C,0,62293,,174,174,255 M,0,62293,62334,435,202,453.3587,204.7433 F,2,62293,62659,1,0 S,2,62293,62659,1.5,0.3 P,0,62293,62659,A M,0,62334,62376,453.3587,204.7433,471.7173,207.4865 M,0,62376,62417,471.7173,207.4865,490.076,210.2298 M,0,62417,62459,490.076,210.2298,508.4347,212.973
Sprite,Foreground,Centre,"sb\glow1.png",0,0 C,0,62627,,184,184,184 M,0,62627,62668,555,143,536.624,140.3749 F,2,62627,63160,1,0 S,2,62627,63160,1.5,0.3 P,0,62627,63160,A M,0,62668,62710,536.624,140.3749,518.2482,137.7497 M,0,62710,62751,518.2482,137.7497,499.8722,135.1246 M,0,62751,62793,499.8722,135.1246,481.4962,132.4995 M,0,62793,62835,481.4962,132.4995,463.1203,129.8743 M,0,62835,62876,463.1203,129.8743,444.7444,127.2492 M,0,62876,62918,444.7444,127.2492,426.3684,124.6241 M,0,62918,62960,426.3684,124.6241,407.9925,121.9989
Sprite,Foreground,Centre,"sb\glow1.png",0,0 C,0,63127,,184,184,184 M,0,63127,63168,346,58,330.0642,67.3352 F,2,63127,63660,1,0 S,2,63127,63660,1.5,0.3 P,0,63127,63660,A M,0,63168,63210,330.0642,67.3352,317.0616,80.39757 M,0,63210,63251,317.0616,80.39757,307.8315,96.32433 M,0,63251,63293,307.8315,96.32433,302.6492,114.0137 M,0,63293,63335,302.6492,114.0137,302.7353,132.4608 M,0,63335,63376,302.7353,132.4608,307.5144,150.247 M,0,63376,63418,307.5144,150.247,316.3013,166.4878 M,0,63418,63460,316.3013,166.4878,329.4516,179.4535
Sprite,Foreground,Centre,"sb\glow1.png",0,0 C,0,63627,,184,184,184 M,0,63627,63668,291,260,279.1666,246.0865 F,2,63627,64076,1,0 S,2,63627,64076,1.5,0.3 P,0,63627,64076,A M,0,63668,63710,279.1666,246.0865,272.0645,229.2603 M,0,63710,63751,272.0645,229.2603,279.1666,246.0866 M,0,63751,63793,279.1666,246.0866,291,260 M,0,63793,63835,291,260,279.1666,246.0865 M,0,63835,63876,279.1666,246.0865,272.0645,229.2603
Sprite,Foreground,Centre,"sb\glow1.png",0,0 C,0,63960,,104,104,255 M,0,63960,64001,246,213,230.0593,222.4407 F,2,63960,64326,1,0 S,2,63960,64326,1.5,0.3 P,0,63960,64326,A M,0,64001,64043,230.0593,222.4407,212.8301,229.2117 M,0,64043,64084,212.8301,229.2117,194.7501,233.1448 M,0,64084,64126,194.7501,233.1448,176.2725,234.4021
Sprite,Foreground,Centre,"sb\glow1.png",0,0 C,0,64293,,104,104,255 M,0,64293,64334,106,311,124.5283,311.3306 F,2,64293,64659,1,0 S,2,64293,64659,1.5,0.3 P,0,64293,64659,A M,0,64334,64376,124.5283,311.3306,142.7903,314.4031 M,0,64376,64417,142.7903,314.4031,160.3873,320.1478 M,0,64417,64459,160.3873,320.1478,177.0531,328.237
Sprite,Foreground,Centre,"sb\glow1.png",0,0 C,0,64627,,104,104,255 M,0,64627,64668,230,398,248.5214,396.7652 F,2,64627,65076,1,0 S,2,64627,65076,1.5,0.3 P,0,64627,65076,A M,0,64668,64710,248.5214,396.7652,267.0428,395.5305 M,0,64710,64751,267.0428,395.5305,285.5641,394.2957 M,0,64751,64793,285.5641,394.2957,304.0855,393.061 M,0,64793,64835,304.0855,393.061,322.6069,391.8262 M,0,64835,64876,322.6069,391.8262,341.1283,390.5914
Sprite,Foreground,Centre,"sb\glow1.png",0,0 C,0,64960,,104,104,255 M,0,64960,65001,359,408,363.0598,389.9016 F,2,64960,65326,1,0 S,2,64960,65326,1.5,0.3 P,0,64960,65326,A M,0,65001,65043,363.0598,389.9016,368.9651,372.3248 M,0,65043,65084,368.9651,372.3248,376.6523,355.4554 M,0,65084,65126,376.6523,355.4554,386.0395,339.4723
Sprite,Foreground,Centre,"sb\glow1.png",409,268 C,0,65293,,174,174,255 F,2,65293,65493,1,0 S,2,65293,65493,1.5,0.3 P,0,65293,65493,A
Sprite,Foreground,Centre,"sb\glow1.png",331,278 C,0,65460,,174,174,255 F,2,65460,65660,1,0 S,2,65460,65660,1.5,0.3 P,0,65460,65660,A
Sprite,Foreground,Centre,"sb\glow1.png",0,0 C,0,65627,,174,174,255 M,0,65627,65668,278,225,275.2435,206.6676 F,2,65627,65993,1,0 S,2,65627,65993,1.5,0.3 P,0,65627,65993,A M,0,65668,65710,275.2435,206.6676,270.117,188.8623 M,0,65710,65752,270.117,188.8623,262.7092,171.8855 M,0,65752,65793,262.7092,171.8855,253.323,155.9036
Sprite,Foreground,Centre,"sb\glow1.png",0,0 C,0,65960,,174,174,255 M,0,65960,66001,341,154,359.2596,157.0444 F,2,65960,66493,1,0 S,2,65960,66493,1.5,0.3 P,0,65960,66493,A M,0,66001,66043,359.2596,157.0444,377.7461,156.6307 M,0,66043,66085,377.7461,156.6307,395.8206,152.7784 M,0,66085,66126,395.8206,152.7784,412.9662,145.8347 M,0,66126,66168,412.9662,145.8347,395.8206,152.7784 M,0,66168,66210,395.8206,152.7784,377.7461,156.6307 M,0,66210,66251,377.7461,156.6307,359.2596,157.0444 M,0,66251,66293,359.2596,157.0444,341,154
Sprite,Foreground,Centre,"sb\glow1.png",281.704,67.704 C,0,66460,,174,174,255 F,2,66460,66660,1,0 S,2,66460,66660,1.5,0.3 P,0,66460,66660,A
Sprite,Foreground,Centre,"sb\glow1.png",285.352,71.352 C,0,66543,,174,174,255 F,2,66543,66743,1,0 S,2,66543,66743,1.5,0.3 P,0,66543,66743,A
Sprite,Foreground,Centre,"sb\glow1.png",0,0 C,0,66627,,184,184,184 M,0,66627,66668,289,75,270.9656,79.37717 F,2,66627,66993,1,0 S,2,66627,66993,1.5,0.3 P,0,66627,66993,A M,0,66668,66710,270.9656,79.37717,252.6998,82.64721 M,0,66710,66752,252.6998,82.64721,234.27,84.79826 M,0,66752,66793,234.27,84.79826,215.7445,85.82245
Sprite,Foreground,Centre,"sb\glow1.png",0,0 C,0,66960,,184,184,184 M,0,66960,67001,136,164,154.5516,164.5103 F,2,66960,67326,1,0 S,2,66960,67326,1.5,0.3 P,0,66960,67326,A M,0,67001,67043,154.5516,164.5103,173.0434,166.0657 M,0,67043,67085,173.0434,166.0657,191.4169,168.6613 M,0,67085,67126,191.4169,168.6613,209.614,172.2887
Sprite,Foreground,Centre,"sb\glow1.png",0,0 C,0,67293,,184,184,184 M,0,67293,67334,283,233,289.2054,250.4475 F,2,67293,67742,1,0 S,2,67293,67742,1.5,0.3 P,0,67293,67742,A M,0,67334,67376,289.2054,250.4475,292.1986,268.7039 M,0,67376,67418,292.1986,268.7039,289.2054,250.4475 M,0,67418,67459,289.2054,250.4475,283,233 M,0,67459,67501,283,233,289.2054,250.4475 M,0,67501,67542,289.2054,250.4475,292.1986,268.7039
Sprite,Foreground,Centre,"sb\glow1.png",0,0 C,0,67627,,184,184,184 M,0,67627,67668,251,296,269.5451,295.5088 F,2,67627,67993,1,0 S,2,67627,67993,1.5,0.3 P,0,67627,67993,A M,0,67668,67710,269.5451,295.5088,288.0558,296.671 M,0,67710,67752,288.0558,296.671,306.3865,299.4768 M,0,67752,67793,306.3865,299.4768,324.4389,303.7476
Sprite,Foreground,Centre,"sb\glow1.png",402,373 C,0,67960,,104,104,255 F,2,67960,68160,1,0 S,2,67960,68160,1.5,0.3 P,0,67960,68160,A
Sprite,Foreground,Centre,"sb\glow1.png",0,0 C,0,68127,,104,104,255 M,0,68127,68168,483,321,501.5248,319.8176 F,2,68127,68493,1,0 S,2,68127,68493,1.5,0.3 P,0,68127,68493,A M,0,68168,68210,501.5248,319.8176,520.0496,318.6351 M,0,68210,68252,520.0496,318.6351,501.5248,319.8176 M,0,68252,68293,501.5248,319.8176,483,321
Sprite,Foreground,Centre,"sb\glow1.png",440,242 C,0,68460,,104,104,255 F,2,68460,68660,1,0 S,2,68460,68660,1.5,0.3 P,0,68460,68660,A
Sprite,Foreground,Centre,"sb\glow1.png",425,243 C,0,68543,,104,104,255 F,2,68543,68743,1,0 S,2,68543,68743,1.5,0.3 P,0,68543,68743,A
Sprite,Foreground,Centre,"sb\glow1.png",0,0 C,0,68627,,104,104,255 M,0,68627,68668,410,245,391.5617,247.144 F,2,68627,69243,1,0 S,2,68627,69243,1.5,0.3 P,0,68627,69243,A M,0,68668,68710,391.5617,247.144,373.1235,249.288 M,0,68710,68752,373.1235,249.288,391.5617,247.144 M,0,68752,68793,391.5617,247.144,410,245 M,0,68793,68835,410,245,391.5617,247.144 M,0,68835,68877,391.5617,247.144,373.1235,249.288 M,0,68877,68918,373.1235,249.288,391.5617,247.144 M,0,68918,68960,391.5617,247.144,410,245 M,0,68960,69002,410,245,391.5617,247.144 M,0,69002,69043,391.5617,247.144,373.1235,249.288
Sprite,Foreground,Centre,"sb\glow1.png",0,0 C,0,69127,,174,174,255 M,0,69127,69168,348,265,349.5341,246.5056 F,2,69127,69660,1,0 S,2,69127,69660,1.5,0.3 P,0,69127,69660,A M,0,69168,69210,349.5341,246.5056,349.998,227.9553 M,0,69210,69252,349.998,227.9553,349.3904,209.4104 M,0,69252,69293,349.3904,209.4104,347.7133,190.9321 M,0,69293,69335,347.7133,190.9321,345.0258,172.5729 M,0,69335,69377,345.0258,172.5729,341.1776,154.4203 M,0,69377,69418,341.1776,154.4203,336.2881,136.5212 M,0,69418,69460,336.2881,136.5212,330.3739,118.9348
Sprite,Foreground,CentreRight,"sb\particle.png",387,71 F,0,69627,,0.8 R,0,69627,,0.1570796 C,0,69627,,174,174,255 V,1,69627,70027,35,1200,4,1200 P,0,69627,70027,A F,2,69628,70027,0.8,0
Sprite,Foreground,CentreRight,"sb\particle.png",330,118 F,0,69960,,0.8 R,0,69960,,0.2094395 C,0,69960,,174,174,255 V,1,69960,70360,35,1200,4,1200 P,0,69960,70360,A F,2,69961,70360,0.8,0
Sprite,Foreground,CentreRight,"sb\particle.png",265,142 F,0,70293,,0.8 R,0,70293,,0.1745329 C,0,70293,,174,174,255 V,1,70293,70693,35,1200,4,1200 P,0,70293,70693,A F,2,70294,70693,0.8,0
Sprite,Foreground,CentreRight,"sb\particle.png",231,202 F,0,70627,,0.8 R,0,70627,,0.03490658 C,0,70627,,174,174,255 V,1,70627,71027,35,1200,4,1200 P,0,70627,71027,A F,2,70628,71027,0.8,0
Sprite,Foreground,CentreRight,"sb\particle.png",167,227 F,0,70960,,0.8 R,0,70960,,-0.2094395 C,0,70960,,174,174,255 V,1,70960,71360,35,1200,4,1200 P,0,70960,71360,A F,2,70961,71360,0.8,0
Sprite,Foreground,CentreRight,"sb\particle.png",106,385 F,0,71293,,0.8 R,0,71293,,0.03490658 C,0,71293,,174,174,255 V,1,71293,71693,35,1200,4,1200 P,0,71293,71693,A F,2,71294,71693,0.8,0
Sprite,Foreground,CentreRight,"sb\particle.png",260,329 F,0,71627,,0.8 R,0,71627,,0.2792527 C,0,71627,,174,174,255 V,1,71627,72027,35,1200,4,1200 P,0,71627,72027,A F,2,71628,72027,0.8,0
Sprite,Foreground,CentreRight,"sb\particle.png",320,393 F,0,71793,,0.8 R,0,71793,,-0.05235988 C,0,71793,,184,184,184 V,1,71793,72193,35,1200,4,1200 P,0,71793,72193,A F,2,71794,72193,0.8,0
Sprite,Foreground,CentreRight,"sb\particle.png",365,190 F,0,72293,,0.8 R,0,72293,,0.3316126 C,0,72293,,184,184,184 V,1,72293,72693,35,1200,4,1200 P,0,72293,72693,A F,2,72294,72693,0.8,0
Sprite,Foreground,CentreRight,"sb\particle.png",429,251 F,0,72460,,0.8 R,0,72460,,-0.1745329 C,0,72460,,184,184,184 V,1,72460,72860,35,1200,4,1200 P,0,72460,72860,A F,2,72461,72860,0.8,0
Sprite,Foreground,CentreRight,"sb\particle.png",365,190 F,0,72793,,0.8 R,0,72793,,-0.1570796 C,0,72793,,184,184,184 V,1,72793,73193,35,1200,4,1200 P,0,72793,73193,A F,2,72794,73193,0.8,0
Sprite,Foreground,CentreRight,"sb\particle.png",234,127 F,0,73127,,0.8 R,0,73127,,-0.03490658 C,0,73127,,104,104,255 V,1,73127,73527,35,1200,4,1200 P,0,73127,73527,A F,2,73128,73527,0.8,0
Sprite,Foreground,CentreRight,"sb\particle.png",152,240 F,0,73627,,0.8 R,0,73627,,0.08726646 C,0,73627,,104,104,255 V,1,73627,74027,35,1200,4,1200 P,0,73627,74027,A F,2,73628,74027,0.8,0
Sprite,Foreground,CentreRight,"sb\particle.png",88,331 F,0,73793,,0.8 R,0,73793,,-0.03490658 C,0,73793,,104,104,255 V,1,73793,74193,35,1200,4,1200 P,0,73793,74193,A F,2,73794,74193,0.8,0
Sprite,Foreground,CentreRight,"sb\particle.png",110,326 F,0,73877,,0.8 R,0,73877,,0.3316126 C,0,73877,,104,104,255 V,1,73877,74277,35,1200,4,1200 P,0,73877,74277,A F,2,73878,74277,0.8,0
Sprite,Foreground,CentreRight,"sb\particle.png",131,321 F,0,73960,,0.8 R,0,73960,,-0.3316126 C,0,73960,,104,104,255 V,1,73960,74360,35,1200,4,1200 P,0,73960,74360,A F,2,73961,74360,0.8,0
Sprite,Foreground,CentreRight,"sb\particle.png",229,364 F,0,74127,,0.8 R,0,74127,,0.2443461 C,0,74127,,104,104,255 V,1,74127,74527,35,1200,4,1200 P,0,74127,74527,A F,2,74128,74527,0.8,0
Sprite,Foreground,CentreRight,"sb\particle.png",106,439 F,0,74460,,0.8 R,0,74460,,0.3316126 C,0,74460,,174,174,255 V,1,74460,74860,35,1200,4,1200 P,0,74460,74860,A F,2,74461,74860,0.8,0
Sprite,Foreground,CentreRight,"sb\particle.png",324,361 F,0,74960,,0.8 R,0,74960,,0.122173 C,0,74960,,174,174,255 V,1,74960,75360,35,1200,4,1200 P,0,74960,75360,A F,2,74961,75360,0.8,0
Sprite,Foreground,CentreRight,"sb\particle.png",403,415 F,0,75127,,0.8 R,0,75127,,-0.1396263 C,0,75127,,174,174,255 V,1,75127,75527,35,1200,4,1200 P,0,75127,75527,A F,2,75128,75527,0.8,0
Sprite,Foreground,CentreRight,"sb\particle.png",492,377 F,0,75460,,0.8 R,0,75460,,0.2094395 C,0,75460,,174,174,255 V,1,75460,75860,35,1200,4,1200 P,0,75460,75860,A F,2,75461,75860,0.8,0
Sprite,Foreground,CentreRight,"sb\particle.png",415,250 F,0,75793,,0.8 R,0,75793,,0.2268928 C,0,75793,,174,174,255 V,1,75793,76193,35,1200,4,1200 P,0,75793,76193,A F,2,75794,76193,0.8,0
Sprite,Foreground,CentreRight,"sb\particle.png",319,264 F,0,75960,,0.8 R,0,75960,,0.3316126 C,0,75960,,184,184,184 V,1,75960,76360,35,1200,4,1200 P,0,75960,76360,A F,2,75961,76360,0.8,0
Sprite,Foreground,CentreRight,"sb\particle.png",275,242 F,0,76293,,0.8 R,0,76293,,-0.3316126 C,0,76293,,184,184,184 V,1,76293,76693,35,1200,4,1200 P,0,76293,76693,A F,2,76294,76693,0.8,0
Sprite,Foreground,CentreRight,"sb\particle.png",266,173 F,0,76627,,0.8 R,0,76627,,0.122173 C,0,76627,,184,184,184 V,1,76627,77027,35,1200,4,1200 P,0,76627,77027,A F,2,76628,77027,0.8,0
Sprite,Foreground,CentreRight,"sb\particle.png",204,133 F,0,76960,,0.8 R,0,76960,,0.01745329 C,0,76960,,184,184,184 V,1,76960,77360,35,1200,4,1200 P,0,76960,77360,A F,2,76961,77360,0.8,0
Sprite,Foreground,CentreRight,"sb\particle.png",130,180 F,0,77127,,0.8 R,0,77127,,0.296706 C,0,77127,,104,104,255 V,1,77127,77527,35,1200,4,1200 P,0,77127,77527,A F,2,77128,77527,0.8,0
Sprite,Foreground,CentreRight,"sb\particle.png",225,291 F,0,77627,,0.8 R,0,77627,,0.122173 C,0,77627,,104,104,255 V,1,77627,78027,35,1200,4,1200 P,0,77627,78027,A F,2,77628,78027,0.8,0
Sprite,Foreground,CentreRight,"sb\particle.png",202,376 F,0,77793,,0.8 R,0,77793,,0.01745329 C,0,77793,,104,104,255 V,1,77793,78193,35,1200,4,1200 P,0,77793,78193,A F,2,77794,78193,0.8,0
Sprite,Foreground,CentreRight,"sb\particle.png",220,379 F,0,77877,,0.8 R,0,77877,,-0.296706 C,0,77877,,104,104,255 V,1,77877,78277,35,1200,4,1200 P,0,77877,78277,A F,2,77878,78277,0.8,0
Sprite,Foreground,CentreRight,"sb\particle.png",237,383 F,0,77960,,0.8 R,0,77960,,-0.2268928 C,0,77960,,104,104,255 V,1,77960,78360,35,1200,4,1200 P,0,77960,78360,A F,2,77961,78360,0.8,0
Sprite,Foreground,CentreRight,"sb\particle.png",463,426 F,0,78293,,0.8 R,0,78293,,-0.03490658 C,0,78293,,104,104,255 V,1,78293,78693,35,1200,4,1200 P,0,78293,78693,A F,2,78294,78693,0.8,0
Sprite,Foreground,CentreRight,"sb\particle.png",367,320 F,0,78627,,0.8 R,0,78627,,-0.1570796 C,0,78627,,104,104,255 V,1,78627,79027,35,1200,4,1200 P,0,78627,79027,A F,2,78628,79027,0.8,0
Sprite,Foreground,CentreRight,"sb\particle.png",460,279 F,0,78793,,0.8 R,0,78793,,0.3316126 C,0,78793,,174,174,255 V,1,78793,79193,35,1200,4,1200 P,0,78793,79193,A F,2,78794,79193,0.8,0
Sprite,Foreground,CentreRight,"sb\particle.png",386,232 F,0,78960,,0.8 R,0,78960,,0.08726646 C,0,78960,,174,174,255 V,1,78960,79360,35,1200,4,1200 P,0,78960,79360,A F,2,78961,79360,0.8,0
Sprite,Foreground,CentreRight,"sb\particle.png",510,203 F,0,79127,,0.8 R,0,79127,,0.1745329 C,0,79127,,174,174,255 V,1,79127,79527,35,1200,4,1200 P,0,79127,79527,A F,2,79128,79527,0.8,0
Sprite,Foreground,CentreRight,"sb\particle.png",434,157 F,0,79294,,0.8 R,0,79294,,-0.3316126 C,0,79294,,174,174,255 V,1,79294,79694,35,1200,4,1200 P,0,79294,79694,A F,2,79295,79694,0.8,0
Sprite,Foreground,CentreRight,"sb\particle.png",511,114 F,0,79460,,0.8 R,0,79460,,-0.08726646 C,0,79460,,174,174,255 V,1,79460,79860,35,1200,4,1200 P,0,79460,79860,A F,2,79461,79860,0.8,0
Sprite,Foreground,CentreRight,"sb\particle.png",416,76 F,0,79793,,0.8 R,0,79793,,-0.122173 C,0,79793,,184,184,184 V,1,79793,80193,35,1200,4,1200 P,0,79793,80193,A F,2,79794,80193,0.8,0
Sprite,Foreground,CentreRight,"sb\particle.png",211,65 F,0,80293,,0.8 R,0,80293,,0.3141593 C,0,80293,,184,184,184 V,1,80293,80693,35,1200,4,1200 P,0,80293,80693,A F,2,80294,80693,0.8,0
Sprite,Foreground,CentreRight,"sb\particle.png",174,146 F,0,80460,,0.8 R,0,80460,,0 C,0,80460,,184,184,184 V,1,80460,80860,35,1200,4,1200 P,0,80460,80860,A F,2,80461,80860,0.8,0
Sprite,Foreground,CentreRight,"sb\particle.png",249,193 F,0,80793,,0.8 R,0,80793,,0.1396263 C,0,80793,,184,184,184 V,1,80793,81193,35,1200,4,1200 P,0,80793,81193,A F,2,80794,81193,0.8,0
Sprite,Foreground,CentreRight,"sb\particle.png",312,313 F,0,81127,,0.8 R,0,81127,,-0.2792527 C,0,81127,,104,104,255 V,1,81127,81527,35,1200,4,1200 P,0,81127,81527,A F,2,81128,81527,0.8,0
Sprite,Foreground,CentreRight,"sb\particle.png",153,329 F,0,81543,,0.8 R,0,81543,,-0.1745329 C,0,81543,,104,104,255 V,1,81543,81943,35,1200,4,1200 P,0,81543,81943,A F,2,81544,81943,0.8,0
Sprite,Foreground,CentreRight,"sb\particle.png",153,329 F,0,81627,,0.8 R,0,81627,,0.2792527 C,0,81627,,104,104,255 V,1,81627,82027,35,1200,4,1200 P,0,81627,82027,A F,2,81628,82027,0.8,0
Sprite,Foreground,CentreRight,"sb\particle.png",184,374 F,0,81960,,0.8 R,0,81960,,0.1919862 C,0,81960,,104,104,255 V,1,81960,82360,35,1200,4,1200 P,0,81960,82360,A F,2,81961,82360,0.8,0
Sprite,Foreground,CentreRight,"sb\particle.png",203,435 F,0,82293,,0.8 R,0,82293,,-0.122173 C,0,82293,,104,104,255 V,1,82293,82693,35,1200,4,1200 P,0,82293,82693,A F,2,82294,82693,0.8,0
Sprite,Foreground,CentreRight,"sb\particle.png",291,396 F,0,82460,,0.8 R,0,82460,,-0.03490658 C,0,82460,,174,174,255 V,1,82460,82860,35,1200,4,1200 P,0,82460,82860,A F,2,82461,82860,0.8,0
Sprite,Foreground,CentreRight,"sb\particle.png",523,377 F,0,82960,,0.8 R,0,82960,,-0.2617994 C,0,82960,,174,174,255 V,1,82960,83360,35,1200,4,1200 P,0,82960,83360,A F,2,82961,83360,0.8,0
Sprite,Foreground,CentreRight,"sb\particle.png",458,315 F,0,83127,,0.8 R,0,83127,,-0.2094395 C,0,83127,,174,174,255 V,1,83127,83527,35,1200,4,1200 P,0,83127,83527,A F,2,83128,83527,0.8,0
Sprite,Foreground,CentreRight,"sb\particle.png",538,240 F,0,83460,,0.8 R,0,83460,,-0.06981317 C,0,83460,,174,174,255 V,1,83460,83860,35,1200,4,1200 P,0,83460,83860,A F,2,83461,83860,0.8,0
Sprite,Foreground,CentreRight,"sb\particle.png",428,119 F,0,83793,,0.8 R,0,83793,,0.1396263 C,0,83793,,184,184,184 V,1,83793,84193,35,1200,4,1200 P,0,83793,84193,A F,2,83794,84193,0.8,0
Sprite,Foreground,CentreRight,"sb\particle.png",353,59 F,0,84293,,0.8 R,0,84293,,0.06981317 C,0,84293,,184,184,184 V,1,84293,84693,35,1200,4,1200 P,0,84293,84693,A F,2,84294,84693,0.8,0
Sprite,Foreground,CentreRight,"sb\particle.png",297,129 F,0,84460,,0.8 R,0,84460,,-0.01745329 C,0,84460,,184,184,184 V,1,84460,84860,35,1200,4,1200 P,0,84460,84860,A F,2,84461,84860,0.8,0
Sprite,Foreground,CentreRight,"sb\particle.png",372,189 F,0,84627,,0.8 R,0,84627,,-0.2268928 C,0,84627,,184,184,184 V,1,84627,85027,35,1200,4,1200 P,0,84627,85027,A F,2,84628,85027,0.8,0
Sprite,Foreground,CentreRight,"sb\particle.png",327,262 F,0,85127,,0.8 R,0,85127,,0.2617994 C,0,85127,,104,104,255 V,1,85127,85527,35,1200,4,1200 P,0,85127,85527,A F,2,85128,85527,0.8,0
Sprite,Foreground,CentreRight,"sb\particle.png",156,281 F,0,85627,,0.8 R,0,85627,,0.2268928 C,0,85627,,104,104,255 V,1,85627,86027,35,1200,4,1200 P,0,85627,86027,A F,2,85628,86027,0.8,0
Sprite,Foreground,CentreRight,"sb\particle.png",221,209 F,0,85793,,0.8 R,0,85793,,0.1570796 C,0,85793,,104,104,255 V,1,85793,86193,35,1200,4,1200 P,0,85793,86193,A F,2,85794,86193,0.8,0
Sprite,Foreground,CentreRight,"sb\particle.png",229,192 F,0,85877,,0.8 R,0,85877,,0.2443461 C,0,85877,,104,104,255 V,1,85877,86277,35,1200,4,1200 P,0,85877,86277,A F,2,85878,86277,0.8,0
Sprite,Foreground,CentreRight,"sb\particle.png",237,175 F,0,85960,,0.8 R,0,85960,,0.122173 C,0,85960,,104,104,255 V,1,85960,86360,35,1200,4,1200 P,0,85960,86360,A F,2,85961,86360,0.8,0
Sprite,Foreground,CentreRight,"sb\particle.png",242,123 F,0,86293,,0.8 R,0,86293,,0.06981317 C,0,86293,,104,104,255 V,1,86293,86693,35,1200,4,1200 P,0,86293,86693,A F,2,86294,86693,0.8,0
Sprite,Foreground,CentreRight,"sb\particle.png",238,72 F,0,86627,,0.8 R,0,86627,,-0.2094395 C,0,86627,,174,174,255 V,1,86627,87027,35,1200,4,1200 P,0,86627,87027,A F,2,86628,87027,0.8,0
Sprite,Foreground,CentreRight,"sb\particle.png",457,136 F,0,87127,,0.8 R,0,87127,,0.2617994 C,0,87127,,174,174,255 V,1,87127,87527,35,1200,4,1200 P,0,87127,87527,A F,2,87128,87527,0.8,0
Sprite,Foreground,CentreRight,"sb\particle.png",575,90 F,0,87460,,0.8 R,0,87460,,0.2617994 C,0,87460,,174,174,255 V,1,87460,87860,35,1200,4,1200 P,0,87460,87860,A F,2,87461,87860,0.8,0
Sprite,Foreground,CentreRight,"sb\particle.png",522,238 F,0,87793,,0.8 R,0,87793,,-0.296706 C,0,87793,,184,184,184 V,1,87793,88193,35,1200,4,1200 P,0,87793,88193,A F,2,87794,88193,0.8,0
Sprite,Foreground,CentreRight,"sb\particle.png",310,256 F,0,88293,,0.8 R,0,88293,,0.2268928 C,0,88293,,184,184,184 V,1,88293,88693,35,1200,4,1200 P,0,88293,88693,A F,2,88294,88693,0.8,0
Sprite,Foreground,CentreRight,"sb\particle.png",227,221 F,0,88460,,0.8 R,0,88460,,-0.2443461 C,0,88460,,184,184,184 V,1,88460,88860,35,1200,4,1200 P,0,88460,88860,A F,2,88461,88860,0.8,0
Sprite,Foreground,CentreRight,"sb\particle.png",183,301 F,0,88960,,0.8 R,0,88960,,0.08726646 C,0,88960,,184,184,184 V,1,88960,89360,35,1200,4,1200 P,0,88960,89360,A F,2,88961,89360,0.8,0
Sprite,Foreground,CentreRight,"sb\particle.png",108,392 F,0,89127,,0.8 R,0,89127,,0.2268928 C,0,89127,,184,184,184 V,1,89127,89527,35,1200,4,1200 P,0,89127,89527,A F,2,89128,89527,0.8,0
Sprite,Foreground,CentreRight,"sb\particle.png",243,382 F,0,89460,,0.8 R,0,89460,,-0.2094395 C,0,89460,,184,184,184 V,1,89460,89860,35,1200,4,1200 P,0,89460,89860,A F,2,89461,89860,0.8,0
Sprite,Foreground,CentreRight,"sb\particle.png",370,424 F,0,89793,,0.8 R,0,89793,,0.3316126 C,0,89793,,184,184,184 V,1,89793,90193,35,1200,4,1200 P,0,89793,90193,A F,2,89794,90193,0.8,0
Sprite,Foreground,CentreRight,"sb\particle.png",370,424 F,0,89877,,0.8 R,0,89877,,-0.01745329 C,0,89877,,184,184,184 V,1,89877,90277,35,1200,4,1200 P,0,89877,90277,A F,2,89878,90277,0.8,0
Sprite,Foreground,CentreRight,"sb\particle.png",370,424 F,0,89960,,0.8 R,0,89960,,0.1047198 C,0,89960,,184,184,184 V,1,89960,90360,35,1200,4,1200 P,0,89960,90360,A F,2,89961,90360,0.8,0
Sprite,Foreground,CentreRight,"sb\particle.png",425,362 F,0,90293,,0.8 R,0,90293,,0.1396263 C,0,90293,,184,184,184 V,1,90293,90693,35,1200,4,1200 P,0,90293,90693,A F,2,90294,90693,0.8,0
Sprite,Foreground,CentreRight,"sb\particle.png",492,375 F,0,90627,,0.8 R,0,90627,,0.2094395 C,0,90627,,104,104,255 V,1,90627,91027,35,1200,4,1200 P,0,90627,91027,A F,2,90628,91027,0.8,0
//Storyboard Layer 4 (Overlay)
//Storyboard Sound Samples

[TimingPoints]
1294,333.333333333333,4,2,5,50,1,0
2627,-200,4,2,5,35,0,0
13293,-133.333333333333,4,2,5,55,0,0
47293,-250,4,2,5,55,0,0
47793,-111.111111111111,4,2,5,55,0,0
69127,-111.111111111111,4,2,5,80,0,1
79793,-111.111111111111,4,2,5,55,0,0
80293,-111.111111111111,4,2,5,80,0,1
90627,-111.111111111111,4,2,5,60,0,0
106627,-111.111111111111,4,2,5,75,0,1
117293,-250.000000000001,4,2,5,50,0,0
122627,-250.000000000001,4,2,5,5,0,0

[Colours]
Combo1 : 104,104,255
Combo2 : 174,174,255
Combo3 : 184,184,184

[HitObjects]
53,140,2627,6,0,B|161:119|101:199|222:173,1,165,2|2,0:0|0:0,0:0:0:0:
284,75,3627,1,0,0:0:0:0:
432,228,3960,2,0,P|348:219|313:283,1,165,0|2,3:0|0:0,0:0:0:0:
221,365,4960,1,2,0:0:0:0:
83,310,5293,6,0,P|105:207|116:132,1,165,0|2,3:0|3:2,0:0:0:0:
35,107,6293,2,0,P|90:40|183:87,1,206.25,0|0,0:0|0:0,0:0:0:0:
249,120,7293,2,0,L|345:106,1,82.5,2|2,0:0|0:0,0:0:0:0:
442,53,7960,6,0,P|446:92|454:134,1,82.5,0|0,3:0|0:0,0:0:0:0:
360,259,8627,2,0,P|368:218|374:178,1,82.5,2|0,0:0|0:0,0:0:0:0:
284,136,9293,2,0,P|245:144|197:149,1,82.5,0|0,3:0|0:0,0:0:0:0:
65,70,9960,2,0,P|104:78|152:83,1,82.5,2|2,0:0|0:0,0:0:0:0:
257,29,10627,2,0,P|245:105|240:206,1,165,2|2,3:2|3:0,0:0:0:0:
182,312,11627,1,0,0:0:0:0:
116,256,11793,1,2,0:0:0:0:
100,250,11877,1,0,0:0:0:0:
84,244,11960,6,0,P|71:216|52:199,1,41.25,0|0,3:0|0:0,0:0:0:0:
131,153,12293,2,0,P|105:135|80:130,1,41.25,2|0,0:0|0:0,0:0:0:0:
39,65,12627,1,0,0:0:0:0:
61,61,12710,1,0,0:0:0:0:
83,57,12793,1,0,0:0:0:0:
105,53,12877,1,0,0:0:0:0:
127,50,12960,2,0,L|145:26,3,20.625,0|0|2|2,3:0|0:0|0:0|0:0,0:0:0:0:
181,23,13293,6,0,P|214:29|267:29,1,61.875002360344,6|0,0:1|0:0,0:0:0:0:
315,87,13627,1,0,1:0:0:0:
315,87,13793,1,0,0:0:0:0:
393,50,13960,2,0,P|401:85|387:124,1,61.875002360344,2|0,0:0|0:0,0:0:0:0:
475,141,14293,2,0,P|467:176|481:215,1,61.875002360344,2|0,0:0|0:0,0:0:0:0:
431,277,14627,6,0,L|344:264,1,61.875002360344,2|0,0:1|0:0,0:0:0:0:
300,320,14960,1,0,1:0:0:0:
247,251,15127,1,0,0:0:0:0:
160,257,15293,2,0,P|170:222|173:193,1,61.875002360344,0|0,1:0|0:0,0:0:0:0:
88,176,15627,2,0,P|77:141|62:115,1,61.875002360344,2|0,0:0|0:0,0:0:0:0:
114,47,15960,6,0,P|144:59|200:63,1,61.875002360344,2|0,0:1|0:0,0:0:0:0:
250,24,16293,1,0,1:0:0:0:
302,93,16460,2,0,P|304:128|312:162,1,61.875002360344,0|2,0:0|0:0,0:0:0:0:
223,252,16793,2,0,P|229:220|231:191,1,61.875002360344,0|2,0:0|0:0,0:0:0:0:
166,147,17127,1,0,0:0:0:0:
166,147,17210,1,0,0:0:0:0:
166,147,17293,6,0,L|84:151,1,61.875002360344,2|0,0:1|0:0,0:0:0:0:
39,233,17627,2,0,L|118:229,1,61.875002360344,0|0,1:0|0:0,0:0:0:0:
167,301,17960,1,4,0:0:0:0:
261,282,18127,1,2,3:2:0:0:
279,282,18210,1,0,0:0:0:0:
296,287,18293,2,0,P|292:303|290:317,3,30.937501180172,2|0|0|0,3:2|0:0|3:0|0:0,0:0:0:0:
317,342,18627,6,0,P|360:331|404:338,1,61.875002360344,2|0,0:1|0:0,0:0:0:0:
468,219,18960,2,0,P|450:258|448:304,1,61.875002360344,0|0,1:0|0:0,0:0:0:0:
351,159,19293,2,0,P|369:198|371:244,1,61.875002360344,2|0,0:0|0:0,0:0:0:0:
438,142,19627,1,2,0:0:0:0:
373,67,19793,1,0,0:0:0:0:
286,101,19960,6,0,P|248:104|201:93,1,61.875002360344,2|0,0:1|0:3,0:0:0:0:
139,67,20293,2,0,P|155:38|176:18,1,61.875002360344,0|0,1:0|3:0,3:3:0:0:
93,140,20627,2,0,P|70:118|55:91,1,61.875002360344,2|0,1:0|3:0,3:3:0:0:
13,181,20960,1,2,3:2:0:0:
85,228,21127,1,0,3:0:0:0:
165,197,21293,6,0,P|197:199|237:209,1,61.875002360344,2|0,0:1|0:0,0:0:0:0:
279,136,21627,1,0,1:0:0:0:
333,203,21793,2,0,P|328:229|332:266,1,61.875002360344,0|2,0:0|0:0,0:0:0:0:
418,262,22127,2,0,P|422:235|419:199,1,61.875002360344,0|2,0:0|0:0,0:0:0:0:
470,130,22460,1,0,0:0:0:0:
470,130,22543,1,0,0:0:0:0:
470,130,22627,6,0,L|451:52,1,61.875002360344,2|0,0:1|3:0,0:0:0:0:
375,34,22960,1,0,1:0:0:0:
351,117,23127,1,0,0:0:0:0:
283,62,23293,2,0,P|267:62|252:63,3,30.937501180172,0|0|0|0,3:2|3:0|3:0|0:0,3:3:0:0:
223,66,23627,2,0,L|226:114,3,30.937501180172,2|0|0|0,3:2|3:0|3:0|0:0,3:3:0:0:
192,96,23960,6,0,P|159:90|114:90,1,61.875002360344,2|0,0:1|0:0,0:0:0:0:
35,30,24293,2,0,P|42:61|43:94,1,61.875002360344,0|0,1:0|0:0,0:0:0:0:
95,160,24627,2,0,P|93:190|96:223,1,61.875002360344,2|0,0:0|0:0,0:0:0:0:
162,285,24960,1,2,0:0:0:0:
243,239,25127,1,0,0:0:0:0:
288,319,25293,6,0,B|319:323|319:323|358:312,2,61.875002360344,2|0|0,0:1|3:0|1:0,0:0:0:0:
209,369,25793,1,8,3:0:0:0:
135,312,25960,2,0,P|131:268|128:237,1,61.875002360344,0|0,1:0|3:0,0:0:0:0:
56,192,26293,1,2,0:0:0:0:
56,192,26460,1,0,0:0:0:0:
136,145,26627,6,0,L|206:162,1,61.875002360344,2|0,0:1|0:0,0:0:0:0:
266,98,26960,1,0,1:0:0:0:
296,185,27127,2,0,P|296:212|306:252,1,61.875002360344,0|2,0:0|0:0,0:0:0:0:
432,303,27460,2,0,P|400:298|367:301,1,61.875002360344,0|2,0:0|0:0,0:0:0:0:
292,340,27793,1,0,0:0:0:0:
292,340,27877,1,0,3:0:0:0:
292,340,27960,2,0,P|254:335|225:330,1,61.875002360344,2|0,3:1|0:0,0:0:0:0:
142,309,28293,6,0,P|133:268|114:225,1,61.875002360344,0|0,1:0|0:0,0:0:0:0:
200,197,28627,2,0,P|175:164|124:147,2,92.812503540516,4|2|2,1:2|1:2|1:2,0:0:0:0:
214,220,29210,1,0,0:0:0:0:
214,220,29293,2,0,P|252:215|281:210,1,61.875002360344,2|0,0:1|0:0,0:0:0:0:
403,152,29627,2,0,P|367:149|336:142,1,61.875002360344,2|0,0:0|0:0,0:0:0:0:
269,102,29960,2,0,P|269:51|256:24,2,61.875002360344,0|0|2,1:0|0:0|0:0,0:0:0:0:
140,176,30627,6,0,P|128:217|104:251,1,61.875002360344,2|0,0:1|3:0,3:3:0:0:
42,275,30960,2,0,P|56:302|63:332,1,61.875002360344,0|0,1:0|0:0,0:0:0:0:
145,360,31293,1,0,1:0:0:0:
218,313,31460,1,2,0:1:0:0:
288,364,31627,2,0,L|374:356,1,61.875002360344,2|2,0:1|0:0,0:0:0:0:
429,323,31960,6,0,P|412:267|413:179,1,123.750004720688,2|2,0:1|0:0,0:0:0:0:
336,154,32460,1,0,0:0:0:0:
263,200,32627,2,0,B|207:204|241:173|169:177,2,92.812503540516,0|2|2,1:0|3:0|0:0,0:0:0:0:
317,132,33293,2,0,B|313:76|344:110|340:38,2,92.812503540516,2|0|0,0:1|0:0|3:0,0:0:0:0:
365,204,33960,2,0,B|400:208|400:208|416:224|416:224|468:229,2,92.812503540516,2|0|0,3:1|1:0|1:0,3:3:0:0:
303,265,34627,6,0,B|225:249|262:303|177:284,1,123.750004720688,2|2,0:1|0:0,0:0:0:0:
114,234,35127,1,0,3:0:0:0:
179,178,35293,2,0,P|216:169|247:148,1,61.875002360344,0|0,1:2|0:0,0:0:0:0:
323,161,35627,2,0,P|314:124|293:93,1,61.875002360344,2|0,0:0|3:0,0:0:0:0:
227,59,35960,6,0,P|193:63|158:68,1,61.875002360344,6|0,2:1|0:0,0:0:0:0:
111,123,36293,2,0,P|80:118|49:115,1,61.875002360344,2|0,0:0|0:0,0:0:0:0:
170,185,36627,2,0,P|201:180|237:177,1,61.875002360344,0|0,1:0|0:0,0:0:0:0:
291,240,36960,2,0,P|321:236|352:233,1,61.875002360344,2|0,0:0|3:0,0:0:0:0:
430,281,37293,6,0,P|436:216|463:149,1,123.750004720688,2|2,0:1|0:0,0:0:0:0:
401,94,37793,1,0,3:0:0:0:
322,131,37960,2,0,P|287:129|248:110,1,61.875002360344,0|0,1:0|0:0,0:0:0:0:
178,97,38293,2,0,P|179:127|189:156,1,61.875002360344,2|0,0:0|3:0,0:0:0:0:
246,223,38627,6,0,P|210:229|173:249,1,61.875002360344,2|0,0:1|0:0,0:0:0:0:
87,290,38960,2,0,P|112:301|166:300,1,61.875002360344,2|2,3:0|3:2,0:0:0:0:
223,342,39293,2,0,B|250:334|250:334|284:338,1,61.875002360344,0|0,1:1|3:2,0:0:0:0:
349,290,39627,2,0,B|377:301|377:301|424:294,1,61.875002360344,0|0,3:0|0:0,0:0:0:0:
474,359,39960,6,0,P|493:300|466:223,1,123.750004720688,2|2,0:1|0:0,0:0:0:0:
396,214,40460,1,0,0:0:0:0:
455,150,40627,2,0,P|456:115|466:81,1,61.875002360344,0|0,1:0|0:0,0:0:0:0:
393,36,40960,2,0,P|362:61|320:64,1,61.875002360344,2|0,0:0|0:0,0:0:0:0:
310,143,41293,6,0,P|285:131|254:106,1,61.875002360344,4|0,0:1|0:0,0:0:0:0:
194,62,41627,2,0,P|219:48|246:24,1,61.875002360344,2|0,0:0|0:0,0:0:0:0:
178,136,41960,2,0,P|153:127|115:102,1,61.875002360344,0|0,1:0|3:0,0:0:0:0:
243,190,42293,2,0,P|212:204|185:231,1,61.875002360344,2|0,0:0|3:0,0:0:0:0:
120,275,42627,6,0,B|180:265|180:265|244:305,1,123.750004720688,2|2,0:1|0:0,0:0:0:0:
310,337,43127,1,0,0:0:0:0:
375,280,43293,2,0,P|386:244|405:216,1,61.875002360344,0|0,1:0|0:0,0:0:0:0:
320,185,43627,2,0,P|309:149|290:121,1,61.875002360344,2|2,0:0|0:0,0:0:0:0:
356,66,43960,2,0,L|444:57,2,61.875002360344,2|0|0,0:1|0:1|1:0,0:0:0:0:
279,30,44460,1,2,0:0:0:0:
230,94,44627,2,0,P|196:96|149:95,2,61.875002360344
308,131,45127,1,0,0:0:0:0:
463,285,47127,5,0,0:0:0:0:
463,285,47293,2,0,P|467:320|470:360,1,66
322,175,47960,6,0,P|290:157|225:156,1,74.2499977340699,6|0,1:0|0:0,0:0:0:0:
172,112,48293,2,0,P|179:78|219:44,1,74.2499977340699,2|0,3:2|1:0,0:0:0:0:
189,201,48627,2,0,P|160:233|118:237,1,74.2499977340699,0|2,0:0|0:0,0:0:0:0:
65,300,48960,1,2,3:1:0:0:
144,360,49127,1,2,2:0:0:0:
144,360,49210,1,0,0:0:0:0:
144,360,49293,6,0,L|221:352,1,74.2499977340699,2|2,0:1|0:1,0:0:0:0:
305,370,49627,1,0,1:1:0:0:
287,283,49793,1,0,0:0:0:0:
369,315,49960,2,0,P|374:278|381:241,2,74.2499977340699,2|2|0,0:1|0:0|1:0,0:0:0:0:
313,209,50460,1,2,0:1:0:0:
319,191,50543,1,0,3:0:0:0:
323,172,50627,6,0,L|302:99,1,74.2499977340699,2|0,1:0|0:0,0:0:0:0:
224,39,50960,1,2,0:2:0:0:
224,39,51127,1,0,1:2:0:0:
148,91,51293,2,0,B|85:91|105:135|50:135,1,111.374996601105
16,135,51627,2,0,P|34:183|32:225,1,74.2499977340699,0|0,1:0|0:0,0:0:0:0:
102,277,51960,6,0,P|159:277|252:263,1,148.49999546814,2|0,0:1|3:0,0:0:0:0:
328,319,52460,2,0,P|355:271|311:192,1,148.49999546814,2|2,0:0|0:0,0:0:0:0:
248,134,52960,2,0,P|267:119|287:114,3,37.1249988670349,0|0|0|0,1:0|0:0|0:0|0:0,0:0:0:0:
296,95,53293,6,0,L|216:90,1,74.2499977340699,4|0,1:0|0:0,0:0:0:0:
150,36,53627,2,0,P|141:81|132:122,1,74.2499977340699,2|0,0:0|1:0,0:0:0:0:
62,161,53960,2,0,P|103:151|174:223,1,148.49999546814,0|0,0:0|3:0,0:0:0:0:
260,238,54460,1,2,0:0:0:0:
274,235,54543,1,0,0:0:0:0:
288,232,54627,6,0,L|385:213,1,74.2499977340699,2|0,0:1|0:0,0:0:0:0:
425,267,54960,1,0,1:0:0:0:
402,345,55127,1,0,3:0:0:0:
321,337,55293,2,0,B|284:324|284:324|231:333,1,74.2499977340699,2|0,0:1|3:3,0:0:0:0:
184,367,55627,1,0,1:0:0:0:
112,328,55793,1,0,0:0:0:0:
109,314,55876,1,0,0:0:0:0:
106,300,55960,6,0,B|112:256|112:256|77:217,1,74.2499977340699,4|0,1:0|0:0,0:0:0:0:
214,160,56293,2,0,B|174:168|174:168|158:204,1,74.2499977340699,2|0,0:0|1:0,3:3:0:0:
60,144,56627,2,0,B|100:136|100:136|116:100,1,74.2499977340699,0|2,0:0|0:0,0:0:0:0:
150,34,56960,1,0,1:0:0:0:
150,34,57127,1,0,0:0:0:0:
220,74,57293,6,0,P|287:94|382:105,1,148.49999546814,4|2,1:0|3:1,3:3:0:0:
424,38,57793,2,0,P|395:97|435:173,1,148.49999546814,0|2,3:0|0:0,0:0:0:0:
483,228,58293,2,0,P|466:235|451:246,3,37.1249988670349,0|0|0|0,1:0|0:0|1:0|0:0,0:0:0:0:
424,243,58627,6,0,L|443:323,1,74.2499977340699,4|2,1:0|3:2,0:0:0:0:
302,368,58960,1,0,1:0:0:0:
356,297,59127,1,2,0:1:0:0:
288,239,59293,2,0,P|286:195|296:146,1,74.2499977340699,0|0,1:0|0:0,0:0:0:0:
356,103,59627,1,0,1:0:0:0:
294,42,59793,1,2,3:1:0:0:
275,46,59877,1,2,0:0:0:0:
257,50,59960,6,0,L|178:68,1,74.2499977340699,0|2,1:0|0:1,0:0:0:0:
113,120,60293,1,0,1:0:0:0:
111,30,60460,1,0,0:0:0:0:
31,101,60627,2,0,L|41:191,1,74.2499977340699,0|0,1:0|0:0,0:0:0:0:
98,230,60960,2,0,P|93:247|90:266,3,37.1249988670349,2|0|0|0,1:2|3:0|3:0|3:0,0:0:0:0:
115,282,61293,6,0,B|154:293|154:293|189:284,1,74.2499977340699,4|2,1:0|3:2,0:0:0:0:
283,207,61627,2,0,B|244:196|244:196|209:205,1,74.2499977340699,0|0,1:0|0:0,0:0:0:0:
347,259,61960,2,0,P|369:205|343:147,1,111.374996601105,0|0,1:0|0:0,0:0:0:0:
371,146,62293,2,0,L|458:159,1,74.2499977340699,0|2,1:0|0:1,0:0:0:0:
491,87,62627,6,0,L|337:65,1,148.49999546814,0|0,1:2|1:0,0:0:0:0:
282,2,63127,2,0,P|239:55|277:131,1,148.49999546814,2|2,3:1|3:1,3:3:0:0:
227,204,63627,2,0,P|214:190|208:173,3,37.1249988670349,2|0|2|0,1:0|0:0|1:0|0:0,0:0:0:0:
182,157,63960,6,0,P|147:174|105:178,1,74.2499977340699,4|2,1:0|3:1,3:3:0:0:
42,255,64293,2,0,P|82:259|119:276,1,74.2499977340699,0|0,1:0|0:0,0:0:0:0:
166,342,64627,2,0,L|286:334,1,111.374996601105,0|0,1:0|0:0,0:0:0:0:
295,352,64960,2,0,P|307:311|327:276,1,74.2499977340699,0|2,1:0|0:1,0:0:0:0:
345,212,65293,5,0,1:0:0:0:
267,222,65460,1,0,0:0:0:0:
214,169,65627,2,0,P|201:120|185:94,1,74.2499977340699,0|0,1:0|0:0,0:0:0:0:
277,98,65960,2,0,P|313:101|354:87,2,74.2499977340699,0|0|0,1:0|3:0|1:0,0:0:0:0:
225,19,66460,1,2,0:0:0:0:
225,19,66543,1,2,0:0:0:0:
225,19,66627,6,0,P|179:28|140:30,1,74.2499977340699,0|2,1:0|0:0,0:0:0:0:
72,108,66960,2,0,P|109:110|157:119,1,74.2499977340699,2|2,1:0|0:0,0:0:0:0:
219,177,67293,2,0,P|226:197|228:233,3,37.1249988670349,6|0|0|0,0:1|0:0|3:0|0:0,0:0:0:0:
187,240,67627,2,0,P|228:241|276:253,1,74.2499977340699,2|2,1:2|0:1,0:0:0:0:
338,317,67960,5,6,0:1:0:0:
419,265,68127,2,0,L|466:262,2,37.1249988670349,0|0|0,0:0|1:0|0:0,0:0:0:0:
376,186,68460,1,0,3:0:0:0:
361,187,68543,1,0,3:0:0:0:
346,189,68627,2,0,L|303:194,5,37.1249988670349,2|0|2|0|0|0,3:1|3:0|3:1|3:0|1:0|0:0,0:0:0:0:
284,209,69127,6,0,P|282:122|257:40,1,148.49999546814,4|0,1:0|0:0,0:0:0:0:
323,15,69627,2,0,L|428:9,1,74.2499977340699,0|2,1:0|0:0,0:0:0:0:
266,62,69960,2,0,P|246:63|220:60,3,37.1249988670349,2|0|2|0,3:2|3:0|0:1|0:0,0:0:0:0:
201,86,70293,2,0,P|200:107|195:130,3,37.1249988670349,2|0|2|0,1:0|0:0|0:1|0:0,0:0:0:0:
167,146,70627,2,0,P|145:151|123:152,3,37.1249988670349,0|0|2|0,0:0|0:0|0:1|0:0,0:0:0:0:
103,171,70960,2,0,P|102:215|93:258,1,74.2499977340699,2|2,1:0|0:1,0:0:0:0:
42,329,71293,2,0,P|79:329|115:335,1,74.2499977340699,2|2,3:1|3:1,3:3:0:0:
196,273,71627,1,2,1:2:0:0:
256,337,71793,6,0,P|289:270|231:191,1,148.49999546814,2|2,0:1|0:0,0:0:0:0:
301,134,72293,1,0,1:0:0:0:
365,195,72460,2,0,P|388:199|413:199,2,37.1249988670349,2|0|2,0:0|0:0|3:2,3:3:0:0:
301,134,72793,2,0,L|207:143,1,74.2499977340699,2|2,0:1|1:0,0:0:0:0:
170,71,73127,6,0,P|175:121|166:249,1,148.49999546814,2|0,0:1|3:0,3:3:0:0:
88,184,73627,1,4,1:2:0:0:
24,275,73793,1,2,0:0:0:0:
46,270,73877,1,0,0:0:0:0:
67,265,73960,1,2,0:1:0:0:
165,308,74127,2,0,P|122:321|103:362,1,74.2499977340699,2|2,0:1|1:2,0:0:0:0:
42,383,74460,6,8,L|201:372,1,148.49999546814,2|0,0:1|0:0,0:0:0:0:
260,305,74960,1,0,1:0:0:0:
339,359,75127,2,0,P|341:330|348:293,2,37.1249988670349,2|0|2,0:0|0:0|3:2,0:0:0:0:
428,321,75460,2,0,P|415:268|412:220,1,74.2499977340699,2|2,0:1|1:0,0:0:0:0:
351,194,75793,1,2,0:1:0:0:
255,208,75960,6,0,L|216:213,3,37.1249988670349
211,186,76293,2,0,L|216:139,3,37.1249988670349,2|0|2|0,1:0|3:2|3:2|3:2,0:0:0:0:
202,117,76627,2,0,L|159:110,3,37.1249988670349,2|0|2|0,0:1|0:0|0:1|0:0,0:0:0:0:
140,77,76960,1,2,1:2:0:0:
66,124,77127,6,0,L|80:275,1,148.49999546814,2|2,0:1|0:0,0:0:0:0:
161,235,77627,1,0,1:0:0:0:
138,320,77793,1,0,0:0:0:0:
156,323,77877,1,0,0:0:0:0:
173,327,77960,2,0,P|222:324|275:315,1,74.2499977340699,2|2,3:2|1:0,0:0:0:0:
399,370,78293,2,0,P|357:362|325:361,1,74.2499977340699,2|2,1:0|0:1,0:0:0:0:
303,264,78627,1,0,0:0:0:0:
396,223,78793,5,2,3:2:0:0:
322,176,78960,1,2,1:0:0:0:
446,147,79127,1,2,0:1:0:0:
370,101,79294,1,2,0:1:0:0:
447,58,79460,2,0,P|470:42|442:44,1,74.2499977340699,2|2,3:1|3:2,0:0:0:0:
352,20,79793,6,0,B|312:37|280:24|280:24|264:54|216:64,1,148.49999546814,6|2,0:1|0:0,0:0:0:0:
147,9,80293,1,0,1:0:0:0:
110,90,80460,2,0,L|63:86,2,37.1249988670349,2|0|4,0:0|0:0|1:2,0:0:0:0:
185,137,80793,2,0,L|180:234,1,74.2499977340699,2|2,0:0|1:1,0:0:0:0:
248,257,81127,6,0,P|183:231|105:257,1,148.49999546814,4|0,1:2|3:0,3:3:0:0:
89,273,81543,1,0,3:0:0:0:
89,273,81627,2,0,L|94:331,3,37.1249988670349,2|0|2|0,1:0|0:0|0:1|3:0,0:0:0:0:
120,318,81960,2,0,L|115:376,3,37.1249988670349,2|0|2|0,0:1|0:0|0:1|0:0,0:0:0:0:
139,379,82293,1,2,1:2:0:0:
227,340,82460,6,0,L|399:352,1,148.49999546814,2|2,0:1|0:0,0:0:0:0:
459,321,82960,1,2,1:0:0:0:
394,259,83127,2,0,P|397:234|392:198,2,37.1249988670349,0|0|2,0:0|0:0|3:2,0:0:0:0:
474,184,83460,2,0,P|460:127|426:101,1,74.2499977340699,2|2,0:1|0:1,0:0:0:0:
364,63,83793,6,0,P|421:81|509:11,1,148.49999546814,2|2,0:1|0:1,0:0:0:0:
289,3,84293,1,2,1:0:0:0:
233,73,84460,1,2,0:1:0:0:
308,133,84627,2,8,P|330:154|345:201,2,74.2499977340699,4|2|6,1:2|1:3|1:2,3:3:0:0:
263,206,85127,6,0,P|232:269|161:271,1,148.49999546814,2|2,1:1|0:0,0:0:0:0:
92,225,85627,1,2,1:0:0:0:
157,153,85793,1,0,0:0:0:0:
165,136,85877,1,0,0:0:0:0:
173,119,85960,2,0,L|189:79,3,37.1249988670349,2|0|2|0,3:2|3:0|3:1|0:0,0:0:0:0:
178,67,86293,2,0,L|162:27,3,37.1249988670349,2|0|2|0,1:0|3:0|3:1|3:0,3:3:0:0:
174,16,86627,6,0,L|349:35,1,148.49999546814,2|0,0:1|1:0,0:0:0:0:
393,80,87127,2,0,L|454:65,2,37.1249988670349,2|0|2,0:0|0:0|3:1,0:0:0:0:
511,34,87460,2,0,L|508:126,1,74.2499977340699,2|2,3:1|1:2,3:3:0:0:
458,182,87793,6,0,B|358:198|422:138|314:151,1,148.49999546814,2|2,0:1|0:0,0:0:0:0:
246,200,88293,1,2,1:0:0:0:
163,165,88460,2,0,P|119:115|77:171,1,148.49999546814,0|2,0:0|3:1,0:0:0:0:
119,245,88960,1,2,0:1:0:0:
44,336,89127,2,8,P|68:327|105:323,2,37.1249988670349,8|8|14,3:0|3:0|1:2,0:0:0:0:
179,326,89460,2,0,P|203:335|233:358,2,37.1249988670349,0|0|6,3:0|3:0|1:2,0:0:0:0:
306,368,89793,1,0,3:0:0:0:
306,368,89877,1,0,3:0:0:0:
306,368,89960,2,0,L|331:321,3,37.1249988670349,2|0|2|0,1:0|0:0|1:0|0:0,0:0:0:0:
361,306,90293,2,0,P|376:296|407:279,3,37.1249988670349,2|0|2|0,1:2|0:0|1:2|0:0,0:0:0:0:
428,319,90627,6,0,P|432:261|458:152,1,148.49999546814,4|4,3:1|1:2,0:0:0:0:
504,110,91127,1,0,0:0:0:0:
492,22,91293,2,0,P|439:44|429:123,1,111.374996601105,2|0,0:1|0:0,0:0:0:0:
404,100,91627,2,0,L|300:90,1,74.2499977340699,0|0,1:1|3:0,0:0:0:0:
252,118,91960,2,0,B|246:71|246:71|228:37,2,74.2499977340699,0|2|0,1:0|3:2|1:1,0:0:0:0:
180,154,92460,1,0,3:2:0:0:
180,154,92627,2,0,P|242:197|321:172,1,148.49999546814,2|0,0:1|1:0,0:0:0:0:
397,138,93127,1,2,3:2:0:0:
397,138,93293,6,0,L|389:222,1,74.2499977340699,2|0,1:0|0:0,0:0:0:0:
389,211,93543,1,0,0:0:0:0:
389,211,93627,1,0,1:0:0:0:
317,275,93793,1,0,0:0:0:0:
227,239,93960,2,0,L|216:203,2,37.1249988670349,2|0|0,0:1|0:0|0:0,0:0:0:0:
178,322,94293,2,0,L|96:316,1,74.2499977340699,0|0,1:0|3:0,0:0:0:0:
26,375,94627,6,0,L|18:201,1,148.49999546814,6|0,0:1|1:0,0:0:0:0:
47,149,95127,2,0,P|76:176|122:173,1,74.2499977340699,0|2,1:2|0:1,0:0:0:0:
109,103,95460,1,0,3:0:0:0:
109,103,95543,1,0,3:0:0:0:
109,103,95627,2,0,L|101:55,3,37.1249988670349,0|0|0|0,1:0|0:0|0:0|0:0,3:3:0:0:
129,53,95960,6,0,L|291:67,1,148.49999546814,2|4,0:1|1:0,0:0:0:0:
336,132,96460,1,0,0:0:0:0:
404,74,96627,2,0,B|423:82|423:82|443:83,2,37.1249988670349,2|0|0,0:1|0:0|0:0,0:0:0:0:
336,132,96960,2,0,L|334:232,1,74.2499977340699,0|0,1:0|3:0,0:0:0:0:
390,275,97293,2,0,P|360:286|293:277,2,74.2499977340699,2|0|0,0:1|0:0|1:0,0:0:0:0:
455,340,97793,1,0,0:0:0:0:
455,340,97960,2,0,P|487:296|445:211,1,148.49999546814,2|0,0:1|1:0,0:0:0:0:
399,153,98460,1,0,0:0:0:0:
399,153,98627,6,0,L|309:165,1,74.2499977340699,2|0,0:1|0:0,0:0:0:0:
325,162,98877,1,0,0:0:0:0:
325,162,98960,1,0,1:0:0:0:
259,102,99127,1,0,0:0:0:0:
219,181,99293,2,0,P|176:162|169:153,2,37.1249988670349,2|0|0,0:1|0:0|0:0,0:0:0:0:
136,232,99627,2,0,L|148:316,1,74.2499977340699,0|0,1:0|3:0,0:0:0:0:
232,349,99960,6,0,B|300:336|300:336|308:340|308:340|392:324,1,148.49999546814,2|0,0:1|1:0,0:0:0:0:
458,378,100460,2,0,L|468:300,1,74.2499977340699,0|2,0:0|3:2,0:0:0:0:
404,240,100793,1,0,3:0:0:0:
404,240,100877,1,0,3:0:0:0:
404,240,100960,2,0,L|417:184,3,37.1249988670349,2|0|0|0,1:2|3:0|3:0|3:0,0:0:0:0:
383,187,101293,6,0,L|257:205,1,111.374996601105,2|0,0:1|0:0,0:0:0:0:
256,193,101627,2,0,P|248:156|220:125,1,74.2499977340699,4|0,1:2|0:0,0:0:0:0:
123,175,101960,2,0,P|131:212|159:243,1,74.2499977340699,2|0,0:1|0:0,0:0:0:0:
233,279,102293,2,0,P|203:308|187:339,1,74.2499977340699,0|0,1:0|3:0,0:0:0:0:
64,254,102627,2,0,P|89:287|100:320,1,74.2499977340699,2|0,0:1|3:0,0:0:0:0:
153,239,102960,2,0,P|165:223|182:210,2,37.1249988670349,0|0|2,1:0|0:0|0:0,0:0:0:0:
256,193,103293,2,0,P|283:209|334:222,1,74.2499977340699,2|0,3:1|3:0,0:0:0:0:
358,138,103627,2,0,P|331:122|280:109,1,74.2499977340699,0|0,1:0|3:0,0:0:0:0:
439,85,103960,6,0,L|457:267,1,148.49999546814,2|2,0:1|1:0,0:0:0:0:
384,289,104460,1,0,0:0:0:0:
448,351,104627,2,0,L|492:346,2,37.1249988670349,2|0|0,0:1|0:0|0:0,0:0:0:0:
384,289,104960,2,0,P|348:307|326:344,1,74.2499977340699,0|2,1:0|0:0,0:0:0:0:
255,326,105293,1,2,0:1:0:0:
276,254,105460,1,0,3:0:0:0:
211,217,105627,1,2,3:1:0:0:
163,273,105793,5,0,3:0:0:0:
163,273,105877,1,0,3:0:0:0:
163,273,105960,2,0,P|145:265|122:258,2,37.1249988670349,0|0|2,1:0|0:0|0:0,0:0:0:0:
59,321,106293,2,0,P|39:324|16:331,2,37.1249988670349,2|2|2,3:1|3:2|3:1,0:0:0:0:
116,373,106627,6,0,P|107:320|51:220,1,148.49999546814,4|0,1:2|1:0,0:0:0:0:
108,163,107127,1,2,0:0:0:0:
108,163,107293,2,0,P|67:150|32:151,1,74.2499977340699,2|2,0:1|0:0,0:0:0:0:
167,94,107627,2,0,P|208:81|243:82,1,74.2499977340699,0|0,1:0|0:0,0:0:0:0:
279,16,107960,1,0,0:1:0:0:
279,16,108127,2,0,P|265:111|277:176,1,148.49999546814,2|2,3:2|0:0,0:0:0:0:
356,184,108627,2,0,P|397:197|432:196,1,74.2499977340699,0|0,1:0|3:0,0:0:0:0:
297,253,108961,2,0,P|256:266|221:265,1,74.2499977340699,0|0,1:0|3:0,0:0:0:0:
362,321,109293,6,0,P|375:257|409:145,1,148.49999546814,2|2,1:2|1:2,0:0:0:0:
347,109,109793,1,2,0:1:0:0:
347,109,109960,2,0,P|308:116|281:136,2,74.2499977340699,0|2|2,3:0|0:1|1:2,3:3:0:0:
197,27,110460,2,0,P|236:34|263:54,2,74.2499977340699,2|6|0,0:1|0:1|3:0,0:0:0:0:
197,107,110960,2,0,P|182:141|179:178,1,74.2499977340699,0|2,1:0|0:0,0:0:0:0:
208,315,111293,2,0,P|223:281|228:244,1,74.2499977340699,2|0,3:1|3:0,0:0:0:0:
70,235,111627,2,0,P|103:249|140:253,1,74.2499977340699,2|2,1:1|0:1,0:0:0:0:
265,176,111960,6,0,B|339:185|339:185|337:224|386:251,1,148.49999546814,2|0,0:1|1:0,0:0:0:0:
429,184,112460,1,2,0:1:0:0:
429,184,112627,2,0,P|438:143|456:114,1,74.2499977340699,0|2,3:0|3:1,3:3:0:0:
395,52,112960,2,0,L|248:69,1,148.49999546814,0|2,1:2|0:1,3:3:0:0:
169,44,113460,2,0,P|165:79|194:131,2,74.2499977340699,0|0|0,3:0|1:0|3:0,0:0:0:0:
94,124,113960,2,0,P|54:116|20:117,1,74.2499977340699,2|0,0:1|3:0,0:0:0:0:
144,190,114293,2,0,P|184:198|218:197,1,74.2499977340699,4|0,1:2|0:0,0:0:0:0:
296,151,114627,5,6,0:1:0:0:
296,151,114793,1,0,0:0:0:0:
363,220,114960,2,0,P|397:224|439:220,1,74.2499977340699
499,300,115293,1,2,0:1:0:0:
499,300,115460,1,0,0:0:0:0:
415,349,115627,2,0,P|381:353|339:349,1,74.2499977340699
256,303,115960,6,0,L|240:255,3,37.1249988670349
277,251,116293,2,0,L|293:203,3,37.1249988670349
255,199,116627,2,0,L|239:151,3,37.1249988670349
274,143,116960,2,0,L|290:95,3,37.1249988670349
274,87,117293,6,0,B|198:99|148:40|148:40|78:71|85:140,3,264
256,192,121627,12,0,122627,0:0:0:0:
