osu file format v14

[General]
AudioFilename: audio.ogg
AudioLeadIn: 0
PreviewTime: 15228
Countdown: 0
SampleSet: Soft
StackLeniency: 0.7
Mode: 3
LetterboxInBreaks: 0
SpecialStyle: 0
WidescreenStoryboard: 1

[Editor]
DistanceSpacing: 1
BeatDivisor: 4
GridSize: 32
TimelineZoom: 2.4

[Metadata]
Title:Petite Queen
TitleUnicode:Petite Queen
Artist:BEMANI Sound Team "HuMeR" feat. Yukimame
ArtistUnicode:BEMANI Sound Team "HuΣeR" feat. ゆきまめ
Creator:BKwind
Version:DP Another
Source:ノスタルジア Op.3
Tags:Video Game piano conlang constructed language NOSTALGIA pop'n music 解明リドルズ Lively Konami Amusement Aritomo Hamada 濵田有共 ポップンミュージック pnm kaimei riddles Double Play 14K2S 14K+2 MJH
BeatmapID:4325519
BeatmapSetID:2067605

[Difficulty]
HPDrainRate:8
CircleSize:16
OverallDifficulty:8
ApproachRate:5
SliderMultiplier:1.4
SliderTickRate:1

[Events]
//Background and Video events
0,0,"BG fix.jpg",0,0
//Break Periods
//Storyboard Layer 0 (Background)
//Storyboard Layer 1 (Fail)
//Storyboard Layer 2 (Pass)
//Storyboard Layer 3 (Foreground)
//Storyboard Layer 4 (Overlay)
//Storyboard Sound Samples

[TimingPoints]
988,400,3,2,1,60,1,0
8188,480,3,2,1,60,1,0
8188,-83.3333333333333,3,2,1,60,0,0
9628,600,4,2,1,60,1,0
9628,-66.6666666666667,4,2,1,60,0,0
12028,400,4,2,1,60,1,0
39228,428.571428571429,4,2,1,60,1,0
39228,-93.3333831111377,4,2,1,60,0,0
39656,461.538461538462,4,2,1,60,1,0
39656,-86.6671288913541,4,2,1,60,0,0
40117,545.454545454545,4,2,1,60,1,0
40117,-73.3333528888941,4,2,1,60,0,0
40662,800,4,2,1,60,1,0
40662,-50,4,2,1,60,0,0
41462,400,4,2,1,60,1,0
59062,428.571428571429,4,2,1,60,1,0
59062,-93.3333831111377,4,2,1,60,0,0
59490,461.538461538462,4,2,1,60,1,0
59490,-86.6671288913541,4,2,1,60,0,0
59951,545.454545454546,4,2,1,60,1,0
59951,-73.3333528888941,4,2,1,60,0,0
60496,800,4,2,1,60,1,0
60496,-50,4,2,1,60,0,0
61296,400,4,2,1,60,1,0
82096,394.736842105263,4,2,1,60,1,0
82096,-101.376695525233,4,2,1,60,0,0
83674,389.61038961039,4,2,1,60,1,0
83674,-102.669404517454,4,2,1,60,0,0
85232,384.615384615385,4,2,1,60,1,0
85232,-104.000049920024,4,2,1,60,0,0
86770,379.746835443038,4,2,1,60,1,0
86770,-105.333343164445,4,2,1,60,0,0
117149,387.096774193548,4,2,1,60,1,0
117149,-103.333337122222,4,2,1,60,0,0
118697,400,4,2,1,60,1,0
121897,428.571428571429,4,2,1,60,1,0
121897,-93.3333831111377,4,2,1,60,0,0
122325,461.538461538462,4,2,1,60,1,0
122325,-86.6666669555556,4,2,1,60,0,0
122786,545.454545454546,4,2,1,60,1,0
122786,-73.3333528888941,4,2,1,60,0,0
123331,705.882352941176,4,2,1,60,1,0
123331,-56.6666667422222,4,2,1,60,0,0
124036,400,4,2,1,60,1,0

[HitObjects]
208,192,988,5,0,0:0:0:0:
80,192,988,1,0,0:0:0:0:
400,192,988,1,0,0:0:0:0:
336,192,988,1,0,0:0:0:0:
208,192,1388,1,0,0:0:0:0:
464,192,1588,1,0,0:0:0:0:
208,192,1788,1,0,0:0:0:0:
176,192,2188,1,0,0:0:0:0:
48,192,2188,1,0,0:0:0:0:
368,192,2188,1,0,0:0:0:0:
304,192,2188,1,0,0:0:0:0:
176,192,2588,1,0,0:0:0:0:
176,192,2988,1,0,0:0:0:0:
336,192,2988,1,0,0:0:0:0:
400,192,3188,1,0,0:0:0:0:
432,192,3388,1,0,0:0:0:0:
304,192,3388,1,0,0:0:0:0:
208,192,3388,1,0,0:0:0:0:
80,192,3388,1,0,0:0:0:0:
144,192,3788,1,0,0:0:0:0:
368,192,3988,1,0,0:0:0:0:
208,192,4188,1,0,0:0:0:0:
432,192,4388,1,0,0:0:0:0:
272,192,4588,1,0,0:0:0:0:
400,192,4588,1,0,0:0:0:0:
176,192,4588,1,0,0:0:0:0:
48,192,4588,1,0,0:0:0:0:
368,192,4788,1,0,0:0:0:0:
336,192,4988,1,0,0:0:0:0:
112,192,4988,1,0,0:0:0:0:
240,192,5388,1,0,0:0:0:0:
304,192,5388,1,0,0:0:0:0:
368,192,5588,1,0,0:0:0:0:
432,192,5788,1,0,0:0:0:0:
272,192,5788,1,0,0:0:0:0:
208,192,5788,1,0,0:0:0:0:
80,192,5788,1,0,0:0:0:0:
464,192,6388,1,0,0:0:0:0:
208,192,6588,1,0,0:0:0:0:
240,192,6988,1,0,0:0:0:0:
176,192,6988,1,0,0:0:0:0:
112,192,6988,1,0,0:0:0:0:
400,192,6988,1,0,0:0:0:0:
464,192,6988,1,0,0:0:0:0:
368,192,7388,1,0,0:0:0:0:
336,192,7788,1,0,0:0:0:0:
336,192,8188,1,0,0:0:0:0:
400,192,8668,1,0,0:0:0:0:
336,192,8908,1,0,0:0:0:0:
272,192,9388,1,0,0:0:0:0:
208,192,9628,1,0,0:0:0:0:
80,192,9628,1,0,0:0:0:0:
432,192,9928,1,0,0:0:0:0:
336,192,10228,1,0,0:0:0:0:
176,192,10228,1,0,0:0:0:0:
48,192,10228,1,0,0:0:0:0:
272,192,11278,1,0,0:0:0:0:
176,192,11353,1,0,0:0:0:0:
112,192,11353,1,0,0:0:0:0:
336,192,11390,1,0,0:0:0:0:
400,192,11428,1,0,0:0:0:0:
464,192,11465,128,0,14428:0:0:0:0:
48,192,12028,1,0,0:0:0:0:
144,192,12228,1,0,0:0:0:0:
208,192,12328,1,0,0:0:0:0:
48,192,12428,1,0,0:0:0:0:
336,192,12428,1,0,0:0:0:0:
144,192,12628,1,0,0:0:0:0:
208,192,12728,1,0,0:0:0:0:
48,192,12828,1,0,0:0:0:0:
336,192,12828,1,0,0:0:0:0:
144,192,13028,1,0,0:0:0:0:
208,192,13128,1,0,0:0:0:0:
48,192,13228,1,0,0:0:0:0:
336,192,13228,1,0,0:0:0:0:
112,192,13328,1,0,0:0:0:0:
176,192,13428,1,0,0:0:0:0:
240,192,13528,1,0,0:0:0:0:
80,192,13628,1,0,0:0:0:0:
336,192,13628,1,0,0:0:0:0:
208,192,13728,1,0,0:0:0:0:
80,192,13828,1,0,0:0:0:0:
208,192,13928,1,0,0:0:0:0:
80,192,14028,1,0,0:0:0:0:
336,192,14028,1,0,0:0:0:0:
208,192,14128,1,0,0:0:0:0:
80,192,14228,1,0,0:0:0:0:
208,192,14328,1,0,0:0:0:0:
16,192,14428,1,0,0:0:0:0:
336,192,14428,1,0,0:0:0:0:
400,192,14428,1,0,0:0:0:0:
272,192,14428,1,0,0:0:0:0:
240,192,14828,1,0,0:0:0:0:
112,192,14828,1,0,0:0:0:0:
496,192,15228,1,0,0:0:0:0:
240,192,15228,1,0,0:0:0:0:
112,192,15228,1,0,0:0:0:0:
336,192,15428,1,0,0:0:0:0:
400,192,15428,1,0,0:0:0:0:
208,192,15628,1,0,0:0:0:0:
80,192,15628,1,0,0:0:0:0:
400,192,15828,1,0,0:0:0:0:
464,192,15828,1,0,0:0:0:0:
112,192,16028,1,0,0:0:0:0:
48,192,16028,1,0,0:0:0:0:
496,192,16028,1,0,0:0:0:0:
144,192,16228,1,0,0:0:0:0:
208,192,16228,1,0,0:0:0:0:
400,192,16228,1,0,0:0:0:0:
336,192,16228,1,0,0:0:0:0:
176,192,16428,1,0,0:0:0:0:
240,192,16428,1,0,0:0:0:0:
368,192,16628,1,0,0:0:0:0:
304,192,16628,1,0,0:0:0:0:
496,192,16828,1,0,0:0:0:0:
144,192,17028,1,0,0:0:0:0:
80,192,17028,1,0,0:0:0:0:
400,192,17028,1,0,0:0:0:0:
336,192,17028,1,0,0:0:0:0:
496,192,17228,1,0,0:0:0:0:
144,192,17428,1,0,0:0:0:0:
208,192,17428,1,0,0:0:0:0:
400,192,17428,1,0,0:0:0:0:
464,192,17428,1,0,0:0:0:0:
112,192,17628,1,0,0:0:0:0:
48,192,17628,1,0,0:0:0:0:
496,192,17628,1,0,0:0:0:0:
144,192,17828,1,0,0:0:0:0:
208,192,17828,1,0,0:0:0:0:
368,192,17828,1,0,0:0:0:0:
432,192,17828,1,0,0:0:0:0:
176,192,18028,1,0,0:0:0:0:
240,192,18028,1,0,0:0:0:0:
336,192,18228,1,0,0:0:0:0:
400,192,18428,1,0,0:0:0:0:
272,192,18428,1,0,0:0:0:0:
16,192,18428,1,0,0:0:0:0:
112,192,18628,1,0,0:0:0:0:
176,192,18628,1,0,0:0:0:0:
304,192,18828,1,0,0:0:0:0:
432,192,18828,1,0,0:0:0:0:
176,192,19028,1,0,0:0:0:0:
240,192,19028,1,0,0:0:0:0:
336,192,19228,1,0,0:0:0:0:
272,192,19228,1,0,0:0:0:0:
16,192,19228,1,0,0:0:0:0:
368,192,19428,1,0,0:0:0:0:
432,192,19428,1,0,0:0:0:0:
144,192,19428,1,0,0:0:0:0:
208,192,19428,1,0,0:0:0:0:
272,192,19628,1,0,0:0:0:0:
464,192,19628,1,0,0:0:0:0:
304,192,19728,1,0,0:0:0:0:
336,192,19828,1,0,0:0:0:0:
144,192,19828,1,0,0:0:0:0:
80,192,19828,1,0,0:0:0:0:
368,192,19928,1,0,0:0:0:0:
272,192,20028,1,0,0:0:0:0:
464,192,20028,1,0,0:0:0:0:
16,192,20028,1,0,0:0:0:0:
112,192,20228,1,0,0:0:0:0:
48,192,20228,1,0,0:0:0:0:
432,192,20428,1,0,0:0:0:0:
16,192,20428,1,0,0:0:0:0:
368,192,20428,1,0,0:0:0:0:
400,192,20628,1,0,0:0:0:0:
336,192,20628,1,0,0:0:0:0:
176,192,20628,1,0,0:0:0:0:
240,192,20628,1,0,0:0:0:0:
16,192,20828,1,0,0:0:0:0:
368,192,20828,1,0,0:0:0:0:
304,192,20828,1,0,0:0:0:0:
400,192,21028,1,0,0:0:0:0:
144,192,21028,1,0,0:0:0:0:
208,192,21028,1,0,0:0:0:0:
336,192,21128,1,0,0:0:0:0:
272,192,21228,1,0,0:0:0:0:
464,192,21228,1,0,0:0:0:0:
368,192,21428,1,0,0:0:0:0:
496,192,21628,1,0,0:0:0:0:
240,192,21628,1,0,0:0:0:0:
112,192,21628,1,0,0:0:0:0:
336,192,21828,1,0,0:0:0:0:
400,192,21828,1,0,0:0:0:0:
208,192,22028,1,0,0:0:0:0:
80,192,22028,1,0,0:0:0:0:
400,192,22228,1,0,0:0:0:0:
464,192,22228,1,0,0:0:0:0:
112,192,22428,1,0,0:0:0:0:
48,192,22428,1,0,0:0:0:0:
496,192,22428,1,0,0:0:0:0:
144,192,22628,1,0,0:0:0:0:
208,192,22628,1,0,0:0:0:0:
400,192,22628,1,0,0:0:0:0:
336,192,22628,1,0,0:0:0:0:
176,192,22828,1,0,0:0:0:0:
240,192,22828,1,0,0:0:0:0:
368,192,23028,1,0,0:0:0:0:
304,192,23028,1,0,0:0:0:0:
496,192,23228,1,0,0:0:0:0:
144,192,23428,1,0,0:0:0:0:
80,192,23428,1,0,0:0:0:0:
400,192,23428,1,0,0:0:0:0:
336,192,23428,1,0,0:0:0:0:
496,192,23628,1,0,0:0:0:0:
144,192,23828,1,0,0:0:0:0:
208,192,23828,1,0,0:0:0:0:
400,192,23828,1,0,0:0:0:0:
464,192,23828,1,0,0:0:0:0:
112,192,24028,1,0,0:0:0:0:
48,192,24028,1,0,0:0:0:0:
496,192,24028,1,0,0:0:0:0:
144,192,24228,1,0,0:0:0:0:
208,192,24228,1,0,0:0:0:0:
368,192,24228,1,0,0:0:0:0:
432,192,24228,1,0,0:0:0:0:
176,192,24428,1,0,0:0:0:0:
240,192,24428,1,0,0:0:0:0:
144,192,24628,1,0,0:0:0:0:
80,192,24628,1,0,0:0:0:0:
336,192,24628,1,0,0:0:0:0:
272,192,24828,1,0,0:0:0:0:
16,192,24828,1,0,0:0:0:0:
464,192,24828,1,0,0:0:0:0:
112,192,25028,1,0,0:0:0:0:
176,192,25028,1,0,0:0:0:0:
336,192,25228,1,0,0:0:0:0:
464,192,25228,1,0,0:0:0:0:
176,192,25428,1,0,0:0:0:0:
240,192,25428,1,0,0:0:0:0:
432,192,25428,1,0,0:0:0:0:
304,192,25428,1,0,0:0:0:0:
272,192,25628,1,0,0:0:0:0:
16,192,25628,1,0,0:0:0:0:
400,192,25628,1,0,0:0:0:0:
144,192,25828,1,0,0:0:0:0:
208,192,25828,1,0,0:0:0:0:
464,192,26028,1,0,0:0:0:0:
368,192,26028,1,0,0:0:0:0:
144,192,26228,1,0,0:0:0:0:
80,192,26228,1,0,0:0:0:0:
432,192,26228,1,0,0:0:0:0:
304,192,26228,1,0,0:0:0:0:
272,192,26428,1,0,0:0:0:0:
16,192,26428,1,0,0:0:0:0:
368,192,26428,1,0,0:0:0:0:
464,192,26428,1,0,0:0:0:0:
304,192,26628,1,0,0:0:0:0:
208,192,26628,1,0,0:0:0:0:
144,192,26828,1,0,0:0:0:0:
80,192,26828,1,0,0:0:0:0:
240,192,26828,1,0,0:0:0:0:
432,192,26828,1,0,0:0:0:0:
176,192,27028,1,0,0:0:0:0:
336,192,27028,1,0,0:0:0:0:
240,192,27228,1,0,0:0:0:0:
48,192,27228,1,0,0:0:0:0:
464,192,27228,1,0,0:0:0:0:
400,192,27328,1,0,0:0:0:0:
176,192,27428,1,0,0:0:0:0:
368,192,27428,1,0,0:0:0:0:
304,192,27528,1,0,0:0:0:0:
176,192,27628,1,0,0:0:0:0:
432,192,27628,1,0,0:0:0:0:
368,192,27728,1,0,0:0:0:0:
336,192,27828,1,0,0:0:0:0:
272,192,27928,1,0,0:0:0:0:
496,192,28028,1,0,0:0:0:0:
48,192,28028,1,0,0:0:0:0:
144,192,28228,1,0,0:0:0:0:
80,192,28328,1,0,0:0:0:0:
144,192,28428,1,0,0:0:0:0:
368,192,28428,1,0,0:0:0:0:
176,192,28628,1,0,0:0:0:0:
112,192,28728,1,0,0:0:0:0:
176,192,28828,1,0,0:0:0:0:
336,192,28828,1,0,0:0:0:0:
208,192,29028,1,0,0:0:0:0:
432,192,29028,1,0,0:0:0:0:
144,192,29128,1,0,0:0:0:0:
208,192,29228,1,0,0:0:0:0:
304,192,29228,1,0,0:0:0:0:
112,192,29328,1,0,0:0:0:0:
176,192,29428,1,0,0:0:0:0:
432,192,29428,1,0,0:0:0:0:
240,192,29528,1,0,0:0:0:0:
368,192,29528,1,0,0:0:0:0:
304,192,29628,1,0,0:0:0:0:
80,192,29628,1,0,0:0:0:0:
368,192,29828,1,0,0:0:0:0:
432,192,29928,1,0,0:0:0:0:
368,192,30028,1,0,0:0:0:0:
336,192,30228,1,0,0:0:0:0:
400,192,30328,1,0,0:0:0:0:
336,192,30428,1,0,0:0:0:0:
112,192,30428,1,0,0:0:0:0:
304,192,30628,1,0,0:0:0:0:
208,192,30628,1,0,0:0:0:0:
368,192,30728,1,0,0:0:0:0:
304,192,30828,1,0,0:0:0:0:
144,192,30828,1,0,0:0:0:0:
400,192,30928,1,0,0:0:0:0:
336,192,31028,1,0,0:0:0:0:
208,192,31028,1,0,0:0:0:0:
272,192,31128,1,0,0:0:0:0:
48,192,31228,1,0,0:0:0:0:
432,192,31228,1,0,0:0:0:0:
144,192,31428,1,0,0:0:0:0:
80,192,31528,1,0,0:0:0:0:
144,192,31628,1,0,0:0:0:0:
336,192,31628,1,0,0:0:0:0:
176,192,31828,1,0,0:0:0:0:
112,192,31928,1,0,0:0:0:0:
176,192,32028,1,0,0:0:0:0:
400,192,32028,1,0,0:0:0:0:
208,192,32228,1,0,0:0:0:0:
464,192,32228,1,0,0:0:0:0:
144,192,32328,1,0,0:0:0:0:
208,192,32428,1,0,0:0:0:0:
336,192,32428,1,0,0:0:0:0:
112,192,32528,1,0,0:0:0:0:
432,192,32628,1,0,0:0:0:0:
176,192,32628,1,0,0:0:0:0:
368,192,32728,1,0,0:0:0:0:
240,192,32728,1,0,0:0:0:0:
304,192,32828,1,0,0:0:0:0:
80,192,32828,1,0,0:0:0:0:
368,192,33028,1,0,0:0:0:0:
432,192,33128,1,0,0:0:0:0:
208,192,33128,1,0,0:0:0:0:
368,192,33228,1,0,0:0:0:0:
80,192,33228,1,0,0:0:0:0:
208,192,33328,1,0,0:0:0:0:
336,192,33428,1,0,0:0:0:0:
48,192,33428,1,0,0:0:0:0:
112,192,33478,1,0,0:0:0:0:
400,192,33528,1,0,0:0:0:0:
176,192,33528,1,0,0:0:0:0:
240,192,33578,1,0,0:0:0:0:
336,192,33628,1,0,0:0:0:0:
80,192,33628,1,0,0:0:0:0:
304,192,33828,1,0,0:0:0:0:
144,192,33828,1,0,0:0:0:0:
368,192,33928,1,0,0:0:0:0:
304,192,34028,1,0,0:0:0:0:
208,192,34028,1,0,0:0:0:0:
400,192,34128,1,0,0:0:0:0:
144,192,34228,1,0,0:0:0:0:
336,192,34228,1,0,0:0:0:0:
272,192,34328,1,0,0:0:0:0:
48,192,34428,1,0,0:0:0:0:
496,192,34428,1,0,0:0:0:0:
112,192,34528,1,0,0:0:0:0:
368,192,34628,1,0,0:0:0:0:
176,192,34628,1,0,0:0:0:0:
432,192,34728,1,0,0:0:0:0:
240,192,34728,1,0,0:0:0:0:
80,192,34828,1,0,0:0:0:0:
368,192,34828,1,0,0:0:0:0:
144,192,34928,1,0,0:0:0:0:
208,192,35028,1,0,0:0:0:0:
336,192,35028,1,0,0:0:0:0:
144,192,35128,1,0,0:0:0:0:
400,192,35128,1,0,0:0:0:0:
336,192,35228,1,0,0:0:0:0:
48,192,35228,1,0,0:0:0:0:
112,192,35328,1,0,0:0:0:0:
304,192,35428,1,0,0:0:0:0:
176,192,35428,1,0,0:0:0:0:
368,192,35528,1,0,0:0:0:0:
240,192,35528,1,0,0:0:0:0:
112,192,35628,1,0,0:0:0:0:
304,192,35628,1,0,0:0:0:0:
144,192,35728,1,0,0:0:0:0:
400,192,35728,1,0,0:0:0:0:
176,192,35828,1,0,0:0:0:0:
336,192,35828,1,0,0:0:0:0:
208,192,35928,1,0,0:0:0:0:
272,192,35928,1,0,0:0:0:0:
464,192,36028,1,0,0:0:0:0:
48,192,36028,1,0,0:0:0:0:
400,192,36128,1,0,0:0:0:0:
336,192,36228,1,0,0:0:0:0:
144,192,36228,1,0,0:0:0:0:
80,192,36328,1,0,0:0:0:0:
272,192,36328,1,0,0:0:0:0:
432,192,36428,1,0,0:0:0:0:
144,192,36428,1,0,0:0:0:0:
368,192,36528,1,0,0:0:0:0:
304,192,36628,1,0,0:0:0:0:
176,192,36628,1,0,0:0:0:0:
368,192,36728,1,0,0:0:0:0:
112,192,36728,1,0,0:0:0:0:
176,192,36828,1,0,0:0:0:0:
464,192,36828,1,0,0:0:0:0:
400,192,36928,1,0,0:0:0:0:
208,192,37028,1,0,0:0:0:0:
336,192,37028,1,0,0:0:0:0:
144,192,37128,1,0,0:0:0:0:
400,192,37128,1,0,0:0:0:0:
464,192,37228,1,0,0:0:0:0:
208,192,37228,1,0,0:0:0:0:
432,192,37328,1,0,0:0:0:0:
112,192,37328,1,0,0:0:0:0:
368,192,37428,1,0,0:0:0:0:
176,192,37428,1,0,0:0:0:0:
304,192,37528,1,0,0:0:0:0:
240,192,37528,1,0,0:0:0:0:
496,192,37628,1,0,0:0:0:0:
112,192,37628,1,0,0:0:0:0:
48,192,37628,1,0,0:0:0:0:
208,192,37828,1,0,0:0:0:0:
208,192,38028,1,0,0:0:0:0:
80,192,38028,1,0,0:0:0:0:
304,192,38028,1,0,0:0:0:0:
432,192,38028,1,0,0:0:0:0:
400,192,38428,1,0,0:0:0:0:
464,192,38428,1,0,0:0:0:0:
16,192,38428,1,0,0:0:0:0:
336,192,38628,1,0,0:0:0:0:
336,192,38828,1,0,0:0:0:0:
432,192,38828,1,0,0:0:0:0:
176,192,38828,1,0,0:0:0:0:
80,192,38828,1,0,0:0:0:0:
176,192,39028,1,0,0:0:0:0:
496,192,39228,1,0,0:0:0:0:
48,192,39228,1,0,0:0:0:0:
144,192,39228,1,0,0:0:0:0:
144,192,39442,1,0,0:0:0:0:
16,192,39656,1,0,0:0:0:0:
304,192,39656,1,0,0:0:0:0:
400,192,39656,1,0,0:0:0:0:
304,192,39886,1,0,0:0:0:0:
496,192,40117,1,0,0:0:0:0:
208,192,40117,1,0,0:0:0:0:
112,192,40117,1,0,0:0:0:0:
208,192,40389,5,0,0:0:0:0:
368,192,40662,1,0,0:0:0:0:
464,192,40662,1,0,0:0:0:0:
16,192,40662,1,0,0:0:0:0:
368,192,41062,1,0,0:0:0:0:
16,192,41462,5,0,0:0:0:0:
272,192,41462,1,0,0:0:0:0:
400,192,41462,1,0,0:0:0:0:
176,192,41662,1,0,0:0:0:0:
112,192,41662,1,0,0:0:0:0:
304,192,41862,1,0,0:0:0:0:
432,192,41862,1,0,0:0:0:0:
176,192,42062,1,0,0:0:0:0:
240,192,42062,1,0,0:0:0:0:
368,192,42262,1,0,0:0:0:0:
272,192,42262,1,0,0:0:0:0:
16,192,42262,1,0,0:0:0:0:
304,192,42462,1,0,0:0:0:0:
432,192,42462,1,0,0:0:0:0:
144,192,42462,1,0,0:0:0:0:
208,192,42462,1,0,0:0:0:0:
368,192,42662,1,0,0:0:0:0:
464,192,42662,1,0,0:0:0:0:
112,192,42862,1,0,0:0:0:0:
48,192,42862,1,0,0:0:0:0:
16,192,43062,1,0,0:0:0:0:
368,192,43262,1,0,0:0:0:0:
304,192,43262,1,0,0:0:0:0:
112,192,43262,1,0,0:0:0:0:
176,192,43262,1,0,0:0:0:0:
16,192,43462,1,0,0:0:0:0:
368,192,43662,1,0,0:0:0:0:
432,192,43662,1,0,0:0:0:0:
176,192,43662,1,0,0:0:0:0:
240,192,43662,1,0,0:0:0:0:
336,192,43862,1,0,0:0:0:0:
272,192,43862,1,0,0:0:0:0:
16,192,43862,1,0,0:0:0:0:
368,192,44062,1,0,0:0:0:0:
432,192,44062,1,0,0:0:0:0:
208,192,44062,1,0,0:0:0:0:
144,192,44062,1,0,0:0:0:0:
400,192,44262,1,0,0:0:0:0:
464,192,44262,1,0,0:0:0:0:
112,192,44462,1,0,0:0:0:0:
48,192,44462,1,0,0:0:0:0:
272,192,44662,1,0,0:0:0:0:
464,192,44662,1,0,0:0:0:0:
112,192,44795,1,0,0:0:0:0:
272,192,44928,1,0,0:0:0:0:
336,192,45062,1,0,0:0:0:0:
176,192,45195,1,0,0:0:0:0:
336,192,45328,1,0,0:0:0:0:
400,192,45462,1,0,0:0:0:0:
240,192,45595,1,0,0:0:0:0:
400,192,45728,1,0,0:0:0:0:
176,192,45862,1,0,0:0:0:0:
336,192,45995,1,0,0:0:0:0:
176,192,46128,1,0,0:0:0:0:
304,192,46262,1,0,0:0:0:0:
80,192,46395,1,0,0:0:0:0:
304,192,46528,1,0,0:0:0:0:
432,192,46662,1,0,0:0:0:0:
208,192,46795,1,0,0:0:0:0:
432,192,46928,1,0,0:0:0:0:
368,192,47062,1,0,0:0:0:0:
144,192,47195,1,0,0:0:0:0:
368,192,47328,1,0,0:0:0:0:
304,192,47462,1,0,0:0:0:0:
80,192,47595,1,0,0:0:0:0:
304,192,47728,1,0,0:0:0:0:
496,192,47862,1,0,0:0:0:0:
240,192,47862,1,0,0:0:0:0:
112,192,47862,1,0,0:0:0:0:
400,192,48062,1,0,0:0:0:0:
336,192,48062,1,0,0:0:0:0:
208,192,48262,1,0,0:0:0:0:
80,192,48262,1,0,0:0:0:0:
400,192,48462,1,0,0:0:0:0:
464,192,48462,1,0,0:0:0:0:
144,192,48662,1,0,0:0:0:0:
48,192,48662,1,0,0:0:0:0:
496,192,48662,1,0,0:0:0:0:
80,192,48862,1,0,0:0:0:0:
208,192,48862,1,0,0:0:0:0:
432,192,48862,1,0,0:0:0:0:
368,192,48862,1,0,0:0:0:0:
144,192,49062,1,0,0:0:0:0:
240,192,49062,1,0,0:0:0:0:
336,192,49262,1,0,0:0:0:0:
272,192,49262,1,0,0:0:0:0:
496,192,49462,1,0,0:0:0:0:
144,192,49662,1,0,0:0:0:0:
80,192,49662,1,0,0:0:0:0:
400,192,49662,1,0,0:0:0:0:
336,192,49662,1,0,0:0:0:0:
496,192,49862,1,0,0:0:0:0:
144,192,50062,1,0,0:0:0:0:
208,192,50062,1,0,0:0:0:0:
464,192,50062,1,0,0:0:0:0:
400,192,50062,1,0,0:0:0:0:
112,192,50262,1,0,0:0:0:0:
48,192,50262,1,0,0:0:0:0:
496,192,50262,1,0,0:0:0:0:
144,192,50462,1,0,0:0:0:0:
208,192,50462,1,0,0:0:0:0:
432,192,50462,1,0,0:0:0:0:
368,192,50462,1,0,0:0:0:0:
176,192,50662,1,0,0:0:0:0:
240,192,50662,1,0,0:0:0:0:
144,192,50862,1,0,0:0:0:0:
80,192,50862,1,0,0:0:0:0:
336,192,50862,1,0,0:0:0:0:
272,192,50862,1,0,0:0:0:0:
176,192,51062,1,0,0:0:0:0:
48,192,51062,1,0,0:0:0:0:
336,192,51195,1,0,0:0:0:0:
176,192,51328,1,0,0:0:0:0:
272,192,51462,1,0,0:0:0:0:
112,192,51595,1,0,0:0:0:0:
272,192,51728,1,0,0:0:0:0:
368,192,51862,1,0,0:0:0:0:
144,192,51995,1,0,0:0:0:0:
368,192,52128,1,0,0:0:0:0:
80,192,52262,1,0,0:0:0:0:
304,192,52395,1,0,0:0:0:0:
80,192,52528,1,0,0:0:0:0:
176,192,52662,1,0,0:0:0:0:
336,192,52795,1,0,0:0:0:0:
176,192,52928,1,0,0:0:0:0:
112,192,53062,1,0,0:0:0:0:
272,192,53195,1,0,0:0:0:0:
112,192,53328,1,0,0:0:0:0:
144,192,53462,1,0,0:0:0:0:
368,192,53595,1,0,0:0:0:0:
144,192,53728,1,0,0:0:0:0:
176,192,53862,1,0,0:0:0:0:
400,192,53995,1,0,0:0:0:0:
176,192,54128,1,0,0:0:0:0:
16,192,54262,1,0,0:0:0:0:
272,192,54262,1,0,0:0:0:0:
336,192,54262,1,0,0:0:0:0:
272,192,54528,1,0,0:0:0:0:
336,192,54528,1,0,0:0:0:0:
400,192,54662,1,0,0:0:0:0:
464,192,54662,1,0,0:0:0:0:
176,192,54662,1,0,0:0:0:0:
48,192,54662,1,0,0:0:0:0:
400,192,54928,1,0,0:0:0:0:
464,192,54928,1,0,0:0:0:0:
368,192,55062,1,0,0:0:0:0:
304,192,55062,1,0,0:0:0:0:
16,192,55062,1,0,0:0:0:0:
368,192,55328,1,0,0:0:0:0:
432,192,55328,1,0,0:0:0:0:
336,192,55462,1,0,0:0:0:0:
272,192,55462,1,0,0:0:0:0:
176,192,55462,1,0,0:0:0:0:
48,192,55462,1,0,0:0:0:0:
336,192,55728,1,0,0:0:0:0:
272,192,55728,1,0,0:0:0:0:
240,192,55862,1,0,0:0:0:0:
176,192,55862,1,0,0:0:0:0:
496,192,55862,1,0,0:0:0:0:
240,192,56128,1,0,0:0:0:0:
176,192,56128,1,0,0:0:0:0:
112,192,56262,1,0,0:0:0:0:
48,192,56262,1,0,0:0:0:0:
400,192,56262,1,0,0:0:0:0:
272,192,56262,1,0,0:0:0:0:
48,192,56528,1,0,0:0:0:0:
112,192,56528,1,0,0:0:0:0:
144,192,56662,1,0,0:0:0:0:
208,192,56662,1,0,0:0:0:0:
496,192,56662,1,0,0:0:0:0:
144,192,56928,1,0,0:0:0:0:
80,192,56928,1,0,0:0:0:0:
176,192,57062,1,0,0:0:0:0:
240,192,57062,1,0,0:0:0:0:
432,192,57062,1,0,0:0:0:0:
368,192,57128,1,0,0:0:0:0:
304,192,57195,1,0,0:0:0:0:
400,192,57262,1,0,0:0:0:0:
240,192,57328,1,0,0:0:0:0:
176,192,57328,1,0,0:0:0:0:
464,192,57362,1,0,0:0:0:0:
272,192,57462,1,0,0:0:0:0:
336,192,57462,1,0,0:0:0:0:
16,192,57462,1,0,0:0:0:0:
400,192,57595,1,0,0:0:0:0:
336,192,57728,1,0,0:0:0:0:
464,192,57862,1,0,0:0:0:0:
176,192,57862,1,0,0:0:0:0:
48,192,57862,1,0,0:0:0:0:
400,192,57995,1,0,0:0:0:0:
464,192,58128,1,0,0:0:0:0:
432,192,58262,1,0,0:0:0:0:
16,192,58262,1,0,0:0:0:0:
368,192,58395,1,0,0:0:0:0:
432,192,58528,1,0,0:0:0:0:
400,192,58662,1,0,0:0:0:0:
176,192,58662,1,0,0:0:0:0:
48,192,58662,1,0,0:0:0:0:
336,192,58795,1,0,0:0:0:0:
400,192,58928,1,0,0:0:0:0:
112,192,59062,1,0,0:0:0:0:
48,192,59062,1,0,0:0:0:0:
496,192,59062,1,0,0:0:0:0:
176,192,59204,1,0,0:0:0:0:
112,192,59347,1,0,0:0:0:0:
208,192,59490,1,0,0:0:0:0:
272,192,59490,1,0,0:0:0:0:
400,192,59490,1,0,0:0:0:0:
144,192,59643,1,0,0:0:0:0:
208,192,59797,1,0,0:0:0:0:
240,192,59951,1,0,0:0:0:0:
496,192,59951,1,0,0:0:0:0:
176,192,60132,1,0,0:0:0:0:
240,192,60314,1,0,0:0:0:0:
304,192,60496,1,0,0:0:0:0:
432,192,60496,1,0,0:0:0:0:
208,192,60762,1,0,0:0:0:0:
80,192,60762,1,0,0:0:0:0:
304,192,61029,1,0,0:0:0:0:
432,192,61029,1,0,0:0:0:0:
112,192,61296,5,0,0:0:0:0:
400,192,61496,1,0,0:0:0:0:
336,192,61496,1,0,0:0:0:0:
240,192,61696,1,0,0:0:0:0:
400,192,61896,1,0,0:0:0:0:
336,192,61896,1,0,0:0:0:0:
208,192,62096,1,0,0:0:0:0:
400,192,62296,1,0,0:0:0:0:
464,192,62296,1,0,0:0:0:0:
80,192,62496,1,0,0:0:0:0:
400,192,62696,1,0,0:0:0:0:
464,192,62696,1,0,0:0:0:0:
176,192,62896,1,0,0:0:0:0:
336,192,63096,1,0,0:0:0:0:
432,192,63096,1,0,0:0:0:0:
176,192,63296,1,0,0:0:0:0:
432,192,63496,1,0,0:0:0:0:
336,192,63496,1,0,0:0:0:0:
112,192,63696,1,0,0:0:0:0:
400,192,63896,1,0,0:0:0:0:
304,192,63896,1,0,0:0:0:0:
240,192,64096,1,0,0:0:0:0:
368,192,64296,1,0,0:0:0:0:
464,192,64296,1,0,0:0:0:0:
176,192,64496,1,0,0:0:0:0:
400,192,64696,1,0,0:0:0:0:
336,192,64696,1,0,0:0:0:0:
176,192,64896,1,0,0:0:0:0:
400,192,65096,1,0,0:0:0:0:
336,192,65096,1,0,0:0:0:0:
112,192,65296,1,0,0:0:0:0:
368,192,65496,1,0,0:0:0:0:
304,192,65496,1,0,0:0:0:0:
112,192,65696,1,0,0:0:0:0:
368,192,65896,1,0,0:0:0:0:
304,192,65896,1,0,0:0:0:0:
48,192,66096,1,0,0:0:0:0:
336,192,66296,1,0,0:0:0:0:
272,192,66296,1,0,0:0:0:0:
48,192,66496,1,0,0:0:0:0:
336,192,66696,1,0,0:0:0:0:
272,192,66696,1,0,0:0:0:0:
48,192,66896,1,0,0:0:0:0:
336,192,67096,1,0,0:0:0:0:
272,192,67096,1,0,0:0:0:0:
80,192,67296,1,0,0:0:0:0:
304,192,67496,1,0,0:0:0:0:
368,192,67496,1,0,0:0:0:0:
112,192,67696,1,0,0:0:0:0:
400,192,67896,1,0,0:0:0:0:
336,192,67896,1,0,0:0:0:0:
240,192,68096,1,0,0:0:0:0:
400,192,68296,1,0,0:0:0:0:
336,192,68296,1,0,0:0:0:0:
208,192,68496,1,0,0:0:0:0:
400,192,68696,1,0,0:0:0:0:
464,192,68696,1,0,0:0:0:0:
80,192,68896,1,0,0:0:0:0:
464,192,69096,1,0,0:0:0:0:
400,192,69096,1,0,0:0:0:0:
176,192,69296,1,0,0:0:0:0:
336,192,69496,1,0,0:0:0:0:
432,192,69496,1,0,0:0:0:0:
176,192,69696,1,0,0:0:0:0:
432,192,69896,1,0,0:0:0:0:
336,192,69896,1,0,0:0:0:0:
112,192,70096,1,0,0:0:0:0:
400,192,70296,1,0,0:0:0:0:
304,192,70296,1,0,0:0:0:0:
240,192,70496,1,0,0:0:0:0:
368,192,70696,1,0,0:0:0:0:
464,192,70696,1,0,0:0:0:0:
48,192,70896,1,0,0:0:0:0:
336,192,71096,1,0,0:0:0:0:
272,192,71096,1,0,0:0:0:0:
48,192,71296,1,0,0:0:0:0:
336,192,71496,1,0,0:0:0:0:
272,192,71496,1,0,0:0:0:0:
80,192,71696,1,0,0:0:0:0:
368,192,71896,1,0,0:0:0:0:
304,192,71896,1,0,0:0:0:0:
80,192,72096,1,0,0:0:0:0:
304,192,72296,1,0,0:0:0:0:
368,192,72296,1,0,0:0:0:0:
48,192,72496,1,0,0:0:0:0:
336,192,72696,1,0,0:0:0:0:
272,192,72696,1,0,0:0:0:0:
80,192,72896,1,0,0:0:0:0:
368,192,73096,1,0,0:0:0:0:
304,192,73096,1,0,0:0:0:0:
176,192,73296,1,0,0:0:0:0:
400,192,73496,1,0,0:0:0:0:
336,192,73496,1,0,0:0:0:0:
176,192,73696,1,0,0:0:0:0:
48,192,73696,1,0,0:0:0:0:
336,192,73896,1,0,0:0:0:0:
400,192,73896,1,0,0:0:0:0:
496,192,74096,1,0,0:0:0:0:
240,192,74096,1,0,0:0:0:0:
112,192,74096,1,0,0:0:0:0:
400,192,74296,1,0,0:0:0:0:
336,192,74296,1,0,0:0:0:0:
208,192,74496,1,0,0:0:0:0:
80,192,74496,1,0,0:0:0:0:
400,192,74696,1,0,0:0:0:0:
336,192,74696,1,0,0:0:0:0:
112,192,74896,1,0,0:0:0:0:
48,192,74896,1,0,0:0:0:0:
496,192,74896,1,0,0:0:0:0:
144,192,75096,1,0,0:0:0:0:
208,192,75096,1,0,0:0:0:0:
368,192,75096,1,0,0:0:0:0:
304,192,75096,1,0,0:0:0:0:
176,192,75296,1,0,0:0:0:0:
240,192,75296,1,0,0:0:0:0:
368,192,75496,1,0,0:0:0:0:
304,192,75496,1,0,0:0:0:0:
496,192,75696,1,0,0:0:0:0:
144,192,75896,1,0,0:0:0:0:
80,192,75896,1,0,0:0:0:0:
400,192,75896,1,0,0:0:0:0:
464,192,75896,1,0,0:0:0:0:
496,192,76096,1,0,0:0:0:0:
144,192,76296,1,0,0:0:0:0:
208,192,76296,1,0,0:0:0:0:
400,192,76296,1,0,0:0:0:0:
464,192,76296,1,0,0:0:0:0:
112,192,76496,1,0,0:0:0:0:
48,192,76496,1,0,0:0:0:0:
496,192,76496,1,0,0:0:0:0:
144,192,76696,1,0,0:0:0:0:
208,192,76696,1,0,0:0:0:0:
368,192,76696,1,0,0:0:0:0:
304,192,76696,1,0,0:0:0:0:
176,192,76896,1,0,0:0:0:0:
240,192,76896,1,0,0:0:0:0:
336,192,77096,1,0,0:0:0:0:
400,192,77296,1,0,0:0:0:0:
272,192,77296,1,0,0:0:0:0:
16,192,77296,1,0,0:0:0:0:
144,192,77496,1,0,0:0:0:0:
80,192,77496,1,0,0:0:0:0:
304,192,77696,1,0,0:0:0:0:
432,192,77696,1,0,0:0:0:0:
144,192,77896,1,0,0:0:0:0:
80,192,77896,1,0,0:0:0:0:
336,192,78096,1,0,0:0:0:0:
272,192,78096,1,0,0:0:0:0:
16,192,78096,1,0,0:0:0:0:
368,192,78296,1,0,0:0:0:0:
304,192,78296,1,0,0:0:0:0:
144,192,78296,1,0,0:0:0:0:
208,192,78296,1,0,0:0:0:0:
400,192,78496,1,0,0:0:0:0:
464,192,78496,1,0,0:0:0:0:
208,192,78696,1,0,0:0:0:0:
144,192,78696,1,0,0:0:0:0:
272,192,78896,1,0,0:0:0:0:
464,192,78896,1,0,0:0:0:0:
16,192,78896,1,0,0:0:0:0:
304,192,79096,1,0,0:0:0:0:
112,192,79096,1,0,0:0:0:0:
48,192,79096,1,0,0:0:0:0:
368,192,79196,1,0,0:0:0:0:
432,192,79296,1,0,0:0:0:0:
16,192,79296,1,0,0:0:0:0:
336,192,79396,1,0,0:0:0:0:
400,192,79496,1,0,0:0:0:0:
112,192,79496,1,0,0:0:0:0:
48,192,79496,1,0,0:0:0:0:
336,192,79596,1,0,0:0:0:0:
272,192,79696,1,0,0:0:0:0:
464,192,79696,1,0,0:0:0:0:
16,192,79696,1,0,0:0:0:0:
304,192,79796,1,0,0:0:0:0:
336,192,79896,1,0,0:0:0:0:
112,192,79896,1,0,0:0:0:0:
48,192,79896,1,0,0:0:0:0:
368,192,79996,1,0,0:0:0:0:
400,192,80096,1,0,0:0:0:0:
272,192,80096,1,0,0:0:0:0:
336,192,80296,1,0,0:0:0:0:
176,192,80496,1,0,0:0:0:0:
48,192,80496,1,0,0:0:0:0:
496,192,80496,1,0,0:0:0:0:
368,192,80696,1,0,0:0:0:0:
432,192,80696,1,0,0:0:0:0:
80,192,80896,1,0,0:0:0:0:
208,192,80896,1,0,0:0:0:0:
368,192,81096,1,0,0:0:0:0:
432,192,81096,1,0,0:0:0:0:
144,192,81296,1,0,0:0:0:0:
48,192,81296,1,0,0:0:0:0:
496,192,81296,1,0,0:0:0:0:
80,192,81496,1,0,0:0:0:0:
208,192,81496,1,0,0:0:0:0:
368,192,81496,1,0,0:0:0:0:
304,192,81496,1,0,0:0:0:0:
144,192,81696,1,0,0:0:0:0:
240,192,81696,1,0,0:0:0:0:
368,192,81896,1,0,0:0:0:0:
304,192,81896,1,0,0:0:0:0:
496,192,82096,1,0,0:0:0:0:
144,192,82293,1,0,0:0:0:0:
80,192,82293,1,0,0:0:0:0:
336,192,82293,1,0,0:0:0:0:
400,192,82293,1,0,0:0:0:0:
496,192,82490,1,0,0:0:0:0:
144,192,82688,1,0,0:0:0:0:
208,192,82688,1,0,0:0:0:0:
400,192,82688,1,0,0:0:0:0:
336,192,82688,1,0,0:0:0:0:
112,192,82885,1,0,0:0:0:0:
48,192,82885,1,0,0:0:0:0:
496,192,82885,1,0,0:0:0:0:
144,192,83082,1,0,0:0:0:0:
208,192,83082,1,0,0:0:0:0:
368,192,83082,1,0,0:0:0:0:
304,192,83082,1,0,0:0:0:0:
176,192,83280,1,0,0:0:0:0:
240,192,83280,1,0,0:0:0:0:
144,192,83477,1,0,0:0:0:0:
80,192,83477,1,0,0:0:0:0:
240,192,83674,1,0,0:0:0:0:
48,192,83674,1,0,0:0:0:0:
496,192,83674,1,0,0:0:0:0:
80,192,83868,1,0,0:0:0:0:
304,192,83868,1,0,0:0:0:0:
368,192,83868,1,0,0:0:0:0:
144,192,83966,1,0,0:0:0:0:
208,192,84063,1,0,0:0:0:0:
112,192,84161,1,0,0:0:0:0:
176,192,84258,1,0,0:0:0:0:
368,192,84258,1,0,0:0:0:0:
304,192,84258,1,0,0:0:0:0:
112,192,84355,1,0,0:0:0:0:
240,192,84453,1,0,0:0:0:0:
496,192,84453,1,0,0:0:0:0:
48,192,84550,1,0,0:0:0:0:
80,192,84648,1,0,0:0:0:0:
112,192,84745,1,0,0:0:0:0:
336,192,84842,1,0,0:0:0:0:
144,192,84842,1,0,0:0:0:0:
176,192,84940,1,0,0:0:0:0:
208,192,85037,1,0,0:0:0:0:
240,192,85135,1,0,0:0:0:0:
272,192,85232,1,0,0:0:0:0:
464,192,85232,1,0,0:0:0:0:
16,192,85232,1,0,0:0:0:0:
304,192,85424,1,0,0:0:0:0:
112,192,85424,1,0,0:0:0:0:
48,192,85424,1,0,0:0:0:0:
368,192,85520,1,0,0:0:0:0:
432,192,85616,1,0,0:0:0:0:
112,192,85808,1,0,0:0:0:0:
48,192,85808,1,0,0:0:0:0:
336,192,85808,1,0,0:0:0:0:
400,192,85905,1,0,0:0:0:0:
464,192,86001,1,0,0:0:0:0:
400,192,86097,1,0,0:0:0:0:
144,192,86193,1,0,0:0:0:0:
208,192,86193,1,0,0:0:0:0:
336,192,86193,1,0,0:0:0:0:
272,192,86289,1,0,0:0:0:0:
400,192,86385,1,0,0:0:0:0:
368,192,86482,1,0,0:0:0:0:
336,192,86578,1,0,0:0:0:0:
208,192,86578,1,0,0:0:0:0:
144,192,86578,1,0,0:0:0:0:
304,192,86674,1,0,0:0:0:0:
272,192,86770,5,0,0:0:0:0:
400,192,86770,1,0,0:0:0:0:
16,192,86770,1,0,0:0:0:0:
176,192,86959,1,0,0:0:0:0:
48,192,86959,1,0,0:0:0:0:
304,192,87149,1,0,0:0:0:0:
432,192,87149,1,0,0:0:0:0:
112,192,87149,1,0,0:0:0:0:
176,192,87339,1,0,0:0:0:0:
48,192,87339,1,0,0:0:0:0:
368,192,87529,1,0,0:0:0:0:
272,192,87529,1,0,0:0:0:0:
16,192,87529,1,0,0:0:0:0:
336,192,87719,1,0,0:0:0:0:
400,192,87719,1,0,0:0:0:0:
80,192,87719,1,0,0:0:0:0:
208,192,87719,1,0,0:0:0:0:
368,192,87909,1,0,0:0:0:0:
464,192,87909,1,0,0:0:0:0:
144,192,87909,1,0,0:0:0:0:
80,192,88099,1,0,0:0:0:0:
208,192,88099,1,0,0:0:0:0:
16,192,88288,1,0,0:0:0:0:
368,192,88478,1,0,0:0:0:0:
304,192,88478,1,0,0:0:0:0:
176,192,88478,1,0,0:0:0:0:
48,192,88478,1,0,0:0:0:0:
16,192,88668,1,0,0:0:0:0:
432,192,88858,1,0,0:0:0:0:
368,192,88858,1,0,0:0:0:0:
112,192,88858,1,0,0:0:0:0:
240,192,88858,1,0,0:0:0:0:
336,192,89048,1,0,0:0:0:0:
272,192,89048,1,0,0:0:0:0:
16,192,89048,1,0,0:0:0:0:
368,192,89238,1,0,0:0:0:0:
432,192,89238,1,0,0:0:0:0:
208,192,89238,1,0,0:0:0:0:
80,192,89238,1,0,0:0:0:0:
400,192,89428,1,0,0:0:0:0:
464,192,89428,1,0,0:0:0:0:
112,192,89428,1,0,0:0:0:0:
176,192,89618,1,0,0:0:0:0:
400,192,89807,1,0,0:0:0:0:
272,192,89807,1,0,0:0:0:0:
16,192,89807,1,0,0:0:0:0:
176,192,89997,1,0,0:0:0:0:
48,192,89997,1,0,0:0:0:0:
304,192,90187,1,0,0:0:0:0:
432,192,90187,1,0,0:0:0:0:
112,192,90187,1,0,0:0:0:0:
176,192,90377,1,0,0:0:0:0:
48,192,90377,1,0,0:0:0:0:
368,192,90567,1,0,0:0:0:0:
272,192,90567,1,0,0:0:0:0:
16,192,90567,1,0,0:0:0:0:
336,192,90757,1,0,0:0:0:0:
400,192,90757,1,0,0:0:0:0:
208,192,90757,1,0,0:0:0:0:
80,192,90757,1,0,0:0:0:0:
368,192,90947,1,0,0:0:0:0:
464,192,90947,1,0,0:0:0:0:
144,192,90947,1,0,0:0:0:0:
432,192,91137,1,0,0:0:0:0:
304,192,91137,1,0,0:0:0:0:
80,192,91137,1,0,0:0:0:0:
208,192,91137,1,0,0:0:0:0:
464,192,91326,1,0,0:0:0:0:
400,192,91326,1,0,0:0:0:0:
16,192,91326,1,0,0:0:0:0:
304,192,91516,1,0,0:0:0:0:
112,192,91516,1,0,0:0:0:0:
176,192,91516,1,0,0:0:0:0:
368,192,91611,1,0,0:0:0:0:
432,192,91706,1,0,0:0:0:0:
16,192,91706,1,0,0:0:0:0:
336,192,91801,1,0,0:0:0:0:
400,192,91896,1,0,0:0:0:0:
176,192,91896,1,0,0:0:0:0:
112,192,91896,1,0,0:0:0:0:
304,192,91991,1,0,0:0:0:0:
16,192,92086,1,0,0:0:0:0:
464,192,92086,1,0,0:0:0:0:
176,192,92276,1,0,0:0:0:0:
112,192,92276,1,0,0:0:0:0:
304,192,92276,1,0,0:0:0:0:
368,192,92371,1,0,0:0:0:0:
272,192,92466,1,0,0:0:0:0:
432,192,92466,1,0,0:0:0:0:
208,192,92656,1,0,0:0:0:0:
80,192,92656,1,0,0:0:0:0:
240,192,92845,1,0,0:0:0:0:
112,192,92845,1,0,0:0:0:0:
496,192,92845,1,0,0:0:0:0:
272,192,93035,1,0,0:0:0:0:
400,192,93035,1,0,0:0:0:0:
208,192,93225,1,0,0:0:0:0:
80,192,93225,1,0,0:0:0:0:
336,192,93225,1,0,0:0:0:0:
272,192,93415,1,0,0:0:0:0:
400,192,93415,1,0,0:0:0:0:
144,192,93605,1,0,0:0:0:0:
48,192,93605,1,0,0:0:0:0:
496,192,93605,1,0,0:0:0:0:
176,192,93795,1,0,0:0:0:0:
112,192,93795,1,0,0:0:0:0:
432,192,93795,1,0,0:0:0:0:
304,192,93795,1,0,0:0:0:0:
144,192,93985,1,0,0:0:0:0:
240,192,93985,1,0,0:0:0:0:
336,192,93985,1,0,0:0:0:0:
400,192,94080,1,0,0:0:0:0:
336,192,94175,1,0,0:0:0:0:
400,192,94270,1,0,0:0:0:0:
496,192,94364,1,0,0:0:0:0:
144,192,94554,1,0,0:0:0:0:
80,192,94554,1,0,0:0:0:0:
272,192,94554,1,0,0:0:0:0:
400,192,94554,1,0,0:0:0:0:
496,192,94744,1,0,0:0:0:0:
208,192,94934,1,0,0:0:0:0:
144,192,94934,1,0,0:0:0:0:
464,192,94934,1,0,0:0:0:0:
336,192,94934,1,0,0:0:0:0:
112,192,95124,1,0,0:0:0:0:
48,192,95124,1,0,0:0:0:0:
496,192,95124,1,0,0:0:0:0:
144,192,95314,1,0,0:0:0:0:
208,192,95314,1,0,0:0:0:0:
304,192,95314,1,0,0:0:0:0:
432,192,95314,1,0,0:0:0:0:
240,192,95504,1,0,0:0:0:0:
176,192,95504,1,0,0:0:0:0:
336,192,95504,1,0,0:0:0:0:
144,192,95694,1,0,0:0:0:0:
400,192,95694,1,0,0:0:0:0:
80,192,95694,1,0,0:0:0:0:
240,192,95883,1,0,0:0:0:0:
496,192,95883,1,0,0:0:0:0:
48,192,95883,1,0,0:0:0:0:
272,192,96073,1,0,0:0:0:0:
400,192,96073,1,0,0:0:0:0:
80,192,96073,1,0,0:0:0:0:
144,192,96168,1,0,0:0:0:0:
336,192,96263,1,0,0:0:0:0:
208,192,96263,1,0,0:0:0:0:
112,192,96358,1,0,0:0:0:0:
272,192,96453,1,0,0:0:0:0:
400,192,96453,1,0,0:0:0:0:
176,192,96453,1,0,0:0:0:0:
80,192,96548,1,0,0:0:0:0:
240,192,96643,1,0,0:0:0:0:
496,192,96643,1,0,0:0:0:0:
48,192,96738,1,0,0:0:0:0:
80,192,96833,1,0,0:0:0:0:
112,192,96928,1,0,0:0:0:0:
336,192,97023,1,0,0:0:0:0:
144,192,97023,1,0,0:0:0:0:
176,192,97118,1,0,0:0:0:0:
208,192,97213,1,0,0:0:0:0:
240,192,97307,1,0,0:0:0:0:
48,192,97402,1,0,0:0:0:0:
496,192,97402,1,0,0:0:0:0:
112,192,97402,1,0,0:0:0:0:
464,192,97592,1,0,0:0:0:0:
336,192,97592,1,0,0:0:0:0:
176,192,97592,1,0,0:0:0:0:
240,192,97592,1,0,0:0:0:0:
144,192,97782,1,0,0:0:0:0:
400,192,97782,1,0,0:0:0:0:
208,192,97782,1,0,0:0:0:0:
112,192,97972,1,0,0:0:0:0:
336,192,97972,1,0,0:0:0:0:
464,192,97972,1,0,0:0:0:0:
48,192,97972,1,0,0:0:0:0:
144,192,98162,1,0,0:0:0:0:
368,192,98162,1,0,0:0:0:0:
80,192,98162,1,0,0:0:0:0:
304,192,98352,1,0,0:0:0:0:
432,192,98352,1,0,0:0:0:0:
240,192,98352,1,0,0:0:0:0:
176,192,98447,1,0,0:0:0:0:
112,192,98542,1,0,0:0:0:0:
368,192,98542,1,0,0:0:0:0:
176,192,98637,1,0,0:0:0:0:
432,192,98732,1,0,0:0:0:0:
304,192,98732,1,0,0:0:0:0:
112,192,98732,1,0,0:0:0:0:
176,192,98826,1,0,0:0:0:0:
16,192,98921,1,0,0:0:0:0:
400,192,98921,1,0,0:0:0:0:
272,192,98921,1,0,0:0:0:0:
304,192,99301,1,0,0:0:0:0:
432,192,99301,1,0,0:0:0:0:
112,192,99301,1,0,0:0:0:0:
144,192,99396,1,0,0:0:0:0:
176,192,99491,1,0,0:0:0:0:
208,192,99586,1,0,0:0:0:0:
272,192,99681,1,0,0:0:0:0:
16,192,99681,1,0,0:0:0:0:
368,192,99681,1,0,0:0:0:0:
336,192,99871,1,0,0:0:0:0:
400,192,99871,1,0,0:0:0:0:
464,192,100061,1,0,0:0:0:0:
240,192,100061,1,0,0:0:0:0:
368,192,100061,1,0,0:0:0:0:
208,192,100156,1,0,0:0:0:0:
176,192,100251,1,0,0:0:0:0:
144,192,100345,1,0,0:0:0:0:
16,192,100440,1,0,0:0:0:0:
144,192,100630,1,0,0:0:0:0:
80,192,100630,1,0,0:0:0:0:
336,192,100630,1,0,0:0:0:0:
400,192,100630,1,0,0:0:0:0:
16,192,100820,1,0,0:0:0:0:
144,192,101010,1,0,0:0:0:0:
208,192,101010,1,0,0:0:0:0:
400,192,101010,1,0,0:0:0:0:
464,192,101010,1,0,0:0:0:0:
16,192,101200,1,0,0:0:0:0:
368,192,101200,1,0,0:0:0:0:
272,192,101200,1,0,0:0:0:0:
208,192,101390,1,0,0:0:0:0:
80,192,101390,1,0,0:0:0:0:
336,192,101390,1,0,0:0:0:0:
400,192,101390,1,0,0:0:0:0:
112,192,101580,1,0,0:0:0:0:
368,192,101580,1,0,0:0:0:0:
464,192,101580,1,0,0:0:0:0:
176,192,101770,1,0,0:0:0:0:
496,192,101959,1,0,0:0:0:0:
112,192,101959,1,0,0:0:0:0:
240,192,101959,1,0,0:0:0:0:
304,192,102339,1,0,0:0:0:0:
208,192,102339,1,0,0:0:0:0:
80,192,102339,1,0,0:0:0:0:
336,192,102434,1,0,0:0:0:0:
368,192,102529,1,0,0:0:0:0:
400,192,102624,1,0,0:0:0:0:
496,192,102719,1,0,0:0:0:0:
144,192,102719,1,0,0:0:0:0:
48,192,102719,1,0,0:0:0:0:
112,192,102909,1,0,0:0:0:0:
176,192,102909,1,0,0:0:0:0:
368,192,103099,1,0,0:0:0:0:
144,192,103099,1,0,0:0:0:0:
240,192,103099,1,0,0:0:0:0:
336,192,103194,1,0,0:0:0:0:
304,192,103288,1,0,0:0:0:0:
272,192,103383,1,0,0:0:0:0:
496,192,103478,1,0,0:0:0:0:
48,192,103478,1,0,0:0:0:0:
240,192,103478,1,0,0:0:0:0:
400,192,103668,1,0,0:0:0:0:
336,192,103668,1,0,0:0:0:0:
208,192,103668,1,0,0:0:0:0:
144,192,103763,1,0,0:0:0:0:
496,192,103858,1,0,0:0:0:0:
80,192,103858,1,0,0:0:0:0:
176,192,103953,1,0,0:0:0:0:
400,192,104048,1,0,0:0:0:0:
336,192,104048,1,0,0:0:0:0:
112,192,104048,1,0,0:0:0:0:
208,192,104143,1,0,0:0:0:0:
496,192,104238,1,0,0:0:0:0:
48,192,104238,1,0,0:0:0:0:
336,192,104428,1,0,0:0:0:0:
400,192,104428,1,0,0:0:0:0:
144,192,104428,1,0,0:0:0:0:
208,192,104523,1,0,0:0:0:0:
240,192,104618,1,0,0:0:0:0:
80,192,104618,1,0,0:0:0:0:
304,192,104807,1,0,0:0:0:0:
432,192,104807,1,0,0:0:0:0:
16,192,104997,1,0,0:0:0:0:
400,192,104997,1,0,0:0:0:0:
272,192,104997,1,0,0:0:0:0:
304,192,105377,1,0,0:0:0:0:
432,192,105377,1,0,0:0:0:0:
112,192,105377,1,0,0:0:0:0:
144,192,105472,1,0,0:0:0:0:
176,192,105567,1,0,0:0:0:0:
208,192,105662,1,0,0:0:0:0:
272,192,105757,1,0,0:0:0:0:
16,192,105757,1,0,0:0:0:0:
368,192,105757,1,0,0:0:0:0:
336,192,105947,1,0,0:0:0:0:
400,192,105947,1,0,0:0:0:0:
464,192,106137,1,0,0:0:0:0:
240,192,106137,1,0,0:0:0:0:
368,192,106137,1,0,0:0:0:0:
208,192,106232,1,0,0:0:0:0:
176,192,106326,1,0,0:0:0:0:
144,192,106421,1,0,0:0:0:0:
16,192,106516,1,0,0:0:0:0:
144,192,106706,1,0,0:0:0:0:
80,192,106706,1,0,0:0:0:0:
336,192,106706,1,0,0:0:0:0:
400,192,106706,1,0,0:0:0:0:
16,192,106896,1,0,0:0:0:0:
144,192,107086,1,0,0:0:0:0:
208,192,107086,1,0,0:0:0:0:
432,192,107086,1,0,0:0:0:0:
368,192,107086,1,0,0:0:0:0:
16,192,107276,1,0,0:0:0:0:
272,192,107276,1,0,0:0:0:0:
336,192,107276,1,0,0:0:0:0:
208,192,107466,1,0,0:0:0:0:
80,192,107466,1,0,0:0:0:0:
368,192,107466,1,0,0:0:0:0:
432,192,107466,1,0,0:0:0:0:
112,192,107656,1,0,0:0:0:0:
464,192,107656,1,0,0:0:0:0:
400,192,107656,1,0,0:0:0:0:
176,192,107845,1,0,0:0:0:0:
368,192,107845,1,0,0:0:0:0:
304,192,107845,1,0,0:0:0:0:
464,192,108035,1,0,0:0:0:0:
272,192,108035,1,0,0:0:0:0:
16,192,108035,1,0,0:0:0:0:
304,192,108225,1,0,0:0:0:0:
176,192,108225,1,0,0:0:0:0:
48,192,108225,1,0,0:0:0:0:
368,192,108320,1,0,0:0:0:0:
432,192,108415,1,0,0:0:0:0:
112,192,108415,1,0,0:0:0:0:
336,192,108510,1,0,0:0:0:0:
400,192,108605,1,0,0:0:0:0:
176,192,108605,1,0,0:0:0:0:
48,192,108605,1,0,0:0:0:0:
304,192,108700,1,0,0:0:0:0:
464,192,108795,1,0,0:0:0:0:
16,192,108795,1,0,0:0:0:0:
272,192,108890,1,0,0:0:0:0:
304,192,108985,1,0,0:0:0:0:
336,192,109080,1,0,0:0:0:0:
368,192,109175,1,0,0:0:0:0:
176,192,109175,1,0,0:0:0:0:
400,192,109270,1,0,0:0:0:0:
432,192,109364,1,0,0:0:0:0:
464,192,109459,1,0,0:0:0:0:
272,192,109554,1,0,0:0:0:0:
16,192,109554,1,0,0:0:0:0:
336,192,109554,1,0,0:0:0:0:
400,192,109744,1,0,0:0:0:0:
48,192,109744,1,0,0:0:0:0:
176,192,109744,1,0,0:0:0:0:
464,192,109744,1,0,0:0:0:0:
368,192,109934,1,0,0:0:0:0:
16,192,109934,1,0,0:0:0:0:
432,192,109934,1,0,0:0:0:0:
336,192,110124,1,0,0:0:0:0:
240,192,110124,1,0,0:0:0:0:
112,192,110124,1,0,0:0:0:0:
272,192,110124,1,0,0:0:0:0:
368,192,110314,1,0,0:0:0:0:
16,192,110314,1,0,0:0:0:0:
304,192,110314,1,0,0:0:0:0:
464,192,110504,1,0,0:0:0:0:
208,192,110504,1,0,0:0:0:0:
80,192,110504,1,0,0:0:0:0:
400,192,110599,1,0,0:0:0:0:
336,192,110694,1,0,0:0:0:0:
176,192,110694,1,0,0:0:0:0:
400,192,110788,1,0,0:0:0:0:
112,192,110883,1,0,0:0:0:0:
336,192,110883,1,0,0:0:0:0:
400,192,110978,1,0,0:0:0:0:
240,192,111073,1,0,0:0:0:0:
496,192,111073,1,0,0:0:0:0:
48,192,111073,1,0,0:0:0:0:
272,192,111263,1,0,0:0:0:0:
400,192,111263,1,0,0:0:0:0:
80,192,111263,1,0,0:0:0:0:
144,192,111358,1,0,0:0:0:0:
336,192,111453,1,0,0:0:0:0:
208,192,111453,1,0,0:0:0:0:
112,192,111548,1,0,0:0:0:0:
272,192,111643,1,0,0:0:0:0:
400,192,111643,1,0,0:0:0:0:
176,192,111643,1,0,0:0:0:0:
80,192,111738,1,0,0:0:0:0:
240,192,111833,1,0,0:0:0:0:
496,192,111833,1,0,0:0:0:0:
48,192,111928,1,0,0:0:0:0:
80,192,112023,1,0,0:0:0:0:
112,192,112118,1,0,0:0:0:0:
336,192,112213,1,0,0:0:0:0:
144,192,112213,1,0,0:0:0:0:
176,192,112307,1,0,0:0:0:0:
208,192,112402,1,0,0:0:0:0:
240,192,112497,1,0,0:0:0:0:
48,192,112592,1,0,0:0:0:0:
496,192,112592,1,0,0:0:0:0:
112,192,112592,1,0,0:0:0:0:
464,192,112782,1,0,0:0:0:0:
336,192,112782,1,0,0:0:0:0:
176,192,112782,1,0,0:0:0:0:
240,192,112782,1,0,0:0:0:0:
144,192,112972,1,0,0:0:0:0:
208,192,112972,1,0,0:0:0:0:
496,192,112972,1,0,0:0:0:0:
112,192,113162,1,0,0:0:0:0:
48,192,113162,1,0,0:0:0:0:
272,192,113162,1,0,0:0:0:0:
400,192,113162,1,0,0:0:0:0:
496,192,113352,1,0,0:0:0:0:
208,192,113352,1,0,0:0:0:0:
144,192,113352,1,0,0:0:0:0:
80,192,113447,1,0,0:0:0:0:
240,192,113542,1,0,0:0:0:0:
176,192,113542,1,0,0:0:0:0:
112,192,113637,1,0,0:0:0:0:
336,192,113732,1,0,0:0:0:0:
400,192,113732,1,0,0:0:0:0:
272,192,113826,1,0,0:0:0:0:
368,192,113921,1,0,0:0:0:0:
432,192,113921,1,0,0:0:0:0:
304,192,114016,1,0,0:0:0:0:
464,192,114111,1,0,0:0:0:0:
272,192,114111,1,0,0:0:0:0:
16,192,114111,1,0,0:0:0:0:
304,192,114301,1,0,0:0:0:0:
176,192,114301,1,0,0:0:0:0:
48,192,114301,1,0,0:0:0:0:
368,192,114396,1,0,0:0:0:0:
432,192,114491,1,0,0:0:0:0:
112,192,114491,1,0,0:0:0:0:
336,192,114586,1,0,0:0:0:0:
400,192,114681,1,0,0:0:0:0:
176,192,114681,1,0,0:0:0:0:
48,192,114681,1,0,0:0:0:0:
304,192,114776,1,0,0:0:0:0:
464,192,114871,1,0,0:0:0:0:
16,192,114871,1,0,0:0:0:0:
272,192,114966,1,0,0:0:0:0:
304,192,115061,1,0,0:0:0:0:
336,192,115156,1,0,0:0:0:0:
368,192,115251,1,0,0:0:0:0:
176,192,115251,1,0,0:0:0:0:
400,192,115345,1,0,0:0:0:0:
432,192,115440,1,0,0:0:0:0:
464,192,115535,1,0,0:0:0:0:
272,192,115630,1,0,0:0:0:0:
16,192,115630,1,0,0:0:0:0:
336,192,115630,1,0,0:0:0:0:
400,192,115820,1,0,0:0:0:0:
48,192,115820,1,0,0:0:0:0:
176,192,115820,1,0,0:0:0:0:
464,192,115820,1,0,0:0:0:0:
368,192,116010,1,0,0:0:0:0:
16,192,116010,1,0,0:0:0:0:
432,192,116010,1,0,0:0:0:0:
336,192,116200,1,0,0:0:0:0:
240,192,116200,1,0,0:0:0:0:
112,192,116200,1,0,0:0:0:0:
272,192,116200,1,0,0:0:0:0:
368,192,116390,1,0,0:0:0:0:
16,192,116390,1,0,0:0:0:0:
304,192,116390,1,0,0:0:0:0:
208,192,116580,1,0,0:0:0:0:
80,192,116580,1,0,0:0:0:0:
464,192,116580,1,0,0:0:0:0:
432,192,116627,1,0,0:0:0:0:
368,192,116675,1,0,0:0:0:0:
304,192,116722,1,0,0:0:0:0:
272,192,116770,1,0,0:0:0:0:
112,192,116770,1,0,0:0:0:0:
176,192,116959,1,0,0:0:0:0:
16,192,117149,1,0,0:0:0:0:
336,192,117149,1,0,0:0:0:0:
272,192,117149,1,0,0:0:0:0:
272,192,117407,1,0,0:0:0:0:
336,192,117407,1,0,0:0:0:0:
400,192,117536,1,0,0:0:0:0:
464,192,117536,1,0,0:0:0:0:
176,192,117536,1,0,0:0:0:0:
48,192,117536,1,0,0:0:0:0:
400,192,117794,1,0,0:0:0:0:
464,192,117794,1,0,0:0:0:0:
368,192,117923,1,0,0:0:0:0:
304,192,117923,1,0,0:0:0:0:
16,192,117923,1,0,0:0:0:0:
368,192,118181,1,0,0:0:0:0:
432,192,118181,1,0,0:0:0:0:
336,192,118310,1,0,0:0:0:0:
272,192,118310,1,0,0:0:0:0:
48,192,118310,1,0,0:0:0:0:
176,192,118310,1,0,0:0:0:0:
336,192,118568,1,0,0:0:0:0:
272,192,118568,1,0,0:0:0:0:
240,192,118697,1,0,0:0:0:0:
176,192,118697,1,0,0:0:0:0:
496,192,118697,1,0,0:0:0:0:
240,192,118963,1,0,0:0:0:0:
176,192,118963,1,0,0:0:0:0:
112,192,119097,1,0,0:0:0:0:
48,192,119097,1,0,0:0:0:0:
272,192,119097,1,0,0:0:0:0:
400,192,119097,1,0,0:0:0:0:
112,192,119363,1,0,0:0:0:0:
48,192,119363,1,0,0:0:0:0:
144,192,119497,1,0,0:0:0:0:
208,192,119497,1,0,0:0:0:0:
496,192,119497,1,0,0:0:0:0:
144,192,119763,1,0,0:0:0:0:
80,192,119763,1,0,0:0:0:0:
176,192,119897,1,0,0:0:0:0:
240,192,119897,1,0,0:0:0:0:
432,192,119897,1,0,0:0:0:0:
368,192,119963,1,0,0:0:0:0:
304,192,120030,1,0,0:0:0:0:
400,192,120097,1,0,0:0:0:0:
240,192,120163,1,0,0:0:0:0:
176,192,120163,1,0,0:0:0:0:
464,192,120197,1,0,0:0:0:0:
336,192,120297,1,0,0:0:0:0:
272,192,120297,1,0,0:0:0:0:
16,192,120297,1,0,0:0:0:0:
400,192,120430,1,0,0:0:0:0:
336,192,120563,1,0,0:0:0:0:
464,192,120697,1,0,0:0:0:0:
176,192,120697,1,0,0:0:0:0:
48,192,120697,1,0,0:0:0:0:
400,192,120830,1,0,0:0:0:0:
464,192,120963,1,0,0:0:0:0:
432,192,121097,1,0,0:0:0:0:
16,192,121097,1,0,0:0:0:0:
368,192,121230,1,0,0:0:0:0:
432,192,121363,1,0,0:0:0:0:
400,192,121497,1,0,0:0:0:0:
176,192,121497,1,0,0:0:0:0:
48,192,121497,1,0,0:0:0:0:
336,192,121630,1,0,0:0:0:0:
400,192,121763,1,0,0:0:0:0:
496,192,121897,1,0,0:0:0:0:
112,192,121897,1,0,0:0:0:0:
48,192,121897,1,0,0:0:0:0:
176,192,122039,1,0,0:0:0:0:
112,192,122182,1,0,0:0:0:0:
368,192,122325,1,0,0:0:0:0:
16,192,122325,1,0,0:0:0:0:
304,192,122478,1,0,0:0:0:0:
368,192,122632,1,0,0:0:0:0:
240,192,122786,1,0,0:0:0:0:
496,192,122786,1,0,0:0:0:0:
176,192,122967,1,0,0:0:0:0:
240,192,123149,1,0,0:0:0:0:
304,192,123331,1,0,0:0:0:0:
432,192,123331,1,0,0:0:0:0:
208,192,123566,1,0,0:0:0:0:
80,192,123566,1,0,0:0:0:0:
304,192,123801,1,0,0:0:0:0:
432,192,123801,1,0,0:0:0:0:
464,192,125502,1,0,0:0:0:0:
336,192,125569,1,0,0:0:0:0:
176,192,125602,1,0,0:0:0:0:
48,192,125636,1,0,0:0:0:0:
