osu file format v14

[General]
AudioFilename: audio.ogg
AudioLeadIn: 0
PreviewTime: 97622
Countdown: 0
SampleSet: Normal
StackLeniency: 0.7
Mode: 1
LetterboxInBreaks: 0
WidescreenStoryboard: 1

[Editor]
Bookmarks: 9096,15953,22810,29667,36524,43382,50239,57096,63953,70810,77667,84524,91382,98239,105096,111953
DistanceSpacing: 3.7
BeatDivisor: 3
GridSize: 32
TimelineZoom: 2.580005

[Metadata]
Title:Sakazuki
TitleUnicode:逆月
Artist:BEMANI Sound Team "HuMeR" feat. Fernweh
ArtistUnicode:BEMANI Sound Team "HuΣeR" feat. Fernweh
Creator:paz08
Version:Inner Oni
Source:SOUND VOLTEX IV HEAVENLY HAVEN
Tags:electronic instrumental videogame rhythm game video konami japanese female vocal 天下一音ゲ祭 tenkaichi sdvx beatmania IIDX 29 CastHour Kuroa* Kuroa 第五回 天下一音ゲ祭 The 5th Dai Go Kai Tenkaichi Otogesai Hamada Aritomo 濵田有共 inverse moon X-record 第二弾 Dai Ni Dan
BeatmapID:3508306
BeatmapSetID:1716821

[Difficulty]
HPDrainRate:5.5
CircleSize:3.5
OverallDifficulty:7
ApproachRate:10
SliderMultiplier:1.4
SliderTickRate:1

[Events]
//Background and Video events
0,0,"91331282_p1.jpg",0,25
//Break Periods
//Storyboard Layer 0 (Background)
//Storyboard Layer 1 (Fail)
//Storyboard Layer 2 (Pass)
//Storyboard Layer 3 (Foreground)
//Storyboard Layer 4 (Overlay)
//Storyboard Sound Samples

[TimingPoints]
408,214.285714285714,4,1,0,40,1,8
408,-153.846153846154,4,1,0,40,0,0
943,-152.867756315007,4,1,0,52,0,0
1050,-151.90172454524,4,1,0,54,0,0
1157,-150.947825576618,4,1,0,57,0,0
1265,214.285714285714,4,1,0,60,1,8
1265,-149.997084038024,4,1,0,60,0,0
1372,-149.066883041614,4,1,0,62,0,0
1479,-148.148148148148,4,1,0,64,0,0
1586,-147.240668651248,4,1,0,67,0,0
1693,-146.344238975818,4,1,0,69,0,0
1800,-145.458658522792,4,1,0,72,0,0
1907,-144.583731519478,4,1,0,74,0,0
2122,-142.857142857143,4,1,0,80,0,0
8550,-133.64104,4,1,0,82,0,0
8764,-129.25838,4,1,0,84,0,0
8979,-124.99999,4,1,0,85,0,0
13586,-124.9783,4,1,0,86,0,0
13693,-124.940796,4,1,0,86,0,0
13907,-124.756325,4,1,0,86,0,0
14122,-124.33351,4,1,0,87,0,0
14336,-123.55609,4,1,0,87,0,0
14443,-122.994705,4,1,0,87,0,0
14550,-122.29757,4,1,0,88,0,0
14764,-120.438805,4,1,0,88,0,0
14872,-119.24009,4,1,0,88,0,0
14979,-117.86644,4,1,0,88,0,0
15193,-114.53824,4,1,0,89,0,0
15407,-110.424164,4,1,0,89,0,0
15514,-108.080826,4,1,0,89,0,0
15622,-105.53359,4,1,0,90,0,0
15729,-102.842384,4,1,0,90,0,0
15836,-90.9090909090909,4,1,0,90,0,0
16693,-100,4,1,0,90,0,0
18622,-90.9090909090909,4,1,0,90,0,0
20122,-100,4,1,0,90,0,0
20979,-111.11112,4,1,0,80,0,0
21407,-105.550255,4,1,0,80,0,0
21836,-100.25567,4,1,0,80,0,0
22264,-95.2381,4,1,0,80,0,0
22693,-83.33333,4,1,0,90,0,0
23979,-87.04765,4,1,0,90,0,0
24193,-90.90909,4,1,0,90,0,0
24407,-83.3333333333333,4,1,0,90,0,0
25693,-88.54652,4,1,0,90,0,0
25800,-91.27415,4,1,0,90,0,0
25907,-94.08582,4,1,0,90,0,0
26014,-96.98409,4,1,0,90,0,0
26122,-83.3333333333333,4,1,0,90,0,0
27407,-88.54652,4,1,0,90,0,0
27514,-91.27415,4,1,0,90,0,0
27621,-94.08582,4,1,0,90,0,0
27836,-83.33333,4,1,0,90,0,0
28157,-89.53748,4,1,0,90,0,0
28479,-96.225044,4,1,0,90,0,0
28693,-100.94362,4,1,0,90,0,0
29122,-111.11112,4,1,0,90,0,0
29550,-100,4,1,0,100,0,1
42622,-101.528755,4,1,0,97,0,1
42729,-103.06641,4,1,0,94,0,1
42836,-104.62736,4,1,0,91,0,1
43050,-107.82051,4,1,0,86,0,1
43264,-111.11112,4,1,0,80,0,0
43693,-125,4,1,0,80,0,0
49693,-117.851135,4,1,0,83,0,0
49907,-114.43936,4,1,0,84,0,0
50122,-111.11112,4,1,0,85,0,0
54729,-111.10897,4,1,0,85,0,0
54836,-111.104355,4,1,0,85,0,0
55050,-111.07694,4,1,0,85,0,0
55264,-111.00334,4,1,0,85,0,0
55479,-110.84762,4,1,0,85,0,0
55586,-110.726006,4,1,0,85,0,0
55693,-110.56678,4,1,0,85,0,0
55907,-110.10772,4,1,0,85,0,0
56122,-109.407425,4,1,0,85,0,0
56336,-108.409134,4,1,0,88,0,0
56443,-107.777405,4,1,0,90,0,0
56550,-107.04712,4,1,0,92,0,0
56764,-105.26316,4,1,0,96,0,0
56979,-100,4,1,0,100,0,1
70050,-105.409256,4,1,0,95,0,1
70264,-111.11112,4,1,0,90,0,1
70372,-108.20272,4,1,0,93,0,1
70479,-105.396324,4,1,0,95,0,1
70586,-102.662704,4,1,0,98,0,1
70693,-100,4,1,0,100,0,0
76479,-99.97664,4,1,0,100,0,0
76586,-99.92158,4,1,0,100,0,0
76693,-99.814735,4,1,0,100,0,0
76907,-99.37888,4,1,0,100,0,0
77122,-98.53679,4,1,0,100,0,0
77336,-97.1853,4,1,0,100,0,0
77550,-95.2381,4,1,0,100,0,1
84407,-95.2380952380952,4,1,0,100,0,0
85264,-125,4,1,0,80,0,0
89550,-124.423965,4,1,0,82,0,0
89764,-123.88062,4,1,0,82,0,0
89872,-123.51115,4,1,0,82,0,0
89979,-123.074715,4,1,0,83,0,0
90193,-121.97213,4,1,0,83,0,0
90407,-120.53572,4,1,0,83,0,0
90836,-116.56223,4,1,0,84,0,0
91050,-114.01859,4,1,0,85,0,0
91264,-111.11112,4,1,0,85,0,0
95979,-108.73284,4,1,0,85,0,0
96193,-107.56555,4,1,0,85,0,0
96300,-106.98662,4,1,0,85,0,0
96407,-106.41082,4,1,0,85,0,0
96622,-105.26316,4,1,0,85,0,0
97264,-111.11112,4,1,0,85,0,0
97693,-108.79855,4,1,0,88,0,0
97907,-104.31679,4,1,0,94,0,0
98122,-100,4,1,0,100,0,1
104122,-99.455444,4,1,0,100,0,1
104175,-99.18929,4,1,0,100,0,1
104229,-98.91886,4,1,0,100,0,1
104282,-98.654144,4,1,0,100,0,1
104336,-98.38516,4,1,0,100,0,1
104389,-98.12188,4,1,0,100,0,1
104443,-97.85435,4,1,0,100,0,1
104497,-97.58755,4,1,0,100,0,1
104550,-97.326385,4,1,0,100,0,1
104604,-97.06103,4,1,0,100,0,1
104657,-96.801285,4,1,0,100,0,1
104711,-96.53736,4,1,0,100,0,1
104764,-96.27902,4,1,0,100,0,1
104872,-95.75472,4,1,0,100,0,1
104979,-95.2381,4,1,0,100,0,1
111193,-96.4055,4,1,0,98,0,1
111407,-97.58723,4,1,0,95,0,1
111514,-98.18352,4,1,0,94,0,1
111622,-98.78906,4,1,0,92,0,1
111729,-99.39268,4,1,0,91,0,1
111836,-100,4,1,0,90,0,0
116550,-99.99141,4,1,0,90,0,0
116657,-99.97097,4,1,0,90,0,0
116710,-99.95409,4,1,0,90,0,0
116764,-99.93121,4,1,0,90,0,0
116871,-99.86574,4,1,0,90,0,0
116979,-99.76714,4,1,0,90,0,0
117086,-99.631,4,1,0,90,0,0
117139,-99.547485,4,1,0,90,0,0
117193,-99.45046,4,1,0,90,0,0
117300,-99.219666,4,1,0,90,0,0
117407,-98.93301,4,1,0,90,0,0
117461,-98.76543,4,1,0,90,0,0
117514,-98.58518,4,1,0,90,0,0
117568,-98.38486,4,1,0,90,0,0
117622,-98.1671,4,1,0,90,0,0
117729,-97.68195,4,1,0,90,0,0
117836,-97.12231,4,1,0,90,0,0
118050,-95.76651,4,1,0,90,0,0
118157,-94.96559,4,1,0,90,0,0
118211,-94.52954,4,1,0,90,0,0
118264,-94.08066,4,1,0,90,0,0
118372,-93.10168,4,1,0,90,0,0
118479,-92.04704,4,1,0,90,0,0
118586,-90.90909,4,1,0,90,0,0

[HitObjects]
256,192,836,8,0,1907,0:0:0:0:
256,192,2122,5,4,0:0:0:0:
256,192,2550,1,0,0:0:0:0:
256,192,2764,1,8,0:0:0:0:
256,192,2979,1,0,0:0:0:0:
256,192,3193,1,8,0:0:0:0:
256,192,3300,1,0,0:0:0:0:
256,192,3407,1,0,0:0:0:0:
256,192,3622,1,8,0:0:0:0:
256,192,3729,1,8,0:0:0:0:
256,192,3836,1,0,0:0:0:0:
256,192,4264,1,8,0:0:0:0:
256,192,4479,1,0,0:0:0:0:
256,192,4693,1,8,0:0:0:0:
256,192,4907,1,8,0:0:0:0:
256,192,5014,1,0,0:0:0:0:
256,192,5122,1,8,0:0:0:0:
256,192,5336,1,0,0:0:0:0:
256,192,5443,1,0,0:0:0:0:
256,192,5550,1,8,0:0:0:0:
256,192,5764,1,0,0:0:0:0:
256,192,5979,1,8,0:0:0:0:
256,192,6407,1,0,0:0:0:0:
256,192,6622,1,0,0:0:0:0:
256,192,6836,1,8,0:0:0:0:
256,192,7264,1,0,0:0:0:0:
256,192,7479,1,8,0:0:0:0:
256,192,7586,1,0,0:0:0:0:
256,192,7693,1,8,0:0:0:0:
256,192,7907,1,0,0:0:0:0:
256,192,8122,1,8,0:0:0:0:
256,192,8550,1,8,0:0:0:0:
256,192,8764,1,8,0:0:0:0:
256,192,8979,1,4,0:0:0:0:
256,192,9300,1,0,0:0:0:0:
256,192,9407,1,8,0:0:0:0:
256,192,9622,1,8,0:0:0:0:
256,192,9729,1,8,0:0:0:0:
256,192,9836,1,0,0:0:0:0:
256,192,10050,1,8,0:0:0:0:
256,192,10264,1,8,0:0:0:0:
256,192,10479,1,0,0:0:0:0:
256,192,10586,1,8,0:0:0:0:
256,192,10693,1,0,0:0:0:0:
256,192,10907,1,0,0:0:0:0:
256,192,11122,1,8,0:0:0:0:
256,192,11336,1,0,0:0:0:0:
256,192,11443,1,0,0:0:0:0:
256,192,11550,1,8,0:0:0:0:
256,192,11764,1,0,0:0:0:0:
256,192,11979,1,8,0:0:0:0:
256,192,12193,1,8,0:0:0:0:
256,192,12407,1,0,0:0:0:0:
256,192,12729,1,8,0:0:0:0:
256,192,12836,1,0,0:0:0:0:
256,192,13050,1,0,0:0:0:0:
256,192,13264,1,8,0:0:0:0:
256,192,13586,1,8,0:0:0:0:
256,192,13693,1,0,0:0:0:0:
256,192,13907,1,0,0:0:0:0:
256,192,14122,1,8,0:0:0:0:
256,192,14336,1,0,0:0:0:0:
256,192,14443,1,0,0:0:0:0:
256,192,14550,1,8,0:0:0:0:
256,192,14764,1,0,0:0:0:0:
256,192,14872,1,0,0:0:0:0:
256,192,14979,1,8,0:0:0:0:
256,192,15407,1,8,0:0:0:0:
256,192,15514,1,0,0:0:0:0:
256,192,15622,1,8,0:0:0:0:
256,192,15729,1,8,0:0:0:0:
256,192,15836,1,4,0:0:0:0:
256,192,16157,1,4,0:0:0:0:
256,192,18622,1,4,0:0:0:0:
256,192,18943,1,4,0:0:0:0:
256,192,19264,1,12,0:0:0:0:
256,192,19586,1,12,0:0:0:0:
256,192,20979,1,4,0:0:0:0:
256,192,21407,1,4,0:0:0:0:
256,192,21836,1,12,0:0:0:0:
256,192,22264,1,12,0:0:0:0:
256,192,22693,1,4,0:0:0:0:
256,192,22800,1,4,0:0:0:0:
256,192,23014,1,4,0:0:0:0:
256,192,23122,1,4,0:0:0:0:
256,192,23336,1,4,0:0:0:0:
256,192,23443,1,4,0:0:0:0:
256,192,23657,1,4,0:0:0:0:
256,192,23764,1,4,0:0:0:0:
256,192,23979,1,12,0:0:0:0:
256,192,24193,1,12,0:0:0:0:
256,192,24407,1,4,0:0:0:0:
256,192,24514,1,4,0:0:0:0:
256,192,24729,1,4,0:0:0:0:
256,192,24836,1,4,0:0:0:0:
256,192,25050,1,4,0:0:0:0:
256,192,25157,1,4,0:0:0:0:
256,192,25372,1,4,0:0:0:0:
256,192,25479,1,4,0:0:0:0:
256,192,25693,1,8,0:0:0:0:
256,192,25800,1,0,0:0:0:0:
256,192,25907,1,8,0:0:0:0:
256,192,26014,1,8,0:0:0:0:
256,192,26122,1,4,0:0:0:0:
256,192,26229,1,4,0:0:0:0:
256,192,26443,1,4,0:0:0:0:
256,192,26550,1,4,0:0:0:0:
256,192,26764,1,4,0:0:0:0:
256,192,26872,1,4,0:0:0:0:
256,192,27086,1,4,0:0:0:0:
256,192,27193,1,4,0:0:0:0:
256,192,27407,1,8,0:0:0:0:
256,192,27514,1,0,0:0:0:0:
256,192,27622,1,8,0:0:0:0:
256,192,27836,1,4,0:0:0:0:
256,192,28157,1,4,0:0:0:0:
256,192,28479,1,4,0:0:0:0:
256,192,28693,1,8,0:0:0:0:
256,192,29122,1,8,0:0:0:0:
256,192,29550,1,12,0:0:0:0:
256,192,29764,1,8,0:0:0:0:
256,192,29872,1,0,0:0:0:0:
256,192,29925,1,0,0:0:0:0:
256,192,29979,1,8,0:0:0:0:
256,192,30086,1,0,0:0:0:0:
256,192,30193,1,8,0:0:0:0:
256,192,30247,1,8,0:0:0:0:
256,192,30300,1,0,0:0:0:0:
256,192,30407,1,8,0:0:0:0:
256,192,30514,1,8,0:0:0:0:
256,192,30622,1,0,0:0:0:0:
256,192,30729,1,0,0:0:0:0:
256,192,30836,1,8,0:0:0:0:
256,192,30889,1,0,0:0:0:0:
256,192,30943,1,0,0:0:0:0:
256,192,30997,1,0,0:0:0:0:
256,192,31050,1,8,0:0:0:0:
256,192,31157,1,8,0:0:0:0:
256,192,31264,1,0,0:0:0:0:
256,192,31479,1,8,0:0:0:0:
256,192,31586,1,0,0:0:0:0:
256,192,31693,1,8,0:0:0:0:
256,192,31747,1,8,0:0:0:0:
256,192,31800,1,0,0:0:0:0:
256,192,31907,1,8,0:0:0:0:
256,192,32014,1,0,0:0:0:0:
256,192,32122,1,8,0:0:0:0:
256,192,32175,1,8,0:0:0:0:
256,192,32229,1,0,0:0:0:0:
256,192,32282,1,0,0:0:0:0:
256,192,32336,1,8,0:0:0:0:
256,192,32443,1,0,0:0:0:0:
256,192,32550,1,8,0:0:0:0:
256,192,32604,1,8,0:0:0:0:
256,192,32657,1,8,0:0:0:0:
256,192,32764,1,8,0:0:0:0:
256,192,32872,1,8,0:0:0:0:
256,192,32979,1,0,0:0:0:0:
256,192,33193,1,8,0:0:0:0:
256,192,33300,1,0,0:0:0:0:
256,192,33407,1,8,0:0:0:0:
256,192,33461,1,8,0:0:0:0:
256,192,33514,1,0,0:0:0:0:
256,192,33622,1,8,0:0:0:0:
256,192,33729,1,0,0:0:0:0:
256,192,33836,1,8,0:0:0:0:
256,192,33889,1,8,0:0:0:0:
256,192,33943,1,8,0:0:0:0:
256,192,33997,1,8,0:0:0:0:
256,192,34050,1,0,0:0:0:0:
256,192,34157,1,0,0:0:0:0:
256,192,34264,1,8,0:0:0:0:
256,192,34479,1,0,0:0:0:0:
256,192,34586,1,8,0:0:0:0:
256,192,34693,1,0,0:0:0:0:
256,192,34747,1,0,0:0:0:0:
256,192,34800,1,8,0:0:0:0:
256,192,34907,1,0,0:0:0:0:
256,192,35014,1,8,0:0:0:0:
256,192,35122,1,0,0:0:0:0:
256,192,35336,1,8,0:0:0:0:
256,192,35443,1,0,0:0:0:0:
256,192,35550,1,8,0:0:0:0:
256,192,35604,1,8,0:0:0:0:
256,192,35657,1,0,0:0:0:0:
256,192,35711,1,0,0:0:0:0:
256,192,35764,1,8,0:0:0:0:
256,192,35872,1,8,0:0:0:0:
256,192,35979,1,0,0:0:0:0:
256,192,36032,1,0,0:0:0:0:
256,192,36086,1,0,0:0:0:0:
256,192,36193,1,0,0:0:0:0:
256,192,36300,1,8,0:0:0:0:
256,192,36407,1,4,0:0:0:0:
256,192,36622,1,8,0:0:0:0:
256,192,36729,1,0,0:0:0:0:
256,192,36782,1,0,0:0:0:0:
256,192,36836,1,8,0:0:0:0:
256,192,36943,1,0,0:0:0:0:
256,192,37050,1,8,0:0:0:0:
256,192,37104,1,8,0:0:0:0:
256,192,37157,1,0,0:0:0:0:
256,192,37211,1,0,0:0:0:0:
256,192,37264,1,8,0:0:0:0:
256,192,37372,1,8,0:0:0:0:
256,192,37479,1,0,0:0:0:0:
256,192,37532,1,0,0:0:0:0:
256,192,37586,1,0,0:0:0:0:
256,192,37693,1,8,0:0:0:0:
256,192,37800,1,0,0:0:0:0:
256,192,37907,1,8,0:0:0:0:
256,192,38014,1,8,0:0:0:0:
256,192,38068,1,8,0:0:0:0:
256,192,38122,1,0,0:0:0:0:
256,192,38336,1,8,0:0:0:0:
256,192,38443,1,0,0:0:0:0:
256,192,38550,1,0,0:0:0:0:
256,192,38604,1,0,0:0:0:0:
256,192,38657,1,8,0:0:0:0:
256,192,38764,1,8,0:0:0:0:
256,192,38872,1,0,0:0:0:0:
256,192,38979,1,8,0:0:0:0:
256,192,39032,1,8,0:0:0:0:
256,192,39086,1,0,0:0:0:0:
256,192,39139,1,0,0:0:0:0:
256,192,39193,1,8,0:0:0:0:
256,192,39300,1,0,0:0:0:0:
256,192,39407,1,8,0:0:0:0:
256,192,39461,1,0,0:0:0:0:
256,192,39514,1,8,0:0:0:0:
256,192,39622,1,8,0:0:0:0:
256,192,39729,1,8,0:0:0:0:
256,192,39836,1,0,0:0:0:0:
256,192,40050,1,8,0:0:0:0:
256,192,40157,1,8,0:0:0:0:
256,192,40264,1,0,0:0:0:0:
256,192,40318,1,0,0:0:0:0:
256,192,40372,1,8,0:0:0:0:
256,192,40479,1,8,0:0:0:0:
256,192,40586,1,0,0:0:0:0:
256,192,40693,1,8,0:0:0:0:
256,192,40800,1,0,0:0:0:0:
256,192,40907,1,8,0:0:0:0:
256,192,40961,1,8,0:0:0:0:
256,192,41014,1,0,0:0:0:0:
256,192,41122,1,8,0:0:0:0:
256,192,41336,1,0,0:0:0:0:
256,192,41443,1,8,0:0:0:0:
256,192,41550,1,0,0:0:0:0:
256,192,41604,1,0,0:0:0:0:
256,192,41657,1,0,0:0:0:0:
256,192,41711,1,0,0:0:0:0:
256,192,41764,1,8,0:0:0:0:
256,192,41872,1,0,0:0:0:0:
256,192,41979,1,8,0:0:0:0:
256,192,42086,1,0,0:0:0:0:
256,192,42193,1,8,0:0:0:0:
256,192,42247,1,8,0:0:0:0:
256,192,42300,1,0,0:0:0:0:
256,192,42407,1,0,0:0:0:0:
256,192,42836,1,8,0:0:0:0:
256,192,43050,1,8,0:0:0:0:
256,192,43264,1,4,0:0:0:0:
256,192,43693,1,0,0:0:0:0:
256,192,44122,1,8,0:0:0:0:
256,192,44336,1,0,0:0:0:0:
256,192,44550,1,8,0:0:0:0:
256,192,44764,1,0,0:0:0:0:
256,192,44872,1,0,0:0:0:0:
256,192,44979,1,8,0:0:0:0:
256,192,45300,1,8,0:0:0:0:
256,192,45407,1,0,0:0:0:0:
256,192,45622,1,0,0:0:0:0:
256,192,45836,1,8,0:0:0:0:
256,192,46050,1,8,0:0:0:0:
256,192,46264,1,0,0:0:0:0:
256,192,46479,1,8,0:0:0:0:
256,192,46586,1,0,0:0:0:0:
256,192,46693,1,0,0:0:0:0:
256,192,46907,1,0,0:0:0:0:
256,192,47122,1,8,0:0:0:0:
256,192,47443,1,8,0:0:0:0:
256,192,47550,1,0,0:0:0:0:
256,192,47764,1,8,0:0:0:0:
256,192,47979,1,0,0:0:0:0:
256,192,48300,1,0,0:0:0:0:
256,192,48407,1,8,0:0:0:0:
256,192,48622,1,0,0:0:0:0:
256,192,48836,1,0,0:0:0:0:
256,192,49050,1,8,0:0:0:0:
256,192,49157,1,0,0:0:0:0:
256,192,49264,1,8,0:0:0:0:
256,192,49693,1,0,0:0:0:0:
256,192,49907,1,8,0:0:0:0:
256,192,50122,1,4,0:0:0:0:
256,192,50443,1,0,0:0:0:0:
256,192,50550,1,8,0:0:0:0:
256,192,50764,1,8,0:0:0:0:
256,192,50872,1,8,0:0:0:0:
256,192,50979,1,0,0:0:0:0:
256,192,51193,1,8,0:0:0:0:
256,192,51407,1,8,0:0:0:0:
256,192,51622,1,0,0:0:0:0:
256,192,51729,1,8,0:0:0:0:
256,192,51836,1,0,0:0:0:0:
256,192,52157,1,0,0:0:0:0:
256,192,52264,1,8,0:0:0:0:
256,192,52479,1,0,0:0:0:0:
256,192,52586,1,0,0:0:0:0:
256,192,52693,1,8,0:0:0:0:
256,192,52907,1,0,0:0:0:0:
256,192,53122,1,8,0:0:0:0:
256,192,53336,1,8,0:0:0:0:
256,192,53443,1,0,0:0:0:0:
256,192,53550,1,8,0:0:0:0:
256,192,53872,1,8,0:0:0:0:
256,192,53979,1,0,0:0:0:0:
256,192,54193,1,0,0:0:0:0:
256,192,54407,1,8,0:0:0:0:
256,192,54729,1,8,0:0:0:0:
256,192,54836,1,0,0:0:0:0:
256,192,55050,1,0,0:0:0:0:
256,192,55264,1,8,0:0:0:0:
256,192,55479,1,0,0:0:0:0:
256,192,55586,1,0,0:0:0:0:
256,192,55693,1,8,0:0:0:0:
256,192,55907,1,0,0:0:0:0:
256,192,56122,1,8,0:0:0:0:
256,192,56550,1,8,0:0:0:0:
256,192,56764,1,0,0:0:0:0:
256,192,56979,1,12,0:0:0:0:
256,192,57193,1,8,0:0:0:0:
256,192,57300,1,0,0:0:0:0:
256,192,57354,1,0,0:0:0:0:
256,192,57407,1,8,0:0:0:0:
256,192,57514,1,0,0:0:0:0:
256,192,57622,1,8,0:0:0:0:
256,192,57729,1,0,0:0:0:0:
256,192,57836,1,8,0:0:0:0:
256,192,57889,1,8,0:0:0:0:
256,192,57943,1,0,0:0:0:0:
256,192,57997,1,0,0:0:0:0:
256,192,58050,1,8,0:0:0:0:
256,192,58157,1,8,0:0:0:0:
256,192,58264,1,0,0:0:0:0:
256,192,58372,1,0,0:0:0:0:
256,192,58479,1,8,0:0:0:0:
256,192,58532,1,0,0:0:0:0:
256,192,58586,1,8,0:0:0:0:
256,192,58693,1,0,0:0:0:0:
256,192,58907,1,0,0:0:0:0:
256,192,59014,1,0,0:0:0:0:
256,192,59122,1,8,0:0:0:0:
256,192,59175,1,8,0:0:0:0:
256,192,59229,1,0,0:0:0:0:
256,192,59336,1,8,0:0:0:0:
256,192,59443,1,8,0:0:0:0:
256,192,59550,1,0,0:0:0:0:
256,192,59604,1,0,0:0:0:0:
256,192,59657,1,8,0:0:0:0:
256,192,59711,1,8,0:0:0:0:
256,192,59764,1,0,0:0:0:0:
256,192,59872,1,0,0:0:0:0:
256,192,59979,1,8,0:0:0:0:
256,192,60032,1,0,0:0:0:0:
256,192,60086,1,8,0:0:0:0:
256,192,60139,1,8,0:0:0:0:
256,192,60193,1,0,0:0:0:0:
256,192,60300,1,8,0:0:0:0:
256,192,60407,1,0,0:0:0:0:
256,192,60514,1,0,0:0:0:0:
256,192,60622,1,8,0:0:0:0:
256,192,60675,1,8,0:0:0:0:
256,192,60729,1,0,0:0:0:0:
256,192,60836,1,8,0:0:0:0:
256,192,61050,1,8,0:0:0:0:
256,192,61157,1,0,0:0:0:0:
256,192,61264,1,8,0:0:0:0:
256,192,61318,1,8,0:0:0:0:
256,192,61372,1,0,0:0:0:0:
256,192,61425,1,0,0:0:0:0:
256,192,61479,1,8,0:0:0:0:
256,192,61586,1,8,0:0:0:0:
256,192,61693,1,0,0:0:0:0:
256,192,61907,1,8,0:0:0:0:
256,192,62014,1,0,0:0:0:0:
256,192,62122,1,8,0:0:0:0:
256,192,62175,1,0,0:0:0:0:
256,192,62229,1,0,0:0:0:0:
256,192,62282,1,0,0:0:0:0:
256,192,62336,1,8,0:0:0:0:
256,192,62443,1,0,0:0:0:0:
256,192,62550,1,8,0:0:0:0:
256,192,62764,1,8,0:0:0:0:
256,192,62872,1,0,0:0:0:0:
256,192,62979,1,8,0:0:0:0:
256,192,63032,1,0,0:0:0:0:
256,192,63086,1,8,0:0:0:0:
256,192,63139,1,8,0:0:0:0:
256,192,63193,1,0,0:0:0:0:
256,192,63300,1,0,0:0:0:0:
256,192,63407,1,8,0:0:0:0:
256,192,63461,1,8,0:0:0:0:
256,192,63514,1,0,0:0:0:0:
256,192,63622,1,8,0:0:0:0:
256,192,63729,1,0,0:0:0:0:
256,192,63836,1,12,0:0:0:0:
256,192,64050,1,8,0:0:0:0:
256,192,64157,1,0,0:0:0:0:
256,192,64264,1,8,0:0:0:0:
256,192,64318,1,8,0:0:0:0:
256,192,64372,1,0,0:0:0:0:
256,192,64425,1,0,0:0:0:0:
256,192,64479,1,8,0:0:0:0:
256,192,64586,1,0,0:0:0:0:
256,192,64693,1,8,0:0:0:0:
256,192,64800,1,0,0:0:0:0:
256,192,64854,1,0,0:0:0:0:
256,192,64907,1,8,0:0:0:0:
256,192,65014,1,0,0:0:0:0:
256,192,65122,1,8,0:0:0:0:
256,192,65229,1,0,0:0:0:0:
256,192,65336,1,8,0:0:0:0:
256,192,65389,1,8,0:0:0:0:
256,192,65443,1,0,0:0:0:0:
256,192,65550,1,8,0:0:0:0:
256,192,65764,1,8,0:0:0:0:
256,192,65872,1,0,0:0:0:0:
256,192,65979,1,8,0:0:0:0:
256,192,66032,1,0,0:0:0:0:
256,192,66086,1,8,0:0:0:0:
256,192,66139,1,8,0:0:0:0:
256,192,66193,1,0,0:0:0:0:
256,192,66300,1,0,0:0:0:0:
256,192,66407,1,8,0:0:0:0:
256,192,66622,1,8,0:0:0:0:
256,192,66729,1,0,0:0:0:0:
256,192,66836,1,8,0:0:0:0:
256,192,66889,1,8,0:0:0:0:
256,192,66943,1,8,0:0:0:0:
256,192,66997,1,8,0:0:0:0:
256,192,67050,1,0,0:0:0:0:
256,192,67157,1,0,0:0:0:0:
256,192,67264,1,8,0:0:0:0:
256,192,67479,1,8,0:0:0:0:
256,192,67586,1,0,0:0:0:0:
256,192,67693,1,8,0:0:0:0:
256,192,67747,1,8,0:0:0:0:
256,192,67800,1,0,0:0:0:0:
256,192,67854,1,0,0:0:0:0:
256,192,67907,1,8,0:0:0:0:
256,192,68014,1,0,0:0:0:0:
256,192,68122,1,8,0:0:0:0:
256,192,68336,1,8,0:0:0:0:
256,192,68443,1,0,0:0:0:0:
256,192,68550,1,8,0:0:0:0:
256,192,68604,1,0,0:0:0:0:
256,192,68657,1,8,0:0:0:0:
256,192,68711,1,8,0:0:0:0:
256,192,68764,1,0,0:0:0:0:
256,192,68872,1,0,0:0:0:0:
256,192,68979,1,8,0:0:0:0:
256,192,69086,1,0,0:0:0:0:
256,192,69139,1,0,0:0:0:0:
256,192,69193,1,8,0:0:0:0:
256,192,69300,1,0,0:0:0:0:
256,192,69407,1,8,0:0:0:0:
256,192,69461,1,8,0:0:0:0:
256,192,69514,1,0,0:0:0:0:
256,192,69622,1,8,0:0:0:0:
256,192,69729,1,8,0:0:0:0:
256,192,69836,1,0,0:0:0:0:
256,192,70264,1,0,0:0:0:0:
256,192,70372,1,8,0:0:0:0:
256,192,70479,1,0,0:0:0:0:
256,192,70586,1,0,0:0:0:0:
256,192,70693,1,12,0:0:0:0:
256,192,71014,1,12,0:0:0:0:
256,192,71122,1,0,0:0:0:0:
256,192,71336,1,0,0:0:0:0:
256,192,71443,1,8,0:0:0:0:
256,192,71657,1,8,0:0:0:0:
256,192,71764,1,0,0:0:0:0:
256,192,71979,1,8,0:0:0:0:
256,192,72086,1,0,0:0:0:0:
256,192,72139,1,0,0:0:0:0:
256,192,72193,1,0,0:0:0:0:
256,192,72300,1,0,0:0:0:0:
256,192,72407,1,12,0:0:0:0:
256,192,72729,1,12,0:0:0:0:
256,192,72836,1,0,0:0:0:0:
256,192,73050,1,0,0:0:0:0:
256,192,73157,1,8,0:0:0:0:
256,192,73372,1,8,0:0:0:0:
256,192,73479,1,0,0:0:0:0:
256,192,73693,1,8,0:0:0:0:
256,192,73907,1,0,0:0:0:0:
256,192,74014,1,0,0:0:0:0:
256,192,74122,1,8,0:0:0:0:
256,192,74175,1,8,0:0:0:0:
256,192,74229,1,0,0:0:0:0:
256,192,74282,1,0,0:0:0:0:
256,192,74336,1,8,0:0:0:0:
256,192,74443,1,0,0:0:0:0:
256,192,74550,1,8,0:0:0:0:
256,192,74604,1,8,0:0:0:0:
256,192,74657,1,0,0:0:0:0:
256,192,74764,1,8,0:0:0:0:
256,192,74872,1,0,0:0:0:0:
256,192,74925,1,0,0:0:0:0:
256,192,74979,1,8,0:0:0:0:
256,192,75086,1,0,0:0:0:0:
256,192,75193,1,8,0:0:0:0:
256,192,75300,1,0,0:0:0:0:
256,192,75407,1,8,0:0:0:0:
256,192,75461,1,8,0:0:0:0:
256,192,75514,1,0,0:0:0:0:
256,192,75568,1,0,0:0:0:0:
256,192,75622,1,8,0:0:0:0:
256,192,75729,1,8,0:0:0:0:
256,192,75836,1,4,0:0:0:0:
256,192,76157,1,4,0:0:0:0:
256,192,76264,1,8,0:0:0:0:
256,192,76479,1,8,0:0:0:0:
256,192,76586,1,8,0:0:0:0:
256,192,76693,1,0,0:0:0:0:
256,192,76907,1,0,0:0:0:0:
256,192,77122,1,8,0:0:0:0:
256,192,77336,1,0,0:0:0:0:
256,192,77550,1,12,0:0:0:0:
256,192,77764,1,8,0:0:0:0:
256,192,77818,1,8,0:0:0:0:
256,192,77872,1,0,0:0:0:0:
256,192,77979,1,8,0:0:0:0:
256,192,78086,1,0,0:0:0:0:
256,192,78193,1,8,0:0:0:0:
256,192,78247,1,0,0:0:0:0:
256,192,78300,1,8,0:0:0:0:
256,192,78354,1,8,0:0:0:0:
256,192,78407,1,0,0:0:0:0:
256,192,78514,1,0,0:0:0:0:
256,192,78622,1,8,0:0:0:0:
256,192,78675,1,8,0:0:0:0:
256,192,78729,1,0,0:0:0:0:
256,192,78836,1,8,0:0:0:0:
256,192,78943,1,0,0:0:0:0:
256,192,79050,1,8,0:0:0:0:
256,192,79104,1,8,0:0:0:0:
256,192,79157,1,0,0:0:0:0:
256,192,79211,1,0,0:0:0:0:
256,192,79264,1,8,0:0:0:0:
256,192,79372,1,8,0:0:0:0:
256,192,79479,1,0,0:0:0:0:
256,192,79532,1,8,0:0:0:0:
256,192,79586,1,0,0:0:0:0:
256,192,79693,1,8,0:0:0:0:
256,192,79907,1,8,0:0:0:0:
256,192,80014,1,0,0:0:0:0:
256,192,80122,1,8,0:0:0:0:
256,192,80175,1,0,0:0:0:0:
256,192,80229,1,8,0:0:0:0:
256,192,80282,1,8,0:0:0:0:
256,192,80336,1,0,0:0:0:0:
256,192,80443,1,0,0:0:0:0:
256,192,80550,1,8,0:0:0:0:
256,192,80657,1,0,0:0:0:0:
256,192,80764,1,8,0:0:0:0:
256,192,80818,1,8,0:0:0:0:
256,192,80872,1,0,0:0:0:0:
256,192,80979,1,8,0:0:0:0:
256,192,81193,1,8,0:0:0:0:
256,192,81300,1,0,0:0:0:0:
256,192,81354,1,0,0:0:0:0:
256,192,81407,1,8,0:0:0:0:
256,192,81514,1,8,0:0:0:0:
256,192,81622,1,0,0:0:0:0:
256,192,81675,1,0,0:0:0:0:
256,192,81729,1,8,0:0:0:0:
256,192,81782,1,8,0:0:0:0:
256,192,81836,1,0,0:0:0:0:
256,192,81943,1,8,0:0:0:0:
256,192,82050,1,0,0:0:0:0:
256,192,82104,1,8,0:0:0:0:
256,192,82157,1,0,0:0:0:0:
256,192,82264,1,8,0:0:0:0:
256,192,82479,1,8,0:0:0:0:
256,192,82532,1,8,0:0:0:0:
256,192,82586,1,0,0:0:0:0:
256,192,82693,1,8,0:0:0:0:
256,192,82800,1,8,0:0:0:0:
256,192,82907,1,0,0:0:0:0:
256,192,82961,1,0,0:0:0:0:
256,192,83014,1,0,0:0:0:0:
256,192,83122,1,8,0:0:0:0:
256,192,83336,1,8,0:0:0:0:
256,192,83443,1,0,0:0:0:0:
256,192,83550,1,8,0:0:0:0:
256,192,83604,1,8,0:0:0:0:
256,192,83657,1,8,0:0:0:0:
256,192,83711,1,8,0:0:0:0:
256,192,83764,1,0,0:0:0:0:
256,192,83872,1,0,0:0:0:0:
256,192,83979,1,8,0:0:0:0:
256,192,84032,1,8,0:0:0:0:
256,192,84086,1,0,0:0:0:0:
256,192,84193,1,8,0:0:0:0:
256,192,84300,1,8,0:0:0:0:
256,192,84407,1,4,0:0:0:0:
256,192,85264,1,8,0:0:0:0:
256,192,85907,1,8,0:0:0:0:
256,192,86014,1,8,0:0:0:0:
256,192,86122,1,0,0:0:0:0:
256,192,86443,1,0,0:0:0:0:
256,192,86979,1,8,0:0:0:0:
256,192,87622,1,0,0:0:0:0:
256,192,87729,1,0,0:0:0:0:
256,192,87836,1,8,0:0:0:0:
256,192,88693,1,0,0:0:0:0:
256,192,89550,1,8,0:0:0:0:
256,192,89764,1,0,0:0:0:0:
256,192,89872,1,0,0:0:0:0:
256,192,89979,1,8,0:0:0:0:
256,192,90193,1,0,0:0:0:0:
256,192,90407,1,8,0:0:0:0:
256,192,90836,1,8,0:0:0:0:
256,192,91050,1,8,0:0:0:0:
256,192,91264,1,4,0:0:0:0:
256,192,91693,1,0,0:0:0:0:
256,192,91907,1,8,0:0:0:0:
256,192,92014,1,0,0:0:0:0:
256,192,92122,1,8,0:0:0:0:
256,192,92336,1,0,0:0:0:0:
256,192,92550,1,8,0:0:0:0:
256,192,92764,1,0,0:0:0:0:
256,192,92872,1,0,0:0:0:0:
256,192,92979,1,8,0:0:0:0:
256,192,93407,1,8,0:0:0:0:
256,192,93622,1,0,0:0:0:0:
256,192,93836,1,8,0:0:0:0:
256,192,94050,1,0,0:0:0:0:
256,192,94157,1,0,0:0:0:0:
256,192,94264,1,8,0:0:0:0:
256,192,94479,1,8,0:0:0:0:
256,192,94693,1,0,0:0:0:0:
256,192,95122,1,8,0:0:0:0:
256,192,95336,1,0,0:0:0:0:
256,192,95443,1,8,0:0:0:0:
256,192,95550,1,0,0:0:0:0:
256,192,95979,1,0,0:0:0:0:
256,192,96193,1,0,0:0:0:0:
256,192,96407,1,8,0:0:0:0:
256,192,96622,8,0,97264,0:0:0:0:
256,192,97693,5,8,0:0:0:0:
256,192,97907,1,8,0:0:0:0:
256,192,98122,1,4,0:0:0:0:
256,192,98336,1,8,0:0:0:0:
256,192,98443,1,0,0:0:0:0:
256,192,98497,1,0,0:0:0:0:
256,192,98550,1,8,0:0:0:0:
256,192,98657,1,0,0:0:0:0:
256,192,98764,1,8,0:0:0:0:
256,192,98872,1,0,0:0:0:0:
256,192,98979,1,8,0:0:0:0:
256,192,99032,1,8,0:0:0:0:
256,192,99086,1,0,0:0:0:0:
256,192,99139,1,0,0:0:0:0:
256,192,99193,1,8,0:0:0:0:
256,192,99300,1,8,0:0:0:0:
256,192,99407,1,0,0:0:0:0:
256,192,99514,1,0,0:0:0:0:
256,192,99622,1,8,0:0:0:0:
256,192,99675,1,0,0:0:0:0:
256,192,99729,1,8,0:0:0:0:
256,192,99836,1,0,0:0:0:0:
256,192,100050,1,8,0:0:0:0:
256,192,100157,1,0,0:0:0:0:
256,192,100264,1,8,0:0:0:0:
256,192,100318,1,8,0:0:0:0:
256,192,100372,1,0,0:0:0:0:
256,192,100479,1,8,0:0:0:0:
256,192,100586,1,8,0:0:0:0:
256,192,100693,1,0,0:0:0:0:
256,192,100747,1,0,0:0:0:0:
256,192,100800,1,8,0:0:0:0:
256,192,100854,1,8,0:0:0:0:
256,192,100907,1,0,0:0:0:0:
256,192,101014,1,0,0:0:0:0:
256,192,101122,1,8,0:0:0:0:
256,192,101175,1,0,0:0:0:0:
256,192,101229,1,8,0:0:0:0:
256,192,101282,1,8,0:0:0:0:
256,192,101336,1,0,0:0:0:0:
256,192,101443,1,8,0:0:0:0:
256,192,101550,1,0,0:0:0:0:
256,192,101657,1,0,0:0:0:0:
256,192,101764,1,8,0:0:0:0:
256,192,101818,1,8,0:0:0:0:
256,192,101872,1,0,0:0:0:0:
256,192,101979,1,8,0:0:0:0:
256,192,102193,1,8,0:0:0:0:
256,192,102300,1,0,0:0:0:0:
256,192,102407,1,8,0:0:0:0:
256,192,102461,1,8,0:0:0:0:
256,192,102514,1,0,0:0:0:0:
256,192,102568,1,0,0:0:0:0:
256,192,102622,1,8,0:0:0:0:
256,192,102729,1,8,0:0:0:0:
256,192,102836,1,0,0:0:0:0:
256,192,103050,1,8,0:0:0:0:
256,192,103157,1,0,0:0:0:0:
256,192,103264,1,8,0:0:0:0:
256,192,103318,1,0,0:0:0:0:
256,192,103372,1,0,0:0:0:0:
256,192,103425,1,0,0:0:0:0:
256,192,103479,1,8,0:0:0:0:
256,192,103586,1,0,0:0:0:0:
256,192,103693,1,8,0:0:0:0:
256,192,103907,1,8,0:0:0:0:
256,192,104014,1,0,0:0:0:0:
256,192,104122,1,8,0:0:0:0:
256,192,104175,1,8,0:0:0:0:
256,192,104229,1,8,0:0:0:0:
256,192,104282,1,8,0:0:0:0:
256,192,104336,1,0,0:0:0:0:
256,192,104443,1,0,0:0:0:0:
256,192,104550,1,8,0:0:0:0:
256,192,104604,1,8,0:0:0:0:
256,192,104657,1,0,0:0:0:0:
256,192,104764,1,8,0:0:0:0:
256,192,104872,1,0,0:0:0:0:
256,192,104979,1,12,0:0:0:0:
256,192,105193,1,8,0:0:0:0:
256,192,105300,1,0,0:0:0:0:
256,192,105407,1,8,0:0:0:0:
256,192,105461,1,8,0:0:0:0:
256,192,105514,1,0,0:0:0:0:
256,192,105568,1,0,0:0:0:0:
256,192,105622,1,8,0:0:0:0:
256,192,105729,1,0,0:0:0:0:
256,192,105836,1,8,0:0:0:0:
256,192,105943,1,0,0:0:0:0:
256,192,105997,1,0,0:0:0:0:
256,192,106050,1,8,0:0:0:0:
256,192,106157,1,0,0:0:0:0:
256,192,106264,1,8,0:0:0:0:
256,192,106372,1,0,0:0:0:0:
256,192,106479,1,8,0:0:0:0:
256,192,106532,1,8,0:0:0:0:
256,192,106586,1,0,0:0:0:0:
256,192,106639,1,0,0:0:0:0:
256,192,106693,1,0,0:0:0:0:
256,192,106907,1,8,0:0:0:0:
256,192,107014,1,0,0:0:0:0:
256,192,107122,1,8,0:0:0:0:
256,192,107175,1,0,0:0:0:0:
256,192,107229,1,8,0:0:0:0:
256,192,107282,1,8,0:0:0:0:
256,192,107336,1,0,0:0:0:0:
256,192,107443,1,0,0:0:0:0:
256,192,107497,1,0,0:0:0:0:
256,192,107550,1,8,0:0:0:0:
256,192,107657,1,0,0:0:0:0:
256,192,107764,1,8,0:0:0:0:
256,192,107872,1,0,0:0:0:0:
256,192,107979,1,8,0:0:0:0:
256,192,108032,1,8,0:0:0:0:
256,192,108086,1,8,0:0:0:0:
256,192,108139,1,8,0:0:0:0:
256,192,108193,1,0,0:0:0:0:
256,192,108247,1,0,0:0:0:0:
256,192,108300,1,0,0:0:0:0:
256,192,108354,1,0,0:0:0:0:
256,192,108407,1,8,0:0:0:0:
256,192,108622,1,8,0:0:0:0:
256,192,108729,1,0,0:0:0:0:
256,192,108836,1,8,0:0:0:0:
256,192,108889,1,8,0:0:0:0:
256,192,108943,1,0,0:0:0:0:
256,192,108997,1,0,0:0:0:0:
256,192,109050,1,8,0:0:0:0:
256,192,109157,1,0,0:0:0:0:
256,192,109264,1,8,0:0:0:0:
256,192,109479,1,8,0:0:0:0:
256,192,109586,1,0,0:0:0:0:
256,192,109693,1,8,0:0:0:0:
256,192,109747,1,0,0:0:0:0:
256,192,109800,1,8,0:0:0:0:
256,192,109854,1,8,0:0:0:0:
256,192,109907,1,0,0:0:0:0:
256,192,109961,1,0,0:0:0:0:
256,192,110014,1,0,0:0:0:0:
256,192,110068,1,0,0:0:0:0:
256,192,110122,1,8,0:0:0:0:
256,192,110229,1,0,0:0:0:0:
256,192,110336,1,8,0:0:0:0:
256,192,110443,1,0,0:0:0:0:
256,192,110550,1,8,0:0:0:0:
256,192,110604,1,8,0:0:0:0:
256,192,110657,1,0,0:0:0:0:
256,192,110764,1,8,0:0:0:0:
256,192,110872,1,8,0:0:0:0:
256,192,110979,1,0,0:0:0:0:
256,192,111407,1,8,0:0:0:0:
256,192,111514,1,0,0:0:0:0:
256,192,111622,1,8,0:0:0:0:
256,192,111729,1,8,0:0:0:0:
256,192,111836,1,4,0:0:0:0:
256,192,112157,1,8,0:0:0:0:
256,192,112264,1,0,0:0:0:0:
256,192,112479,1,0,0:0:0:0:
256,192,112586,1,8,0:0:0:0:
256,192,112800,1,8,0:0:0:0:
256,192,112907,1,0,0:0:0:0:
256,192,113122,1,8,0:0:0:0:
256,192,113229,1,0,0:0:0:0:
256,192,113282,1,0,0:0:0:0:
256,192,113336,1,8,0:0:0:0:
256,192,113443,1,8,0:0:0:0:
256,192,113550,1,0,0:0:0:0:
256,192,113872,1,0,0:0:0:0:
256,192,113979,1,8,0:0:0:0:
256,192,114193,1,8,0:0:0:0:
256,192,114300,1,0,0:0:0:0:
256,192,114514,1,0,0:0:0:0:
256,192,114622,1,8,0:0:0:0:
256,192,114836,1,8,0:0:0:0:
256,192,114943,1,0,0:0:0:0:
256,192,115050,1,8,0:0:0:0:
256,192,115157,1,8,0:0:0:0:
256,192,115264,1,4,0:0:0:0:
256,192,115586,1,0,0:0:0:0:
256,192,115693,1,8,0:0:0:0:
256,192,115907,1,8,0:0:0:0:
256,192,116014,1,0,0:0:0:0:
256,192,116229,1,0,0:0:0:0:
256,192,116336,1,8,0:0:0:0:
256,192,116550,1,8,0:0:0:0:
256,192,116657,1,0,0:0:0:0:
256,192,116711,1,0,0:0:0:0:
256,192,116764,1,8,0:0:0:0:
256,192,116872,1,8,0:0:0:0:
256,192,116979,1,0,0:0:0:0:
256,192,117086,1,8,0:0:0:0:
256,192,117139,1,8,0:0:0:0:
256,192,117193,1,0,0:0:0:0:
256,192,117300,1,0,0:0:0:0:
256,192,117407,1,8,0:0:0:0:
256,192,117461,1,8,0:0:0:0:
256,192,117514,1,0,0:0:0:0:
256,192,117622,1,8,0:0:0:0:
256,192,117729,1,8,0:0:0:0:
256,192,117836,1,0,0:0:0:0:
256,192,118050,1,8,0:0:0:0:
256,192,118157,1,0,0:0:0:0:
256,192,118211,1,0,0:0:0:0:
256,192,118264,1,8,0:0:0:0:
256,192,118372,1,8,0:0:0:0:
256,192,118479,1,0,0:0:0:0:
256,192,118586,1,8,0:0:0:0:
