osu file format v14

[General]
AudioFilename: audio.mp3
AudioLeadIn: 0
PreviewTime: 54224
Countdown: 0
SampleSet: Soft
StackLeniency: 0.4
Mode: 0
LetterboxInBreaks: 0
WidescreenStoryboard: 1

[Editor]
DistanceSpacing: 0.97
BeatDivisor: 3
GridSize: 4
TimelineZoom: 1.2

[Metadata]
Title:Seiza ga Koi Shita Shunkan o.
TitleUnicode:星座が恋した瞬間を。
Artist:BEMANI Sound Team "DJ TOTTO feat. MarL"
ArtistUnicode:BEMANI Sound Team "DJ TOTTO feat. MarL"
Creator:Log Off Now
Version:Extra
Source:GITADORA Matixx
Tags:video game japanese DDR dance dance revolution A jubeat clan pop'n music うさぎと猫と少年の夢 SDVX IV sound voltex heavenly haven Nostalgia OP.2 ノスタルジア bemani summer greetings
BeatmapID:2248980
BeatmapSetID:1050599

[Difficulty]
HPDrainRate:5.2
CircleSize:3.8
OverallDifficulty:9
ApproachRate:9.2
SliderMultiplier:1.4
SliderTickRate:1

[Events]
//Background and Video events
0,0,"todoke.jpg",0,0
//Break Periods
//Storyboard Layer 0 (Background)
//Storyboard Layer 1 (Fail)
//Storyboard Layer 2 (Pass)
//Storyboard Layer 3 (Foreground)
//Storyboard Layer 4 (Overlay)
//Storyboard Sound Samples

[TimingPoints]
1321,322.58064516129,4,2,1,45,1,0
5191,-100,4,2,1,55,0,0
6482,-83.3333333333333,4,2,1,65,0,0
9062,-83.3333333333333,4,2,1,45,0,0
9385,-83.3333333333333,4,2,1,47,0,0
9708,-83.3333333333333,4,2,1,50,0,0
10030,-83.3333333333333,4,2,1,53,0,0
10353,-83.3333333333333,4,2,1,55,0,0
10675,-83.3333333333333,4,2,1,57,0,0
10998,-83.3333333333333,4,2,1,60,0,0
11643,-83.3333333333333,4,2,1,65,0,0
21966,-100,4,2,1,45,0,0
22772,-100,4,2,1,25,0,0
22933,-76.9230769230769,4,2,1,45,0,0
23175,-76.9230769230769,4,2,1,5,0,0
23256,-111.111111111111,4,2,1,45,0,0
28417,-83.3333333333333,4,2,1,60,0,0
33579,-83.3333333333333,4,2,1,50,0,0
43901,-83.3333333333333,4,2,1,45,0,0
45837,-83.3333333333333,4,2,1,55,0,0
46482,-83.3333333333333,4,2,1,45,0,0
48417,-83.3333333333333,4,2,1,55,0,0
49062,-83.3333333333333,4,2,1,50,0,0
50191,-83.3333333333333,4,2,1,60,0,0
51804,-66.6666666666667,4,2,1,45,0,0
51966,-66.6666666666667,4,2,1,50,0,0
52127,-66.6666666666667,4,2,1,55,0,0
52288,-66.6666666666667,4,2,1,60,0,0
54224,-76.9230769230769,4,2,1,65,0,1
56159,-76.9230769230769,4,2,1,65,0,1
60353,-76.9230769230769,4,2,1,65,0,1
60675,-76.9230769230769,4,2,1,65,0,1
64466,-83.3333333333333,4,2,1,65,0,0
64546,-71.4285714285714,4,2,1,65,0,1
65837,-71.4285714285714,4,2,1,65,0,1
66079,-71.4285714285714,4,2,1,65,0,1
67127,-71.4285714285714,4,2,1,65,0,1
67369,-71.4285714285714,4,2,1,65,0,1
70998,-71.4285714285714,4,2,1,65,0,1
71240,-71.4285714285714,4,2,1,65,0,1
71643,-71.4285714285714,4,2,1,65,0,1
72288,-71.4285714285714,4,2,1,65,0,1
74869,-83.3333333333333,4,2,1,65,0,0
85353,-83.3333333333333,4,2,1,50,0,0
86159,-100,4,2,1,50,0,0
90675,-100,4,2,1,50,0,0
90998,-100,4,2,1,50,0,0
91643,-90.9090909090909,4,2,1,57,0,0
93256,-76.9230769230769,4,2,1,60,0,0
96804,-66.6666666666667,4,2,1,70,0,1
103256,-66.6666666666667,4,2,1,70,0,1
103498,-66.6666666666667,4,2,1,70,0,1
103901,-66.6666666666667,4,2,1,70,0,1
104062,-66.6666666666667,4,2,1,70,0,1
106804,-66.6666666666667,4,2,1,70,0,1
107127,-66.6666666666667,4,2,1,70,0,1
108417,-66.6666666666667,4,2,1,55,0,0
109708,-83.3333333333333,4,2,1,65,0,0

[Colours]
Combo1 : 252,249,143
Combo2 : 152,254,137
Combo3 : 113,176,255
Combo4 : 249,136,153

[HitObjects]
147,119,1321,6,0,P|140:85|133:40,2,70,2|0|0,0:0|0:0|0:0,0:0:0:0:
196,197,1804,2,0,P|187:235|182:276,2,70,2|0|0,0:0|0:0|0:0,0:0:0:0:
263,81,2288,2,0,P|270:115|275:149,1,70,2|0,0:0|0:0,0:0:0:0:
297,249,2611,2,0,P|341:208|437:216,1,140,2|0,0:0|0:0,0:0:0:0:
408,346,3095,1,2,0:0:0:0:
408,346,3256,2,0,P|376:291|379:262,1,70,2|0,0:0|0:0,0:0:0:0:
498,225,3579,2,0,P|464:275|442:287,1,70,2|0,0:0|0:0,0:0:0:0:
285,222,3901,6,0,P|292:282|303:366,2,140,2|0|2,0:0|0:0|0:0,0:0:0:0:
219,165,4708,1,0,0:0:0:0:
312,67,4869,2,0,P|307:104|301:149,1,70,2|0,0:0|0:0,0:0:0:0:
203,260,5191,2,0,P|147:224|59:249,1,140,2|2,0:3|0:3,0:0:0:0:
116,379,5675,1,0,1:0:0:0:
116,379,5756,1,0,1:0:0:0:
116,379,5837,2,0,L|127:303,1,70,8|0,0:0|1:0,0:0:0:0:
33,176,6159,2,0,L|44:252,1,70,12|0,0:0|0:0,0:0:0:0:
181,98,6482,6,0,P|139:129|100:134,1,83.9999974365235,12|2,0:0|0:0,0:0:0:0:
34,93,6804,1,2,1:2:0:0:
148,219,6966,1,12,0:0:0:0:
183,16,7127,1,2,0:0:0:0:
93,147,7288,1,2,1:2:0:0:
35,16,7450,2,0,P|77:47|116:52,1,83.9999974365235,12|0,0:0|0:0,0:0:0:0:
288,7,7772,5,0,1:0:0:0:
263,32,7852,1,8,0:0:0:0:
250,65,7933,1,8,0:0:0:0:
252,101,8013,1,8,0:0:0:0:
267,133,8094,1,8,0:0:0:0:
375,83,8256,6,0,L|318:77,2,41.9999987182618,8|8|8,0:3|0:3|0:3,0:0:0:0:
244,222,8579,2,0,L|285:217,2,41.9999987182618,4|4|4,0:3|0:3|0:3,0:0:0:0:
169,146,8901,1,0,1:0:0:0:
98,275,9062,6,0,L|93:213,3,41.9999987182618,10|8|8|8,0:0|0:0|0:0|0:0,0:0:0:0:
179,342,9385,2,0,L|174:404,3,41.9999987182618,10|8|8|8,0:0|0:0|0:0|0:0,0:0:0:0:
261,280,9708,5,10,0:0:0:0:
289,264,9788,1,8,0:0:0:0:
319,256,9869,1,8,0:0:0:0:
351,257,9949,1,8,0:0:0:0:
381,268,10030,1,10,0:0:0:0:
409,282,10111,1,8,0:0:0:0:
438,295,10191,1,8,0:0:0:0:
469,302,10272,1,8,0:0:0:0:
501,301,10353,6,0,L|494:250,1,41.9999987182618,10|8,0:0|0:0,0:0:0:0:
431,199,10514,2,0,L|436:157,1,41.9999987182618,8|8,0:0|0:0,0:0:0:0:
499,96,10675,5,10,0:0:0:0:
499,96,10756,1,8,0:0:0:0:
499,96,10837,2,0,L|492:45,1,41.9999987182618,10|8,0:0|0:0,0:0:0:0:
427,6,10998,1,2,0:0:0:0:
362,300,11643,5,4,1:0:0:0:
304,116,11804,1,2,0:0:0:0:
272,361,11966,1,8,0:0:0:0:
415,216,12127,1,2,0:0:0:0:
222,153,12288,1,8,0:0:0:0:
284,282,12450,2,0,L|295:194,1,83.9999974365235,2|8,1:2|0:0,0:0:0:0:
312,25,12772,6,0,P|261:70|148:22,1,167.999994873047,2|2,1:2|1:2,0:0:0:0:
34,0,13256,2,0,L|47:91,1,83.9999974365235,10|0,0:0|1:0,0:0:0:0:
68,112,13498,1,0,1:0:0:0:
68,112,13579,2,0,L|55:203,1,83.9999974365235,10|2,0:0|1:2,0:0:0:0:
195,291,13901,2,0,P|153:270|110:271,1,83.9999974365235,12|0,0:0|1:0,0:0:0:0:
302,116,14224,5,4,1:0:0:0:
267,365,14385,1,2,0:0:0:0:
215,157,14547,1,8,0:0:0:0:
370,260,14708,1,2,0:0:0:0:
180,319,14869,1,8,0:0:0:0:
290,198,15031,2,0,L|279:286,1,83.9999974365235,2|8,1:2|0:0,0:0:0:0:
161,59,15353,6,0,P|212:104|325:56,1,167.999994873047,2|0,1:2|1:0,0:0:0:0:
407,12,15837,2,0,L|396:100,1,83.9999974365235,10|0,0:0|1:0,0:0:0:0:
251,236,16159,5,10,0:0:0:0:
267,202,16239,1,10,0:0:0:0:
297,179,16320,1,10,0:0:0:0:
333,168,16400,1,10,0:0:0:0:
370,175,16482,2,0,P|397:180|426:175,1,41.9999987182618,10|10,0:0|0:0,0:0:0:0:
476,121,16643,1,10,0:0:0:0:
342,262,16804,5,4,1:0:0:0:
283,89,16966,1,2,1:2:0:0:
247,302,17127,1,8,0:0:0:0:
411,178,17288,1,2,0:0:0:0:
428,350,17450,1,8,0:0:0:0:
269,201,17611,2,0,P|315:233|359:229,1,83.9999974365235,2|8,1:2|0:0,0:0:0:0:
484,110,17933,6,0,B|452:191|452:191|490:278,1,167.999994873047,2|2,1:2|0:0,0:0:0:0:
269,201,18417,2,0,L|360:188,1,83.9999974365235,8|2,0:0|1:2,0:0:0:0:
381,167,18659,1,0,1:0:0:0:
381,167,18740,2,0,L|472:180,1,83.9999974365235,8|2,0:0|1:2,0:0:0:0:
408,310,19062,2,0,P|362:278|318:282,1,83.9999974365235,12|0,0:0|0:0,0:0:0:0:
166,192,19385,5,4,1:0:0:0:
224,337,19546,1,2,0:0:0:0:
248,152,19708,1,8,0:0:0:0:
135,267,19869,1,2,1:2:0:0:
89,85,20030,2,0,L|201:99,1,83.9999974365235,8|2,0:0|1:2,0:0:0:0:
311,240,20353,2,0,L|227:250,1,83.9999974365235,8|0,0:0|1:0,0:0:0:0:
55,175,20675,5,4,1:2:0:0:
248,152,20837,1,8,0:0:0:0:
87,286,20998,1,8,0:0:0:0:
183,68,21159,1,8,0:0:0:0:
244,287,21320,5,0,1:0:0:0:
244,287,21401,1,8,0:0:0:0:
244,287,21482,2,0,L|239:341,1,41.9999987182618,8|8,0:0|0:0,0:0:0:0:
334,253,21643,5,0,1:0:0:0:
334,253,21724,1,8,0:0:0:0:
334,253,21805,2,0,L|329:307,1,41.9999987182618,8|8,0:0|0:0,0:0:0:0:
423,209,21966,6,0,L|417:279,2,70,2|2|2,0:0|0:0|0:0,0:0:0:0:
361,135,22450,2,0,P|330:163|236:165,1,140,2|0,0:0|0:0,0:0:0:0:
284,81,22933,1,12,0:0:0:0:
349,330,23256,6,0,P|296:313|275:313,1,62.9999980773926,4|0,1:0|0:0,0:0:0:0:
273,224,23579,2,0,P|221:245|205:258,1,62.9999980773926,0|0,1:0|0:0,0:0:0:0:
162,323,23901,1,0,1:0:0:0:
240,382,24062,1,0,0:0:0:0:
153,188,24224,2,0,P|127:237|123:257,1,62.9999980773926,0|0,1:0|0:0,0:0:0:0:
84,379,24546,6,0,P|66:326|65:305,1,62.9999980773926,0|0,1:0|0:0,0:0:0:0:
153,188,24869,2,0,P|127:237|123:257,1,62.9999980773926,0|0,1:0|0:0,0:0:0:0:
273,224,25191,2,0,P|221:245|205:258,1,62.9999980773926,0|0,1:0|0:0,0:0:0:0:
349,330,25514,2,0,P|296:313|275:313,1,62.9999980773926,0|0,1:0|0:0,0:0:0:0:
162,323,25837,5,0,1:0:0:0:
240,382,25998,1,0,0:0:0:0:
294,211,26159,5,0,1:0:0:0:
216,249,26320,1,0,0:0:0:0:
408,327,26482,5,0,1:0:0:0:
379,244,26643,1,0,0:0:0:0:
271,377,26804,2,0,L|341:361,1,62.9999980773926,0|0,1:0|0:0,0:0:0:0:
503,252,27127,6,0,L|486:385,1,125.999996154785,0|0,1:0|1:0,0:0:0:0:
390,229,27611,1,2,0:0:0:0:
390,229,27691,1,2,0:0:0:0:
390,229,27772,2,0,L|401:313,1,62.9999980773926,2|0,1:2|0:0,0:0:0:0:
466,172,28095,1,0,1:0:0:0:
362,43,28256,2,0,L|368:89,1,31.4999990386963,8|8,0:0|0:0,0:0:0:0:
313,144,28417,6,0,P|268:118|230:117,1,83.9999974365235,4|8,1:0|0:3,0:0:0:0:
81,191,28740,1,4,0:3:0:0:
249,283,28901,6,0,L|241:192,1,83.9999974365235,12|4,0:0|0:3,0:0:0:0:
150,79,29224,1,8,0:3:0:0:
161,242,29385,1,4,0:3:0:0:
147,50,29546,1,0,1:0:0:0:
50,251,29708,5,4,1:0:0:0:
0,73,29869,1,8,0:3:0:0:
0,73,29950,1,8,0:3:0:0:
0,73,30030,2,0,P|45:99|83:100,1,83.9999974365235,8|4,0:3|0:3,0:0:0:0:
246,35,30353,1,0,1:0:0:0:
111,185,30514,5,12,0:0:0:0:
164,70,30675,1,0,1:0:0:0:
204,244,30837,1,2,0:3:0:0:
316,90,30998,6,0,P|271:116|233:117,1,83.9999974365235,4|12,1:0|0:3,0:0:0:0:
83,37,31320,1,0,1:0:0:0:
219,214,31482,6,0,P|174:188|136:187,1,83.9999974365235,12|8,0:0|0:3,0:0:0:0:
0,236,31804,1,8,0:0:0:0:
150,284,31966,1,0,1:0:0:0:
53,83,32127,1,8,0:3:0:0:
53,83,32208,1,8,0:3:0:0:
53,83,32288,6,0,L|64:179,1,83.9999974365235,4|8,1:0|0:0,0:0:0:0:
164,382,32611,2,0,L|174:299,1,83.9999974365235,8|8,0:0|0:0,0:0:0:0:
331,116,32933,1,8,0:0:0:0:
306,312,33095,1,8,0:0:0:0:
221,141,33256,1,8,0:0:0:0:
424,232,33417,1,8,0:0:0:0:
224,360,33579,5,4,1:0:0:0:
238,235,33740,1,2,0:0:0:0:
387,319,33901,2,0,L|300:311,1,83.9999974365235,10|0,0:0|0:0,0:0:0:0:
277,275,34143,1,8,0:0:0:0:
277,275,34224,2,0,L|190:283,1,83.9999974365235,2|0,1:2|1:0,0:0:0:0:
87,374,34546,2,0,P|111:340|112:294,1,83.9999974365235,10|0,0:0|0:0,0:0:0:0:
8,190,34869,5,2,1:2:0:0:
33,312,35030,1,0,1:0:0:0:
218,192,35191,2,0,L|131:184,1,83.9999974365235,10|8,0:0|0:0,0:0:0:0:
108,148,35433,1,8,0:0:0:0:
108,148,35514,2,0,L|21:156,1,83.9999974365235,2|2,1:2|1:2,0:0:0:0:
123,300,35837,2,0,P|181:277|254:333,1,125.999996154785,10|0,0:0|0:0,0:0:0:0:
264,327,36159,6,0,L|253:171,1,125.999996154785,2|0,1:2|0:0,0:0:0:0:
252,160,36482,2,0,P|307:190|332:191,1,83.9999974365235,10|2,0:0|0:0,0:0:0:0:
441,68,36804,1,2,1:2:0:0:
319,106,36966,1,2,1:2:0:0:
412,233,37127,2,0,L|399:127,1,83.9999974365235,10|0,0:0|1:0,0:0:0:0:
246,39,37450,5,2,1:2:0:0:
260,181,37611,1,0,1:0:0:0:
144,18,37772,1,10,0:0:0:0:
319,106,37933,1,2,0:0:0:0:
137,188,38095,1,2,0:0:0:0:
182,100,38256,1,0,1:0:0:0:
229,268,38417,2,0,L|241:178,1,83.9999974365235,10|0,0:0|0:0,0:0:0:0:
109,45,38740,6,0,B|194:39|179:92|285:68,1,167.999994873047,4|8,1:0|0:0,0:0:0:0:
113,141,39224,1,8,0:0:0:0:
17,56,39385,2,0,L|28:150,1,83.9999974365235,0|0,1:0|1:0,0:0:0:0:
46,303,39708,1,10,0:0:0:0:
113,141,39869,1,2,0:0:0:0:
25,219,40030,6,0,B|110:213|95:266|201:242,1,167.999994873047,2|8,1:2|0:0,0:0:0:0:
212,116,40514,1,8,0:0:0:0:
212,116,40595,1,8,0:0:0:0:
212,116,40675,2,0,P|156:151|152:180,1,83.9999974365235,2|0,1:2|1:0,0:0:0:0:
221,330,40998,2,0,P|265:312|308:309,1,83.9999974365235,10|0,0:0|0:0,0:0:0:0:
395,222,41320,6,0,L|380:368,1,125.999996154785,2|0,1:2|0:0,0:0:0:0:
380,379,41643,1,10,0:0:0:0:
512,269,41804,2,0,P|468:287|425:290,1,83.9999974365235,2|0,0:0|1:0,0:0:0:0:
303,195,42127,1,2,1:2:0:0:
488,110,42288,1,10,0:0:0:0:
407,210,42450,1,8,0:0:0:0:
407,210,42530,1,8,0:0:0:0:
407,210,42611,1,4,1:0:0:0:
306,106,42772,6,0,L|353:111,2,41.9999987182618,8|8|8,0:3|0:3|0:3,0:0:0:0:
234,177,43095,1,4,0:3:0:0:
152,117,43256,1,0,1:0:0:0:
75,186,43417,1,8,0:0:0:0:
77,208,43497,1,8,0:0:0:0:
79,230,43578,1,8,0:0:0:0:
82,252,43658,1,8,0:0:0:0:
84,274,43739,1,8,0:0:0:0:
86,296,43820,1,8,0:0:0:0:
89,318,43901,6,0,P|139:298|177:301,1,83.9999974365235,4|2,1:0|0:0,0:0:0:0:
237,356,44224,1,2,0:0:0:0:
237,356,44385,1,0,1:0:0:0:
378,223,44546,2,0,P|325:286|337:367,1,167.999994873047,12|2,0:0|0:0,0:0:0:0:
492,318,45030,1,0,0:0:0:0:
492,318,45191,6,0,L|400:309,1,83.9999974365235,0|2,1:0|0:0,0:0:0:0:
344,224,45514,2,0,L|252:233,1,83.9999974365235,2|2,0:0|0:0,0:0:0:0:
172,327,45837,1,12,0:0:0:0:
51,169,45998,1,0,1:0:0:0:
51,169,46079,1,0,1:0:0:0:
51,169,46159,2,0,P|93:208|96:243,1,83.9999974365235,12|2,0:0|0:0,0:0:0:0:
32,377,46482,6,0,P|73:328|189:339,1,167.999994873047,4|2,1:0|0:0,0:0:0:0:
261,183,46966,1,0,1:0:0:0:
261,183,47046,1,0,1:0:0:0:
261,183,47127,2,0,L|248:288,1,83.9999974365235,12|2,0:0|0:0,0:0:0:0:
158,350,47450,1,2,0:0:0:0:
158,350,47611,1,2,0:0:0:0:
288,378,47772,6,0,L|275:273,1,83.9999974365235,0|2,1:0|0:0,0:0:0:0:
184,205,48095,1,2,0:0:0:0:
184,205,48256,1,0,1:0:0:0:
365,103,48417,1,12,0:0:0:0:
307,282,48579,1,0,1:0:0:0:
239,66,48740,1,12,0:0:0:0:
433,215,48901,1,0,1:0:0:0:
498,13,49062,6,0,P|459:40|421:47,1,83.9999974365235,4|2,1:2|0:0,0:0:0:0:
271,161,49385,1,2,1:2:0:0:
427,126,49546,1,2,0:0:0:0:
212,31,49708,2,0,P|251:79|239:182,1,167.999994873047,2|0,1:2|1:0,0:0:0:0:
78,106,50191,5,8,0:0:0:0:
78,106,50272,1,8,0:0:0:0:
78,106,50353,2,0,L|174:117,1,83.9999974365235,2|14,1:2|0:0,0:0:0:0:
22,225,50675,5,2,1:2:0:0:
22,225,50756,1,8,0:0:0:0:
22,225,50837,2,0,L|14:158,1,41.9999987182618,10|8,0:0|0:0,0:0:0:0:
114,251,50998,6,0,L|105:182,2,55.9999982910157,10|8|8,0:0|0:0|0:0,0:0:0:0:
207,269,51320,2,0,L|198:200,2,55.9999982910157,8|8|8,0:3|0:3|0:3,0:0:0:0:
143,335,51643,1,4,1:0:0:0:
114,251,51804,5,8,0:0:0:0:
241,343,51966,1,8,0:0:0:0:
61,379,52127,1,8,0:0:0:0:
264,151,52288,1,8,0:0:0:0:
157,368,52450,1,10,0:0:0:0:
157,368,52530,1,8,0:0:0:0:
157,368,52611,2,0,L|171:250,1,105.000004005432,4|0,0:3|1:2,0:0:0:0:
65,73,52933,1,2,0:0:0:0:
86,95,53579,5,8,0:0:0:0:
86,95,53659,1,8,0:0:0:0:
86,95,53740,2,0,L|80:157,1,52.5000020027161,8|8,0:0|0:0,0:0:0:0:
6,207,53901,5,8,0:0:0:0:
6,207,53981,1,8,0:0:0:0:
6,207,54062,2,0,L|12:269,1,52.5000020027161,8|8,0:0|0:0,0:0:0:0:
195,89,54224,5,4,1:0:0:0:
290,268,54385,1,2,0:0:0:0:
92,228,54546,1,10,0:0:0:0:
215,88,54708,5,2,1:2:0:0:
278,281,54869,1,10,0:0:0:0:
90,208,55030,1,2,1:2:0:0:
235,87,55191,5,10,0:0:0:0:
264,289,55352,1,2,1:2:0:0:
92,184,55514,2,0,L|202:170,1,90.9999958343508,10|0,0:0|0:0,0:0:0:0:
377,27,55837,5,10,0:0:0:0:
346,170,55998,1,2,1:2:0:0:
246,74,56159,1,10,0:0:0:0:
472,119,56320,1,2,1:2:0:0:
229,69,56482,1,10,0:0:0:0:
337,200,56643,1,0,0:0:0:0:
380,1,56804,6,0,P|334:30|289:31,1,90.9999958343508,4|0,1:0|0:0,0:0:0:0:
95,2,57127,2,0,P|138:34|149:78,1,90.9999958343508,10|0,0:0|1:0,0:0:0:0:
115,249,57450,1,10,0:0:0:0:
68,82,57611,1,2,1:2:0:0:
24,232,57772,1,10,0:0:0:0:
166,167,57933,1,2,1:2:0:0:
102,339,58095,6,0,L|116:236,1,90.9999958343508,10|0,0:0|1:0,0:0:0:0:
0,125,58417,2,0,L|14:228,1,90.9999958343508,10|0,0:0|1:0,0:0:0:0:
166,43,58740,1,8,0:0:0:0:
163,58,58820,1,8,0:0:0:0:
160,73,58901,2,0,L|152:118,1,45.4999979171754,8|8,0:3|0:3,0:0:0:0:
88,173,59062,1,4,0:3:0:0:
91,188,59142,1,4,0:3:0:0:
94,203,59224,1,4,0:3:0:0:
188,284,59385,6,0,L|173:195,1,90.9999958343508,4|2,1:0|0:0,0:0:0:0:
121,348,59708,1,10,0:0:0:0:
261,197,59869,1,2,0:0:0:0:
92,257,60030,1,10,0:0:0:0:
267,321,60191,1,2,1:2:0:0:
160,88,60353,2,0,P|201:118|252:111,1,90.9999958343508,10|0,0:0|0:0,0:0:0:0:
379,34,60675,6,0,P|343:81|372:191,1,181.999991668702,10|10,1:2|0:0,0:0:0:0:
423,115,61159,1,2,1:2:0:0:
270,36,61320,1,10,0:0:0:0:
288,220,61482,1,2,1:2:0:0:
267,11,61643,1,10,0:0:0:0:
191,173,61804,1,4,1:0:0:0:
342,121,61966,6,0,L|229:107,1,90.9999958343508,4|0,1:0|0:0,0:0:0:0:
91,210,62288,2,0,L|181:198,1,90.9999958343508,10|0,0:0|1:0,0:0:0:0:
328,228,62611,1,10,0:0:0:0:
163,112,62772,1,0,1:0:0:0:
169,285,62933,2,0,L|259:273,1,90.9999958343508,10|0,0:0|1:0,0:0:0:0:
393,170,63256,5,12,1:2:0:0:
424,323,63417,1,0,1:0:0:0:
424,323,63498,1,0,1:0:0:0:
424,323,63579,2,0,L|311:309,1,90.9999958343508,10|2,0:0|1:2,0:0:0:0:
256,174,63901,5,2,1:2:0:0:
259,189,63981,1,8,0:0:0:0:
262,204,64062,2,0,L|270:249,1,45.4999979171754,8|8,0:0|0:0,0:0:0:0:
333,116,64224,5,8,1:2:0:0:
336,131,64304,1,8,0:0:0:0:
339,146,64385,2,0,L|347:191,1,45.4999979171754,8|8,0:0|0:0,0:0:0:0:
408,65,64546,5,4,1:0:0:0:
357,278,64708,1,10,0:0:0:0:
242,106,64869,1,2,1:2:0:0:
242,106,64950,1,0,1:0:0:0:
242,106,65030,1,10,0:0:0:0:
442,154,65191,1,2,1:2:0:0:
272,245,65353,1,10,0:0:0:0:
320,58,65514,1,2,1:2:0:0:
435,241,65675,1,10,0:0:0:0:
187,168,65837,6,0,L|199:288,1,97.9999970092774,2|8,1:2|0:0,0:0:0:0:
335,373,66159,1,2,1:2:0:0:
335,373,66240,1,0,1:0:0:0:
335,373,66320,2,0,L|347:253,1,97.9999970092774,10|2,0:0|1:2,0:0:0:0:
255,128,66643,1,10,0:0:0:0:
425,338,66804,2,0,L|437:218,1,97.9999970092774,2|10,1:2|0:0,0:0:0:0:
412,43,67127,2,0,P|363:75|312:82,1,97.9999970092774,4|8,1:0|0:0,0:0:0:0:
135,18,67450,6,0,P|170:60|155:174,1,146.999995513916,2|0,1:2|0:0,0:0:0:0:
163,197,67772,2,0,P|212:165|263:158,1,97.9999970092774,2|10,1:2|0:0,0:0:0:0:
94,104,68095,1,2,1:2:0:0:
238,246,68256,1,10,0:0:0:0:
76,336,68417,6,0,L|93:228,1,97.9999970092774,2|8,1:2|0:0,0:0:0:0:
5,88,68740,2,0,L|21:190,1,97.9999970092774,2|8,1:2|0:0,0:0:0:0:
180,30,69062,1,2,1:2:0:0:
178,242,69224,1,8,0:0:0:0:
178,242,69304,1,8,0:0:0:0:
178,242,69385,2,0,L|187:182,1,48.9999985046387,8|8,0:3|0:3,0:0:0:0:
97,114,69546,2,0,L|106:174,1,48.9999985046387,4|4,0:3|0:3,0:0:0:0:
243,299,69708,5,4,1:0:0:0:
267,79,69869,2,0,P|218:112|163:115,1,97.9999970092774,10|2,0:0|1:2,0:0:0:0:
32,57,70191,1,10,0:0:0:0:
200,34,70353,1,2,1:2:0:0:
45,220,70514,1,10,0:0:0:0:
117,46,70675,1,2,1:2:0:0:
163,260,70837,1,10,0:0:0:0:
267,79,70998,6,0,B|343:64|342:118|424:100,1,146.999995513916,2|0,1:2|0:0,0:0:0:0:
446,101,71320,2,0,P|424:152|437:207,1,97.9999970092774,2|10,1:2|0:0,0:0:0:0:
335,317,71643,2,0,L|349:212,1,97.9999970092774,2|8,1:2|0:0,0:0:0:0:
326,194,71885,1,8,0:0:0:0:
326,194,71966,2,0,L|316:136,1,48.9999985046387,8|8,0:3|0:3,0:0:0:0:
339,70,72127,1,4,0:3:0:0:
339,70,72208,1,4,0:3:0:0:
339,70,72288,6,0,P|291:104|241:107,1,97.9999970092774,12|8,0:0|0:3,0:0:0:0:
59,57,72611,1,0,1:0:0:0:
263,22,72772,1,12,0:0:0:0:
128,203,72933,1,8,0:3:0:0:
128,203,73014,1,8,0:3:0:0:
128,203,73095,1,4,0:3:0:0:
158,13,73256,2,0,L|170:116,1,97.9999970092774,12|0,0:0|0:0,0:0:0:0:
49,265,73579,5,0,1:0:0:0:
49,265,73660,1,8,0:0:0:0:
49,265,73741,2,0,L|41:213,1,48.9999985046387,8|0,0:0|0:0,0:0:0:0:
138,289,73901,5,0,1:0:0:0:
138,289,73982,1,8,0:0:0:0:
138,289,74063,2,0,L|130:237,1,48.9999985046387,8|8,0:0|0:0,0:0:0:0:
226,132,74224,6,0,L|211:242,1,97.9999970092774,0|0,1:0|1:0,0:0:0:0:
292,350,74546,2,0,P|349:308|431:319,1,146.999995513916,12|0,0:0|0:0,0:0:0:0:
460,336,74869,6,0,L|444:228,1,83.9999974365235,4|0,1:0|0:0,0:0:0:0:
309,154,75191,2,0,P|356:187|418:181,1,83.9999974365235,10|0,0:0|1:0,0:0:0:0:
499,42,75514,1,10,0:0:0:0:
379,102,75675,1,2,1:2:0:0:
500,199,75837,1,10,0:0:0:0:
461,119,75998,1,2,1:2:0:0:
433,256,76159,6,0,P|386:223|324:229,1,83.9999974365235,10|2,0:0|0:0,0:0:0:0:
294,350,76482,1,10,0:0:0:0:
294,350,76562,1,2,0:0:0:0:
294,350,76643,2,0,P|346:325|371:269,1,83.9999974365235,2|10,1:2|0:0,0:0:0:0:
283,184,76966,1,0,1:0:0:0:
283,184,77046,1,0,1:0:0:0:
283,184,77127,2,0,P|278:241|314:291,1,83.9999974365235,10|2,0:0|1:2,0:0:0:0:
413,114,77450,6,0,B|369:127|369:127|326:112,1,83.9999974365235,2|0,1:2|0:0,0:0:0:0:
243,20,77772,1,10,0:0:0:0:
243,20,77852,1,2,0:0:0:0:
243,20,77933,2,0,P|247:77|211:127,1,83.9999974365235,2|10,1:2|0:0,0:0:0:0:
147,191,78256,1,0,1:0:0:0:
16,24,78417,1,12,0:0:0:0:
167,56,78579,1,2,1:2:0:0:
48,221,78740,5,4,1:0:0:0:
77,107,78901,2,0,L|86:63,2,41.9999987182618,8|8|8,0:0|0:0|0:3,0:0:0:0:
147,191,79224,2,0,L|156:235,2,41.9999987182618,8|8|4,0:3|0:3|0:3,0:0:0:0:
231,106,79546,1,4,0:3:0:0:
299,172,79708,1,2,1:2:0:0:
299,172,79869,1,2,1:2:0:0:
397,40,80030,6,0,L|377:143,1,83.9999974365235,4|0,1:0|1:0,0:0:0:0:
254,313,80353,2,0,L|234:210,1,83.9999974365235,8|0,0:0|1:0,0:0:0:0:
305,70,80675,2,0,L|285:173,1,83.9999974365235,8|0,0:0|1:0,0:0:0:0:
160,283,80998,5,10,0:0:0:0:
207,122,81159,1,2,1:2:0:0:
320,246,81320,2,0,L|217:226,1,83.9999974365235,2|2,1:2|0:0,0:0:0:0:
53,191,81643,5,8,0:0:0:0:
125,354,81804,1,2,1:2:0:0:
230,131,81966,2,0,L|127:151,1,83.9999974365235,10|2,0:0|1:2,0:0:0:0:
127,181,82208,1,2,1:2:0:0:
127,181,82288,2,0,L|24:161,1,83.9999974365235,10|2,0:0|1:2,0:0:0:0:
169,62,82611,5,2,1:2:0:0:
127,260,82772,1,2,1:2:0:0:
15,159,82933,1,12,0:0:0:0:
238,197,83095,1,2,1:2:0:0:
55,305,83256,5,8,0:0:0:0:
55,305,83337,1,8,0:0:0:0:
55,305,83418,2,0,L|48:257,1,41.9999987182618,8|8,0:0|0:0,0:0:0:0:
136,178,83579,5,8,1:2:0:0:
136,178,83660,1,8,0:0:0:0:
136,178,83741,2,0,L|129:226,1,41.9999987182618,8|8,0:0|0:0,0:0:0:0:
181,307,83901,6,0,P|220:282|279:288,1,83.9999974365235,4|2,1:0|1:2,0:0:0:0:
407,295,84224,1,14,0:0:0:0:
244,365,84385,1,2,1:2:0:0:
389,194,84546,1,10,0:0:0:0:
389,194,84627,1,10,0:0:0:0:
389,194,84708,1,2,1:2:0:0:
343,374,84869,1,0,1:0:0:0:
296,105,85030,1,10,0:0:0:0:
275,129,85353,6,0,L|282:189,2,41.9999987182618,2|2|2,0:0|0:0|0:0,0:0:0:0:
207,70,85675,1,0,0:0:0:0:
140,131,85837,1,0,0:0:0:0:
140,131,85998,1,0,0:0:0:0:
37,41,86159,2,0,P|46:83|49:153,1,105,0|0,0:0|0:0,0:0:0:0:
39,183,86482,5,6,0:0:0:0:
128,160,86643,1,0,0:0:0:0:
103,244,86804,1,2,0:0:0:0:
39,183,86966,5,0,0:0:0:0:
128,160,87127,1,2,0:0:0:0:
103,244,87288,1,0,0:0:0:0:
39,183,87450,5,2,0:0:0:0:
128,160,87611,1,0,0:0:0:0:
103,244,87772,2,0,P|90:302|147:355,1,140,2|2,0:0|0:0,0:0:0:0:
218,301,88256,1,0,0:0:0:0:
287,358,88417,2,0,P|340:337|428:332,1,140,2|2,0:0|0:0,0:0:0:0:
481,262,88901,1,0,0:0:0:0:
385,181,89062,6,0,L|398:256,1,70,2|0,0:0|0:0,0:0:0:0:
482,105,89385,2,0,L|469:180,1,70,2|0,0:0|0:0,0:0:0:0:
330,39,89708,1,2,0:0:0:0:
396,97,89869,1,0,0:0:0:0:
255,192,90030,1,2,0:0:0:0:
313,126,90191,1,0,0:0:0:0:
217,46,90353,6,0,L|230:121,1,70,2|0,0:0|0:0,0:0:0:0:
335,209,90675,2,0,L|322:284,1,70,2|0,0:0|0:0,0:0:0:0:
157,155,90998,1,2,0:0:0:0:
239,297,91159,1,0,1:0:0:0:
239,297,91240,1,0,1:0:0:0:
239,297,91320,2,0,L|250:228,1,70,8|8,0:0|0:3,0:0:0:0:
150,74,91643,5,4,1:0:0:0:
189,159,91804,1,2,0:0:0:0:
317,42,91966,5,0,1:0:0:0:
220,13,92127,1,2,0:0:0:0:
278,198,92288,5,0,1:0:0:0:
355,125,92450,1,2,0:0:0:0:
150,74,92611,5,0,1:0:0:0:
174,234,92772,2,0,L|192:142,1,77.0000023498536,12|0,0:0|1:0,0:0:0:0:
58,80,93095,1,8,0:0:0:0:
58,80,93175,1,8,0:0:0:0:
58,80,93256,6,0,P|69:118|106:151,2,60.6666638895672,8|8|8,0:0|0:3|0:3,0:0:0:0:
179,22,93579,2,0,P|166:54|141:78,2,60.6666638895672,4|4|4,0:3|0:3|0:3,0:0:0:0:
244,166,93901,2,0,P|210:156|176:161,2,60.6666638895672,4|4|4,0:3|0:3|0:3,0:0:0:0:
124,293,94224,6,0,L|110:192,1,90.9999958343508,4|8,1:0|0:3,0:0:0:0:
81,176,94466,1,8,0:3:0:0:
81,176,94546,1,0,1:0:0:0:
197,68,94708,2,0,L|183:169,1,90.9999958343508,12|0,0:0|1:0,0:0:0:0:
205,308,95030,1,12,0:0:0:0:
110,95,95191,1,0,1:0:0:0:
265,180,95353,1,4,0:3:0:0:
85,238,95514,5,4,1:0:0:0:
285,97,95675,1,8,0:0:0:0:
93,12,95837,1,8,0:0:0:0:
172,277,95998,1,8,0:0:0:0:
295,20,96159,5,0,1:2:0:0:
292,36,96239,1,8,0:0:0:0:
290,51,96320,2,0,L|284:97,1,45.4999979171754,8|8,0:0|0:0,0:0:0:0:
191,209,96482,5,8,1:2:0:0:
194,193,96562,1,8,0:0:0:0:
196,178,96643,2,0,L|201:133,1,45.4999979171754,8|8,0:0|0:0,0:0:0:0:
20,108,96804,5,4,1:0:0:0:
178,290,96965,1,10,0:0:0:0:
218,52,97126,1,2,1:2:0:0:
9,129,97288,5,10,0:0:0:0:
198,282,97449,1,2,1:2:0:0:
197,40,97610,1,10,0:0:0:0:
0,151,97771,5,2,1:2:0:0:
213,271,97932,1,10,0:0:0:0:
176,29,98094,2,0,L|156:156,1,105.000004005432,2|10,1:2|0:0,0:0:0:0:
129,343,98417,5,2,1:2:0:0:
26,169,98579,1,10,0:0:0:0:
220,251,98740,1,2,1:2:0:0:
6,315,98901,1,12,0:0:0:0:
242,243,99062,1,2,1:2:0:0:
5,162,99224,1,10,0:0:0:0:
161,353,99385,6,0,L|141:226,1,105.000004005432,4|8,1:0|0:0,0:0:0:0:
316,73,99708,2,0,L|296:200,1,105.000004005432,2|8,0:0|0:0,0:0:0:0:
267,365,100030,1,2,1:2:0:0:
209,160,100191,1,10,0:0:0:0:
363,240,100353,1,2,1:2:0:0:
208,297,100514,1,10,0:0:0:0:
395,111,100675,6,0,L|375:238,1,105.000004005432,4|8,1:0|0:0,0:0:0:0:
247,371,100998,2,0,L|227:244,1,105.000004005432,4|8,1:0|0:0,0:0:0:0:
316,73,101320,1,4,1:0:0:0:
447,280,101482,1,8,0:0:0:0:
447,280,101562,1,8,0:0:0:0:
447,280,101643,2,0,L|459:211,1,52.5000020027161,8|8,0:3|0:3,0:0:0:0:
383,125,101804,2,0,L|395:194,1,52.5000020027161,4|4,0:3|0:3,0:0:0:0:
429,360,101966,5,4,1:0:0:0:
470,144,102127,1,10,0:0:0:0:
346,290,102288,1,2,1:2:0:0:
286,55,102450,1,10,0:0:0:0:
391,212,102611,1,2,1:2:0:0:
438,6,102772,1,10,0:0:0:0:
282,225,102933,1,2,1:2:0:0:
491,114,103095,1,10,0:0:0:0:
261,35,103256,6,0,B|164:27|188:69|96:60,1,157.500006008148,2|0,1:2|0:0,0:0:0:0:
71,39,103579,2,0,L|84:149,1,105.000004005432,2|10,1:2|0:0,0:0:0:0:
115,365,103901,1,2,1:2:0:0:
170,136,104062,1,8,0:0:0:0:
170,136,104143,1,8,0:0:0:0:
170,136,104224,2,0,L|159:206,1,52.5000020027161,8|8,0:3|0:3,0:0:0:0:
103,282,104385,2,0,L|92:212,1,52.5000020027161,4|4,0:3|0:3,0:0:0:0:
245,98,104546,5,12,0:0:0:0:
191,269,104708,1,4,0:3:0:0:
191,269,104788,1,4,0:3:0:0:
191,269,104869,1,4,0:3:0:0:
127,52,105030,1,12,0:0:0:0:
269,176,105191,2,0,L|263:232,2,52.5000020027161,8|8|4,0:3|0:3|0:3,0:0:0:0:
284,7,105514,1,12,0:0:0:0:
183,143,105675,1,0,1:0:0:0:
96,12,105837,5,4,1:0:0:0:
99,28,105917,1,8,0:0:0:0:
101,43,105998,2,0,L|108:98,1,52.5000020027161,8|8,0:0|0:0,0:0:0:0:
172,226,106159,5,0,1:0:0:0:
175,210,106239,1,8,0:0:0:0:
177,195,106320,2,0,L|183:141,1,52.5000020027161,8|8,0:0|0:0,0:0:0:0:
252,78,106482,5,2,1:2:0:0:
279,235,106643,1,2,1:2:0:0:
404,21,106804,6,0,B|307:13|331:55|239:46,1,157.500006008148,12|0,0:0|0:0,0:0:0:0:
225,75,107127,2,0,L|167:69,3,52.5000020027161,12|8|8|8,0:0|0:0|0:0|0:0,0:0:0:0:
287,146,107450,2,0,L|345:140,3,52.5000020027161,10|8|8|8,0:2|0:0|0:0|0:0,0:0:0:0:
224,210,107772,5,10,0:0:0:0:
245,247,107852,1,8,0:0:0:0:
240,290,107933,1,8,0:0:0:0:
211,322,108013,1,8,0:0:0:0:
168,332,108094,1,2,1:2:0:0:
126,319,108175,1,8,0:0:0:0:
86,301,108256,2,0,P|44:300|12:315,1,52.5000020027161,2|0,0:0|0:0,0:0:0:0:
88,207,108417,6,0,P|115:156|29:38,1,210.000008010865,2|2,0:0|0:0,0:0:0:0:
192,197,108901,1,2,0:0:0:0:
334,14,109062,2,0,P|262:83|287:180,1,210.000008010865,2|0,0:0|0:0,0:0:0:0:
157,383,109708,5,4,1:0:0:0:
192,197,109869,1,2,0:0:0:0:
275,324,110031,1,8,0:0:0:0:
87,224,110192,1,2,0:0:0:0:
272,119,110353,1,8,0:0:0:0:
202,280,110515,2,0,L|191:196,1,83.9999974365235,2|8,1:2|0:0,0:0:0:0:
180,50,110837,6,0,B|266:44|244:93|346:78,1,167.999994873047,2|2,1:2|1:2,0:0:0:0:
461,9,111321,2,0,L|448:100,1,83.9999974365235,10|0,0:0|1:3,0:0:0:0:
427,121,111563,1,0,1:0:0:0:
427,121,111644,2,0,L|440:212,1,83.9999974365235,10|0,0:0|1:0,0:0:0:0:
266,161,111966,2,0,P|307:162|344:182,1,83.9999974365235,14|0,0:0|0:0,0:0:0:0:
352,384,112287,5,4,1:0:0:0:
281,244,112450,1,2,0:0:0:0:
428,331,112612,1,8,0:0:0:0:
246,372,112773,1,2,0:0:0:0:
367,201,112934,1,8,0:0:0:0:
352,384,113095,2,0,L|341:296,1,83.9999974365235,2|8,1:2|0:0,0:0:0:0:
318,125,113417,6,0,B|232:119|254:168|152:153,1,167.999994873047,2|0,1:2|1:0,0:0:0:0:
141,7,113901,2,0,P|187:45|183:96,1,83.9999974365235,14|0,0:0|1:0,0:0:0:0:
36,214,114224,5,10,0:0:0:0:
52,180,114304,1,10,0:0:0:0:
82,157,114385,1,10,0:0:0:0:
118,146,114465,1,10,0:0:0:0:
155,153,114547,2,0,P|182:158|211:153,1,41.9999987182618,10|10,0:0|0:0,0:0:0:0:
266,104,114708,1,10,0:0:0:0:
127,258,114869,5,4,1:0:0:0:
80,62,115031,1,2,1:2:0:0:
36,214,115192,1,8,0:0:0:0:
196,156,115353,1,2,0:0:0:0:
121,297,115515,1,8,0:0:0:0:
20,186,115675,2,0,L|125:200,1,83.9999974365235,2|8,1:2|0:0,0:0:0:0:
281,127,115998,6,0,P|230:165|237:282,1,167.999994873047,2|2,1:2|0:0,0:0:0:0:
411,230,116482,2,0,L|296:217,1,83.9999974365235,8|2,0:0|1:2,0:0:0:0:
307,253,116724,1,0,1:0:0:0:
307,253,116804,2,0,L|192:266,1,83.9999974365235,8|2,0:0|1:2,0:0:0:0:
104,137,117127,2,0,P|145:179|147:224,1,83.9999974365235,12|0,0:0|0:0,0:0:0:0:
274,10,117450,5,4,1:0:0:0:
231,178,117611,1,2,0:0:0:0:
189,29,117772,1,8,0:0:0:0:
313,212,117933,1,2,1:2:0:0:
358,15,118095,5,8,0:0:0:0:
250,271,118256,1,2,1:2:0:0:
250,271,118337,1,0,1:0:0:0:
250,271,118417,1,8,0:0:0:0:
168,117,118579,2,0,B|241:113|220:144|306:138,1,125.999996154785,4|0,1:0|0:0,0:0:0:0:
323,115,118901,5,10,0:0:0:0:
165,205,119062,1,10,0:0:0:0:
397,278,119224,1,10,0:0:0:0:
140,200,119385,5,10,0:0:0:0:
343,102,119546,1,10,0:0:0:0:
239,353,119708,1,10,0:0:0:0:
186,48,119869,1,14,0:0:0:0:
