osu file format v14

[General]
AudioFilename: DISPARATE.mp3
AudioLeadIn: 0
PreviewTime: 87347
Countdown: 0
SampleSet: Soft
StackLeniency: 0.7
Mode: 3
LetterboxInBreaks: 0
SpecialStyle: 0
WidescreenStoryboard: 1

[Editor]
DistanceSpacing: 1.2
BeatDivisor: 8
GridSize: 8
TimelineZoom: 2.3

[Metadata]
Title:DISPARATE
TitleUnicode:DISPARATE
Artist:BEMANI Sound Team "Captain Sonic"
ArtistUnicode:BEMANI Sound Team "Captain Sonic"
Creator:Alptraum
Version:Normal
Source:beatmania IIDX 29 CastHour
Tags:SYUNN Shunsuke Sato 佐藤俊介 cyberpunk electronic instrumental video konami arcade rhythm game
BeatmapID:3606643
BeatmapSetID:1761150

[Difficulty]
HPDrainRate:7
CircleSize:4
OverallDifficulty:7
ApproachRate:5
SliderMultiplier:1.4
SliderTickRate:1

[Events]
//Background and Video events
0,0,"bg.jpg",0,0
//Break Periods
//Storyboard Layer 0 (Background)
//Storyboard Layer 1 (Fail)
//Storyboard Layer 2 (Pass)
//Storyboard Layer 3 (Foreground)
//Storyboard Layer 4 (Overlay)
//Storyboard Sound Samples

[TimingPoints]
985,300,4,2,1,20,1,0
87385,-100,4,2,1,20,0,1
106585,-100,4,2,1,20,0,0

[HitObjects]
64,192,985,5,0,0:0:0:0:
320,192,1285,1,0,0:0:0:0:
192,192,1735,1,0,0:0:0:0:
448,192,2185,1,0,0:0:0:0:
192,192,2635,1,0,0:0:0:0:
320,192,3085,1,0,0:0:0:0:
64,192,3385,1,0,0:0:0:0:
320,192,3685,1,0,0:0:0:0:
192,192,4135,1,0,0:0:0:0:
448,192,4585,1,0,0:0:0:0:
192,192,5035,1,0,0:0:0:0:
320,192,5485,1,0,0:0:0:0:
64,192,5785,1,0,0:0:0:0:
320,192,6085,1,0,0:0:0:0:
192,192,6535,1,0,0:0:0:0:
448,192,6985,1,0,0:0:0:0:
192,192,7435,1,0,0:0:0:0:
320,192,7885,1,0,0:0:0:0:
64,192,8185,1,0,0:0:0:0:
448,192,8485,1,0,0:0:0:0:
192,192,8935,1,0,0:0:0:0:
448,192,9385,1,0,0:0:0:0:
192,192,9835,1,0,0:0:0:0:
448,192,9985,1,0,0:0:0:0:
320,192,10135,1,0,0:0:0:0:
64,192,10285,1,0,0:0:0:0:
64,192,10435,1,0,0:0:0:0:
320,192,10585,128,0,10885:0:0:0:0:
448,192,10585,1,0,0:0:0:0:
192,192,10885,1,0,0:0:0:0:
192,192,11185,1,0,0:0:0:0:
64,192,11185,1,0,0:0:0:0:
448,192,11335,1,0,0:0:0:0:
64,192,11785,1,0,0:0:0:0:
320,192,12235,1,0,0:0:0:0:
192,192,12385,1,0,0:0:0:0:
64,192,12385,1,0,0:0:0:0:
320,192,12685,1,0,0:0:0:0:
64,192,12985,128,0,13285:0:0:0:0:
320,192,13285,128,0,13435:0:0:0:0:
448,192,13585,1,0,0:0:0:0:
320,192,13585,1,0,0:0:0:0:
192,192,13885,1,0,0:0:0:0:
448,192,14185,1,0,0:0:0:0:
192,192,14635,1,0,0:0:0:0:
448,192,14785,1,0,0:0:0:0:
320,192,14785,1,0,0:0:0:0:
64,192,15085,1,0,0:0:0:0:
448,192,15385,128,0,15685:0:0:0:0:
320,192,15385,1,0,0:0:0:0:
192,192,15685,1,0,0:0:0:0:
192,192,15985,1,0,0:0:0:0:
64,192,15985,1,0,0:0:0:0:
448,192,16135,1,0,0:0:0:0:
320,192,16585,1,0,0:0:0:0:
64,192,17035,1,0,0:0:0:0:
448,192,17185,1,0,0:0:0:0:
192,192,17185,1,0,0:0:0:0:
320,192,17485,1,0,0:0:0:0:
64,192,17785,1,0,0:0:0:0:
192,192,17935,1,0,0:0:0:0:
448,192,18085,1,0,0:0:0:0:
64,192,18235,1,0,0:0:0:0:
320,192,18385,1,0,0:0:0:0:
448,192,18535,1,0,0:0:0:0:
64,192,18685,1,0,0:0:0:0:
192,192,18835,1,0,0:0:0:0:
448,192,18985,1,0,0:0:0:0:
320,192,19135,1,0,0:0:0:0:
192,192,19285,1,0,0:0:0:0:
448,192,19435,1,0,0:0:0:0:
320,192,19585,1,0,0:0:0:0:
448,192,19885,1,0,0:0:0:0:
64,192,20185,128,0,20485:0:0:0:0:
192,192,20185,1,0,0:0:0:0:
320,192,20485,1,0,0:0:0:0:
448,192,20485,1,0,0:0:0:0:
192,192,20635,1,0,0:0:0:0:
320,192,20860,1,0,0:0:0:0:
64,192,20935,1,0,0:0:0:0:
448,192,21085,1,0,0:0:0:0:
320,192,21085,1,0,0:0:0:0:
192,192,21160,1,0,0:0:0:0:
64,192,21385,1,0,0:0:0:0:
448,192,21685,1,0,0:0:0:0:
320,192,21685,1,0,0:0:0:0:
192,192,21835,1,0,0:0:0:0:
448,192,21910,1,0,0:0:0:0:
320,192,21910,1,0,0:0:0:0:
64,192,22060,1,0,0:0:0:0:
192,192,22285,1,0,0:0:0:0:
64,192,22285,1,0,0:0:0:0:
320,192,22360,1,0,0:0:0:0:
448,192,22585,128,0,22885:0:0:0:0:
320,192,22585,1,0,0:0:0:0:
192,192,22885,1,0,0:0:0:0:
64,192,22885,1,0,0:0:0:0:
320,192,23035,1,0,0:0:0:0:
192,192,23260,1,0,0:0:0:0:
448,192,23335,1,0,0:0:0:0:
64,192,23485,1,0,0:0:0:0:
192,192,23485,1,0,0:0:0:0:
320,192,23560,1,0,0:0:0:0:
448,192,23785,1,0,0:0:0:0:
448,192,23935,1,0,0:0:0:0:
64,192,24085,1,0,0:0:0:0:
192,192,24085,1,0,0:0:0:0:
448,192,24235,1,0,0:0:0:0:
192,192,24310,1,0,0:0:0:0:
64,192,24310,1,0,0:0:0:0:
320,192,24460,1,0,0:0:0:0:
320,192,24685,1,0,0:0:0:0:
448,192,24685,1,0,0:0:0:0:
64,192,24760,1,0,0:0:0:0:
64,192,24985,128,0,25285:0:0:0:0:
192,192,24985,1,0,0:0:0:0:
448,192,25285,1,0,0:0:0:0:
320,192,25285,1,0,0:0:0:0:
192,192,25435,1,0,0:0:0:0:
448,192,25660,1,0,0:0:0:0:
192,192,25735,1,0,0:0:0:0:
448,192,25885,1,0,0:0:0:0:
320,192,25885,1,0,0:0:0:0:
64,192,25960,1,0,0:0:0:0:
192,192,26185,1,0,0:0:0:0:
448,192,26485,1,0,0:0:0:0:
320,192,26485,1,0,0:0:0:0:
192,192,26635,1,0,0:0:0:0:
448,192,26710,1,0,0:0:0:0:
320,192,26710,1,0,0:0:0:0:
64,192,26860,1,0,0:0:0:0:
192,192,27085,1,0,0:0:0:0:
64,192,27085,1,0,0:0:0:0:
320,192,27160,1,0,0:0:0:0:
448,192,27385,128,0,27685:0:0:0:0:
320,192,27385,1,0,0:0:0:0:
192,192,27685,1,0,0:0:0:0:
64,192,27685,1,0,0:0:0:0:
192,192,28060,1,0,0:0:0:0:
320,192,28135,1,0,0:0:0:0:
64,192,28285,1,0,0:0:0:0:
192,192,28285,1,0,0:0:0:0:
448,192,28360,1,0,0:0:0:0:
64,192,28585,1,0,0:0:0:0:
64,192,28735,1,0,0:0:0:0:
192,192,28810,1,0,0:0:0:0:
448,192,28885,1,0,0:0:0:0:
320,192,28885,1,0,0:0:0:0:
192,192,29035,1,0,0:0:0:0:
448,192,29110,1,0,0:0:0:0:
320,192,29110,1,0,0:0:0:0:
64,192,29260,1,0,0:0:0:0:
192,192,29485,1,0,0:0:0:0:
64,192,29485,1,0,0:0:0:0:
448,192,29560,1,0,0:0:0:0:
320,192,29785,128,0,30085:0:0:0:0:
192,192,29785,1,0,0:0:0:0:
448,192,30085,1,0,0:0:0:0:
64,192,30085,1,0,0:0:0:0:
192,192,30235,1,0,0:0:0:0:
192,192,30535,1,0,0:0:0:0:
64,192,30685,1,0,0:0:0:0:
448,192,30685,1,0,0:0:0:0:
320,192,30760,1,0,0:0:0:0:
192,192,30985,1,0,0:0:0:0:
320,192,31285,1,0,0:0:0:0:
64,192,31285,1,0,0:0:0:0:
320,192,31510,1,0,0:0:0:0:
64,192,31510,1,0,0:0:0:0:
192,192,31735,1,0,0:0:0:0:
448,192,31885,1,0,0:0:0:0:
64,192,31885,1,0,0:0:0:0:
320,192,31960,1,0,0:0:0:0:
192,192,32185,128,0,32485:0:0:0:0:
320,192,32185,1,0,0:0:0:0:
448,192,32485,1,0,0:0:0:0:
64,192,32485,1,0,0:0:0:0:
320,192,32635,1,0,0:0:0:0:
320,192,32935,1,0,0:0:0:0:
448,192,33085,1,0,0:0:0:0:
64,192,33085,1,0,0:0:0:0:
192,192,33160,1,0,0:0:0:0:
320,192,33385,1,0,0:0:0:0:
320,192,33535,1,0,0:0:0:0:
448,192,33685,1,0,0:0:0:0:
192,192,33685,1,0,0:0:0:0:
448,192,33910,1,0,0:0:0:0:
192,192,33910,1,0,0:0:0:0:
320,192,34135,1,0,0:0:0:0:
448,192,34285,1,0,0:0:0:0:
192,192,34285,1,0,0:0:0:0:
64,192,34360,1,0,0:0:0:0:
320,192,34585,128,0,34885:0:0:0:0:
192,192,34585,1,0,0:0:0:0:
448,192,34885,1,0,0:0:0:0:
64,192,34885,1,0,0:0:0:0:
192,192,35035,1,0,0:0:0:0:
192,192,35335,1,0,0:0:0:0:
448,192,35485,1,0,0:0:0:0:
64,192,35485,1,0,0:0:0:0:
320,192,35560,1,0,0:0:0:0:
192,192,35785,1,0,0:0:0:0:
320,192,36085,1,0,0:0:0:0:
64,192,36085,1,0,0:0:0:0:
320,192,36310,1,0,0:0:0:0:
64,192,36310,1,0,0:0:0:0:
192,192,36535,1,0,0:0:0:0:
448,192,36685,1,0,0:0:0:0:
64,192,36685,1,0,0:0:0:0:
320,192,36760,1,0,0:0:0:0:
192,192,36985,1,0,0:0:0:0:
64,192,36985,1,0,0:0:0:0:
64,192,37285,1,0,0:0:0:0:
320,192,37285,1,0,0:0:0:0:
192,192,37585,1,0,0:0:0:0:
448,192,37585,1,0,0:0:0:0:
64,192,37885,1,0,0:0:0:0:
448,192,37885,1,0,0:0:0:0:
320,192,38035,1,0,0:0:0:0:
192,192,38110,1,0,0:0:0:0:
64,192,38185,1,0,0:0:0:0:
448,192,38335,1,0,0:0:0:0:
320,192,38335,1,0,0:0:0:0:
192,192,38485,1,0,0:0:0:0:
448,192,38635,1,0,0:0:0:0:
64,192,38635,1,0,0:0:0:0:
192,192,38785,128,0,39385:0:0:0:0:
320,192,38785,1,0,0:0:0:0:
448,192,39085,1,0,0:0:0:0:
64,192,41785,1,0,0:0:0:0:
320,192,42985,1,0,0:0:0:0:
192,192,44185,1,0,0:0:0:0:
320,192,44785,1,0,0:0:0:0:
64,192,45385,1,0,0:0:0:0:
320,192,45985,1,0,0:0:0:0:
192,192,46585,1,0,0:0:0:0:
448,192,46885,1,0,0:0:0:0:
64,192,47185,1,0,0:0:0:0:
320,192,47485,1,0,0:0:0:0:
64,192,47785,1,0,0:0:0:0:
192,192,47935,1,0,0:0:0:0:
320,192,48085,1,0,0:0:0:0:
448,192,48235,1,0,0:0:0:0:
64,192,48385,1,0,0:0:0:0:
192,192,48535,1,0,0:0:0:0:
320,192,48685,1,0,0:0:0:0:
448,192,48835,1,0,0:0:0:0:
192,192,48985,128,0,49585:0:0:0:0:
64,192,49585,1,0,0:0:0:0:
448,192,49585,1,0,0:0:0:0:
320,192,49735,128,0,49885:0:0:0:0:
448,192,50035,128,0,50185:0:0:0:0:
64,192,50185,1,0,0:0:0:0:
320,192,50485,128,0,50635:0:0:0:0:
448,192,50785,1,0,0:0:0:0:
64,192,50785,1,0,0:0:0:0:
192,192,50935,128,0,51085:0:0:0:0:
448,192,51235,128,0,51385:0:0:0:0:
64,192,51385,128,0,51985:0:0:0:0:
448,192,51985,1,0,0:0:0:0:
320,192,51985,1,0,0:0:0:0:
192,192,52135,128,0,52285:0:0:0:0:
64,192,52435,128,0,52585:0:0:0:0:
448,192,52585,1,0,0:0:0:0:
192,192,52885,128,0,53035:0:0:0:0:
448,192,53185,1,0,0:0:0:0:
64,192,53185,1,0,0:0:0:0:
320,192,53335,1,0,0:0:0:0:
64,192,53485,1,0,0:0:0:0:
192,192,53635,128,0,53785:0:0:0:0:
320,192,53785,128,0,54385:0:0:0:0:
448,192,54385,1,0,0:0:0:0:
64,192,54385,1,0,0:0:0:0:
192,192,54535,128,0,54685:0:0:0:0:
320,192,54835,128,0,54985:0:0:0:0:
64,192,54985,1,0,0:0:0:0:
448,192,55285,128,0,55435:0:0:0:0:
192,192,55585,1,0,0:0:0:0:
64,192,55585,1,0,0:0:0:0:
320,192,55735,128,0,55885:0:0:0:0:
448,192,56035,128,0,56185:0:0:0:0:
64,192,56185,128,0,56485:0:0:0:0:
64,192,56785,1,0,0:0:0:0:
448,192,56785,1,0,0:0:0:0:
192,192,56935,128,0,57085:0:0:0:0:
448,192,57235,128,0,57385:0:0:0:0:
64,192,57385,1,0,0:0:0:0:
320,192,57685,128,0,57835:0:0:0:0:
448,192,57985,1,0,0:0:0:0:
64,192,57985,1,0,0:0:0:0:
320,192,58135,1,0,0:0:0:0:
192,192,58285,1,0,0:0:0:0:
448,192,58435,1,0,0:0:0:0:
192,192,58585,128,0,59185:0:0:0:0:
64,192,59185,1,0,0:0:0:0:
448,192,59185,1,0,0:0:0:0:
320,192,59335,128,0,59485:0:0:0:0:
448,192,59635,128,0,59785:0:0:0:0:
64,192,59785,1,0,0:0:0:0:
192,192,59935,1,0,0:0:0:0:
320,192,60085,128,0,60235:0:0:0:0:
448,192,60385,1,0,0:0:0:0:
64,192,60385,1,0,0:0:0:0:
192,192,60535,128,0,60685:0:0:0:0:
448,192,60835,128,0,60985:0:0:0:0:
64,192,60985,128,0,61585:0:0:0:0:
320,192,61585,1,0,0:0:0:0:
448,192,61585,1,0,0:0:0:0:
192,192,61735,128,0,61885:0:0:0:0:
64,192,62035,128,0,62185:0:0:0:0:
448,192,62185,1,0,0:0:0:0:
320,192,62335,1,0,0:0:0:0:
192,192,62485,128,0,62635:0:0:0:0:
448,192,62785,1,0,0:0:0:0:
64,192,62785,1,0,0:0:0:0:
320,192,62935,1,0,0:0:0:0:
64,192,63085,1,0,0:0:0:0:
192,192,63235,1,0,0:0:0:0:
320,192,63385,128,0,63985:0:0:0:0:
448,192,63985,1,0,0:0:0:0:
64,192,63985,1,0,0:0:0:0:
192,192,64135,128,0,64285:0:0:0:0:
320,192,64435,128,0,64585:0:0:0:0:
64,192,64585,1,0,0:0:0:0:
192,192,64735,1,0,0:0:0:0:
448,192,64885,128,0,65035:0:0:0:0:
192,192,65185,1,0,0:0:0:0:
64,192,65185,1,0,0:0:0:0:
320,192,65335,128,0,65485:0:0:0:0:
448,192,65635,1,0,0:0:0:0:
64,192,65785,128,0,66085:0:0:0:0:
320,192,66235,1,0,0:0:0:0:
64,192,66385,1,0,0:0:0:0:
448,192,66385,1,0,0:0:0:0:
192,192,66535,128,0,66685:0:0:0:0:
448,192,66835,128,0,66985:0:0:0:0:
64,192,66985,1,0,0:0:0:0:
192,192,67135,1,0,0:0:0:0:
320,192,67285,128,0,67435:0:0:0:0:
448,192,67585,1,0,0:0:0:0:
64,192,67585,1,0,0:0:0:0:
320,192,67735,1,0,0:0:0:0:
192,192,67885,1,0,0:0:0:0:
64,192,68035,1,0,0:0:0:0:
448,192,68185,1,0,0:0:0:0:
320,192,68185,1,0,0:0:0:0:
192,192,68485,1,0,0:0:0:0:
64,192,68785,128,0,69085:0:0:0:0:
448,192,68785,1,0,0:0:0:0:
320,192,69085,128,0,69385:0:0:0:0:
192,192,69385,128,0,69685:0:0:0:0:
448,192,69385,1,0,0:0:0:0:
320,192,69685,1,0,0:0:0:0:
64,192,69685,128,0,69985:0:0:0:0:
448,192,69985,128,0,70285:0:0:0:0:
192,192,69985,1,0,0:0:0:0:
192,192,70285,1,0,0:0:0:0:
320,192,70435,1,0,0:0:0:0:
64,192,70585,1,0,0:0:0:0:
192,192,70585,1,0,0:0:0:0:
320,192,70885,1,0,0:0:0:0:
192,192,71185,1,0,0:0:0:0:
448,192,71185,128,0,71335:0:0:0:0:
64,192,71335,128,0,71485:0:0:0:0:
448,192,71485,128,0,71785:0:0:0:0:
320,192,71785,128,0,71935:0:0:0:0:
64,192,71785,1,0,0:0:0:0:
192,192,71935,128,0,72085:0:0:0:0:
320,192,72085,128,0,72235:0:0:0:0:
192,192,72235,128,0,72385:0:0:0:0:
64,192,72385,1,0,0:0:0:0:
448,192,72385,128,0,72685:0:0:0:0:
320,192,72535,1,0,0:0:0:0:
192,192,72685,1,0,0:0:0:0:
64,192,72835,1,0,0:0:0:0:
448,192,72985,1,0,0:0:0:0:
320,192,72985,1,0,0:0:0:0:
192,192,73135,1,0,0:0:0:0:
320,192,73285,1,0,0:0:0:0:
64,192,73585,128,0,73885:0:0:0:0:
448,192,73585,1,0,0:0:0:0:
320,192,73885,128,0,74185:0:0:0:0:
192,192,74185,128,0,74485:0:0:0:0:
448,192,74185,1,0,0:0:0:0:
320,192,74485,1,0,0:0:0:0:
64,192,74485,128,0,74785:0:0:0:0:
448,192,74785,128,0,75085:0:0:0:0:
192,192,74785,1,0,0:0:0:0:
320,192,75085,1,0,0:0:0:0:
64,192,75385,1,0,0:0:0:0:
192,192,75385,1,0,0:0:0:0:
448,192,75535,1,0,0:0:0:0:
64,192,75685,1,0,0:0:0:0:
192,192,75985,1,0,0:0:0:0:
448,192,75985,128,0,76135:0:0:0:0:
64,192,76135,128,0,76285:0:0:0:0:
448,192,76285,128,0,76585:0:0:0:0:
64,192,76585,1,0,0:0:0:0:
192,192,76585,1,0,0:0:0:0:
64,192,76885,1,0,0:0:0:0:
192,192,76885,1,0,0:0:0:0:
448,192,77185,1,0,0:0:0:0:
64,192,77185,1,0,0:0:0:0:
320,192,77485,128,0,77785:0:0:0:0:
64,192,77785,1,0,0:0:0:0:
192,192,77935,1,0,0:0:0:0:
320,192,78085,1,0,0:0:0:0:
64,192,78235,1,0,0:0:0:0:
320,192,78385,1,0,0:0:0:0:
448,192,78385,1,0,0:0:0:0:
192,192,78535,1,0,0:0:0:0:
64,192,78685,1,0,0:0:0:0:
448,192,78835,1,0,0:0:0:0:
192,192,78985,1,0,0:0:0:0:
320,192,79135,1,0,0:0:0:0:
448,192,79285,1,0,0:0:0:0:
192,192,79435,1,0,0:0:0:0:
448,192,79585,1,0,0:0:0:0:
64,192,79585,1,0,0:0:0:0:
320,192,79735,1,0,0:0:0:0:
192,192,79885,128,0,80185:0:0:0:0:
448,192,80185,1,0,0:0:0:0:
320,192,80335,1,0,0:0:0:0:
192,192,80485,1,0,0:0:0:0:
448,192,80635,1,0,0:0:0:0:
192,192,80785,1,0,0:0:0:0:
64,192,80785,1,0,0:0:0:0:
320,192,80935,1,0,0:0:0:0:
448,192,81085,1,0,0:0:0:0:
64,192,81235,1,0,0:0:0:0:
320,192,81385,1,0,0:0:0:0:
192,192,81535,1,0,0:0:0:0:
320,192,81685,1,0,0:0:0:0:
192,192,81835,1,0,0:0:0:0:
448,192,81985,128,0,82285:0:0:0:0:
64,192,81985,1,0,0:0:0:0:
192,192,82285,128,0,82585:0:0:0:0:
448,192,82585,1,0,0:0:0:0:
64,192,82585,1,0,0:0:0:0:
320,192,82735,1,0,0:0:0:0:
192,192,82885,1,0,0:0:0:0:
448,192,83035,1,0,0:0:0:0:
320,192,83185,1,0,0:0:0:0:
64,192,83185,1,0,0:0:0:0:
448,192,83335,1,0,0:0:0:0:
64,192,83485,1,0,0:0:0:0:
192,192,83635,1,0,0:0:0:0:
448,192,83785,1,0,0:0:0:0:
320,192,83785,1,0,0:0:0:0:
192,192,83935,1,0,0:0:0:0:
64,192,84085,1,0,0:0:0:0:
320,192,84235,1,0,0:0:0:0:
192,192,84385,1,0,0:0:0:0:
448,192,84385,1,0,0:0:0:0:
64,192,84535,1,0,0:0:0:0:
320,192,84685,1,0,0:0:0:0:
64,192,84835,1,0,0:0:0:0:
448,192,84985,1,0,0:0:0:0:
320,192,84985,1,0,0:0:0:0:
448,192,85285,1,0,0:0:0:0:
192,192,85285,1,0,0:0:0:0:
192,192,85585,1,0,0:0:0:0:
64,192,85585,1,0,0:0:0:0:
320,192,85885,1,0,0:0:0:0:
64,192,85885,1,0,0:0:0:0:
192,192,86185,1,0,0:0:0:0:
448,192,86335,1,0,0:0:0:0:
64,192,86485,1,0,0:0:0:0:
448,192,86635,1,0,0:0:0:0:
64,192,86785,1,0,0:0:0:0:
192,192,86860,1,0,0:0:0:0:
320,192,86935,1,0,0:0:0:0:
448,192,87010,1,0,0:0:0:0:
192,192,87085,1,0,0:0:0:0:
192,192,87235,1,0,0:0:0:0:
64,192,87385,128,0,87685:0:0:0:0:
448,192,87385,1,0,0:0:0:0:
448,192,87685,1,0,0:0:0:0:
320,192,87835,1,0,0:0:0:0:
192,192,87985,1,0,0:0:0:0:
448,192,88135,1,0,0:0:0:0:
320,192,88285,1,0,0:0:0:0:
192,192,88435,1,0,0:0:0:0:
448,192,88585,1,0,0:0:0:0:
64,192,88735,1,0,0:0:0:0:
192,192,88885,1,0,0:0:0:0:
448,192,89035,1,0,0:0:0:0:
192,192,89185,128,0,89385:0:0:0:0:
320,192,89385,128,0,89585:0:0:0:0:
448,192,89585,128,0,89785:0:0:0:0:
64,192,89785,128,0,90085:0:0:0:0:
320,192,90085,1,0,0:0:0:0:
192,192,90235,1,0,0:0:0:0:
64,192,90385,1,0,0:0:0:0:
320,192,90535,1,0,0:0:0:0:
192,192,90685,1,0,0:0:0:0:
64,192,90835,1,0,0:0:0:0:
448,192,90985,1,0,0:0:0:0:
192,192,91135,1,0,0:0:0:0:
320,192,91285,1,0,0:0:0:0:
448,192,91435,1,0,0:0:0:0:
64,192,91585,128,0,91785:0:0:0:0:
192,192,91785,128,0,91985:0:0:0:0:
320,192,91985,128,0,92185:0:0:0:0:
64,192,92185,128,0,92485:0:0:0:0:
448,192,92185,1,0,0:0:0:0:
448,192,92485,1,0,0:0:0:0:
320,192,92635,1,0,0:0:0:0:
192,192,92785,1,0,0:0:0:0:
448,192,92935,1,0,0:0:0:0:
320,192,93085,1,0,0:0:0:0:
192,192,93235,1,0,0:0:0:0:
448,192,93385,1,0,0:0:0:0:
64,192,93535,1,0,0:0:0:0:
192,192,93685,1,0,0:0:0:0:
448,192,93835,1,0,0:0:0:0:
192,192,93985,128,0,94185:0:0:0:0:
320,192,94185,128,0,94385:0:0:0:0:
448,192,94385,128,0,94585:0:0:0:0:
64,192,94585,128,0,94885:0:0:0:0:
320,192,94885,1,0,0:0:0:0:
192,192,95035,1,0,0:0:0:0:
64,192,95185,1,0,0:0:0:0:
320,192,95335,1,0,0:0:0:0:
192,192,95485,1,0,0:0:0:0:
64,192,95635,1,0,0:0:0:0:
448,192,95785,1,0,0:0:0:0:
192,192,95935,1,0,0:0:0:0:
320,192,96085,1,0,0:0:0:0:
448,192,96235,1,0,0:0:0:0:
64,192,96385,128,0,96585:0:0:0:0:
192,192,96585,128,0,96785:0:0:0:0:
320,192,96785,128,0,96985:0:0:0:0:
64,192,96985,1,0,0:0:0:0:
192,192,97285,1,0,0:0:0:0:
448,192,97285,1,0,0:0:0:0:
64,192,97735,1,0,0:0:0:0:
320,192,97885,1,0,0:0:0:0:
448,192,97885,1,0,0:0:0:0:
192,192,97960,1,0,0:0:0:0:
192,192,98185,1,0,0:0:0:0:
448,192,98485,1,0,0:0:0:0:
64,192,98485,1,0,0:0:0:0:
64,192,98710,1,0,0:0:0:0:
192,192,98710,1,0,0:0:0:0:
448,192,98935,1,0,0:0:0:0:
192,192,99085,1,0,0:0:0:0:
64,192,99085,1,0,0:0:0:0:
320,192,99160,1,0,0:0:0:0:
448,192,99385,1,0,0:0:0:0:
320,192,99685,1,0,0:0:0:0:
64,192,99685,1,0,0:0:0:0:
448,192,100135,1,0,0:0:0:0:
192,192,100285,1,0,0:0:0:0:
64,192,100285,1,0,0:0:0:0:
320,192,100360,1,0,0:0:0:0:
64,192,100585,1,0,0:0:0:0:
64,192,100735,1,0,0:0:0:0:
448,192,100885,1,0,0:0:0:0:
192,192,100885,1,0,0:0:0:0:
320,192,101035,1,0,0:0:0:0:
448,192,101110,1,0,0:0:0:0:
64,192,101110,1,0,0:0:0:0:
64,192,101335,1,0,0:0:0:0:
448,192,101485,1,0,0:0:0:0:
320,192,101485,1,0,0:0:0:0:
192,192,101560,1,0,0:0:0:0:
64,192,101785,1,0,0:0:0:0:
192,192,102085,1,0,0:0:0:0:
448,192,102085,1,0,0:0:0:0:
64,192,102535,1,0,0:0:0:0:
320,192,102685,1,0,0:0:0:0:
448,192,102685,1,0,0:0:0:0:
192,192,102760,1,0,0:0:0:0:
320,192,102985,1,0,0:0:0:0:
448,192,103285,1,0,0:0:0:0:
64,192,103285,1,0,0:0:0:0:
192,192,103435,1,0,0:0:0:0:
448,192,103510,1,0,0:0:0:0:
320,192,103510,1,0,0:0:0:0:
192,192,103735,1,0,0:0:0:0:
64,192,103885,1,0,0:0:0:0:
448,192,103885,1,0,0:0:0:0:
320,192,103960,1,0,0:0:0:0:
192,192,104185,1,0,0:0:0:0:
64,192,104185,1,0,0:0:0:0:
448,192,104485,1,0,0:0:0:0:
192,192,104485,1,0,0:0:0:0:
320,192,104785,1,0,0:0:0:0:
448,192,104785,1,0,0:0:0:0:
64,192,105085,1,0,0:0:0:0:
448,192,105085,1,0,0:0:0:0:
320,192,105235,1,0,0:0:0:0:
192,192,105310,1,0,0:0:0:0:
64,192,105385,1,0,0:0:0:0:
448,192,105535,1,0,0:0:0:0:
320,192,105535,1,0,0:0:0:0:
192,192,105685,1,0,0:0:0:0:
448,192,105835,1,0,0:0:0:0:
64,192,105835,1,0,0:0:0:0:
320,192,105985,1,0,0:0:0:0:
192,192,105985,128,0,106585:0:0:0:0:
448,192,106285,1,0,0:0:0:0:
320,192,106585,128,0,106735:0:0:0:0:
