osu file format v14

[General]
AudioFilename: DISPARATE.mp3
AudioLeadIn: 0
PreviewTime: 87347
Countdown: 0
SampleSet: Soft
StackLeniency: 0.7
Mode: 3
LetterboxInBreaks: 0
SpecialStyle: 0
WidescreenStoryboard: 0

[Editor]
DistanceSpacing: 1.2
BeatDivisor: 8
GridSize: 8
TimelineZoom: 2.6

[Metadata]
Title:DISPARATE
TitleUnicode:DISPARATE
Artist:BEMANI Sound Team "Captain Sonic"
ArtistUnicode:BEMANI Sound Team "Captain Sonic"
Creator:Alptraum
Version:CyberNoob
Source:beatmania IIDX 29 CastHour
Tags:SYUNN Shunsuke Sato 佐藤俊介 cyberpunk electronic instrumental video konami arcade rhythm game
BeatmapID:3604481
BeatmapSetID:1761150

[Difficulty]
HPDrainRate:8
CircleSize:4
OverallDifficulty:8
ApproachRate:5
SliderMultiplier:1.4
SliderTickRate:1

[Events]
//Background and Video events
0,0,"bg.jpg",0,0
//Break Periods
//Storyboard Layer 0 (Background)
//Storyboard Layer 1 (Fail)
//Storyboard Layer 2 (Pass)
//Storyboard Layer 3 (Foreground)
//Storyboard Layer 4 (Overlay)
//Storyboard Sound Samples

[TimingPoints]
985,300,4,2,1,20,1,0
87385,-100,4,2,1,20,0,1
106585,-100,4,2,1,20,0,0

[HitObjects]
64,192,985,5,0,0:0:0:0:
448,192,985,1,0,0:0:0:0:
192,192,1135,1,0,0:0:0:0:
320,192,1285,1,0,0:0:0:0:
64,192,1435,1,0,0:0:0:0:
192,192,1585,1,0,0:0:0:0:
320,192,1735,1,0,0:0:0:0:
64,192,1885,1,0,0:0:0:0:
192,192,2035,1,0,0:0:0:0:
448,192,2185,1,0,0:0:0:0:
192,192,2335,1,0,0:0:0:0:
320,192,2485,1,0,0:0:0:0:
448,192,2635,1,0,0:0:0:0:
192,192,2785,1,0,0:0:0:0:
448,192,2935,1,0,0:0:0:0:
64,192,3085,1,0,0:0:0:0:
320,192,3235,1,0,0:0:0:0:
64,192,3385,1,0,0:0:0:0:
192,192,3535,1,0,0:0:0:0:
320,192,3685,1,0,0:0:0:0:
64,192,3835,1,0,0:0:0:0:
192,192,3985,1,0,0:0:0:0:
320,192,4135,1,0,0:0:0:0:
64,192,4285,1,0,0:0:0:0:
192,192,4435,1,0,0:0:0:0:
448,192,4585,1,0,0:0:0:0:
192,192,4735,1,0,0:0:0:0:
320,192,4885,1,0,0:0:0:0:
448,192,5035,1,0,0:0:0:0:
192,192,5185,1,0,0:0:0:0:
64,192,5335,1,0,0:0:0:0:
320,192,5485,1,0,0:0:0:0:
192,192,5635,1,0,0:0:0:0:
64,192,5785,128,0,5860:0:0:0:0:
448,192,5785,128,0,5860:0:0:0:0:
320,192,5935,128,0,6010:0:0:0:0:
192,192,6085,128,0,6160:0:0:0:0:
448,192,6235,128,0,6310:0:0:0:0:
320,192,6385,128,0,6460:0:0:0:0:
192,192,6535,128,0,6610:0:0:0:0:
448,192,6685,128,0,6760:0:0:0:0:
320,192,6835,128,0,6910:0:0:0:0:
64,192,6985,128,0,7060:0:0:0:0:
320,192,7135,128,0,7210:0:0:0:0:
192,192,7285,128,0,7360:0:0:0:0:
64,192,7435,128,0,7510:0:0:0:0:
320,192,7585,128,0,7660:0:0:0:0:
192,192,7735,128,0,7810:0:0:0:0:
448,192,7885,128,0,7960:0:0:0:0:
320,192,8035,128,0,8110:0:0:0:0:
64,192,8185,128,0,8335:0:0:0:0:
192,192,8335,128,0,8485:0:0:0:0:
448,192,8485,128,0,8635:0:0:0:0:
64,192,8635,128,0,8785:0:0:0:0:
192,192,8785,128,0,8935:0:0:0:0:
448,192,8935,128,0,9085:0:0:0:0:
64,192,9085,128,0,9235:0:0:0:0:
192,192,9235,128,0,9385:0:0:0:0:
320,192,9385,128,0,9535:0:0:0:0:
64,192,9535,128,0,9685:0:0:0:0:
192,192,9685,128,0,9835:0:0:0:0:
320,192,9835,128,0,9985:0:0:0:0:
448,192,9985,1,0,0:0:0:0:
192,192,9985,1,0,0:0:0:0:
448,192,10135,1,0,0:0:0:0:
192,192,10135,1,0,0:0:0:0:
320,192,10285,1,0,0:0:0:0:
64,192,10285,1,0,0:0:0:0:
448,192,10285,1,0,0:0:0:0:
320,192,10435,1,0,0:0:0:0:
64,192,10435,1,0,0:0:0:0:
448,192,10435,1,0,0:0:0:0:
192,192,10585,128,0,10735:0:0:0:0:
64,192,10585,128,0,10735:0:0:0:0:
320,192,10735,1,0,0:0:0:0:
448,192,10885,1,0,0:0:0:0:
192,192,11035,1,0,0:0:0:0:
448,192,11185,1,0,0:0:0:0:
320,192,11185,1,0,0:0:0:0:
64,192,11185,1,0,0:0:0:0:
448,192,11335,1,0,0:0:0:0:
64,192,11335,1,0,0:0:0:0:
192,192,11485,1,0,0:0:0:0:
320,192,11635,1,0,0:0:0:0:
448,192,11785,1,0,0:0:0:0:
64,192,11785,1,0,0:0:0:0:
192,192,11935,1,0,0:0:0:0:
320,192,12085,1,0,0:0:0:0:
320,192,12235,1,0,0:0:0:0:
448,192,12385,1,0,0:0:0:0:
192,192,12385,1,0,0:0:0:0:
64,192,12385,1,0,0:0:0:0:
320,192,12535,1,0,0:0:0:0:
192,192,12535,1,0,0:0:0:0:
64,192,12685,1,0,0:0:0:0:
192,192,12835,1,0,0:0:0:0:
448,192,12985,128,0,13135:0:0:0:0:
320,192,12985,128,0,13135:0:0:0:0:
64,192,13285,128,0,13360:0:0:0:0:
192,192,13435,1,0,0:0:0:0:
448,192,13585,1,0,0:0:0:0:
320,192,13585,1,0,0:0:0:0:
64,192,13585,1,0,0:0:0:0:
448,192,13735,1,0,0:0:0:0:
64,192,13735,1,0,0:0:0:0:
320,192,13885,1,0,0:0:0:0:
192,192,14035,1,0,0:0:0:0:
448,192,14185,1,0,0:0:0:0:
320,192,14185,1,0,0:0:0:0:
64,192,14335,1,0,0:0:0:0:
192,192,14485,1,0,0:0:0:0:
192,192,14635,1,0,0:0:0:0:
448,192,14785,1,0,0:0:0:0:
320,192,14785,1,0,0:0:0:0:
64,192,14785,1,0,0:0:0:0:
192,192,14935,1,0,0:0:0:0:
320,192,14935,1,0,0:0:0:0:
448,192,15085,1,0,0:0:0:0:
320,192,15235,1,0,0:0:0:0:
192,192,15385,128,0,15535:0:0:0:0:
64,192,15385,128,0,15535:0:0:0:0:
320,192,15535,1,0,0:0:0:0:
448,192,15685,1,0,0:0:0:0:
192,192,15835,1,0,0:0:0:0:
448,192,15985,1,0,0:0:0:0:
320,192,15985,1,0,0:0:0:0:
64,192,15985,1,0,0:0:0:0:
448,192,16135,1,0,0:0:0:0:
64,192,16135,1,0,0:0:0:0:
192,192,16285,1,0,0:0:0:0:
320,192,16435,1,0,0:0:0:0:
448,192,16585,1,0,0:0:0:0:
64,192,16585,1,0,0:0:0:0:
192,192,16735,1,0,0:0:0:0:
320,192,16885,1,0,0:0:0:0:
320,192,17035,1,0,0:0:0:0:
448,192,17185,1,0,0:0:0:0:
192,192,17185,1,0,0:0:0:0:
64,192,17185,1,0,0:0:0:0:
320,192,17335,1,0,0:0:0:0:
192,192,17335,1,0,0:0:0:0:
64,192,17485,1,0,0:0:0:0:
192,192,17635,1,0,0:0:0:0:
448,192,17785,1,0,0:0:0:0:
320,192,17785,1,0,0:0:0:0:
192,192,17935,1,0,0:0:0:0:
320,192,17935,1,0,0:0:0:0:
448,192,18085,1,0,0:0:0:0:
64,192,18085,1,0,0:0:0:0:
64,192,18235,1,0,0:0:0:0:
192,192,18235,1,0,0:0:0:0:
192,192,18385,1,0,0:0:0:0:
320,192,18385,1,0,0:0:0:0:
448,192,18535,1,0,0:0:0:0:
64,192,18535,1,0,0:0:0:0:
192,192,18685,1,0,0:0:0:0:
448,192,18685,1,0,0:0:0:0:
192,192,18835,1,0,0:0:0:0:
320,192,18835,1,0,0:0:0:0:
448,192,18985,1,0,0:0:0:0:
64,192,18985,1,0,0:0:0:0:
320,192,19060,1,0,0:0:0:0:
64,192,19135,1,0,0:0:0:0:
320,192,19210,1,0,0:0:0:0:
192,192,19285,1,0,0:0:0:0:
64,192,19285,1,0,0:0:0:0:
448,192,19360,1,0,0:0:0:0:
192,192,19435,1,0,0:0:0:0:
448,192,19510,1,0,0:0:0:0:
320,192,19585,1,0,0:0:0:0:
64,192,19585,1,0,0:0:0:0:
192,192,19735,1,0,0:0:0:0:
64,192,19735,1,0,0:0:0:0:
448,192,19885,1,0,0:0:0:0:
192,192,20035,1,0,0:0:0:0:
320,192,20185,128,0,20410:0:0:0:0:
192,192,20185,128,0,20410:0:0:0:0:
64,192,20185,128,0,20485:0:0:0:0:
448,192,20485,1,0,0:0:0:0:
320,192,20485,1,0,0:0:0:0:
192,192,20485,1,0,0:0:0:0:
320,192,20635,1,0,0:0:0:0:
192,192,20785,1,0,0:0:0:0:
448,192,20860,1,0,0:0:0:0:
320,192,20860,1,0,0:0:0:0:
64,192,20935,1,0,0:0:0:0:
448,192,21085,1,0,0:0:0:0:
320,192,21085,1,0,0:0:0:0:
192,192,21085,1,0,0:0:0:0:
448,192,21160,1,0,0:0:0:0:
320,192,21160,1,0,0:0:0:0:
192,192,21235,1,0,0:0:0:0:
64,192,21310,1,0,0:0:0:0:
448,192,21385,1,0,0:0:0:0:
320,192,21385,1,0,0:0:0:0:
64,192,21535,1,0,0:0:0:0:
192,192,21610,1,0,0:0:0:0:
64,192,21685,1,0,0:0:0:0:
448,192,21685,128,0,21835:0:0:0:0:
320,192,21685,1,0,0:0:0:0:
320,192,21835,1,0,0:0:0:0:
448,192,21910,128,0,22060:0:0:0:0:
192,192,21910,1,0,0:0:0:0:
64,192,21910,1,0,0:0:0:0:
320,192,22060,1,0,0:0:0:0:
64,192,22060,1,0,0:0:0:0:
192,192,22135,128,0,22285:0:0:0:0:
64,192,22285,1,0,0:0:0:0:
320,192,22285,1,0,0:0:0:0:
448,192,22285,1,0,0:0:0:0:
448,192,22360,1,0,0:0:0:0:
320,192,22360,1,0,0:0:0:0:
64,192,22435,128,0,22585:0:0:0:0:
192,192,22585,128,0,22810:0:0:0:0:
448,192,22585,128,0,22885:0:0:0:0:
320,192,22585,128,0,22810:0:0:0:0:
320,192,22885,1,0,0:0:0:0:
192,192,22885,1,0,0:0:0:0:
64,192,22885,1,0,0:0:0:0:
192,192,23035,1,0,0:0:0:0:
320,192,23185,1,0,0:0:0:0:
192,192,23260,1,0,0:0:0:0:
64,192,23260,1,0,0:0:0:0:
448,192,23335,1,0,0:0:0:0:
320,192,23485,1,0,0:0:0:0:
192,192,23485,1,0,0:0:0:0:
64,192,23485,1,0,0:0:0:0:
192,192,23560,1,0,0:0:0:0:
64,192,23560,1,0,0:0:0:0:
320,192,23635,1,0,0:0:0:0:
448,192,23710,1,0,0:0:0:0:
64,192,23785,1,0,0:0:0:0:
192,192,23785,1,0,0:0:0:0:
192,192,23935,1,0,0:0:0:0:
64,192,23935,1,0,0:0:0:0:
448,192,24010,1,0,0:0:0:0:
448,192,24085,1,0,0:0:0:0:
320,192,24085,1,0,0:0:0:0:
64,192,24085,128,0,24235:0:0:0:0:
192,192,24235,1,0,0:0:0:0:
448,192,24310,1,0,0:0:0:0:
320,192,24310,1,0,0:0:0:0:
64,192,24310,128,0,24460:0:0:0:0:
448,192,24460,1,0,0:0:0:0:
192,192,24460,1,0,0:0:0:0:
320,192,24535,128,0,24685:0:0:0:0:
448,192,24685,1,0,0:0:0:0:
64,192,24685,1,0,0:0:0:0:
192,192,24685,1,0,0:0:0:0:
192,192,24760,1,0,0:0:0:0:
64,192,24760,1,0,0:0:0:0:
448,192,24835,128,0,24985:0:0:0:0:
320,192,24985,128,0,25210:0:0:0:0:
192,192,24985,128,0,25210:0:0:0:0:
64,192,24985,128,0,25285:0:0:0:0:
448,192,25285,1,0,0:0:0:0:
320,192,25285,1,0,0:0:0:0:
192,192,25285,1,0,0:0:0:0:
448,192,25435,1,0,0:0:0:0:
64,192,25585,1,0,0:0:0:0:
448,192,25660,1,0,0:0:0:0:
320,192,25660,1,0,0:0:0:0:
192,192,25735,1,0,0:0:0:0:
448,192,25885,1,0,0:0:0:0:
320,192,25885,1,0,0:0:0:0:
64,192,25885,1,0,0:0:0:0:
448,192,25960,1,0,0:0:0:0:
320,192,25960,1,0,0:0:0:0:
192,192,26035,1,0,0:0:0:0:
64,192,26110,1,0,0:0:0:0:
320,192,26185,1,0,0:0:0:0:
448,192,26185,1,0,0:0:0:0:
64,192,26335,1,0,0:0:0:0:
192,192,26410,1,0,0:0:0:0:
64,192,26485,1,0,0:0:0:0:
448,192,26485,128,0,26635:0:0:0:0:
320,192,26485,1,0,0:0:0:0:
320,192,26635,1,0,0:0:0:0:
448,192,26710,128,0,26860:0:0:0:0:
192,192,26710,1,0,0:0:0:0:
64,192,26710,1,0,0:0:0:0:
320,192,26860,1,0,0:0:0:0:
64,192,26860,1,0,0:0:0:0:
192,192,26935,128,0,27085:0:0:0:0:
64,192,27085,1,0,0:0:0:0:
448,192,27085,1,0,0:0:0:0:
320,192,27085,1,0,0:0:0:0:
448,192,27160,1,0,0:0:0:0:
320,192,27160,1,0,0:0:0:0:
64,192,27235,128,0,27385:0:0:0:0:
192,192,27385,128,0,27610:0:0:0:0:
448,192,27385,128,0,27685:0:0:0:0:
320,192,27385,128,0,27610:0:0:0:0:
320,192,27685,1,0,0:0:0:0:
192,192,27685,1,0,0:0:0:0:
64,192,27685,128,0,27910:0:0:0:0:
192,192,27835,1,0,0:0:0:0:
64,192,27985,128,0,28210:0:0:0:0:
448,192,28060,1,0,0:0:0:0:
320,192,28060,1,0,0:0:0:0:
192,192,28135,1,0,0:0:0:0:
320,192,28285,1,0,0:0:0:0:
448,192,28285,1,0,0:0:0:0:
64,192,28285,128,0,28510:0:0:0:0:
448,192,28360,1,0,0:0:0:0:
320,192,28360,1,0,0:0:0:0:
192,192,28585,1,0,0:0:0:0:
448,192,28585,1,0,0:0:0:0:
448,192,28735,1,0,0:0:0:0:
320,192,28735,1,0,0:0:0:0:
64,192,28810,1,0,0:0:0:0:
192,192,28885,1,0,0:0:0:0:
448,192,28885,1,0,0:0:0:0:
64,192,28885,1,0,0:0:0:0:
320,192,29035,1,0,0:0:0:0:
448,192,29110,1,0,0:0:0:0:
192,192,29110,1,0,0:0:0:0:
64,192,29110,1,0,0:0:0:0:
320,192,29260,1,0,0:0:0:0:
192,192,29260,1,0,0:0:0:0:
192,192,29485,1,0,0:0:0:0:
448,192,29485,1,0,0:0:0:0:
64,192,29485,1,0,0:0:0:0:
192,192,29560,1,0,0:0:0:0:
64,192,29560,1,0,0:0:0:0:
448,192,29635,1,0,0:0:0:0:
320,192,29785,128,0,30010:0:0:0:0:
192,192,29785,128,0,30010:0:0:0:0:
64,192,29785,128,0,30085:0:0:0:0:
448,192,29935,128,0,29985:0:0:0:0:
320,192,30085,128,0,30135:0:0:0:0:
448,192,30085,1,0,0:0:0:0:
192,192,30085,1,0,0:0:0:0:
192,192,30235,128,0,30285:0:0:0:0:
448,192,30385,128,0,30435:0:0:0:0:
64,192,30460,128,0,30510:0:0:0:0:
320,192,30535,128,0,30585:0:0:0:0:
192,192,30535,1,0,0:0:0:0:
448,192,30685,1,0,0:0:0:0:
320,192,30685,1,0,0:0:0:0:
64,192,30685,128,0,30735:0:0:0:0:
448,192,30760,128,0,30810:0:0:0:0:
320,192,30760,1,0,0:0:0:0:
192,192,30835,128,0,30885:0:0:0:0:
320,192,30985,128,0,31035:0:0:0:0:
448,192,30985,1,0,0:0:0:0:
64,192,31135,128,0,31185:0:0:0:0:
448,192,31285,128,0,31435:0:0:0:0:
320,192,31285,1,0,0:0:0:0:
192,192,31285,128,0,31335:0:0:0:0:
64,192,31435,128,0,31485:0:0:0:0:
192,192,31510,128,0,31560:0:0:0:0:
448,192,31510,128,0,31660:0:0:0:0:
320,192,31510,1,0,0:0:0:0:
64,192,31585,128,0,31635:0:0:0:0:
192,192,31735,128,0,31885:0:0:0:0:
320,192,31735,128,0,31785:0:0:0:0:
64,192,31885,1,0,0:0:0:0:
320,192,31885,1,0,0:0:0:0:
448,192,31885,1,0,0:0:0:0:
448,192,31960,1,0,0:0:0:0:
320,192,31960,1,0,0:0:0:0:
64,192,32035,128,0,32185:0:0:0:0:
192,192,32185,128,0,32410:0:0:0:0:
448,192,32185,128,0,32485:0:0:0:0:
320,192,32185,128,0,32410:0:0:0:0:
64,192,32335,128,0,32385:0:0:0:0:
64,192,32485,128,0,32535:0:0:0:0:
320,192,32485,1,0,0:0:0:0:
192,192,32485,1,0,0:0:0:0:
192,192,32635,128,0,32685:0:0:0:0:
448,192,32785,128,0,32835:0:0:0:0:
64,192,32860,128,0,32910:0:0:0:0:
320,192,32935,1,0,0:0:0:0:
192,192,32935,128,0,32985:0:0:0:0:
192,192,33085,1,0,0:0:0:0:
448,192,33085,128,0,33135:0:0:0:0:
64,192,33085,1,0,0:0:0:0:
192,192,33160,1,0,0:0:0:0:
64,192,33160,1,0,0:0:0:0:
448,192,33385,128,0,33435:0:0:0:0:
320,192,33385,1,0,0:0:0:0:
192,192,33535,128,0,33585:0:0:0:0:
64,192,33535,1,0,0:0:0:0:
448,192,33610,1,0,0:0:0:0:
448,192,33685,128,0,33735:0:0:0:0:
320,192,33685,1,0,0:0:0:0:
64,192,33685,128,0,33835:0:0:0:0:
448,192,33835,128,0,33885:0:0:0:0:
320,192,33910,128,0,33960:0:0:0:0:
192,192,33910,1,0,0:0:0:0:
64,192,33910,128,0,34060:0:0:0:0:
448,192,33985,128,0,34035:0:0:0:0:
192,192,34135,128,0,34185:0:0:0:0:
320,192,34135,128,0,34285:0:0:0:0:
448,192,34285,1,0,0:0:0:0:
192,192,34285,1,0,0:0:0:0:
64,192,34285,1,0,0:0:0:0:
192,192,34360,1,0,0:0:0:0:
64,192,34360,1,0,0:0:0:0:
448,192,34435,128,0,34585:0:0:0:0:
320,192,34585,128,0,34810:0:0:0:0:
192,192,34585,128,0,34810:0:0:0:0:
64,192,34585,128,0,34885:0:0:0:0:
448,192,34735,128,0,34785:0:0:0:0:
448,192,34885,1,0,0:0:0:0:
192,192,34885,1,0,0:0:0:0:
320,192,34885,128,0,34935:0:0:0:0:
448,192,35035,128,0,35085:0:0:0:0:
192,192,35185,128,0,35235:0:0:0:0:
448,192,35260,128,0,35310:0:0:0:0:
320,192,35335,128,0,35385:0:0:0:0:
64,192,35335,1,0,0:0:0:0:
448,192,35485,1,0,0:0:0:0:
320,192,35485,1,0,0:0:0:0:
64,192,35485,128,0,35535:0:0:0:0:
448,192,35560,128,0,35610:0:0:0:0:
320,192,35560,1,0,0:0:0:0:
192,192,35635,128,0,35685:0:0:0:0:
64,192,35710,1,0,0:0:0:0:
448,192,35785,1,0,0:0:0:0:
320,192,35785,128,0,35835:0:0:0:0:
64,192,35935,128,0,35985:0:0:0:0:
448,192,36085,128,0,36235:0:0:0:0:
320,192,36085,1,0,0:0:0:0:
192,192,36085,128,0,36135:0:0:0:0:
64,192,36235,128,0,36285:0:0:0:0:
192,192,36310,128,0,36360:0:0:0:0:
448,192,36310,128,0,36460:0:0:0:0:
320,192,36310,1,0,0:0:0:0:
64,192,36385,128,0,36435:0:0:0:0:
320,192,36460,128,0,36510:0:0:0:0:
448,192,36535,128,0,36685:0:0:0:0:
192,192,36535,128,0,36585:0:0:0:0:
320,192,36685,1,0,0:0:0:0:
64,192,36685,1,0,0:0:0:0:
192,192,36685,1,0,0:0:0:0:
192,192,36760,1,0,0:0:0:0:
64,192,36760,1,0,0:0:0:0:
448,192,36835,128,0,36985:0:0:0:0:
192,192,36985,128,0,37135:0:0:0:0:
64,192,36985,128,0,37135:0:0:0:0:
320,192,36985,128,0,37135:0:0:0:0:
448,192,37135,128,0,37185:0:0:0:0:
320,192,37210,1,0,0:0:0:0:
448,192,37285,128,0,37335:0:0:0:0:
192,192,37285,1,0,0:0:0:0:
64,192,37285,128,0,37510:0:0:0:0:
320,192,37435,128,0,37485:0:0:0:0:
448,192,37585,128,0,37635:0:0:0:0:
64,192,37585,128,0,37810:0:0:0:0:
320,192,37735,128,0,37785:0:0:0:0:
448,192,37885,128,0,37935:0:0:0:0:
192,192,37885,1,0,0:0:0:0:
64,192,37885,128,0,38035:0:0:0:0:
448,192,38035,1,0,0:0:0:0:
320,192,38035,1,0,0:0:0:0:
64,192,38110,1,0,0:0:0:0:
192,192,38110,1,0,0:0:0:0:
448,192,38185,1,0,0:0:0:0:
320,192,38185,1,0,0:0:0:0:
320,192,38335,1,0,0:0:0:0:
448,192,38335,1,0,0:0:0:0:
64,192,38335,1,0,0:0:0:0:
192,192,38485,1,0,0:0:0:0:
64,192,38485,1,0,0:0:0:0:
192,192,38635,1,0,0:0:0:0:
64,192,38635,1,0,0:0:0:0:
448,192,38635,1,0,0:0:0:0:
64,192,38785,128,0,38885:0:0:0:0:
448,192,38785,1,0,0:0:0:0:
192,192,38835,128,0,38935:0:0:0:0:
320,192,38885,128,0,38985:0:0:0:0:
448,192,38935,128,0,39160:0:0:0:0:
64,192,39085,1,0,0:0:0:0:
192,192,39085,1,0,0:0:0:0:
320,192,39135,128,0,39235:0:0:0:0:
192,192,39185,128,0,39310:0:0:0:0:
448,192,39235,1,0,0:0:0:0:
64,192,39235,128,0,39385:0:0:0:0:
320,192,39310,1,0,0:0:0:0:
192,192,39385,1,0,0:0:0:0:
448,192,39535,1,0,0:0:0:0:
64,192,39685,1,0,0:0:0:0:
320,192,39985,1,0,0:0:0:0:
64,192,40135,1,0,0:0:0:0:
320,192,40435,1,0,0:0:0:0:
64,192,40585,1,0,0:0:0:0:
320,192,40885,1,0,0:0:0:0:
64,192,41035,1,0,0:0:0:0:
192,192,41335,1,0,0:0:0:0:
320,192,41485,1,0,0:0:0:0:
448,192,41635,1,0,0:0:0:0:
64,192,41785,1,0,0:0:0:0:
448,192,41935,1,0,0:0:0:0:
192,192,42085,1,0,0:0:0:0:
448,192,42385,1,0,0:0:0:0:
192,192,42535,1,0,0:0:0:0:
448,192,42835,1,0,0:0:0:0:
192,192,42985,1,0,0:0:0:0:
64,192,42985,1,0,0:0:0:0:
448,192,43285,1,0,0:0:0:0:
192,192,43435,1,0,0:0:0:0:
448,192,43735,1,0,0:0:0:0:
64,192,43885,1,0,0:0:0:0:
192,192,44035,1,0,0:0:0:0:
448,192,44185,1,0,0:0:0:0:
320,192,44185,1,0,0:0:0:0:
192,192,44335,1,0,0:0:0:0:
64,192,44485,1,0,0:0:0:0:
448,192,44785,1,0,0:0:0:0:
320,192,44785,1,0,0:0:0:0:
192,192,44935,1,0,0:0:0:0:
448,192,45235,1,0,0:0:0:0:
192,192,45385,1,0,0:0:0:0:
64,192,45385,1,0,0:0:0:0:
320,192,45685,1,0,0:0:0:0:
64,192,45835,1,0,0:0:0:0:
448,192,45985,1,0,0:0:0:0:
320,192,45985,1,0,0:0:0:0:
64,192,46135,1,0,0:0:0:0:
192,192,46285,1,0,0:0:0:0:
448,192,46435,1,0,0:0:0:0:
192,192,46585,1,0,0:0:0:0:
64,192,46585,1,0,0:0:0:0:
448,192,46735,1,0,0:0:0:0:
320,192,46885,1,0,0:0:0:0:
192,192,46885,1,0,0:0:0:0:
448,192,47185,1,0,0:0:0:0:
320,192,47185,1,0,0:0:0:0:
192,192,47335,1,0,0:0:0:0:
448,192,47485,1,0,0:0:0:0:
64,192,47485,1,0,0:0:0:0:
320,192,47635,1,0,0:0:0:0:
192,192,47785,1,0,0:0:0:0:
64,192,47785,1,0,0:0:0:0:
320,192,47935,1,0,0:0:0:0:
64,192,47935,1,0,0:0:0:0:
192,192,48085,1,0,0:0:0:0:
448,192,48085,1,0,0:0:0:0:
448,192,48235,1,0,0:0:0:0:
320,192,48235,1,0,0:0:0:0:
192,192,48385,1,0,0:0:0:0:
64,192,48385,1,0,0:0:0:0:
64,192,48535,1,0,0:0:0:0:
192,192,48535,1,0,0:0:0:0:
320,192,48685,1,0,0:0:0:0:
448,192,48685,1,0,0:0:0:0:
448,192,48835,1,0,0:0:0:0:
320,192,48835,1,0,0:0:0:0:
448,192,48985,1,0,0:0:0:0:
64,192,48985,1,0,0:0:0:0:
192,192,49105,1,0,0:0:0:0:
320,192,49165,1,0,0:0:0:0:
64,192,49225,1,0,0:0:0:0:
320,192,49285,1,0,0:0:0:0:
192,192,49345,1,0,0:0:0:0:
64,192,49405,1,0,0:0:0:0:
320,192,49465,1,0,0:0:0:0:
64,192,49525,1,0,0:0:0:0:
448,192,49585,1,0,0:0:0:0:
320,192,49585,1,0,0:0:0:0:
192,192,49585,128,0,49885:0:0:0:0:
448,192,49735,128,0,49885:0:0:0:0:
64,192,49735,128,0,49885:0:0:0:0:
320,192,49885,1,0,0:0:0:0:
192,192,50035,128,0,50185:0:0:0:0:
448,192,50185,128,0,50410:0:0:0:0:
320,192,50185,128,0,50372:0:0:0:0:
64,192,50185,128,0,50335:0:0:0:0:
320,192,50485,128,0,50635:0:0:0:0:
192,192,50485,128,0,50635:0:0:0:0:
448,192,50785,1,0,0:0:0:0:
64,192,50785,1,0,0:0:0:0:
192,192,50785,128,0,51085:0:0:0:0:
448,192,50935,128,0,51085:0:0:0:0:
64,192,50935,128,0,51085:0:0:0:0:
320,192,51085,1,0,0:0:0:0:
320,192,51235,128,0,51385:0:0:0:0:
448,192,51385,128,0,51535:0:0:0:0:
64,192,51385,128,0,51535:0:0:0:0:
192,192,51460,128,0,51610:0:0:0:0:
320,192,51535,128,0,51685:0:0:0:0:
64,192,51610,128,0,51910:0:0:0:0:
448,192,51685,128,0,51910:0:0:0:0:
320,192,51835,128,0,51910:0:0:0:0:
448,192,51985,1,0,0:0:0:0:
64,192,51985,1,0,0:0:0:0:
320,192,51985,128,0,52285:0:0:0:0:
448,192,52135,128,0,52285:0:0:0:0:
64,192,52135,128,0,52285:0:0:0:0:
192,192,52285,1,0,0:0:0:0:
192,192,52435,128,0,52585:0:0:0:0:
448,192,52585,128,0,52735:0:0:0:0:
64,192,52585,128,0,52810:0:0:0:0:
320,192,52585,128,0,52772:0:0:0:0:
320,192,52885,128,0,53035:0:0:0:0:
192,192,52885,128,0,53035:0:0:0:0:
320,192,53185,128,0,53260:0:0:0:0:
448,192,53185,128,0,53260:0:0:0:0:
64,192,53185,1,0,0:0:0:0:
192,192,53335,128,0,53410:0:0:0:0:
64,192,53335,128,0,53410:0:0:0:0:
192,192,53485,128,0,53560:0:0:0:0:
64,192,53485,128,0,53560:0:0:0:0:
448,192,53635,128,0,53685:0:0:0:0:
320,192,53685,128,0,53735:0:0:0:0:
192,192,53735,128,0,53785:0:0:0:0:
448,192,53785,1,0,0:0:0:0:
64,192,53785,1,0,0:0:0:0:
320,192,53905,1,0,0:0:0:0:
192,192,53965,1,0,0:0:0:0:
448,192,54025,1,0,0:0:0:0:
192,192,54085,1,0,0:0:0:0:
320,192,54145,1,0,0:0:0:0:
448,192,54205,1,0,0:0:0:0:
192,192,54265,1,0,0:0:0:0:
448,192,54325,1,0,0:0:0:0:
320,192,54385,1,0,0:0:0:0:
64,192,54385,1,0,0:0:0:0:
192,192,54385,128,0,54685:0:0:0:0:
448,192,54535,128,0,54685:0:0:0:0:
64,192,54535,128,0,54685:0:0:0:0:
320,192,54685,1,0,0:0:0:0:
320,192,54835,128,0,54985:0:0:0:0:
448,192,54985,128,0,55210:0:0:0:0:
192,192,54985,128,0,55172:0:0:0:0:
64,192,54985,128,0,55135:0:0:0:0:
320,192,55285,128,0,55435:0:0:0:0:
192,192,55285,128,0,55435:0:0:0:0:
448,192,55585,1,0,0:0:0:0:
64,192,55585,1,0,0:0:0:0:
320,192,55585,128,0,55885:0:0:0:0:
448,192,55735,128,0,55885:0:0:0:0:
64,192,55735,128,0,55885:0:0:0:0:
192,192,55885,1,0,0:0:0:0:
192,192,56035,128,0,56185:0:0:0:0:
64,192,56185,128,0,56335:0:0:0:0:
448,192,56185,128,0,56335:0:0:0:0:
320,192,56260,128,0,56485:0:0:0:0:
192,192,56335,128,0,56485:0:0:0:0:
64,192,56410,128,0,56485:0:0:0:0:
448,192,56485,1,0,0:0:0:0:
320,192,56597,1,0,0:0:0:0:
64,192,56635,128,0,56710:0:0:0:0:
448,192,56710,1,0,0:0:0:0:
320,192,56785,1,0,0:0:0:0:
64,192,56785,1,0,0:0:0:0:
192,192,56785,128,0,57085:0:0:0:0:
448,192,56935,128,0,57085:0:0:0:0:
64,192,56935,128,0,57085:0:0:0:0:
320,192,57085,1,0,0:0:0:0:
320,192,57235,128,0,57385:0:0:0:0:
192,192,57385,128,0,57497:0:0:0:0:
64,192,57385,128,0,57535:0:0:0:0:
448,192,57385,128,0,57460:0:0:0:0:
448,192,57685,128,0,57835:0:0:0:0:
192,192,57685,128,0,57835:0:0:0:0:
320,192,57835,128,0,57985:0:0:0:0:
448,192,57985,1,0,0:0:0:0:
192,192,57985,1,0,0:0:0:0:
64,192,57985,128,0,58285:0:0:0:0:
320,192,58135,128,0,58210:0:0:0:0:
192,192,58135,128,0,58285:0:0:0:0:
448,192,58285,128,0,58360:0:0:0:0:
320,192,58285,128,0,58435:0:0:0:0:
192,192,58435,128,0,58510:0:0:0:0:
64,192,58435,128,0,58510:0:0:0:0:
448,192,58585,1,0,0:0:0:0:
64,192,58585,1,0,0:0:0:0:
192,192,58705,1,0,0:0:0:0:
320,192,58765,1,0,0:0:0:0:
64,192,58825,1,0,0:0:0:0:
320,192,58885,1,0,0:0:0:0:
192,192,58945,1,0,0:0:0:0:
64,192,59005,1,0,0:0:0:0:
320,192,59065,1,0,0:0:0:0:
64,192,59125,1,0,0:0:0:0:
448,192,59185,1,0,0:0:0:0:
192,192,59185,1,0,0:0:0:0:
320,192,59185,128,0,59485:0:0:0:0:
448,192,59335,128,0,59485:0:0:0:0:
64,192,59335,128,0,59485:0:0:0:0:
192,192,59485,1,0,0:0:0:0:
192,192,59635,128,0,59785:0:0:0:0:
448,192,59785,128,0,60010:0:0:0:0:
320,192,59785,128,0,59972:0:0:0:0:
64,192,59785,128,0,59935:0:0:0:0:
192,192,59935,1,0,0:0:0:0:
320,192,60085,128,0,60235:0:0:0:0:
64,192,60085,128,0,60235:0:0:0:0:
192,192,60235,1,0,0:0:0:0:
448,192,60385,1,0,0:0:0:0:
64,192,60385,1,0,0:0:0:0:
192,192,60385,128,0,60685:0:0:0:0:
448,192,60535,128,0,60685:0:0:0:0:
64,192,60535,128,0,60685:0:0:0:0:
320,192,60685,1,0,0:0:0:0:
320,192,60835,128,0,60985:0:0:0:0:
448,192,60985,128,0,61135:0:0:0:0:
64,192,60985,128,0,61135:0:0:0:0:
192,192,61060,128,0,61210:0:0:0:0:
320,192,61135,128,0,61285:0:0:0:0:
64,192,61210,128,0,61510:0:0:0:0:
192,192,61285,1,0,0:0:0:0:
448,192,61285,128,0,61510:0:0:0:0:
192,192,61435,1,0,0:0:0:0:
320,192,61435,128,0,61510:0:0:0:0:
448,192,61585,1,0,0:0:0:0:
64,192,61585,1,0,0:0:0:0:
320,192,61585,128,0,61885:0:0:0:0:
448,192,61735,128,0,61885:0:0:0:0:
64,192,61735,128,0,61885:0:0:0:0:
192,192,61885,1,0,0:0:0:0:
192,192,62035,128,0,62185:0:0:0:0:
64,192,62185,128,0,62410:0:0:0:0:
448,192,62185,128,0,62372:0:0:0:0:
320,192,62185,128,0,62335:0:0:0:0:
192,192,62335,1,0,0:0:0:0:
320,192,62485,128,0,62635:0:0:0:0:
64,192,62485,128,0,62635:0:0:0:0:
192,192,62635,1,0,0:0:0:0:
448,192,62785,1,0,0:0:0:0:
64,192,62785,1,0,0:0:0:0:
320,192,62785,128,0,63010:0:0:0:0:
64,192,62935,128,0,63085:0:0:0:0:
192,192,62935,128,0,63010:0:0:0:0:
320,192,63085,128,0,63160:0:0:0:0:
192,192,63085,128,0,63235:0:0:0:0:
448,192,63235,128,0,63285:0:0:0:0:
320,192,63285,128,0,63335:0:0:0:0:
192,192,63335,128,0,63385:0:0:0:0:
448,192,63385,1,0,0:0:0:0:
64,192,63385,1,0,0:0:0:0:
320,192,63505,1,0,0:0:0:0:
192,192,63565,1,0,0:0:0:0:
448,192,63625,1,0,0:0:0:0:
192,192,63685,1,0,0:0:0:0:
320,192,63745,1,0,0:0:0:0:
448,192,63805,1,0,0:0:0:0:
192,192,63865,1,0,0:0:0:0:
448,192,63925,1,0,0:0:0:0:
320,192,63985,1,0,0:0:0:0:
64,192,63985,1,0,0:0:0:0:
192,192,63985,128,0,64285:0:0:0:0:
448,192,64135,128,0,64285:0:0:0:0:
64,192,64135,128,0,64285:0:0:0:0:
320,192,64285,1,0,0:0:0:0:
320,192,64435,128,0,64585:0:0:0:0:
448,192,64585,128,0,64735:0:0:0:0:
192,192,64585,128,0,64772:0:0:0:0:
64,192,64585,128,0,64810:0:0:0:0:
320,192,64735,1,0,0:0:0:0:
448,192,64885,128,0,65035:0:0:0:0:
192,192,64885,128,0,65035:0:0:0:0:
320,192,65035,1,0,0:0:0:0:
448,192,65185,1,0,0:0:0:0:
64,192,65185,1,0,0:0:0:0:
320,192,65185,128,0,65485:0:0:0:0:
448,192,65335,128,0,65485:0:0:0:0:
64,192,65335,128,0,65485:0:0:0:0:
192,192,65485,1,0,0:0:0:0:
192,192,65635,128,0,65785:0:0:0:0:
448,192,65785,128,0,65935:0:0:0:0:
64,192,65785,128,0,66010:0:0:0:0:
320,192,65860,128,0,66010:0:0:0:0:
192,192,65935,128,0,66310:0:0:0:0:
64,192,66085,128,0,66310:0:0:0:0:
448,192,66085,128,0,66197:0:0:0:0:
320,192,66197,128,0,66310:0:0:0:0:
448,192,66310,128,0,66385:0:0:0:0:
64,192,66385,1,0,0:0:0:0:
320,192,66385,1,0,0:0:0:0:
192,192,66385,1,0,0:0:0:0:
448,192,66535,128,0,66685:0:0:0:0:
192,192,66535,128,0,66685:0:0:0:0:
320,192,66685,1,0,0:0:0:0:
320,192,66835,128,0,66985:0:0:0:0:
192,192,66985,128,0,67135:0:0:0:0:
64,192,66985,128,0,67097:0:0:0:0:
448,192,66985,128,0,67060:0:0:0:0:
320,192,67135,1,0,0:0:0:0:
448,192,67285,128,0,67435:0:0:0:0:
192,192,67285,128,0,67435:0:0:0:0:
320,192,67435,128,0,67585:0:0:0:0:
448,192,67585,1,0,0:0:0:0:
192,192,67585,1,0,0:0:0:0:
64,192,67585,128,0,67885:0:0:0:0:
320,192,67735,128,0,67810:0:0:0:0:
192,192,67735,128,0,67885:0:0:0:0:
448,192,67885,128,0,67960:0:0:0:0:
320,192,67885,128,0,68035:0:0:0:0:
192,192,68035,128,0,68110:0:0:0:0:
64,192,68035,128,0,68110:0:0:0:0:
448,192,68185,128,0,68485:0:0:0:0:
64,192,68185,1,0,0:0:0:0:
320,192,68185,1,0,0:0:0:0:
320,192,68335,128,0,68485:0:0:0:0:
64,192,68485,128,0,68560:0:0:0:0:
192,192,68560,1,0,0:0:0:0:
320,192,68635,1,0,0:0:0:0:
64,192,68710,1,0,0:0:0:0:
448,192,68785,1,0,0:0:0:0:
320,192,68785,1,0,0:0:0:0:
192,192,68785,128,0,69010:0:0:0:0:
448,192,68935,1,0,0:0:0:0:
64,192,68935,128,0,69010:0:0:0:0:
320,192,69085,1,0,0:0:0:0:
192,192,69085,128,0,69235:0:0:0:0:
64,192,69160,128,0,69310:0:0:0:0:
320,192,69235,1,0,0:0:0:0:
448,192,69385,1,0,0:0:0:0:
320,192,69385,1,0,0:0:0:0:
192,192,69385,128,0,69610:0:0:0:0:
64,192,69460,128,0,69610:0:0:0:0:
448,192,69535,1,0,0:0:0:0:
320,192,69685,1,0,0:0:0:0:
64,192,69685,128,0,69910:0:0:0:0:
192,192,69760,1,0,0:0:0:0:
320,192,69835,128,0,69910:0:0:0:0:
448,192,69910,1,0,0:0:0:0:
320,192,69985,1,0,0:0:0:0:
192,192,69985,128,0,70210:0:0:0:0:
64,192,69985,1,0,0:0:0:0:
448,192,70135,128,0,70210:0:0:0:0:
64,192,70285,128,0,70360:0:0:0:0:
192,192,70360,128,0,70435:0:0:0:0:
64,192,70435,128,0,70510:0:0:0:0:
448,192,70585,128,0,70885:0:0:0:0:
320,192,70585,1,0,0:0:0:0:
192,192,70585,1,0,0:0:0:0:
320,192,70735,128,0,70885:0:0:0:0:
64,192,70885,1,0,0:0:0:0:
192,192,70960,1,0,0:0:0:0:
64,192,71035,1,0,0:0:0:0:
192,192,71110,1,0,0:0:0:0:
448,192,71185,128,0,71410:0:0:0:0:
320,192,71185,1,0,0:0:0:0:
64,192,71185,1,0,0:0:0:0:
320,192,71335,1,0,0:0:0:0:
64,192,71335,128,0,71485:0:0:0:0:
192,192,71410,1,0,0:0:0:0:
448,192,71485,128,0,71710:0:0:0:0:
320,192,71485,1,0,0:0:0:0:
192,192,71635,1,0,0:0:0:0:
320,192,71785,1,0,0:0:0:0:
64,192,71785,128,0,72010:0:0:0:0:
192,192,71860,1,0,0:0:0:0:
448,192,71935,128,0,72085:0:0:0:0:
320,192,72010,1,0,0:0:0:0:
64,192,72085,128,0,72310:0:0:0:0:
192,192,72085,1,0,0:0:0:0:
448,192,72235,128,0,72310:0:0:0:0:
320,192,72235,1,0,0:0:0:0:
448,192,72385,1,0,0:0:0:0:
192,192,72385,128,0,72610:0:0:0:0:
320,192,72385,1,0,0:0:0:0:
320,192,72535,128,0,72685:0:0:0:0:
64,192,72535,128,0,72572:0:0:0:0:
448,192,72685,128,0,72835:0:0:0:0:
64,192,72685,128,0,72722:0:0:0:0:
192,192,72760,1,0,0:0:0:0:
64,192,72835,128,0,72872:0:0:0:0:
448,192,72985,128,0,73285:0:0:0:0:
64,192,72985,1,0,0:0:0:0:
320,192,72985,1,0,0:0:0:0:
320,192,73135,128,0,73285:0:0:0:0:
64,192,73285,128,0,73360:0:0:0:0:
192,192,73360,1,0,0:0:0:0:
320,192,73435,1,0,0:0:0:0:
448,192,73510,1,0,0:0:0:0:
320,192,73585,128,0,73810:0:0:0:0:
192,192,73585,1,0,0:0:0:0:
64,192,73585,1,0,0:0:0:0:
448,192,73735,128,0,73810:0:0:0:0:
64,192,73735,1,0,0:0:0:0:
320,192,73885,128,0,74035:0:0:0:0:
192,192,73885,1,0,0:0:0:0:
448,192,73960,128,0,74110:0:0:0:0:
192,192,74035,1,0,0:0:0:0:
320,192,74185,128,0,74410:0:0:0:0:
192,192,74185,1,0,0:0:0:0:
64,192,74185,1,0,0:0:0:0:
448,192,74260,128,0,74410:0:0:0:0:
64,192,74335,1,0,0:0:0:0:
448,192,74485,128,0,74710:0:0:0:0:
192,192,74485,1,0,0:0:0:0:
320,192,74560,1,0,0:0:0:0:
192,192,74635,128,0,74710:0:0:0:0:
64,192,74710,1,0,0:0:0:0:
448,192,74785,1,0,0:0:0:0:
320,192,74785,128,0,75010:0:0:0:0:
192,192,74785,1,0,0:0:0:0:
64,192,74935,128,0,75010:0:0:0:0:
64,192,75085,128,0,75160:0:0:0:0:
192,192,75160,128,0,75235:0:0:0:0:
64,192,75235,128,0,75310:0:0:0:0:
320,192,75385,1,0,0:0:0:0:
448,192,75385,128,0,75685:0:0:0:0:
192,192,75385,1,0,0:0:0:0:
320,192,75535,128,0,75685:0:0:0:0:
64,192,75685,1,0,0:0:0:0:
192,192,75760,1,0,0:0:0:0:
64,192,75835,1,0,0:0:0:0:
192,192,75910,1,0,0:0:0:0:
64,192,75985,1,0,0:0:0:0:
320,192,75985,1,0,0:0:0:0:
448,192,75985,128,0,76210:0:0:0:0:
64,192,76135,128,0,76285:0:0:0:0:
320,192,76135,1,0,0:0:0:0:
192,192,76210,1,0,0:0:0:0:
320,192,76285,1,0,0:0:0:0:
448,192,76285,128,0,76510:0:0:0:0:
192,192,76435,1,0,0:0:0:0:
64,192,76585,1,0,0:0:0:0:
192,192,76585,128,0,76660:0:0:0:0:
320,192,76585,1,0,0:0:0:0:
448,192,76660,1,0,0:0:0:0:
64,192,76735,128,0,76810:0:0:0:0:
320,192,76810,1,0,0:0:0:0:
192,192,76885,1,0,0:0:0:0:
448,192,76885,128,0,76960:0:0:0:0:
64,192,76885,1,0,0:0:0:0:
320,192,77035,1,0,0:0:0:0:
448,192,77185,1,0,0:0:0:0:
192,192,77185,1,0,0:0:0:0:
64,192,77185,128,0,77410:0:0:0:0:
320,192,77335,1,0,0:0:0:0:
320,192,77485,1,0,0:0:0:0:
448,192,77605,1,0,0:0:0:0:
320,192,77665,1,0,0:0:0:0:
192,192,77725,1,0,0:0:0:0:
448,192,77785,128,0,78010:0:0:0:0:
64,192,77785,1,0,0:0:0:0:
320,192,77935,128,0,78085:0:0:0:0:
64,192,77935,1,0,0:0:0:0:
448,192,78085,128,0,78160:0:0:0:0:
64,192,78085,1,0,0:0:0:0:
64,192,78235,1,0,0:0:0:0:
320,192,78310,1,0,0:0:0:0:
448,192,78385,128,0,78610:0:0:0:0:
192,192,78385,1,0,0:0:0:0:
64,192,78385,1,0,0:0:0:0:
320,192,78535,128,0,78610:0:0:0:0:
64,192,78535,1,0,0:0:0:0:
320,192,78685,128,0,78910:0:0:0:0:
64,192,78685,1,0,0:0:0:0:
192,192,78835,128,0,78910:0:0:0:0:
64,192,78835,1,0,0:0:0:0:
448,192,78985,1,0,0:0:0:0:
192,192,78985,128,0,79210:0:0:0:0:
448,192,79135,1,0,0:0:0:0:
64,192,79135,128,0,79210:0:0:0:0:
448,192,79285,1,0,0:0:0:0:
64,192,79285,128,0,79435:0:0:0:0:
320,192,79360,1,0,0:0:0:0:
192,192,79360,128,0,79510:0:0:0:0:
448,192,79435,1,0,0:0:0:0:
320,192,79510,1,0,0:0:0:0:
448,192,79585,1,0,0:0:0:0:
192,192,79585,128,0,79735:0:0:0:0:
64,192,79585,1,0,0:0:0:0:
320,192,79660,128,0,79810:0:0:0:0:
448,192,79735,1,0,0:0:0:0:
64,192,79885,128,0,79960:0:0:0:0:
192,192,79960,1,0,0:0:0:0:
320,192,80035,128,0,80110:0:0:0:0:
448,192,80110,1,0,0:0:0:0:
320,192,80185,128,0,80410:0:0:0:0:
192,192,80185,1,0,0:0:0:0:
448,192,80335,128,0,80485:0:0:0:0:
192,192,80335,1,0,0:0:0:0:
320,192,80485,128,0,80560:0:0:0:0:
192,192,80485,1,0,0:0:0:0:
448,192,80560,1,0,0:0:0:0:
192,192,80635,1,0,0:0:0:0:
448,192,80710,1,0,0:0:0:0:
320,192,80785,128,0,81010:0:0:0:0:
192,192,80785,1,0,0:0:0:0:
64,192,80785,1,0,0:0:0:0:
448,192,80935,128,0,81085:0:0:0:0:
192,192,80935,1,0,0:0:0:0:
320,192,81085,128,0,81310:0:0:0:0:
192,192,81085,1,0,0:0:0:0:
192,192,81235,1,0,0:0:0:0:
320,192,81385,1,0,0:0:0:0:
64,192,81385,128,0,81610:0:0:0:0:
320,192,81535,1,0,0:0:0:0:
192,192,81535,128,0,81610:0:0:0:0:
320,192,81685,1,0,0:0:0:0:
192,192,81685,128,0,81760:0:0:0:0:
320,192,81835,1,0,0:0:0:0:
192,192,81835,128,0,81910:0:0:0:0:
448,192,81985,1,0,0:0:0:0:
320,192,81985,1,0,0:0:0:0:
64,192,81985,128,0,82210:0:0:0:0:
320,192,82135,1,0,0:0:0:0:
192,192,82135,128,0,82285:0:0:0:0:
448,192,82285,128,0,82360:0:0:0:0:
320,192,82360,1,0,0:0:0:0:
448,192,82435,128,0,82510:0:0:0:0:
320,192,82510,1,0,0:0:0:0:
192,192,82585,128,0,82735:0:0:0:0:
448,192,82585,1,0,0:0:0:0:
64,192,82585,128,0,82810:0:0:0:0:
320,192,82735,128,0,82885:0:0:0:0:
192,192,82885,128,0,83035:0:0:0:0:
448,192,82885,128,0,83110:0:0:0:0:
320,192,83035,128,0,83185:0:0:0:0:
192,192,83185,128,0,83335:0:0:0:0:
448,192,83185,1,0,0:0:0:0:
64,192,83185,128,0,83410:0:0:0:0:
320,192,83335,128,0,83485:0:0:0:0:
192,192,83485,128,0,83635:0:0:0:0:
64,192,83485,128,0,83710:0:0:0:0:
448,192,83635,128,0,83710:0:0:0:0:
320,192,83710,1,0,0:0:0:0:
448,192,83785,128,0,83935:0:0:0:0:
192,192,83785,128,0,84010:0:0:0:0:
64,192,83785,1,0,0:0:0:0:
320,192,83935,128,0,84085:0:0:0:0:
64,192,84085,128,0,84235:0:0:0:0:
448,192,84085,128,0,84310:0:0:0:0:
320,192,84235,128,0,84385:0:0:0:0:
192,192,84385,128,0,84535:0:0:0:0:
448,192,84385,128,0,84610:0:0:0:0:
64,192,84385,1,0,0:0:0:0:
320,192,84535,128,0,84685:0:0:0:0:
192,192,84685,128,0,84835:0:0:0:0:
64,192,84685,128,0,84910:0:0:0:0:
448,192,84685,1,0,0:0:0:0:
448,192,84835,1,0,0:0:0:0:
320,192,84910,1,0,0:0:0:0:
448,192,84985,128,0,85060:0:0:0:0:
192,192,84985,1,0,0:0:0:0:
320,192,85060,1,0,0:0:0:0:
192,192,85135,128,0,85210:0:0:0:0:
64,192,85210,1,0,0:0:0:0:
448,192,85285,128,0,85360:0:0:0:0:
320,192,85285,1,0,0:0:0:0:
192,192,85360,1,0,0:0:0:0:
320,192,85435,128,0,85510:0:0:0:0:
192,192,85510,1,0,0:0:0:0:
64,192,85585,128,0,85660:0:0:0:0:
448,192,85585,1,0,0:0:0:0:
320,192,85660,1,0,0:0:0:0:
192,192,85735,128,0,85810:0:0:0:0:
64,192,85810,1,0,0:0:0:0:
448,192,85885,128,0,85960:0:0:0:0:
320,192,85885,1,0,0:0:0:0:
192,192,85960,1,0,0:0:0:0:
320,192,86035,128,0,86110:0:0:0:0:
192,192,86110,1,0,0:0:0:0:
64,192,86185,128,0,86260:0:0:0:0:
448,192,86185,1,0,0:0:0:0:
320,192,86260,1,0,0:0:0:0:
192,192,86335,128,0,86410:0:0:0:0:
64,192,86335,1,0,0:0:0:0:
320,192,86410,1,0,0:0:0:0:
448,192,86485,128,0,86560:0:0:0:0:
64,192,86485,1,0,0:0:0:0:
192,192,86560,1,0,0:0:0:0:
320,192,86635,128,0,86710:0:0:0:0:
448,192,86635,1,0,0:0:0:0:
64,192,86710,1,0,0:0:0:0:
320,192,86785,1,0,0:0:0:0:
448,192,86785,1,0,0:0:0:0:
64,192,86860,1,0,0:0:0:0:
192,192,86860,1,0,0:0:0:0:
448,192,86935,1,0,0:0:0:0:
320,192,86935,1,0,0:0:0:0:
192,192,87010,1,0,0:0:0:0:
64,192,87010,1,0,0:0:0:0:
320,192,87085,128,0,87135:0:0:0:0:
448,192,87085,128,0,87160:0:0:0:0:
320,192,87235,128,0,87285:0:0:0:0:
448,192,87235,128,0,87310:0:0:0:0:
192,192,87385,128,0,87535:0:0:0:0:
64,192,87385,128,0,87610:0:0:0:0:
320,192,87385,128,0,87460:0:0:0:0:
448,192,87535,128,0,87685:0:0:0:0:
320,192,87685,128,0,87835:0:0:0:0:
64,192,87685,1,0,0:0:0:0:
192,192,87685,128,0,87760:0:0:0:0:
448,192,87835,128,0,87985:0:0:0:0:
192,192,87835,128,0,87910:0:0:0:0:
64,192,87985,128,0,88135:0:0:0:0:
192,192,87985,128,0,88060:0:0:0:0:
320,192,88135,128,0,88285:0:0:0:0:
192,192,88135,128,0,88210:0:0:0:0:
448,192,88285,128,0,88435:0:0:0:0:
192,192,88285,128,0,88360:0:0:0:0:
64,192,88285,1,0,0:0:0:0:
320,192,88435,128,0,88585:0:0:0:0:
192,192,88435,128,0,88510:0:0:0:0:
64,192,88585,128,0,88735:0:0:0:0:
448,192,88585,128,0,88660:0:0:0:0:
192,192,88735,128,0,88885:0:0:0:0:
448,192,88735,128,0,88810:0:0:0:0:
320,192,88885,128,0,89035:0:0:0:0:
448,192,88885,128,0,88960:0:0:0:0:
64,192,88885,1,0,0:0:0:0:
192,192,89035,128,0,89185:0:0:0:0:
448,192,89035,128,0,89110:0:0:0:0:
64,192,89185,128,0,89222:0:0:0:0:
320,192,89335,1,0,0:0:0:0:
192,192,89335,1,0,0:0:0:0:
448,192,89410,128,0,89447:0:0:0:0:
320,192,89485,1,0,0:0:0:0:
192,192,89485,1,0,0:0:0:0:
64,192,89485,1,0,0:0:0:0:
192,192,89635,128,0,89672:0:0:0:0:
192,192,89785,128,0,89860:0:0:0:0:
448,192,89785,128,0,90010:0:0:0:0:
320,192,89785,128,0,89935:0:0:0:0:
64,192,89935,128,0,90085:0:0:0:0:
192,192,90085,128,0,90235:0:0:0:0:
448,192,90085,1,0,0:0:0:0:
320,192,90085,128,0,90160:0:0:0:0:
448,192,90235,128,0,90385:0:0:0:0:
320,192,90235,128,0,90310:0:0:0:0:
64,192,90385,128,0,90535:0:0:0:0:
320,192,90385,128,0,90460:0:0:0:0:
192,192,90535,128,0,90685:0:0:0:0:
320,192,90535,128,0,90610:0:0:0:0:
448,192,90685,128,0,90835:0:0:0:0:
320,192,90685,128,0,90760:0:0:0:0:
64,192,90685,1,0,0:0:0:0:
192,192,90835,128,0,90985:0:0:0:0:
320,192,90835,128,0,90910:0:0:0:0:
448,192,90985,128,0,91135:0:0:0:0:
64,192,90985,128,0,91060:0:0:0:0:
320,192,91135,128,0,91210:0:0:0:0:
64,192,91135,128,0,91210:0:0:0:0:
448,192,91210,1,0,0:0:0:0:
192,192,91285,128,0,91360:0:0:0:0:
320,192,91285,1,0,0:0:0:0:
64,192,91285,128,0,91360:0:0:0:0:
448,192,91435,128,0,91585:0:0:0:0:
64,192,91435,128,0,91510:0:0:0:0:
320,192,91510,1,0,0:0:0:0:
192,192,91585,128,0,91622:0:0:0:0:
448,192,91735,1,0,0:0:0:0:
320,192,91735,1,0,0:0:0:0:
64,192,91810,128,0,91847:0:0:0:0:
448,192,91885,1,0,0:0:0:0:
320,192,91885,1,0,0:0:0:0:
192,192,91885,1,0,0:0:0:0:
320,192,92035,128,0,92072:0:0:0:0:
192,192,92185,128,0,92335:0:0:0:0:
64,192,92185,128,0,92410:0:0:0:0:
448,192,92185,128,0,92260:0:0:0:0:
320,192,92335,128,0,92485:0:0:0:0:
64,192,92485,1,0,0:0:0:0:
192,192,92485,128,0,92560:0:0:0:0:
448,192,92485,128,0,92635:0:0:0:0:
320,192,92635,128,0,92785:0:0:0:0:
192,192,92635,128,0,92710:0:0:0:0:
64,192,92785,128,0,92935:0:0:0:0:
192,192,92785,128,0,92860:0:0:0:0:
320,192,92935,128,0,93085:0:0:0:0:
192,192,92935,128,0,93010:0:0:0:0:
448,192,93085,128,0,93235:0:0:0:0:
192,192,93085,128,0,93160:0:0:0:0:
64,192,93085,1,0,0:0:0:0:
320,192,93235,128,0,93385:0:0:0:0:
192,192,93235,128,0,93310:0:0:0:0:
64,192,93385,128,0,93535:0:0:0:0:
448,192,93385,128,0,93460:0:0:0:0:
192,192,93535,128,0,93685:0:0:0:0:
448,192,93535,128,0,93610:0:0:0:0:
64,192,93685,128,0,93835:0:0:0:0:
448,192,93685,128,0,93760:0:0:0:0:
320,192,93685,1,0,0:0:0:0:
192,192,93835,128,0,93985:0:0:0:0:
448,192,93835,128,0,93910:0:0:0:0:
320,192,93910,1,0,0:0:0:0:
64,192,93985,128,0,94022:0:0:0:0:
320,192,94135,1,0,0:0:0:0:
192,192,94135,1,0,0:0:0:0:
448,192,94210,128,0,94247:0:0:0:0:
320,192,94285,1,0,0:0:0:0:
192,192,94285,1,0,0:0:0:0:
64,192,94285,1,0,0:0:0:0:
192,192,94435,128,0,94472:0:0:0:0:
448,192,94585,128,0,94735:0:0:0:0:
192,192,94585,128,0,94660:0:0:0:0:
320,192,94585,128,0,94810:0:0:0:0:
64,192,94735,128,0,94885:0:0:0:0:
448,192,94885,128,0,95035:0:0:0:0:
320,192,94885,128,0,94960:0:0:0:0:
192,192,94885,1,0,0:0:0:0:
64,192,95035,128,0,95185:0:0:0:0:
320,192,95035,128,0,95110:0:0:0:0:
448,192,95185,128,0,95335:0:0:0:0:
320,192,95185,128,0,95260:0:0:0:0:
192,192,95335,128,0,95485:0:0:0:0:
320,192,95335,128,0,95410:0:0:0:0:
64,192,95485,128,0,95635:0:0:0:0:
448,192,95485,1,0,0:0:0:0:
320,192,95485,128,0,95560:0:0:0:0:
192,192,95635,128,0,95785:0:0:0:0:
320,192,95635,128,0,95710:0:0:0:0:
448,192,95785,128,0,95935:0:0:0:0:
64,192,95785,128,0,95860:0:0:0:0:
320,192,95935,128,0,96010:0:0:0:0:
64,192,95935,128,0,96010:0:0:0:0:
448,192,96010,1,0,0:0:0:0:
192,192,96085,128,0,96160:0:0:0:0:
320,192,96085,1,0,0:0:0:0:
64,192,96085,128,0,96160:0:0:0:0:
320,192,96235,1,0,0:0:0:0:
64,192,96235,128,0,96310:0:0:0:0:
192,192,96310,1,0,0:0:0:0:
448,192,96310,1,0,0:0:0:0:
320,192,96385,128,0,96422:0:0:0:0:
448,192,96535,1,0,0:0:0:0:
64,192,96535,1,0,0:0:0:0:
192,192,96610,128,0,96647:0:0:0:0:
448,192,96685,1,0,0:0:0:0:
320,192,96685,1,0,0:0:0:0:
64,192,96685,1,0,0:0:0:0:
448,192,96835,128,0,96872:0:0:0:0:
448,192,96985,1,0,0:0:0:0:
64,192,96985,128,0,97060:0:0:0:0:
192,192,97135,128,0,97210:0:0:0:0:
448,192,97285,1,0,0:0:0:0:
320,192,97285,128,0,97360:0:0:0:0:
64,192,97285,1,0,0:0:0:0:
64,192,97435,128,0,97510:0:0:0:0:
448,192,97585,128,0,97660:0:0:0:0:
320,192,97735,1,0,0:0:0:0:
192,192,97735,128,0,97810:0:0:0:0:
448,192,97885,1,0,0:0:0:0:
320,192,97885,1,0,0:0:0:0:
64,192,97885,128,0,97960:0:0:0:0:
448,192,97960,1,0,0:0:0:0:
320,192,97960,1,0,0:0:0:0:
192,192,98035,128,0,98110:0:0:0:0:
64,192,98110,1,0,0:0:0:0:
448,192,98185,128,0,98260:0:0:0:0:
320,192,98185,1,0,0:0:0:0:
320,192,98335,128,0,98410:0:0:0:0:
448,192,98485,128,0,98560:0:0:0:0:
192,192,98485,1,0,0:0:0:0:
64,192,98485,1,0,0:0:0:0:
192,192,98635,1,0,0:0:0:0:
448,192,98710,1,0,0:0:0:0:
192,192,98710,1,0,0:0:0:0:
64,192,98710,1,0,0:0:0:0:
320,192,98785,128,0,98860:0:0:0:0:
448,192,98935,128,0,99010:0:0:0:0:
64,192,98935,1,0,0:0:0:0:
448,192,99085,128,0,99160:0:0:0:0:
64,192,99085,1,0,0:0:0:0:
192,192,99085,1,0,0:0:0:0:
192,192,99160,1,0,0:0:0:0:
64,192,99160,1,0,0:0:0:0:
320,192,99235,128,0,99310:0:0:0:0:
448,192,99310,1,0,0:0:0:0:
192,192,99385,1,0,0:0:0:0:
64,192,99385,128,0,99460:0:0:0:0:
192,192,99535,128,0,99610:0:0:0:0:
448,192,99685,1,0,0:0:0:0:
320,192,99685,128,0,99760:0:0:0:0:
64,192,99685,1,0,0:0:0:0:
64,192,99835,128,0,99910:0:0:0:0:
448,192,99985,128,0,100060:0:0:0:0:
320,192,100135,1,0,0:0:0:0:
192,192,100135,128,0,100210:0:0:0:0:
448,192,100285,1,0,0:0:0:0:
320,192,100285,1,0,0:0:0:0:
64,192,100285,128,0,100360:0:0:0:0:
448,192,100360,1,0,0:0:0:0:
320,192,100360,1,0,0:0:0:0:
192,192,100435,128,0,100510:0:0:0:0:
64,192,100510,1,0,0:0:0:0:
320,192,100585,128,0,100660:0:0:0:0:
448,192,100585,1,0,0:0:0:0:
448,192,100735,128,0,100810:0:0:0:0:
320,192,100735,1,0,0:0:0:0:
64,192,100810,1,0,0:0:0:0:
448,192,100885,128,0,100960:0:0:0:0:
64,192,100885,1,0,0:0:0:0:
192,192,100885,1,0,0:0:0:0:
192,192,101035,1,0,0:0:0:0:
448,192,101110,1,0,0:0:0:0:
192,192,101110,1,0,0:0:0:0:
64,192,101110,1,0,0:0:0:0:
320,192,101185,128,0,101260:0:0:0:0:
64,192,101335,128,0,101410:0:0:0:0:
448,192,101335,1,0,0:0:0:0:
448,192,101485,128,0,101560:0:0:0:0:
192,192,101485,1,0,0:0:0:0:
64,192,101485,1,0,0:0:0:0:
192,192,101560,1,0,0:0:0:0:
64,192,101560,1,0,0:0:0:0:
320,192,101635,128,0,101710:0:0:0:0:
192,192,101710,1,0,0:0:0:0:
448,192,101785,1,0,0:0:0:0:
64,192,101785,128,0,101860:0:0:0:0:
192,192,101935,128,0,102010:0:0:0:0:
448,192,102085,1,0,0:0:0:0:
320,192,102085,128,0,102160:0:0:0:0:
64,192,102085,1,0,0:0:0:0:
192,192,102235,128,0,102310:0:0:0:0:
448,192,102385,128,0,102460:0:0:0:0:
320,192,102535,1,0,0:0:0:0:
64,192,102535,128,0,102610:0:0:0:0:
448,192,102685,1,0,0:0:0:0:
320,192,102685,1,0,0:0:0:0:
64,192,102685,128,0,102760:0:0:0:0:
448,192,102760,1,0,0:0:0:0:
320,192,102760,1,0,0:0:0:0:
192,192,102835,128,0,102910:0:0:0:0:
64,192,102910,1,0,0:0:0:0:
448,192,102985,128,0,103060:0:0:0:0:
320,192,102985,1,0,0:0:0:0:
64,192,103135,128,0,103210:0:0:0:0:
448,192,103285,1,0,0:0:0:0:
192,192,103285,128,0,103360:0:0:0:0:
320,192,103285,1,0,0:0:0:0:
448,192,103435,1,0,0:0:0:0:
320,192,103510,1,0,0:0:0:0:
192,192,103510,1,0,0:0:0:0:
448,192,103510,1,0,0:0:0:0:
64,192,103585,128,0,103660:0:0:0:0:
192,192,103735,128,0,103810:0:0:0:0:
320,192,103735,1,0,0:0:0:0:
448,192,103885,1,0,0:0:0:0:
64,192,103885,128,0,103960:0:0:0:0:
320,192,103885,1,0,0:0:0:0:
320,192,103960,1,0,0:0:0:0:
448,192,103960,1,0,0:0:0:0:
192,192,104035,128,0,104110:0:0:0:0:
448,192,104110,1,0,0:0:0:0:
192,192,104185,1,0,0:0:0:0:
64,192,104185,1,0,0:0:0:0:
448,192,104260,1,0,0:0:0:0:
192,192,104335,1,0,0:0:0:0:
320,192,104410,1,0,0:0:0:0:
448,192,104485,1,0,0:0:0:0:
192,192,104485,1,0,0:0:0:0:
64,192,104485,1,0,0:0:0:0:
320,192,104560,1,0,0:0:0:0:
64,192,104635,1,0,0:0:0:0:
320,192,104710,1,0,0:0:0:0:
64,192,104785,1,0,0:0:0:0:
448,192,104785,1,0,0:0:0:0:
192,192,104860,1,0,0:0:0:0:
448,192,104935,1,0,0:0:0:0:
320,192,105010,1,0,0:0:0:0:
64,192,105085,1,0,0:0:0:0:
192,192,105085,1,0,0:0:0:0:
448,192,105085,1,0,0:0:0:0:
320,192,105160,1,0,0:0:0:0:
192,192,105235,1,0,0:0:0:0:
64,192,105235,1,0,0:0:0:0:
448,192,105310,1,0,0:0:0:0:
320,192,105310,1,0,0:0:0:0:
192,192,105385,1,0,0:0:0:0:
64,192,105385,1,0,0:0:0:0:
448,192,105460,1,0,0:0:0:0:
192,192,105535,1,0,0:0:0:0:
320,192,105535,1,0,0:0:0:0:
64,192,105535,1,0,0:0:0:0:
448,192,105610,1,0,0:0:0:0:
64,192,105685,1,0,0:0:0:0:
192,192,105685,1,0,0:0:0:0:
320,192,105760,1,0,0:0:0:0:
64,192,105835,1,0,0:0:0:0:
448,192,105835,1,0,0:0:0:0:
192,192,105835,1,0,0:0:0:0:
320,192,105910,1,0,0:0:0:0:
448,192,105985,1,0,0:0:0:0:
64,192,105985,128,0,106085:0:0:0:0:
192,192,106035,128,0,106135:0:0:0:0:
320,192,106085,128,0,106185:0:0:0:0:
448,192,106135,128,0,106360:0:0:0:0:
64,192,106285,1,0,0:0:0:0:
192,192,106285,1,0,0:0:0:0:
320,192,106335,128,0,106435:0:0:0:0:
192,192,106385,128,0,106510:0:0:0:0:
64,192,106435,128,0,106585:0:0:0:0:
448,192,106435,128,0,106510:0:0:0:0:
320,192,106585,128,0,106660:0:0:0:0:
448,192,106585,128,0,106735:0:0:0:0:
