osu file format v14

[General]
AudioFilename: audio.mp3
AudioLeadIn: 0
PreviewTime: 122955
Countdown: 0
SampleSet: Normal
StackLeniency: 0.7
Mode: 1
LetterboxInBreaks: 0
WidescreenStoryboard: 0

[Editor]
Bookmarks: 23907,39145,46764,62002,77240,92478,107717,115336,119145,122955,139740,142598,145812,147478,149383,149978,150574,151050
DistanceSpacing: 1.4
BeatDivisor: 4
GridSize: 32
TimelineZoom: 2.1

[Metadata]
Title:Weeabophone
TitleUnicode:Weeabophone
Artist:BEEEEEES
ArtistUnicode:BEEEEEES
Creator:Sodawea
Version:rip soundclown
Source:
Tags:caravan palace beatophone mashup soundclown
BeatmapID:1062059
BeatmapSetID:498950

[Difficulty]
HPDrainRate:6
CircleSize:7
OverallDifficulty:6
ApproachRate:5
SliderMultiplier:1.6
SliderTickRate:1

[Events]
//Background and Video events
0,0,"beatophone-anime BW.jpg",0,0
//Break Periods
//Storyboard Layer 0 (Background)
//Storyboard Layer 1 (Fail)
//Storyboard Layer 2 (Pass)
//Storyboard Layer 3 (Foreground)
//Storyboard Sound Samples

[TimingPoints]
1050.40384076845,476.190476190476,4,1,0,70,1,0
142598,-100,4,1,0,50,0,0
145812,-100,4,1,0,20,0,0
147478,-100,4,1,0,15,0,0
149383,-100,4,1,0,5,0,0

[HitObjects]
256,192,1050,5,2,0:0:0:0:
256,192,1288,1,2,0:0:0:0:
256,192,1526,1,0,0:0:0:0:
256,192,1764,1,2,0:0:0:0:
256,192,2002,1,2,0:0:0:0:
256,192,2240,1,2,0:0:0:0:
256,192,2478,1,0,0:0:0:0:
256,192,2717,1,0,0:0:0:0:
256,192,2955,1,2,0:0:0:0:
256,192,3193,1,2,0:0:0:0:
256,192,3431,1,0,0:0:0:0:
256,192,3669,1,2,0:0:0:0:
256,192,3907,1,2,0:0:0:0:
256,192,4145,1,2,0:0:0:0:
256,192,4383,1,0,0:0:0:0:
256,192,4621,1,0,0:0:0:0:
256,192,4859,1,2,0:0:0:0:
256,192,5098,1,2,0:0:0:0:
256,192,5336,1,0,0:0:0:0:
256,192,5574,1,2,0:0:0:0:
256,192,5812,1,2,0:0:0:0:
256,192,6050,1,2,0:0:0:0:
256,192,6288,1,0,0:0:0:0:
256,192,6526,1,0,0:0:0:0:
256,192,6764,1,2,0:0:0:0:
256,192,7240,1,0,0:0:0:0:
256,192,7717,1,0,0:0:0:0:
256,192,8193,1,2,0:0:0:0:
256,192,8431,1,2,0:0:0:0:
256,192,8550,1,2,0:0:0:0:
256,192,8669,1,0,0:0:0:0:
256,192,8788,1,0,0:0:0:0:
256,192,8907,1,0,0:0:0:0:
256,192,9026,1,0,0:0:0:0:
256,192,9145,1,2,0:0:0:0:
256,192,9383,1,2,0:0:0:0:
256,192,9621,1,0,0:0:0:0:
256,192,9859,1,0,0:0:0:0:
256,192,10098,1,2,0:0:0:0:
256,192,10336,1,2,0:0:0:0:
256,192,10455,1,2,0:0:0:0:
256,192,10812,1,0,0:0:0:0:
256,192,10931,1,0,0:0:0:0:
256,192,11050,1,0,0:0:0:0:
256,192,11288,1,2,0:0:0:0:
256,192,11407,1,2,0:0:0:0:
256,192,11526,1,0,0:0:0:0:
256,192,11645,1,0,0:0:0:0:
256,192,11764,1,0,0:0:0:0:
256,192,11883,1,2,0:0:0:0:
256,192,12121,1,2,0:0:0:0:
256,192,12359,1,0,0:0:0:0:
256,192,12478,1,0,0:0:0:0:
256,192,12717,1,0,0:0:0:0:
256,192,12836,1,2,0:0:0:0:
256,192,13312,1,2,0:0:0:0:
256,192,13431,1,0,0:0:0:0:
256,192,13550,1,0,0:0:0:0:
256,192,13669,1,0,0:0:0:0:
256,192,13788,1,2,0:0:0:0:
256,192,14026,1,2,0:0:0:0:
256,192,14145,1,2,0:0:0:0:
256,192,14264,1,0,0:0:0:0:
256,192,14383,1,0,0:0:0:0:
256,192,14502,1,2,0:0:0:0:
256,192,14859,1,2,0:0:0:0:
256,192,15098,1,2,0:0:0:0:
256,192,15217,1,0,0:0:0:0:
256,192,15336,1,2,0:0:0:0:
256,192,15574,1,2,0:0:0:0:
256,192,15693,1,0,0:0:0:0:
256,192,16050,1,2,0:0:0:0:
256,192,16288,1,2,0:0:0:0:
256,192,16407,1,0,0:0:0:0:
256,192,16526,1,2,0:0:0:0:
256,192,16645,1,0,0:0:0:0:
256,192,16764,1,0,0:0:0:0:
256,192,17002,1,2,0:0:0:0:
256,192,17240,1,2,0:0:0:0:
256,192,17359,1,2,0:0:0:0:
256,192,17478,1,0,0:0:0:0:
256,192,17955,1,2,0:0:0:0:
256,192,18074,1,2,0:0:0:0:
256,192,18193,1,0,0:0:0:0:
256,192,18312,1,0,0:0:0:0:
256,192,18431,1,0,0:0:0:0:
256,192,18550,1,2,0:0:0:0:
256,192,18669,1,0,0:0:0:0:
256,192,18788,1,0,0:0:0:0:
256,192,18907,1,2,0:0:0:0:
256,192,19026,1,0,0:0:0:0:
256,192,19145,1,0,0:0:0:0:
256,192,19264,1,2,0:0:0:0:
256,192,19383,1,2,0:0:0:0:
256,192,19502,1,2,0:0:0:0:
256,192,19621,1,0,0:0:0:0:
256,192,20098,1,2,0:0:0:0:
256,192,20217,1,2,0:0:0:0:
256,192,20336,1,2,0:0:0:0:
256,192,20455,1,0,0:0:0:0:
256,192,20574,1,2,0:0:0:0:
256,192,20693,1,2,0:0:0:0:
256,192,20812,1,0,0:0:0:0:
256,192,21050,1,2,0:0:0:0:
256,192,21169,1,2,0:0:0:0:
256,192,21288,1,2,0:0:0:0:
256,192,21407,1,2,0:0:0:0:
256,192,21645,1,0,0:0:0:0:
256,192,22002,1,0,0:0:0:0:
256,192,22240,1,0,0:0:0:0:
256,192,22359,1,2,0:0:0:0:
256,192,22478,1,0,0:0:0:0:
256,192,22717,1,2,0:0:0:0:
256,192,22836,1,2,0:0:0:0:
256,192,22955,1,2,0:0:0:0:
256,192,23074,1,0,0:0:0:0:
256,192,23193,1,0,0:0:0:0:
256,192,23312,1,2,0:0:0:0:
256,192,23907,1,2,0:0:0:0:
256,192,24145,1,2,0:0:0:0:
256,192,24383,1,0,0:0:0:0:
256,192,24621,1,0,0:0:0:0:
256,192,24740,1,2,0:0:0:0:
256,192,24859,1,0,0:0:0:0:
256,192,25098,1,0,0:0:0:0:
256,192,25336,1,2,0:0:0:0:
256,192,25574,1,0,0:0:0:0:
256,192,25812,1,2,0:0:0:0:
256,192,26050,1,2,0:0:0:0:
256,192,26169,1,0,0:0:0:0:
256,192,26288,1,0,0:0:0:0:
256,192,26526,1,0,0:0:0:0:
256,192,26764,1,0,0:0:0:0:
256,192,27002,1,0,0:0:0:0:
256,192,27121,1,2,0:0:0:0:
256,192,27359,1,0,0:0:0:0:
256,192,27478,1,0,0:0:0:0:
256,192,27717,1,0,0:0:0:0:
256,192,27955,1,0,0:0:0:0:
256,192,28193,1,0,0:0:0:0:
256,192,28431,1,2,0:0:0:0:
256,192,28669,1,0,0:0:0:0:
256,192,28907,1,0,0:0:0:0:
256,192,29145,1,0,0:0:0:0:
256,192,29264,1,0,0:0:0:0:
256,192,29383,1,0,0:0:0:0:
256,192,29621,1,0,0:0:0:0:
256,192,29859,1,2,0:0:0:0:
256,192,29978,1,0,0:0:0:0:
256,192,30098,1,2,0:0:0:0:
256,192,30217,1,2,0:0:0:0:
256,192,30574,1,2,0:0:0:0:
256,192,30812,1,0,0:0:0:0:
256,192,30931,1,0,0:0:0:0:
256,192,31050,1,2,0:0:0:0:
256,192,31526,1,2,0:0:0:0:
256,192,31764,1,2,0:0:0:0:
256,192,31883,1,0,0:0:0:0:
256,192,32002,1,2,0:0:0:0:
256,192,32240,1,0,0:0:0:0:
256,192,32359,1,2,0:0:0:0:
256,192,32478,1,0,0:0:0:0:
256,192,32598,1,2,0:0:0:0:
256,192,32717,1,0,0:0:0:0:
256,192,32955,1,2,0:0:0:0:
256,192,33193,1,2,0:0:0:0:
256,192,33431,1,0,0:0:0:0:
256,192,33669,1,2,0:0:0:0:
256,192,33907,1,0,0:0:0:0:
256,192,34145,1,0,0:0:0:0:
256,192,34264,1,0,0:0:0:0:
256,192,34621,1,0,0:0:0:0:
256,192,35098,1,0,0:0:0:0:
256,192,35217,1,0,0:0:0:0:
256,192,35336,1,2,0:0:0:0:
256,192,35574,1,2,0:0:0:0:
256,192,35693,1,0,0:0:0:0:
256,192,36050,1,0,0:0:0:0:
256,192,36169,1,2,0:0:0:0:
256,192,36526,1,2,0:0:0:0:
256,192,36764,1,0,0:0:0:0:
256,192,37002,1,0,0:0:0:0:
256,192,37240,1,2,0:0:0:0:
256,192,37478,1,2,0:0:0:0:
256,192,37598,1,0,0:0:0:0:
256,192,37836,1,0,0:0:0:0:
256,192,38193,1,2,0:0:0:0:
256,192,38431,1,2,0:0:0:0:
256,192,38550,1,0,0:0:0:0:
256,192,38788,1,0,0:0:0:0:
256,192,39145,1,2,0:0:0:0:
256,192,39383,1,2,0:0:0:0:
256,192,39621,1,0,0:0:0:0:
256,192,39859,1,2,0:0:0:0:
256,192,40097,1,2,0:0:0:0:
256,192,40335,1,2,0:0:0:0:
256,192,40573,1,0,0:0:0:0:
256,192,40812,1,0,0:0:0:0:
256,192,41050,1,2,0:0:0:0:
256,192,41288,1,2,0:0:0:0:
256,192,41526,1,0,0:0:0:0:
256,192,41764,1,0,0:0:0:0:
256,192,42002,1,2,0:0:0:0:
256,192,42240,1,2,0:0:0:0:
256,192,42478,1,0,0:0:0:0:
256,192,42716,1,2,0:0:0:0:
256,192,42954,1,2,0:0:0:0:
256,192,43193,1,2,0:0:0:0:
256,192,43431,1,0,0:0:0:0:
256,192,43669,1,0,0:0:0:0:
256,192,43907,1,2,0:0:0:0:
256,192,44145,1,2,0:0:0:0:
256,192,44383,1,0,0:0:0:0:
256,192,44621,1,0,0:0:0:0:
256,192,44859,1,2,0:0:0:0:
256,192,45098,1,2,0:0:0:0:
256,192,45336,1,0,0:0:0:0:
256,192,45574,1,2,0:0:0:0:
256,192,45812,1,2,0:0:0:0:
256,192,46764,1,0,0:0:0:0:
256,192,47002,1,2,0:0:0:0:
256,192,47240,1,2,0:0:0:0:
256,192,47597,1,0,0:0:0:0:
256,192,47717,1,2,0:0:0:0:
256,192,47836,1,2,0:0:0:0:
256,192,47955,1,0,0:0:0:0:
256,192,48074,1,2,0:0:0:0:
256,192,48193,1,2,0:0:0:0:
256,192,48431,1,2,0:0:0:0:
256,192,48550,1,2,0:0:0:0:
256,192,48669,1,0,0:0:0:0:
256,192,48907,1,2,0:0:0:0:
256,192,49145,1,0,0:0:0:0:
256,192,49383,1,2,0:0:0:0:
256,192,49621,1,2,0:0:0:0:
256,192,49859,1,0,0:0:0:0:
256,192,50098,1,0,0:0:0:0:
256,192,50336,1,2,0:0:0:0:
256,192,50455,1,2,0:0:0:0:
256,192,50574,1,0,0:0:0:0:
256,192,50812,1,2,0:0:0:0:
256,192,51050,1,2,0:0:0:0:
256,192,51407,1,0,0:0:0:0:
256,192,51526,1,2,0:0:0:0:
256,192,51645,1,2,0:0:0:0:
256,192,51764,1,0,0:0:0:0:
256,192,51883,1,2,0:0:0:0:
256,192,52121,1,0,0:0:0:0:
256,192,52240,1,2,0:0:0:0:
256,192,52359,1,2,0:0:0:0:
256,192,52478,1,2,0:0:0:0:
256,192,52598,1,2,0:0:0:0:
256,192,52717,1,2,0:0:0:0:
256,192,52836,1,2,0:0:0:0:
256,192,52955,1,2,0:0:0:0:
256,192,53074,1,2,0:0:0:0:
256,192,53193,1,0,0:0:0:0:
256,192,53431,1,2,0:0:0:0:
256,192,53669,1,0,0:0:0:0:
256,192,53907,1,0,0:0:0:0:
256,192,54145,1,0,0:0:0:0:
256,192,54264,1,0,0:0:0:0:
256,192,54383,1,2,0:0:0:0:
256,192,54621,1,0,0:0:0:0:
256,192,54859,1,2,0:0:0:0:
256,192,55098,1,0,0:0:0:0:
256,192,55336,1,2,0:0:0:0:
256,192,55574,1,0,0:0:0:0:
256,192,55693,1,0,0:0:0:0:
256,192,55931,1,0,0:0:0:0:
256,192,56050,1,0,0:0:0:0:
256,192,56169,1,0,0:0:0:0:
256,192,56288,1,2,0:0:0:0:
256,192,56526,1,0,0:0:0:0:
256,192,56764,1,2,0:0:0:0:
256,192,57002,1,0,0:0:0:0:
256,192,57240,1,2,0:0:0:0:
256,192,57478,1,0,0:0:0:0:
256,192,57598,1,0,0:0:0:0:
256,192,57836,1,0,0:0:0:0:
256,192,57955,1,0,0:0:0:0:
256,192,58074,1,0,0:0:0:0:
256,192,58193,1,2,0:0:0:0:
256,192,58431,1,2,0:0:0:0:
256,192,58669,1,0,0:0:0:0:
256,192,58907,1,0,0:0:0:0:
256,192,59145,1,2,0:0:0:0:
256,192,59383,1,2,0:0:0:0:
256,192,59621,1,0,0:0:0:0:
256,192,59859,1,0,0:0:0:0:
256,192,60098,1,2,0:0:0:0:
256,192,60336,1,0,0:0:0:0:
256,192,60574,1,2,0:0:0:0:
256,192,60812,1,0,0:0:0:0:
256,192,61050,1,2,0:0:0:0:
256,192,61288,1,2,0:0:0:0:
256,192,61526,1,2,0:0:0:0:
256,192,61645,1,2,0:0:0:0:
256,192,61764,1,2,0:0:0:0:
256,192,62002,1,4,0:0:0:0:
256,192,62240,1,2,0:0:0:0:
256,192,62478,1,0,0:0:0:0:
256,192,62717,1,2,0:0:0:0:
256,192,62955,1,6,0:0:0:0:
256,192,63193,1,2,0:0:0:0:
256,192,63431,1,2,0:0:0:0:
256,192,63550,1,2,0:0:0:0:
256,192,63669,1,2,0:0:0:0:
256,192,63907,1,4,0:0:0:0:
256,192,64145,1,2,0:0:0:0:
256,192,64383,1,0,0:0:0:0:
256,192,64621,1,2,0:0:0:0:
256,192,64859,1,6,0:0:0:0:
256,192,65098,1,0,0:0:0:0:
256,192,65336,1,2,0:0:0:0:
256,192,65455,1,2,0:0:0:0:
256,192,65574,1,0,0:0:0:0:
256,192,65812,1,4,0:0:0:0:
256,192,66050,1,2,0:0:0:0:
256,192,66288,1,0,0:0:0:0:
256,192,66526,1,2,0:0:0:0:
256,192,66764,1,6,0:0:0:0:
256,192,67002,1,2,0:0:0:0:
256,192,67240,1,0,0:0:0:0:
256,192,67359,1,0,0:0:0:0:
256,192,67478,1,2,0:0:0:0:
256,192,67717,1,4,0:0:0:0:
256,192,67955,1,2,0:0:0:0:
256,192,68193,1,2,0:0:0:0:
256,192,68431,1,2,0:0:0:0:
256,192,68669,1,0,0:0:0:0:
256,192,68907,1,6,0:0:0:0:
256,192,69145,1,6,0:0:0:0:
256,192,69383,1,0,0:0:0:0:
256,192,69621,1,4,0:0:0:0:
256,192,69859,1,2,0:0:0:0:
256,192,70098,1,0,0:0:0:0:
256,192,70336,1,2,0:0:0:0:
256,192,70574,1,6,0:0:0:0:
256,192,70812,1,2,0:0:0:0:
256,192,71050,1,0,0:0:0:0:
256,192,71169,1,2,0:0:0:0:
256,192,71288,1,0,0:0:0:0:
256,192,71526,1,4,0:0:0:0:
256,192,71764,1,2,0:0:0:0:
256,192,72002,1,0,0:0:0:0:
256,192,72240,1,2,0:0:0:0:
256,192,72478,1,6,0:0:0:0:
256,192,72717,1,2,0:0:0:0:
256,192,72955,1,2,0:0:0:0:
256,192,73074,1,2,0:0:0:0:
256,192,73193,1,2,0:0:0:0:
256,192,73431,1,4,0:0:0:0:
256,192,73669,1,2,0:0:0:0:
256,192,73907,1,2,0:0:0:0:
256,192,74145,1,0,0:0:0:0:
256,192,74383,1,6,0:0:0:0:
256,192,74621,1,0,0:0:0:0:
256,192,74859,1,0,0:0:0:0:
256,192,74978,1,0,0:0:0:0:
256,192,75098,1,2,0:0:0:0:
256,192,75336,1,4,0:0:0:0:
256,192,76526,1,6,0:0:0:0:
256,192,76764,1,6,0:0:0:0:
256,192,80574,1,4,0:0:0:0:
256,192,80812,1,6,0:0:0:0:
224,192,82478,1,4,0:0:0:0:
224,192,82717,1,6,0:0:0:0:
256,192,84145,1,6,0:0:0:0:
256,192,84383,1,4,0:0:0:0:
256,192,84621,1,6,0:0:0:0:
256,192,88193,1,4,0:0:0:0:
256,192,88431,1,6,0:0:0:0:
256,192,90098,1,4,0:0:0:0:
256,192,90336,1,6,0:0:0:0:
256,192,92478,1,2,0:0:0:0:
256,192,92598,1,2,0:0:0:0:
256,192,92717,1,0,0:0:0:0:
256,192,92955,1,2,0:0:0:0:
256,192,93074,1,2,0:0:0:0:
256,192,93193,1,0,0:0:0:0:
256,192,93431,1,0,0:0:0:0:
256,192,93550,1,2,0:0:0:0:
256,192,93788,1,2,0:0:0:0:
256,192,93907,1,0,0:0:0:0:
256,192,94026,1,0,0:0:0:0:
256,192,94145,1,0,0:0:0:0:
256,192,94264,1,0,0:0:0:0:
256,192,94383,1,0,0:0:0:0:
256,192,94502,1,2,0:0:0:0:
256,192,94621,1,2,0:0:0:0:
256,192,94740,1,0,0:0:0:0:
256,192,94859,1,0,0:0:0:0:
256,192,95098,1,2,0:0:0:0:
256,192,95217,1,0,0:0:0:0:
256,192,95336,1,0,0:0:0:0:
256,192,95574,1,2,0:0:0:0:
256,192,95812,1,2,0:0:0:0:
256,192,96050,1,0,0:0:0:0:
256,192,96288,1,0,0:0:0:0:
256,192,96526,1,2,0:0:0:0:
256,192,96764,1,2,0:0:0:0:
256,192,97002,1,0,0:0:0:0:
256,192,97240,1,0,0:0:0:0:
256,192,97478,1,2,0:0:0:0:
256,192,97717,1,2,0:0:0:0:
256,192,97955,1,0,0:0:0:0:
256,192,98193,1,0,0:0:0:0:
256,192,98431,1,2,0:0:0:0:
256,192,98550,1,0,0:0:0:0:
256,192,98669,1,2,0:0:0:0:
256,192,98788,1,2,0:0:0:0:
256,192,98907,1,0,0:0:0:0:
256,192,99026,1,0,0:0:0:0:
256,192,99145,1,2,0:0:0:0:
256,192,99264,1,2,0:0:0:0:
256,192,99383,1,0,0:0:0:0:
256,192,99502,1,0,0:0:0:0:
256,192,99621,1,2,0:0:0:0:
256,192,100098,1,0,0:0:0:0:
256,192,100276,1,0,0:0:0:0:
256,192,100336,1,2,0:0:0:0:
256,192,100574,1,2,0:0:0:0:
256,192,100812,1,2,0:0:0:0:
256,192,100931,1,2,0:0:0:0:
256,192,101050,1,0,0:0:0:0:
256,192,101169,1,0,0:0:0:0:
256,192,101288,1,2,0:0:0:0:
256,192,101526,1,0,0:0:0:0:
256,192,102002,1,6,0:0:0:0:
256,192,102478,1,6,0:0:0:0:
256,192,102955,1,6,0:0:0:0:
256,192,103431,1,2,0:0:0:0:
256,192,103907,1,4,0:0:0:0:
256,192,104383,1,6,0:0:0:0:
256,192,104859,1,4,0:0:0:0:
256,192,105336,1,6,0:0:0:0:
32,192,107717,1,0,0:0:0:0:
64,192,108193,1,2,0:0:0:0:
96,192,108669,1,0,0:0:0:0:
128,192,109145,1,0,0:0:0:0:
160,192,109621,1,2,0:0:0:0:
192,192,110098,1,2,0:0:0:0:
224,192,110574,1,0,0:0:0:0:
256,192,111050,1,2,0:0:0:0:
256,192,111288,1,2,0:0:0:0:
256,192,111526,1,0,0:0:0:0:
256,192,111764,1,0,0:0:0:0:
256,192,112002,1,0,0:0:0:0:
256,192,112240,1,0,0:0:0:0:
256,192,112478,1,2,0:0:0:0:
256,192,112716,1,2,0:0:0:0:
256,192,112954,1,0,0:0:0:0:
256,192,113193,1,0,0:0:0:0:
256,192,113431,1,2,0:0:0:0:
256,192,113669,1,2,0:0:0:0:
256,192,113907,1,0,0:0:0:0:
256,192,114145,1,0,0:0:0:0:
256,192,114383,1,2,0:0:0:0:
256,192,114621,1,2,0:0:0:0:
256,192,114859,1,0,0:0:0:0:
256,192,115097,1,0,0:0:0:0:
256,192,115336,1,6,0:0:0:0:
256,192,115574,1,0,0:0:0:0:
256,192,115693,1,0,0:0:0:0:
256,192,115812,1,0,0:0:0:0:
256,192,115931,1,0,0:0:0:0:
256,192,116050,1,0,0:0:0:0:
256,192,116169,1,0,0:0:0:0:
256,192,116288,1,6,0:0:0:0:
256,192,116526,1,0,0:0:0:0:
256,192,116645,1,0,0:0:0:0:
256,192,116764,1,0,0:0:0:0:
256,192,116883,1,0,0:0:0:0:
256,192,117002,1,0,0:0:0:0:
256,192,117121,1,0,0:0:0:0:
256,192,117240,1,6,0:0:0:0:
256,192,117478,1,0,0:0:0:0:
256,192,117597,1,0,0:0:0:0:
256,192,117716,1,0,0:0:0:0:
256,192,117835,1,0,0:0:0:0:
256,192,117954,1,0,0:0:0:0:
256,192,118073,1,0,0:0:0:0:
256,192,118193,1,6,0:0:0:0:
256,192,118431,1,0,0:0:0:0:
256,192,118550,1,0,0:0:0:0:
256,192,118669,1,0,0:0:0:0:
256,192,118788,1,0,0:0:0:0:
256,192,118907,1,0,0:0:0:0:
256,192,119026,1,0,0:0:0:0:
256,192,119145,1,2,0:0:0:0:
256,192,119383,1,2,0:0:0:0:
256,192,119502,1,0,0:0:0:0:
256,192,119621,1,2,0:0:0:0:
256,192,119740,1,2,0:0:0:0:
256,192,120098,1,2,0:0:0:0:
256,192,120217,1,2,0:0:0:0:
256,192,120336,1,2,0:0:0:0:
256,192,120455,1,0,0:0:0:0:
256,192,120574,1,2,0:0:0:0:
256,192,121050,1,2,0:0:0:0:
256,192,121288,1,2,0:0:0:0:
256,192,121467,1,0,0:0:0:0:
256,192,121526,1,0,0:0:0:0:
256,192,122002,1,0,0:0:0:0:
256,192,122121,1,2,0:0:0:0:
256,192,122240,1,0,0:0:0:0:
256,192,122359,1,2,0:0:0:0:
256,192,122478,1,2,0:0:0:0:
256,192,122955,1,0,0:0:0:0:
256,192,123074,1,2,0:0:0:0:
256,192,123312,1,0,0:0:0:0:
256,192,123431,1,0,0:0:0:0:
256,192,123550,1,2,0:0:0:0:
256,192,123788,1,0,0:0:0:0:
256,192,123907,1,2,0:0:0:0:
256,192,124145,1,0,0:0:0:0:
256,192,124264,1,2,0:0:0:0:
256,192,124502,1,2,0:0:0:0:
256,192,124740,1,2,0:0:0:0:
256,192,124859,1,0,0:0:0:0:
256,192,124978,1,0,0:0:0:0:
256,192,125098,1,0,0:0:0:0:
256,192,125217,1,0,0:0:0:0:
256,192,125336,1,0,0:0:0:0:
256,192,125574,1,0,0:0:0:0:
256,192,125693,1,0,0:0:0:0:
256,192,125812,1,2,0:0:0:0:
256,192,126050,1,0,0:0:0:0:
256,192,126169,1,2,0:0:0:0:
256,192,126407,1,2,0:0:0:0:
256,192,126645,1,2,0:0:0:0:
256,192,126883,1,0,0:0:0:0:
256,192,127121,1,0,0:0:0:0:
256,192,127240,1,2,0:0:0:0:
256,192,127359,1,0,0:0:0:0:
256,192,127598,1,0,0:0:0:0:
256,192,127717,1,2,0:0:0:0:
256,192,127836,1,2,0:0:0:0:
256,192,127955,1,2,0:0:0:0:
256,192,128074,1,0,0:0:0:0:
256,192,128193,1,0,0:0:0:0:
256,192,128312,1,2,0:0:0:0:
256,192,128550,1,0,0:0:0:0:
256,192,128788,1,2,0:0:0:0:
256,192,128907,1,0,0:0:0:0:
256,192,129026,1,0,0:0:0:0:
256,192,129145,1,0,0:0:0:0:
256,192,129264,1,2,0:0:0:0:
256,192,129502,1,0,0:0:0:0:
256,192,129621,1,2,0:0:0:0:
256,192,129740,1,2,0:0:0:0:
256,192,129859,1,0,0:0:0:0:
256,192,129978,1,2,0:0:0:0:
256,192,130217,1,2,0:0:0:0:
256,192,130395,1,2,0:0:0:0:
256,192,130574,1,4,0:0:0:0:
256,192,130931,1,0,0:0:0:0:
256,192,131050,1,2,0:0:0:0:
256,192,131169,1,2,0:0:0:0:
256,192,131288,1,0,0:0:0:0:
256,192,131526,1,0,0:0:0:0:
256,192,131764,1,0,0:0:0:0:
256,192,131883,1,2,0:0:0:0:
256,192,132121,1,2,0:0:0:0:
256,192,132359,1,0,0:0:0:0:
256,192,132598,1,2,0:0:0:0:
256,192,132717,1,0,0:0:0:0:
256,192,132836,1,0,0:0:0:0:
256,192,132955,1,2,0:0:0:0:
256,192,133074,1,2,0:0:0:0:
256,192,133193,1,0,0:0:0:0:
256,192,133312,1,2,0:0:0:0:
256,192,133550,1,0,0:0:0:0:
256,192,133669,1,2,0:0:0:0:
256,192,133907,1,2,0:0:0:0:
256,192,134264,1,2,0:0:0:0:
256,192,134383,1,2,0:0:0:0:
256,192,134502,1,2,0:0:0:0:
256,192,134621,1,0,0:0:0:0:
256,192,134740,1,2,0:0:0:0:
256,192,134859,1,0,0:0:0:0:
256,192,134978,1,2,0:0:0:0:
256,192,135217,1,0,0:0:0:0:
256,192,135336,1,2,0:0:0:0:
256,192,135574,1,2,0:0:0:0:
256,192,135693,1,0,0:0:0:0:
256,192,135931,1,2,0:0:0:0:
256,192,136228,1,2,0:0:0:0:
256,192,136467,1,0,0:0:0:0:
256,192,136645,1,0,0:0:0:0:
256,192,136764,1,2,0:0:0:0:
256,192,136883,1,0,0:0:0:0:
256,192,137002,1,0,0:0:0:0:
256,192,137121,1,0,0:0:0:0:
256,192,137240,1,2,0:0:0:0:
256,192,137359,1,2,0:0:0:0:
256,192,137478,1,2,0:0:0:0:
256,192,137598,1,2,0:0:0:0:
256,192,137717,1,0,0:0:0:0:
256,192,137955,1,2,0:0:0:0:
256,192,138193,1,0,0:0:0:0:
256,192,138431,1,2,0:0:0:0:
256,192,138669,1,0,0:0:0:0:
256,192,138907,1,0,0:0:0:0:
256,192,139026,1,0,0:0:0:0:
256,192,139145,1,2,0:0:0:0:
256,192,139383,1,0,0:0:0:0:
256,192,139502,1,2,0:0:0:0:
256,192,139740,1,2,0:0:0:0:
256,192,139978,1,0,0:0:0:0:
256,192,140098,1,2,0:0:0:0:
256,192,140217,1,2,0:0:0:0:
256,192,140336,1,2,0:0:0:0:
256,192,140455,1,0,0:0:0:0:
256,192,140574,1,0,0:0:0:0:
256,192,140812,1,0,0:0:0:0:
256,192,140931,1,2,0:0:0:0:
256,192,141169,1,2,0:0:0:0:
256,192,141288,1,0,0:0:0:0:
256,192,141407,1,0,0:0:0:0:
256,192,141526,1,2,0:0:0:0:
256,192,141764,1,2,0:0:0:0:
256,192,142002,1,0,0:0:0:0:
288,192,142240,1,0,0:0:0:0:
256,192,142598,1,0,0:0:0:0:
256,192,142717,1,2,0:0:0:0:
256,192,142836,1,2,0:0:0:0:
256,192,142955,1,0,0:0:0:0:
256,192,143074,1,2,0:0:0:0:
256,192,143312,1,0,0:0:0:0:
256,192,143431,1,2,0:0:0:0:
256,192,143669,1,2,0:0:0:0:
256,192,143907,1,0,0:0:0:0:
256,192,144026,1,0,0:0:0:0:
256,192,144145,1,2,0:0:0:0:
256,192,144264,1,0,0:0:0:0:
256,192,144383,1,2,0:0:0:0:
256,192,144502,1,0,0:0:0:0:
256,192,144740,1,0,0:0:0:0:
256,192,144859,1,2,0:0:0:0:
256,192,144978,1,2,0:0:0:0:
256,192,145098,1,0,0:0:0:0:
256,192,145217,1,2,0:0:0:0:
256,192,145336,1,0,0:0:0:0:
256,192,145455,1,0,0:0:0:0:
256,192,145574,1,2,0:0:0:0:
256,192,145812,1,2,0:0:0:0:
256,192,146050,1,0,0:0:0:0:
256,192,146288,1,2,0:0:0:0:
256,192,146526,1,0,0:0:0:0:
256,192,146764,1,2,0:0:0:0:
256,192,147002,1,0,0:0:0:0:
256,192,147121,1,2,0:0:0:0:
256,192,147478,1,2,0:0:0:0:
256,192,147717,1,0,0:0:0:0:
256,192,147955,1,0,0:0:0:0:
256,192,148193,1,2,0:0:0:0:
256,192,148312,1,2,0:0:0:0:
256,192,148431,1,2,0:0:0:0:
256,192,148550,1,0,0:0:0:0:
256,192,148669,1,2,0:0:0:0:
256,192,148907,1,2,0:0:0:0:
256,192,149026,1,0,0:0:0:0:
256,192,149383,1,2,0:0:0:0:
256,192,149502,1,2,0:0:0:0:
256,192,149621,1,0,0:0:0:0:
256,192,149978,1,0,0:0:0:0:
256,192,150098,1,2,0:0:0:0:
256,192,150336,1,0,0:0:0:0:
256,192,150455,1,2,0:0:0:0:
256,192,150693,1,2,0:0:0:0:
256,192,150812,1,0,0:0:0:0:
256,192,151050,1,2,0:0:0:0:
256,192,151169,1,2,0:0:0:0:
256,192,151288,1,0,0:0:0:0:
