osu file format v14

[General]
AudioFilename: audio.mp3
AudioLeadIn: 0
PreviewTime: 72040
Countdown: 0
SampleSet: Soft
StackLeniency: 0.7
Mode: 0
LetterboxInBreaks: 0
WidescreenStoryboard: 1

[Editor]
DistanceSpacing: 1
BeatDivisor: 4
GridSize: 4
TimelineZoom: 1

[Metadata]
Title:TONIGHT, TONIGHT, TONIGHT (TV Size)
TitleUnicode:TONIGHT, TONIGHT, TONIGHT (TV Size)
Artist:BEAT CRUSADERS
ArtistUnicode:BEAT CRUSADERS
Creator:Bazz B
Version:Soul Eater
Source:BLEACH
Tags:-Mikan Mikan Bazz_B irohas anime opening MugiwaraSekai oriental synderes bakabaka answer frostwich mocaotic evaotic wenet wenect unranked mapper wajinshu op 4 english rock
BeatmapID:2738157
BeatmapSetID:1321979

[Difficulty]
HPDrainRate:6
CircleSize:4.2
OverallDifficulty:8.8
ApproachRate:9.2
SliderMultiplier:1.6
SliderTickRate:1

[Events]
//Background and Video events
0,0,"b1.png",0,0
Video,0,"Op Video-1.mp4"
//Break Periods
//Storyboard Layer 0 (Background)
//Storyboard Layer 1 (Fail)
//Storyboard Layer 2 (Pass)
//Storyboard Layer 3 (Foreground)
//Storyboard Layer 4 (Overlay)
//Storyboard Sound Samples

[TimingPoints]
652,337.078651685393,4,2,1,40,1,0
652,-200,4,2,1,40,0,0
6046,-100,4,2,1,80,0,0
6383,355.029585798817,4,2,1,80,1,0
6649,300,4,2,1,80,1,0
6724,357.142857142857,4,2,1,80,1,0
6902,320.855614973262,4,2,1,80,1,0
7062,361.44578313253,4,2,1,80,1,0
7423,331.491712707182,4,2,1,80,1,0
7754,324.324324324324,4,2,1,80,1,0
8078,337.078651685393,4,2,1,80,1,0
8752,338.983050847458,4,2,1,80,1,0
11463,337.078651685393,4,2,1,80,1,0
12137,333.333333333333,4,2,1,80,1,0
12803,329.67032967033,4,2,1,80,1,0
13462,346.820809248555,4,2,1,80,1,0
13808,-66.6666666666667,4,2,1,80,0,0
14155,333.333333333333,4,2,1,70,1,0
15821,340.909090909091,4,2,1,70,1,0
15991,-200,4,2,1,70,0,0
16843,340.909090909091,4,2,1,70,1,0
16843,-125,4,2,1,70,0,0
17524,346.820809248555,4,2,1,70,1,0
17524,-125,4,2,1,70,0,0
17697,340.909090909091,4,2,1,70,1,0
17867,348.837209302326,4,2,1,70,1,0
17867,-100,4,2,1,70,0,0
18215,345.821325648415,4,2,1,70,1,0
18215,-125,4,2,1,70,0,0
18560,326.086956521739,4,2,1,70,1,0
18560,-125,4,2,1,70,0,0
18886,320.855614973262,4,2,1,70,1,0
18886,-125,4,2,1,70,0,0
19206,342.857142857143,4,2,1,70,1,0
19377,-100,4,2,2,70,0,0
19548,333.333333333333,4,2,1,70,1,0
19548,-125,4,2,1,70,0,0
19881,346.820809248555,4,2,1,70,1,0
19881,-125,4,2,1,70,0,0
20227,352.941176470588,4,2,1,70,1,0
20227,-125,4,2,1,70,0,0
20579,324.324324324324,4,2,1,70,1,0
20579,-125,4,2,1,70,0,0
20741,-125,4,2,1,70,0,0
20903,342.857142857143,4,2,1,70,1,0
20903,-125,4,2,1,70,0,0
21074,337.078651685393,4,2,1,70,1,0
21411,-125,4,2,1,70,0,0
22253,336.134453781513,4,2,1,70,1,0
22925,333.333333333333,4,2,1,70,1,0
22925,-125,4,2,1,70,0,0
23591,337.078651685393,4,2,1,70,1,0
23591,-125,4,2,1,70,0,0
24939,-111.111111111111,4,2,1,70,0,0
25276,-125,4,2,1,70,0,0
26624,335.195530726257,4,2,1,70,1,0
27629,337.078651685393,4,2,1,75,1,0
27966,348.837209302326,4,2,1,75,1,0
28663,337.078651685393,4,2,1,75,1,0
29000,337.078651685393,4,2,1,75,1,0
33044,324.675324675325,4,2,1,75,1,0
33693,344.827586206897,4,2,1,75,1,0
34037,337.078651685393,4,2,1,75,1,0
35722,337.078651685393,4,2,1,75,1,0
36733,333.333333333333,4,2,1,75,1,0
37233,350.877192982456,4,2,1,75,1,0
37233,-71.4285714285714,4,2,1,75,0,0
37759,333.333333333333,4,2,3,75,1,0
37759,-62.5,4,2,3,75,0,0
37842,-62.5,4,2,1,75,0,0
38259,-71.4285714285714,4,2,1,75,0,0
38800,-71.4285714285714,4,2,1,75,0,0
39008,-71.4285714285714,4,2,1,5,0,0
39092,363.636363636364,4,2,1,75,1,0
39273,324.324324324324,4,2,1,75,1,0
39759,338.983050847458,4,2,2,90,1,1
39759,-71.4285714285714,4,2,2,90,0,1
39843,-71.4285714285714,4,2,1,90,0,1
40097,-100,4,2,1,90,0,1
42470,337.078651685393,4,2,1,90,1,1
42470,-76.9230769230769,4,2,1,90,0,1
42975,-100,4,2,1,90,0,1
44155,-100,4,2,2,90,0,1
44239,-100,4,2,1,90,0,1
45166,-100,4,2,1,90,0,1
47189,342.857142857143,4,2,1,90,1,1
47531,352.941176470588,4,2,1,90,1,1
47883,324.324324324324,4,2,1,90,1,1
47883,-66.6666666666667,4,2,1,90,0,1
48531,337.078651685393,4,2,1,90,1,1
49205,321.543408360129,4,2,1,90,1,0
50169,375,4,2,1,60,1,0
50560,337.078651685393,4,2,1,75,1,0
50560,-166.666666666667,4,2,1,75,0,0
51229,375,4,2,1,75,1,0
51416,348.837209302326,4,2,1,75,1,0
51590,344.827586206897,4,2,1,75,1,0
51590,-166.666666666667,4,2,1,75,0,0
51762,-166.666666666667,4,2,2,75,0,0
51934,-166.666666666667,4,2,1,75,0,0
52279,307.692307692308,4,2,1,75,1,0
52586,319.148936170213,4,2,1,75,1,0
52586,-200,4,2,1,75,0,0
53064,357.142857142857,4,2,1,75,1,0
53242,-166.666666666667,4,2,1,75,0,0
53599,329.67032967033,4,2,1,75,1,0
53763,314.13612565445,4,2,1,75,1,0
53920,348.837209302326,4,2,1,75,1,0
54268,319.148936170213,4,2,1,75,1,0
54427,-100,4,2,2,75,0,0
54587,352.941176470588,4,2,1,75,1,0
54939,322.58064516129,4,2,1,75,1,0
54939,-166.666666666667,4,2,1,75,0,0
55261,337.078651685393,4,2,1,75,1,0
55261,-133.333333333333,4,2,1,75,0,0
56609,352.941176470588,4,2,1,75,1,0
56961,342.857142857143,4,2,1,75,1,0
56961,-166.666666666667,4,2,1,75,0,0
57132,-166.666666666667,4,2,2,75,0,0
57303,-166.666666666667,4,2,1,75,0,0
57818,324.324324324324,4,2,1,75,1,0
57980,-166.666666666667,4,2,1,75,0,0
58466,333.333333333333,4,2,1,75,1,0
58799,342.857142857143,4,2,1,75,1,0
59141,324.324324324324,4,2,1,75,1,0
59465,342.857142857143,4,2,1,75,1,0
59636,326.086956521739,4,2,1,75,1,0
59799,-166.666666666667,4,2,2,75,0,0
59962,375,4,2,1,75,1,0
60149,352.941176470588,4,2,1,75,1,0
60325,342.857142857143,4,2,1,75,1,0
60667,-166.666666666667,4,2,1,75,0,0
60839,337.078651685393,4,2,1,75,1,0
61344,327.868852459016,4,2,1,75,1,0
61344,-166.666666666667,4,2,1,75,0,0
61999,333.333333333333,4,2,1,75,1,0
62332,-166.666666666667,4,2,1,75,0,0
62499,-166.666666666667,4,2,2,75,0,0
62665,352.941176470588,4,2,1,75,1,0
63194,315.789473684211,4,2,1,75,1,0
63351,337.078651685393,4,2,1,75,1,0
64025,335.195530726257,4,2,1,75,1,0
64695,350.877192982456,4,2,1,75,1,0
65045,-166.666666666667,4,2,1,75,0,0
65221,-166.666666666667,4,2,2,75,0,0
65396,324.324324324324,4,2,1,75,1,0
65720,-166.666666666667,4,2,1,75,0,0
66044,337.078651685393,4,2,1,75,1,0
66044,-200,4,2,1,75,0,0
69414,-133.333333333333,4,2,1,75,0,0
70426,-200,4,2,1,75,0,0
70776,337.078651685393,4,2,1,75,1,0
71450,-100,4,2,1,75,0,0
72124,340.909090909091,4,2,1,75,1,0
72294,-200,4,2,1,75,0,0
72805,342.857142857143,4,2,1,75,1,0
72805,-200,4,2,1,75,0,0
73147,327.868852459016,4,2,1,75,1,0
73147,-133.333333333333,4,2,1,75,0,0
73475,338.983050847458,4,2,2,90,1,1
73475,-71.4285714285714,4,2,2,90,0,1
73559,-71.4285714285714,4,2,1,90,0,1
73983,-100,4,2,1,90,0,1
76186,337.078651685393,4,2,1,90,1,1
76186,-66.6666666666667,4,2,1,90,0,1
76691,-100,4,2,1,90,0,1
77871,-100,4,2,2,90,0,1
77955,-100,4,2,1,90,0,1
78882,-100,4,2,1,90,0,1
80905,342.857142857143,4,2,1,90,1,1
81247,352.941176470588,4,2,1,90,1,1
81599,324.324324324324,4,2,1,90,1,1
81599,-76.9230769230769,4,2,1,90,0,1
82247,337.078651685393,4,2,1,90,1,1
82920,324.324324324324,4,2,1,90,1,0
82960,-100,4,2,1,90,0,0
84209,337.078651685393,4,2,1,30,1,0
84209,-250,4,2,1,30,0,0

[Colours]
Combo1 : 17,254,176
Combo2 : 173,255,95
Combo3 : 255,88,100
Combo4 : 255,94,55

[HitObjects]
58,334,652,6,0,P|53:311|44:290,4,40,2|0|0|0|0,0:3|0:0|0:0|0:0|0:0,0:0:0:0:
177,183,1663,2,0,P|182:206|191:227,4,40,2|0|0|0|0,0:3|0:0|0:0|0:0|0:0,0:0:0:0:
128,276,2674,5,2,0:3:0:0:
128,276,2843,1,0,0:0:0:0:
128,276,3011,1,0,0:0:0:0:
440,160,3348,6,0,P|445:137|454:116,4,40,2|0|0|0|0,0:3|0:0|0:0|0:0|0:0,0:0:0:0:
321,9,4359,2,0,P|316:32|307:53,4,40,2|0|0|0|0,0:3|0:0|0:0|0:0|0:0,0:0:0:0:
378,102,5370,5,2,0:3:0:0:
378,102,5539,1,0,0:0:0:0:
378,102,5707,1,0,0:0:0:0:
455,340,6046,6,0,P|417:352|378:347,1,80,4|0,1:0|0:0,0:0:0:0:
177,183,6383,2,0,P|234:167|292:182,1,120,12|8,0:0|0:0,0:0:0:0:
298,199,6724,5,4,1:2:0:0:
378,102,6902,1,0,1:0:0:0:
289,6,7062,2,0,B|278:48|278:48|292:96,1,80,12|0,0:0|1:0,0:0:0:0:
465,230,7423,2,0,B|476:189|476:189|462:140,1,80,4|0,0:0|1:0,0:0:0:0:
225,251,7754,5,12,0:0:0:0:
378,347,7916,2,0,P|331:355|278:367,1,80,8|4,0:3|1:2,0:0:0:0:
375,231,8246,5,0,1:0:0:0:
198,384,8415,1,12,0:0:0:0:
385,221,8583,1,0,1:0:0:0:
160,104,8752,6,0,P|176:178|181:220,1,80,4|0,1:0|0:0,0:0:0:0:
298,287,9090,2,0,P|308:244|283:201,1,80,12|0,0:0|0:0,0:0:0:0:
277,207,9345,1,8,0:0:0:0:
281,211,9429,1,4,1:2:0:0:
190,372,9599,1,0,1:0:0:0:
399,323,9768,6,0,P|456:335|494:347,1,80,12|0,0:0|1:0,0:0:0:0:
176,182,10107,2,0,P|119:194|81:206,1,80,4|0,0:0|1:0,0:0:0:0:
301,7,10446,2,0,L|285:154,1,120,12|0,0:0|0:0,0:0:0:0:
353,168,10785,2,0,P|374:134|366:93,1,80,4|0,1:2|1:0,0:0:0:0:
194,54,11124,5,12,0:0:0:0:
371,259,11294,1,8,0:0:0:0:
382,257,11379,1,8,0:0:0:0:
393,255,11463,2,0,B|438:271|486:243|450:229|498:198|536:213,1,160,4|12,1:0|0:0,0:0:0:0:
284,373,12052,5,8,0:0:0:0:
289,361,12137,2,0,P|278:297|273:251,1,80,4|0,1:2|1:0,0:0:0:0:
453,58,12470,2,0,P|464:122|469:168,1,80,12|0,0:0|1:0,0:0:0:0:
184,198,12803,5,4,0:0:0:0:
288,126,12967,1,0,1:0:0:0:
276,282,13132,5,12,0:0:0:0:
195,46,13297,1,8,0:3:0:0:
494,227,13462,5,8,0:0:0:0:
487,233,13548,2,0,P|436:219|378:214,1,80,8|0,0:0|0:0,0:0:0:0:
276,282,13808,6,0,B|322:229|398:250|398:250|371:263|365:299,1,180.000006866455,8|0,0:0|0:0,0:0:0:0:
420,351,14155,5,8,0:0:0:0:
343,129,14321,1,8,0:0:0:0:
402,369,14488,5,8,0:0:0:0:
493,57,14655,1,8,0:0:0:0:
166,146,14821,5,8,0:0:0:0:
166,146,15154,5,8,0:0:0:0:
219,328,15321,1,8,0:0:0:0:
183,125,15488,5,8,0:0:0:0:
133,384,15654,1,8,0:0:0:0:
368,283,15821,5,8,0:0:0:0:
302,248,15991,2,0,P|274:254|257:262,2,40,2|2|2,0:0|0:1|0:0,0:0:0:0:
358,194,16502,2,0,P|381:204|403:208,1,40,2|2,0:1|0:1,0:0:0:0:
242,29,16843,6,0,L|256:113,1,64,4|0,1:0|0:0,0:0:0:0:
125,212,17183,2,0,L|139:129,1,64,10|0,0:0|0:0,0:0:0:0:
90,88,17439,1,8,0:0:0:0:
85,81,17524,2,0,P|45:70|12:85,1,64,2|0,1:2|1:0,0:0:0:0:
224,199,17867,6,0,B|299:184|299:184|321:206|364:210,1,120,10|0,0:0|0:0,0:0:0:0:
414,183,18215,2,0,L|404:268,1,64,2|0,1:2|0:0,0:0:0:0:
489,336,18560,2,0,P|501:303|479:251,1,64,10|0,0:0|0:0,0:0:0:0:
384,344,18886,2,0,P|352:348|313:358,1,64,2|0,1:2|1:0,0:0:0:0:
406,246,19206,1,10,0:0:0:0:
310,375,19377,1,2,0:3:0:0:
193,328,19548,6,0,P|180:296|191:254,1,64,0|0,1:0|0:0,0:0:0:0:
110,196,19881,2,0,L|32:212,1,64,10|0,0:0|0:0,0:0:0:0:
166,130,20141,1,8,0:0:0:0:
172,126,20227,2,0,L|250:142,1,64,2|0,1:2|1:0,0:0:0:0:
93,41,20579,2,0,L|81:125,1,64,10|2,0:0|0:0,0:0:0:0:
174,0,20903,5,0,1:0:0:0:
174,0,21074,1,0,0:0:0:0:
4,82,21242,1,8,0:0:0:0:
183,191,21411,2,0,L|170:116,1,64,0|0,0:0|1:0,0:0:0:0:
105,237,21748,5,0,1:0:0:0:
257,287,21916,2,0,L|271:202,1,64,8|8,0:0|0:0,0:0:0:0:
176,335,22169,5,8,0:0:0:0:
185,344,22253,2,0,B|219:365|274:336|243:317|294:283|347:317,1,160,0|10,1:0|0:0,0:0:0:0:
408,104,22841,1,8,0:0:0:0:
399,113,22925,2,0,B|389:148|389:148|400:191,1,64,2|0,1:2|1:0,0:0:0:0:
496,263,23258,2,0,B|506:228|506:228|495:185,1,64,10|0,0:0|0:0,0:0:0:0:
330,308,23591,6,0,P|360:297|392:292,1,64,2|0,1:2|0:0,0:0:0:0:
209,197,23928,2,0,P|239:207|270:213,1,64,10|0,0:0|0:0,0:0:0:0:
114,351,24265,2,0,P|144:340|175:334,1,64,2|0,1:2|1:0,0:0:0:0:
89,237,24602,5,10,0:0:0:0:
6,384,24770,1,8,0:0:0:0:
96,225,24939,6,0,P|84:165|67:98,1,107.999996704102,2|0,1:2|0:0,0:0:0:0:
129,67,25276,2,0,P|152:109|143:146,1,64,10|0,0:0|0:0,0:0:0:0:
151,123,25529,1,8,0:0:0:0:
151,123,25613,1,2,1:2:0:0:
19,50,25782,1,0,1:0:0:0:
234,186,25950,6,0,B|262:155|309:169|309:169|330:199|369:195,1,128,10|0,0:0|1:0,0:0:0:0:
443,123,26456,1,0,0:0:0:0:
371,70,26624,5,8,0:0:0:0:
479,262,26791,1,2,0:3:0:0:
482,265,26875,1,8,0:0:0:0:
486,269,26959,2,0,L|430:286,1,40,4|8,0:0|0:0,0:0:0:0:
194,383,27126,5,8,0:0:0:0:
214,358,27210,1,8,0:0:0:0:
242,344,27294,1,8,0:0:0:0:
273,339,27378,1,8,0:0:0:0:
304,342,27461,1,8,0:0:0:0:
332,355,27545,1,8,0:0:0:0:
353,378,27629,6,0,P|361:328|371:282,1,80,4|0,1:0|0:0,0:0:0:0:
248,108,27966,2,0,P|240:158|230:204,1,80,10|0,0:0|0:0,0:0:0:0:
234,186,28227,1,8,0:0:0:0:
234,186,28314,1,6,1:2:0:0:
371,70,28489,5,0,1:0:0:0:
128,3,28663,2,0,L|151:131,1,120,10|0,0:0|0:0,0:0:0:0:
96,178,29000,6,0,P|50:201|7:180,1,80,6|0,1:2|0:0,0:0:0:0:
191,264,29337,2,0,P|235:271|277:285,1,80,10|0,0:0|0:0,0:0:0:0:
243,194,29674,1,6,1:2:0:0:
155,356,29842,1,0,1:0:0:0:
149,121,30011,5,10,0:0:0:0:
268,281,30179,1,8,0:0:0:0:
136,103,30348,6,0,B|181:98|220:115|220:115|262:80|221:37,1,160,4|10,1:2|0:0,0:0:0:0:
432,184,30938,1,8,0:0:0:0:
424,178,31022,2,0,P|359:190|318:203,1,80,6|0,1:2|1:0,0:0:0:0:
393,100,31359,5,10,0:0:0:0:
250,275,31528,2,0,L|266:177,1,80,2|4,0:0|1:2,0:0:0:0:
363,309,31865,1,0,0:0:0:0:
155,356,32033,2,0,P|199:360|248:371,1,80,8|0,0:0|0:0,0:0:0:0:
129,213,32370,5,4,1:2:0:0:
34,384,32539,1,0,1:0:0:0:
250,275,32707,1,8,0:0:0:0:
18,131,32876,1,8,0:0:0:0:
23,137,32960,1,8,0:0:0:0:
27,143,33044,2,0,B|71:148|95:131|75:116|124:90|165:108,1,120,4|0,1:2|0:0,0:0:0:0:
212,118,33368,6,0,B|219:78|219:78|214:33,1,80,10|0,0:0|0:0,0:0:0:0:
278,0,33612,1,8,0:0:0:0:
286,10,33693,2,0,P|337:18|374:20,1,80,6|0,1:2|1:0,0:0:0:0:
234,201,34037,2,0,P|199:195|154:192,1,80,10|0,0:0|0:0,0:0:0:0:
385,101,34374,6,0,B|389:135|405:162|405:162|398:192|364:193,1,120,6|0,1:2|0:0,0:0:0:0:
465,118,34711,2,0,P|511:110|554:137,1,80,10|0,0:0|0:0,0:0:0:0:
508,198,35048,1,6,1:2:0:0:
441,35,35216,1,0,1:0:0:0:
372,281,35385,5,10,0:0:0:0:
445,20,35553,1,8,0:0:0:0:
167,224,35722,6,0,L|298:208,1,120,6|0,1:2|0:0,0:0:0:0:
319,140,36059,2,0,P|277:129|239:145,1,80,14|0,0:0|0:0,0:0:0:0:
141,303,36396,1,6,1:2:0:0:
79,146,36564,5,8,0:0:0:0:
252,336,36733,1,10,0:0:0:0:
255,339,36816,1,8,0:0:0:0:
259,343,36899,1,4,0:3:0:0:
184,384,37066,5,8,0:0:0:0:
310,200,37233,2,0,B|319:168|357:157|357:157|365:121|343:79|287:88,1,167.999994873047,4|0,1:0|0:0,0:0:0:0:
243,130,37583,5,8,0:0:0:0:
387,288,37759,2,0,B|376:271|350:269|350:269|404:256|431:296|412:299|445:328|493:320,1,192,4|0,1:0|0:0,0:0:0:0:
481,245,38092,5,8,0:0:0:0:
259,343,38259,2,0,B|213:341|169:363|169:363|127:334|162:289,1,167.999994873047,4|0,1:0|0:0,0:0:0:0:
223,261,38592,5,8,0:0:0:0:
35,4,38759,2,0,P|28:93|16:191,1,167.999994873047,4|0,1:0|0:0,0:0:0:0:
63,230,39092,5,12,0:0:0:0:
244,35,39273,1,8,0:0:0:0:
283,35,39354,1,8,0:0:0:0:
317,54,39435,1,8,0:0:0:0:
339,86,39516,1,8,0:0:0:0:
370,110,39597,1,8,0:0:0:0:
409,116,39678,1,8,0:0:0:0:
426,104,39759,6,0,P|382:85|286:162,1,167.999994873047,4|0,1:0|0:0,0:0:0:0:
293,157,40097,1,10,0:0:0:0:
406,305,40267,2,0,L|390:221,1,80,2|4,0:0|1:2,0:0:0:0:
479,245,40606,5,0,1:0:0:0:
267,368,40775,1,8,0:0:0:0:
512,319,40945,5,0,1:0:0:0:
284,237,41114,2,0,L|197:260,1,80,6|0,0:0|1:0,0:0:0:0:
346,58,41453,6,0,P|362:106|358:157,1,80,10|0,0:0|0:0,0:0:0:0:
143,382,41792,2,0,P|127:334|131:283,1,80,6|0,1:2|1:0,0:0:0:0:
273,143,42131,5,10,0:0:0:0:
218,294,42301,1,8,0:0:0:0:
0,163,42470,6,0,B|42:142|84:176|67:186|100:219|152:202,1,155.999992858887,4|0,1:0|0:0,0:0:0:0:
155,195,42807,1,10,0:0:0:0:
363,333,42975,2,0,P|383:291|373:258,1,80,2|4,0:0|1:2,0:0:0:0:
215,94,43312,5,0,1:0:0:0:
298,279,43481,1,8,0:0:0:0:
312,45,43649,5,0,1:0:0:0:
208,314,43818,2,0,P|130:325|105:330,1,80,4|0,0:0|1:0,0:0:0:0:
337,135,44155,6,0,P|419:127|499:115,1,160,14|10,0:0|0:0,0:0:0:0:
495,115,44576,1,8,0:0:0:0:
495,115,44661,1,4,0:3:0:0:
318,33,44829,1,10,0:0:0:0:
456,234,44998,1,8,0:0:0:0:
459,237,45082,1,8,0:0:0:0:
463,241,45166,5,4,1:0:0:0:
400,55,45335,1,0,0:0:0:0:
404,303,45503,5,14,0:0:0:0:
461,0,45672,1,2,0:0:0:0:
257,141,45840,5,12,0:0:0:0:
512,218,46009,1,0,1:0:0:0:
327,201,46177,5,12,0:0:0:0:
442,161,46346,1,0,1:0:0:0:
140,344,46514,5,14,0:0:0:0:
140,344,46852,5,14,0:0:0:0:
66,121,47020,1,0,0:0:0:0:
64,384,47189,5,14,0:0:0:0:
127,59,47360,1,0,1:0:0:0:
4,285,47531,5,14,0:0:0:0:
267,196,47707,1,0,1:0:0:0:
52,211,47883,6,0,B|84:187|129:202|141:240|141:240|169:276|211:258,1,180.000006866455,6|0,1:2|0:0,0:0:0:0:
202,261,48207,5,12,0:0:0:0:
96,85,48369,1,10,0:0:0:0:
96,85,48450,1,8,0:0:0:0:
96,85,48531,1,10,0:0:0:0:
112,332,48699,5,8,0:3:0:0:
166,132,48868,1,4,0:3:0:0:
366,184,49036,1,4,0:3:0:0:
312,384,49205,1,8,1:2:0:0:
312,384,50560,6,0,P|305:344|298:324,1,47.9999985351563,4|0,1:0|1:0,0:0:0:0:
390,239,50897,1,0,1:0:0:0:
380,313,51065,1,0,1:0:0:0:
457,285,51229,6,0,P|474:288|499:299,2,40,10|0|0,0:0|0:0|1:0,0:0:0:0:
321,204,51590,2,0,P|291:214|262:217,1,47.9999985351563,0|2,1:0|0:3,0:0:0:0:
292,35,51934,5,2,1:2:0:0:
338,96,52107,1,0,1:0:0:0:
413,111,52279,1,0,1:0:0:0:
480,77,52432,1,0,1:0:0:0:
324,103,52586,6,0,P|294:151|329:208,1,120,10|8,0:0|0:0,0:0:0:0:
320,203,53153,1,8,0:0:0:0:
320,203,53242,1,2,1:2:0:0:
281,272,53421,1,0,1:0:0:0:
204,290,53599,1,0,1:0:0:0:
133,256,53763,1,0,1:0:0:0:
49,76,53920,6,0,L|40:131,1,40,8|0,0:0|0:0,0:0:0:0:
42,115,54268,5,0,1:0:0:0:
119,152,54427,1,2,0:3:0:0:
196,134,54587,1,0,1:0:0:0:
235,65,54763,1,0,1:0:0:0:
157,65,54939,5,0,1:0:0:0:
301,152,55100,1,0,1:0:0:0:
249,210,55261,6,0,B|197:196|160:226|181:247|136:285|77:261,1,180.000006866455,10|8,0:0|0:0,0:0:0:0:
89,265,55850,1,8,0:0:0:0:
89,265,55935,5,0,1:0:0:0:
111,348,56103,1,0,1:0:0:0:
36,369,56272,1,0,1:0:0:0:
13,295,56440,1,0,1:0:0:0:
230,343,56609,6,0,P|225:363|222:390,2,40,10|0|0,0:0|0:0|1:0,0:0:0:0:
321,281,56961,2,0,P|314:243|313:217,1,47.9999985351563,2|2,1:2|0:3,0:0:0:0:
481,130,57303,5,0,1:0:0:0:
458,204,57475,1,0,1:0:0:0:
383,183,57646,1,0,1:0:0:0:
402,110,57818,1,0,1:0:0:0:
512,261,57980,6,0,P|465:250|389:314,1,143.999995605469,10|8,0:0|0:0,0:0:0:0:
392,303,58549,1,8,0:0:0:0:
392,303,58632,1,0,1:0:0:0:
340,363,58799,1,0,1:0:0:0:
263,357,58970,1,0,1:0:0:0:
223,289,59141,1,0,1:0:0:0:
55,277,59303,6,0,P|62:302|65:329,2,40,10|0|0,0:0|0:0|1:0,0:0:0:0:
0,218,59636,1,2,1:2:0:0:
61,171,59799,2,0,P|99:184|117:186,1,47.9999985351563,2|0,0:3|1:0,0:0:0:0:
235,65,60149,5,0,1:0:0:0:
162,94,60325,1,0,1:0:0:0:
193,1,60496,5,8,0:0:0:0:
303,138,60667,2,0,P|311:100|319:78,1,47.9999985351563,8|0,0:3|1:0,0:0:0:0:
230,177,61007,5,4,0:3:0:0:
412,14,61260,1,0,0:0:0:0:
404,7,61344,2,0,L|342:18,1,47.9999985351563,2|0,1:2|1:0,0:0:0:0:
442,95,61671,5,0,1:0:0:0:
512,114,61835,1,0,1:0:0:0:
387,168,61999,6,0,P|394:194|397:215,2,40,10|0|0,0:0|0:0|1:0,0:0:0:0:
496,279,62332,2,0,P|499:250|508:218,1,47.9999985351563,0|2,1:0|0:3,0:0:0:0:
406,323,62665,5,2,1:2:0:0:
338,289,62841,1,0,1:0:0:0:
263,313,63017,1,0,1:0:0:0:
228,382,63194,1,0,1:0:0:0:
42,277,63351,6,0,B|85:274|127:300|127:300|164:279|159:243,1,160,10|0,0:0|0:0,0:0:0:0:
55,62,63856,5,8,0:0:0:0:
58,65,63940,1,8,0:0:0:0:
62,69,64025,1,2,1:2:0:0:
88,140,64192,1,0,1:0:0:0:
139,81,64360,1,0,1:0:0:0:
8,132,64527,5,0,1:0:0:0:
158,242,64695,2,0,L|218:254,2,40,10|0|0,0:0|0:0|1:0,0:0:0:0:
96,310,65045,2,0,L|84:377,1,47.9999985351563,0|2,1:0|0:3,0:0:0:0:
21,289,65396,5,2,1:2:0:0:
73,232,65558,1,0,1:0:0:0:
180,333,65720,6,0,P|218:337|257:350,1,71.9999978027344,0|0,1:0|0:0,0:0:0:0:
344,257,66044,2,0,P|314:264|282:276,2,53.3333333333333,10|0|0,0:0|1:0|1:0,0:0:0:0:
463,255,66718,5,4,1:0:0:0:
256,192,66802,12,0,69330,0:0:0:0:
463,255,69414,6,0,B|495:240|514:240|514:240|481:220|377:233|448:317|360:354|299:337,1,300.000011444092,2|0,0:3|0:0,0:0:0:0:
115,154,70426,6,0,L|123:94,1,60,2|0,0:3|0:0,0:0:0:0:
123,94,70776,5,8,0:0:0:0:
80,91,70860,1,8,0:0:0:0:
42,113,70944,1,8,0:0:0:0:
21,151,71028,1,8,0:0:0:0:
24,195,71113,2,0,P|32:220|37:246,1,40,8|8,0:0|0:0,0:0:0:0:
205,63,71281,2,0,P|197:38|192:12,1,40,8|8,0:0|0:0,0:0:0:0:
156,228,71450,5,8,0:0:0:0:
198,220,71534,1,8,0:0:0:0:
240,230,71618,1,8,0:0:0:0:
274,256,71702,1,8,0:0:0:0:
297,293,71787,1,8,0:0:0:0:
312,334,71871,1,8,0:0:0:0:
347,359,71955,1,8,0:0:0:0:
389,370,72040,1,8,0:0:0:0:
432,365,72124,1,4,1:0:0:0:
488,311,72294,6,0,P|493:280|499:264,2,40,2|2|2,0:0|0:1|0:0,0:0:0:0:
405,248,72805,6,0,P|399:211|394:196,1,40,2|2,0:1|0:0,0:0:0:0:
512,58,73147,6,0,L|501:131,1,60.0000022888184,10|2,0:0|0:0,0:0:0:0:
503,117,73475,6,0,B|442:120|416:82|443:71|398:31|336:53,1,167.999994873047,4|0,1:0|0:0,0:0:0:0:
346,61,73813,1,10,0:0:0:0:
165,179,73983,2,0,P|138:146|147:104,1,80,2|4,0:0|1:2,0:0:0:0:
232,45,74322,5,0,1:0:0:0:
151,258,74491,1,8,0:0:0:0:
167,4,74661,5,0,1:0:0:0:
269,221,74830,2,0,P|258:259|250:298,1,80,6|0,0:0|1:0,0:0:0:0:
8,172,75169,6,0,P|67:157|112:169,1,80,10|0,0:0|0:0,0:0:0:0:
381,355,75508,2,0,P|322:370|277:358,1,80,6|0,1:2|1:0,0:0:0:0:
90,297,75847,5,10,0:0:0:0:
339,193,76017,1,8,0:0:0:0:
167,4,76186,6,0,B|140:99|140:99|174:140|210:107,1,180.000006866455,4|0,1:0|0:0,0:0:0:0:
219,94,76523,1,10,0:0:0:0:
444,281,76691,2,0,P|381:264|337:267,1,80,2|4,0:0|1:2,0:0:0:0:
296,352,77028,5,0,1:0:0:0:
392,140,77197,1,8,0:0:0:0:
377,384,77365,5,0,1:0:0:0:
261,210,77534,2,0,P|324:193|368:196,1,80,6|0,0:0|1:0,0:0:0:0:
183,298,77871,6,0,B|95:297|134:240|33:242,1,160,14|10,0:0|0:0,0:0:0:0:
39,241,78292,1,8,0:0:0:0:
39,241,78377,1,4,0:3:0:0:
149,139,78545,1,10,0:0:0:0:
75,340,78714,1,8,0:0:0:0:
78,343,78798,1,8,0:0:0:0:
82,347,78882,5,4,1:0:0:0:
0,100,79051,1,0,0:0:0:0:
9,384,79219,5,14,0:0:0:0:
56,35,79388,1,2,0:0:0:0:
273,220,79556,5,12,0:0:0:0:
71,267,79725,1,0,1:0:0:0:
325,288,79893,5,12,0:0:0:0:
0,215,80062,1,0,1:0:0:0:
405,81,80230,5,14,0:0:0:0:
405,81,80568,5,14,0:0:0:0:
493,302,80736,1,0,0:0:0:0:
468,33,80905,5,14,0:0:0:0:
425,346,81076,1,0,1:0:0:0:
398,0,81247,5,14,0:0:0:0:
500,381,81423,1,0,1:0:0:0:
397,172,81599,6,0,B|431:152|486:165|486:165|518:133|467:96,1,155.999992858887,14|0,0:0|0:0,0:0:0:0:
482,108,81923,5,12,0:0:0:0:
405,255,82085,1,10,0:0:0:0:
408,258,82166,1,8,0:0:0:0:
412,262,82247,1,10,0:0:0:0:
405,81,82415,5,8,0:3:0:0:
480,311,82584,1,0,1:0:0:0:
247,384,82752,1,4,0:3:0:0:
172,153,82920,1,8,0:0:0:0:
172,153,84209,6,0,P|174:123|181:81,2,64,2|0|0,0:0|0:0|0:0,0:0:0:0:
111,232,85220,1,0,0:0:0:0:
38,201,85388,1,0,0:0:0:0:
0,268,85557,2,0,P|13:299|18:334,1,64,2|0,0:0|0:0,0:0:0:0:
41,339,86062,6,0,B|118:334|89:385|172:379,1,128
252,283,86905,6,0,P|221:281|184:303,2,64,2|0|0,0:0|0:0|0:0,0:0:0:0:
340,349,87916,1,0,0:0:0:0:
411,384,88085,1,0,0:0:0:0:
473,335,88253,2,0,P|482:290|488:270,1,64,2|0,0:0|0:0,0:0:0:0:
496,256,88759,6,0,P|444:249|391:239,1,96
465,150,89602,1,2,0:0:0:0:
256,192,89686,12,0,92298,0:0:0:0:
