osu file format v14

[General]
AudioFilename: audio.mp3
AudioLeadIn: 0
PreviewTime: -1
Countdown: 0
SampleSet: None
StackLeniency: 0.7
Mode: 3
LetterboxInBreaks: 0
SpecialStyle: 0
WidescreenStoryboard: 1

[Editor]
DistanceSpacing: 2
BeatDivisor: 4
GridSize: 4
TimelineZoom: 0.9

[Metadata]
Title:pshelobavurod
TitleUnicode:pshelobavurod
Artist:BAV
ArtistUnicode:BAV
Creator:StoledSomeOSU
Version:bee
Source:minecraft
Tags:minecraft bee sting
BeatmapID:4556300
BeatmapSetID:2160654

[Difficulty]
HPDrainRate:5
CircleSize:4
OverallDifficulty:5
ApproachRate:5
SliderMultiplier:1.4
SliderTickRate:1

[Events]
//Background and Video events
0,0,"c455d6698fb1ff5c7d35dc65592605b11a5d42c8_full.jpg",0,0
//Break Periods
//Storyboard Layer 0 (Background)
//Storyboard Layer 1 (Fail)
//Storyboard Layer 2 (Pass)
//Storyboard Layer 3 (Foreground)
//Storyboard Layer 4 (Overlay)
//Storyboard Sound Samples

[TimingPoints]
0,600,4,2,0,100,1,0
50400,-100,4,2,0,100,0,1
69600,-100,4,2,0,100,0,0
91200,-100,4,2,0,100,0,1
110400,-100,4,2,0,100,0,0

[HitObjects]
64,192,0,128,0,2400:0:0:0:0:
192,192,600,1,0,0:0:0:0:
448,192,900,1,0,0:0:0:0:
192,192,1500,1,0,0:0:0:0:
320,192,2100,1,0,0:0:0:0:
448,192,2400,128,0,4800:0:0:0:0:
320,192,3000,1,0,0:0:0:0:
192,192,3000,1,0,0:0:0:0:
64,192,3300,1,0,0:0:0:0:
192,192,3900,1,0,0:0:0:0:
64,192,4500,1,0,0:0:0:0:
192,192,4800,128,0,7200:0:0:0:0:
64,192,4800,1,0,0:0:0:0:
448,192,5400,1,0,0:0:0:0:
64,192,5700,1,0,0:0:0:0:
320,192,6300,1,0,0:0:0:0:
64,192,6900,1,0,0:0:0:0:
448,192,7200,1,0,0:0:0:0:
320,192,7200,128,0,9600:0:0:0:0:
192,192,7800,1,0,0:0:0:0:
64,192,8400,1,0,0:0:0:0:
448,192,9000,1,0,0:0:0:0:
64,192,9600,1,0,0:0:0:0:
192,192,9600,1,0,0:0:0:0:
320,192,9900,1,0,0:0:0:0:
64,192,10200,128,0,10500:0:0:0:0:
448,192,10200,1,0,0:0:0:0:
192,192,10200,1,0,0:0:0:0:
192,192,10500,1,0,0:0:0:0:
448,192,10800,128,0,11100:0:0:0:0:
64,192,10800,1,0,0:0:0:0:
320,192,11100,128,0,11400:0:0:0:0:
64,192,11100,1,0,0:0:0:0:
448,192,11400,128,0,12000:0:0:0:0:
192,192,11400,1,0,0:0:0:0:
192,192,11700,1,0,0:0:0:0:
64,192,12000,1,0,0:0:0:0:
192,192,12000,1,0,0:0:0:0:
448,192,12300,1,0,0:0:0:0:
64,192,12600,1,0,0:0:0:0:
192,192,12600,1,0,0:0:0:0:
448,192,12900,1,0,0:0:0:0:
64,192,13200,1,0,0:0:0:0:
448,192,13350,1,0,0:0:0:0:
320,192,13500,1,0,0:0:0:0:
192,192,13650,1,0,0:0:0:0:
320,192,13800,1,0,0:0:0:0:
192,192,14000,1,0,0:0:0:0:
64,192,14200,1,0,0:0:0:0:
448,192,14400,1,0,0:0:0:0:
320,192,14400,1,0,0:0:0:0:
192,192,14700,128,0,15000:0:0:0:0:
320,192,15000,1,0,0:0:0:0:
448,192,15000,1,0,0:0:0:0:
320,192,15300,128,0,15600:0:0:0:0:
64,192,15600,1,0,0:0:0:0:
192,192,15600,1,0,0:0:0:0:
320,192,15900,128,0,16200:0:0:0:0:
64,192,16200,1,0,0:0:0:0:
192,192,16200,1,0,0:0:0:0:
448,192,16500,128,0,16800:0:0:0:0:
64,192,16800,128,0,17400:0:0:0:0:
192,192,17400,128,0,18000:0:0:0:0:
448,192,18000,128,0,18600:0:0:0:0:
320,192,18600,128,0,19200:0:0:0:0:
64,192,19200,128,0,21600:0:0:0:0:
192,192,19200,128,0,21000:0:0:0:0:
320,192,20400,128,0,21000:0:0:0:0:
448,192,21000,128,0,21600:0:0:0:0:
320,192,21300,128,0,21600:0:0:0:0:
192,192,21600,128,0,22800:0:0:0:0:
64,192,22200,128,0,22500:0:0:0:0:
448,192,22500,128,0,22800:0:0:0:0:
320,192,22800,128,0,23700:0:0:0:0:
192,192,23100,128,0,23400:0:0:0:0:
64,192,23400,128,0,23700:0:0:0:0:
192,192,23700,128,0,24000:0:0:0:0:
448,192,24000,128,0,26400:0:0:0:0:
320,192,24000,128,0,24600:0:0:0:0:
192,192,24600,128,0,25200:0:0:0:0:
64,192,24900,128,0,25500:0:0:0:0:
320,192,25200,128,0,25800:0:0:0:0:
192,192,25800,128,0,26100:0:0:0:0:
64,192,25800,128,0,26400:0:0:0:0:
320,192,26400,128,0,26700:0:0:0:0:
192,192,26700,128,0,27000:0:0:0:0:
64,192,26700,1,0,0:0:0:0:
64,192,27000,128,0,27300:0:0:0:0:
448,192,27000,128,0,27600:0:0:0:0:
320,192,27000,128,0,27600:0:0:0:0:
192,192,27600,128,0,27900:0:0:0:0:
64,192,27900,128,0,28200:0:0:0:0:
448,192,27900,128,0,28800:0:0:0:0:
320,192,28200,128,0,28500:0:0:0:0:
192,192,28500,128,0,28800:0:0:0:0:
64,192,28800,1,0,0:0:0:0:
320,192,28800,1,0,0:0:0:0:
192,192,29100,1,0,0:0:0:0:
64,192,29400,1,0,0:0:0:0:
448,192,29400,1,0,0:0:0:0:
320,192,29400,1,0,0:0:0:0:
192,192,29700,1,0,0:0:0:0:
192,192,30000,1,0,0:0:0:0:
320,192,30000,1,0,0:0:0:0:
448,192,30000,1,0,0:0:0:0:
64,192,30300,1,0,0:0:0:0:
192,192,30600,1,0,0:0:0:0:
320,192,30600,1,0,0:0:0:0:
64,192,30900,1,0,0:0:0:0:
448,192,31200,1,0,0:0:0:0:
192,192,31200,1,0,0:0:0:0:
320,192,31500,1,0,0:0:0:0:
64,192,31800,1,0,0:0:0:0:
320,192,31800,1,0,0:0:0:0:
448,192,31800,1,0,0:0:0:0:
192,192,32100,1,0,0:0:0:0:
64,192,32400,1,0,0:0:0:0:
192,192,32400,1,0,0:0:0:0:
448,192,32400,1,0,0:0:0:0:
320,192,32700,1,0,0:0:0:0:
64,192,33000,1,0,0:0:0:0:
192,192,33000,1,0,0:0:0:0:
64,192,33300,1,0,0:0:0:0:
192,192,33300,1,0,0:0:0:0:
448,192,33600,1,0,0:0:0:0:
64,192,33750,1,0,0:0:0:0:
192,192,33900,1,0,0:0:0:0:
448,192,34200,1,0,0:0:0:0:
64,192,34350,1,0,0:0:0:0:
192,192,34500,1,0,0:0:0:0:
448,192,34800,1,0,0:0:0:0:
64,192,34950,1,0,0:0:0:0:
192,192,35100,1,0,0:0:0:0:
448,192,35400,1,0,0:0:0:0:
64,192,35550,1,0,0:0:0:0:
192,192,35700,1,0,0:0:0:0:
448,192,36000,1,0,0:0:0:0:
320,192,36150,1,0,0:0:0:0:
192,192,36300,1,0,0:0:0:0:
448,192,36450,1,0,0:0:0:0:
320,192,36600,1,0,0:0:0:0:
192,192,36750,1,0,0:0:0:0:
448,192,36900,1,0,0:0:0:0:
320,192,37050,1,0,0:0:0:0:
192,192,37200,1,0,0:0:0:0:
448,192,37350,1,0,0:0:0:0:
64,192,37500,1,0,0:0:0:0:
448,192,37800,1,0,0:0:0:0:
64,192,38100,1,0,0:0:0:0:
448,192,38400,128,0,39000:0:0:0:0:
320,192,38400,1,0,0:0:0:0:
192,192,38400,1,0,0:0:0:0:
64,192,38550,1,0,0:0:0:0:
192,192,38700,1,0,0:0:0:0:
320,192,38850,1,0,0:0:0:0:
64,192,39000,128,0,39600:0:0:0:0:
192,192,39000,1,0,0:0:0:0:
320,192,39150,1,0,0:0:0:0:
192,192,39300,1,0,0:0:0:0:
448,192,39450,1,0,0:0:0:0:
192,192,39600,128,0,39900:0:0:0:0:
320,192,39600,1,0,0:0:0:0:
448,192,39750,1,0,0:0:0:0:
320,192,39900,128,0,40200:0:0:0:0:
64,192,39900,1,0,0:0:0:0:
192,192,40050,1,0,0:0:0:0:
448,192,40200,128,0,40500:0:0:0:0:
64,192,40200,1,0,0:0:0:0:
192,192,40350,1,0,0:0:0:0:
64,192,40500,128,0,40800:0:0:0:0:
320,192,40500,1,0,0:0:0:0:
448,192,40650,1,0,0:0:0:0:
192,192,40800,128,0,41400:0:0:0:0:
320,192,40800,1,0,0:0:0:0:
448,192,40950,1,0,0:0:0:0:
64,192,41100,1,0,0:0:0:0:
448,192,41250,1,0,0:0:0:0:
320,192,41400,1,0,0:0:0:0:
64,192,41550,1,0,0:0:0:0:
448,192,41700,1,0,0:0:0:0:
192,192,41850,1,0,0:0:0:0:
320,192,42000,1,0,0:0:0:0:
192,192,42150,1,0,0:0:0:0:
64,192,42300,1,0,0:0:0:0:
448,192,42450,1,0,0:0:0:0:
320,192,42600,1,0,0:0:0:0:
448,192,42750,1,0,0:0:0:0:
192,192,42900,1,0,0:0:0:0:
64,192,43050,1,0,0:0:0:0:
448,192,43200,1,0,0:0:0:0:
320,192,43200,1,0,0:0:0:0:
192,192,43350,1,0,0:0:0:0:
64,192,43500,1,0,0:0:0:0:
448,192,43650,1,0,0:0:0:0:
192,192,43800,1,0,0:0:0:0:
320,192,43800,1,0,0:0:0:0:
64,192,43950,1,0,0:0:0:0:
448,192,44100,1,0,0:0:0:0:
320,192,44250,1,0,0:0:0:0:
192,192,44400,1,0,0:0:0:0:
320,192,44400,1,0,0:0:0:0:
448,192,44550,1,0,0:0:0:0:
64,192,44700,1,0,0:0:0:0:
192,192,44850,1,0,0:0:0:0:
448,192,45000,1,0,0:0:0:0:
320,192,45000,1,0,0:0:0:0:
64,192,45150,1,0,0:0:0:0:
448,192,45300,1,0,0:0:0:0:
320,192,45450,1,0,0:0:0:0:
192,192,45600,1,0,0:0:0:0:
64,192,45600,1,0,0:0:0:0:
320,192,45750,1,0,0:0:0:0:
64,192,45900,1,0,0:0:0:0:
192,192,45900,1,0,0:0:0:0:
320,192,46050,1,0,0:0:0:0:
64,192,46200,1,0,0:0:0:0:
192,192,46200,1,0,0:0:0:0:
320,192,46350,1,0,0:0:0:0:
64,192,46500,1,0,0:0:0:0:
192,192,46500,1,0,0:0:0:0:
320,192,46650,1,0,0:0:0:0:
448,192,46800,1,0,0:0:0:0:
320,192,47100,1,0,0:0:0:0:
192,192,47250,1,0,0:0:0:0:
192,192,47550,1,0,0:0:0:0:
320,192,47550,1,0,0:0:0:0:
192,192,47850,1,0,0:0:0:0:
320,192,47850,1,0,0:0:0:0:
192,192,48000,1,0,0:0:0:0:
320,192,48000,1,0,0:0:0:0:
64,192,49200,1,0,0:0:0:0:
192,192,49200,1,0,0:0:0:0:
320,192,49275,1,0,0:0:0:0:
448,192,49275,1,0,0:0:0:0:
64,192,49350,1,0,0:0:0:0:
192,192,49350,1,0,0:0:0:0:
448,192,49425,1,0,0:0:0:0:
320,192,49425,1,0,0:0:0:0:
64,192,49500,1,0,0:0:0:0:
192,192,49500,1,0,0:0:0:0:
64,192,49800,1,0,0:0:0:0:
320,192,49800,1,0,0:0:0:0:
192,192,49800,1,0,0:0:0:0:
448,192,49800,128,0,50100:0:0:0:0:
320,192,50100,1,0,0:0:0:0:
192,192,50250,1,0,0:0:0:0:
448,192,50400,1,0,0:0:0:0:
320,192,50400,1,0,0:0:0:0:
64,192,50400,1,0,0:0:0:0:
64,192,50550,1,0,0:0:0:0:
320,192,50550,1,0,0:0:0:0:
64,192,50700,1,0,0:0:0:0:
192,192,50700,1,0,0:0:0:0:
320,192,50700,1,0,0:0:0:0:
448,192,50700,1,0,0:0:0:0:
192,192,50850,1,0,0:0:0:0:
448,192,50850,1,0,0:0:0:0:
320,192,51000,1,0,0:0:0:0:
448,192,51000,1,0,0:0:0:0:
192,192,51150,1,0,0:0:0:0:
448,192,51150,1,0,0:0:0:0:
64,192,51300,1,0,0:0:0:0:
192,192,51300,1,0,0:0:0:0:
320,192,51450,1,0,0:0:0:0:
192,192,51450,1,0,0:0:0:0:
448,192,51450,1,0,0:0:0:0:
64,192,51600,1,0,0:0:0:0:
192,192,51600,1,0,0:0:0:0:
448,192,51750,1,0,0:0:0:0:
192,192,51750,1,0,0:0:0:0:
320,192,51750,1,0,0:0:0:0:
64,192,51900,1,0,0:0:0:0:
192,192,51900,1,0,0:0:0:0:
320,192,52050,1,0,0:0:0:0:
448,192,52050,1,0,0:0:0:0:
64,192,52200,1,0,0:0:0:0:
448,192,52200,1,0,0:0:0:0:
192,192,52200,1,0,0:0:0:0:
320,192,52200,1,0,0:0:0:0:
192,192,52350,1,0,0:0:0:0:
320,192,52350,1,0,0:0:0:0:
64,192,52500,1,0,0:0:0:0:
192,192,52500,1,0,0:0:0:0:
448,192,52500,1,0,0:0:0:0:
320,192,52650,1,0,0:0:0:0:
192,192,52650,1,0,0:0:0:0:
64,192,52800,1,0,0:0:0:0:
320,192,52800,1,0,0:0:0:0:
448,192,52800,1,0,0:0:0:0:
192,192,52950,1,0,0:0:0:0:
320,192,52950,1,0,0:0:0:0:
64,192,53100,1,0,0:0:0:0:
320,192,53100,1,0,0:0:0:0:
448,192,53100,1,0,0:0:0:0:
192,192,53250,1,0,0:0:0:0:
320,192,53250,1,0,0:0:0:0:
64,192,53400,1,0,0:0:0:0:
192,192,53400,1,0,0:0:0:0:
448,192,53400,1,0,0:0:0:0:
64,192,53550,1,0,0:0:0:0:
448,192,53550,1,0,0:0:0:0:
192,192,53700,1,0,0:0:0:0:
320,192,53700,1,0,0:0:0:0:
64,192,53700,1,0,0:0:0:0:
448,192,53850,1,0,0:0:0:0:
192,192,53850,1,0,0:0:0:0:
448,192,54000,1,0,0:0:0:0:
320,192,54000,1,0,0:0:0:0:
192,192,54000,1,0,0:0:0:0:
64,192,54000,1,0,0:0:0:0:
64,192,54150,1,0,0:0:0:0:
192,192,54150,1,0,0:0:0:0:
320,192,54150,1,0,0:0:0:0:
64,192,54300,1,0,0:0:0:0:
192,192,54300,1,0,0:0:0:0:
448,192,54300,1,0,0:0:0:0:
448,192,54450,1,0,0:0:0:0:
320,192,54450,1,0,0:0:0:0:
192,192,54450,1,0,0:0:0:0:
64,192,54450,1,0,0:0:0:0:
64,192,54600,1,0,0:0:0:0:
192,192,54600,1,0,0:0:0:0:
448,192,54750,1,0,0:0:0:0:
320,192,54750,1,0,0:0:0:0:
64,192,54900,1,0,0:0:0:0:
320,192,54900,1,0,0:0:0:0:
448,192,55050,1,0,0:0:0:0:
192,192,55050,1,0,0:0:0:0:
320,192,55050,1,0,0:0:0:0:
448,192,55200,1,0,0:0:0:0:
320,192,55200,1,0,0:0:0:0:
64,192,55200,1,0,0:0:0:0:
64,192,55350,1,0,0:0:0:0:
320,192,55350,1,0,0:0:0:0:
64,192,55500,1,0,0:0:0:0:
192,192,55500,1,0,0:0:0:0:
320,192,55500,1,0,0:0:0:0:
448,192,55500,1,0,0:0:0:0:
192,192,55650,1,0,0:0:0:0:
448,192,55650,1,0,0:0:0:0:
320,192,55800,1,0,0:0:0:0:
448,192,55800,1,0,0:0:0:0:
192,192,55950,1,0,0:0:0:0:
448,192,55950,1,0,0:0:0:0:
64,192,56100,1,0,0:0:0:0:
192,192,56100,1,0,0:0:0:0:
320,192,56250,1,0,0:0:0:0:
192,192,56250,1,0,0:0:0:0:
448,192,56250,1,0,0:0:0:0:
64,192,56400,1,0,0:0:0:0:
192,192,56400,1,0,0:0:0:0:
448,192,56550,1,0,0:0:0:0:
192,192,56550,1,0,0:0:0:0:
320,192,56550,1,0,0:0:0:0:
64,192,56700,1,0,0:0:0:0:
192,192,56700,1,0,0:0:0:0:
320,192,56850,1,0,0:0:0:0:
448,192,56850,1,0,0:0:0:0:
64,192,57000,1,0,0:0:0:0:
448,192,57000,1,0,0:0:0:0:
192,192,57000,1,0,0:0:0:0:
320,192,57000,1,0,0:0:0:0:
192,192,57150,1,0,0:0:0:0:
320,192,57150,1,0,0:0:0:0:
64,192,57300,1,0,0:0:0:0:
192,192,57300,1,0,0:0:0:0:
448,192,57300,1,0,0:0:0:0:
320,192,57450,1,0,0:0:0:0:
192,192,57450,1,0,0:0:0:0:
64,192,57600,1,0,0:0:0:0:
320,192,57600,1,0,0:0:0:0:
448,192,57600,1,0,0:0:0:0:
192,192,57750,1,0,0:0:0:0:
320,192,57750,1,0,0:0:0:0:
64,192,57900,1,0,0:0:0:0:
320,192,57900,1,0,0:0:0:0:
448,192,57900,1,0,0:0:0:0:
192,192,58050,1,0,0:0:0:0:
320,192,58050,1,0,0:0:0:0:
64,192,58200,1,0,0:0:0:0:
192,192,58200,1,0,0:0:0:0:
448,192,58200,1,0,0:0:0:0:
64,192,58350,1,0,0:0:0:0:
448,192,58350,1,0,0:0:0:0:
192,192,58500,1,0,0:0:0:0:
320,192,58500,1,0,0:0:0:0:
64,192,58500,1,0,0:0:0:0:
448,192,58650,1,0,0:0:0:0:
192,192,58650,1,0,0:0:0:0:
448,192,58800,1,0,0:0:0:0:
320,192,58800,1,0,0:0:0:0:
192,192,58800,1,0,0:0:0:0:
64,192,58800,1,0,0:0:0:0:
64,192,58950,1,0,0:0:0:0:
192,192,58950,1,0,0:0:0:0:
320,192,58950,1,0,0:0:0:0:
64,192,59100,1,0,0:0:0:0:
192,192,59100,1,0,0:0:0:0:
448,192,59100,1,0,0:0:0:0:
448,192,59250,1,0,0:0:0:0:
320,192,59250,1,0,0:0:0:0:
192,192,59250,1,0,0:0:0:0:
64,192,59250,1,0,0:0:0:0:
64,192,59400,1,0,0:0:0:0:
192,192,59400,1,0,0:0:0:0:
448,192,59550,1,0,0:0:0:0:
320,192,59550,1,0,0:0:0:0:
64,192,59700,1,0,0:0:0:0:
320,192,59700,1,0,0:0:0:0:
192,192,59700,1,0,0:0:0:0:
448,192,59850,1,0,0:0:0:0:
192,192,59850,1,0,0:0:0:0:
64,192,60000,1,0,0:0:0:0:
192,192,60075,1,0,0:0:0:0:
320,192,60150,1,0,0:0:0:0:
448,192,60225,1,0,0:0:0:0:
64,192,60300,1,0,0:0:0:0:
192,192,60375,1,0,0:0:0:0:
320,192,60450,1,0,0:0:0:0:
448,192,60525,1,0,0:0:0:0:
64,192,60600,1,0,0:0:0:0:
192,192,60600,1,0,0:0:0:0:
320,192,60600,1,0,0:0:0:0:
448,192,60750,1,0,0:0:0:0:
192,192,60750,1,0,0:0:0:0:
64,192,60900,1,0,0:0:0:0:
192,192,60900,1,0,0:0:0:0:
320,192,60900,1,0,0:0:0:0:
448,192,61050,1,0,0:0:0:0:
320,192,61050,1,0,0:0:0:0:
448,192,61200,1,0,0:0:0:0:
64,192,61200,1,0,0:0:0:0:
192,192,61200,1,0,0:0:0:0:
192,192,61350,1,0,0:0:0:0:
320,192,61350,1,0,0:0:0:0:
448,192,61500,1,0,0:0:0:0:
64,192,61500,1,0,0:0:0:0:
320,192,61500,1,0,0:0:0:0:
64,192,61650,1,0,0:0:0:0:
320,192,61650,1,0,0:0:0:0:
64,192,61800,1,0,0:0:0:0:
192,192,61800,1,0,0:0:0:0:
320,192,61800,1,0,0:0:0:0:
448,192,61800,1,0,0:0:0:0:
192,192,61950,1,0,0:0:0:0:
320,192,61950,1,0,0:0:0:0:
64,192,62100,1,0,0:0:0:0:
320,192,62100,1,0,0:0:0:0:
64,192,62250,1,0,0:0:0:0:
320,192,62250,1,0,0:0:0:0:
192,192,62250,1,0,0:0:0:0:
448,192,62250,1,0,0:0:0:0:
64,192,62400,1,0,0:0:0:0:
192,192,62400,1,0,0:0:0:0:
448,192,62400,1,0,0:0:0:0:
64,192,62550,1,0,0:0:0:0:
320,192,62550,1,0,0:0:0:0:
64,192,62700,1,0,0:0:0:0:
192,192,62700,1,0,0:0:0:0:
320,192,62700,1,0,0:0:0:0:
448,192,62700,1,0,0:0:0:0:
192,192,62850,1,0,0:0:0:0:
320,192,62850,1,0,0:0:0:0:
64,192,63000,1,0,0:0:0:0:
320,192,63000,1,0,0:0:0:0:
448,192,63150,1,0,0:0:0:0:
192,192,63150,1,0,0:0:0:0:
64,192,63150,1,0,0:0:0:0:
320,192,63150,1,0,0:0:0:0:
192,192,63300,1,0,0:0:0:0:
320,192,63300,1,0,0:0:0:0:
64,192,63450,1,0,0:0:0:0:
448,192,63450,1,0,0:0:0:0:
192,192,63600,1,0,0:0:0:0:
320,192,63600,1,0,0:0:0:0:
64,192,63600,128,0,63900:0:0:0:0:
320,192,63750,1,0,0:0:0:0:
192,192,63750,1,0,0:0:0:0:
448,192,63900,1,0,0:0:0:0:
192,192,63900,1,0,0:0:0:0:
64,192,64050,1,0,0:0:0:0:
320,192,64050,1,0,0:0:0:0:
192,192,64050,1,0,0:0:0:0:
448,192,64200,1,0,0:0:0:0:
64,192,64200,1,0,0:0:0:0:
192,192,64200,1,0,0:0:0:0:
320,192,64200,1,0,0:0:0:0:
64,192,64350,1,0,0:0:0:0:
448,192,64350,1,0,0:0:0:0:
192,192,64350,1,0,0:0:0:0:
192,192,64500,1,0,0:0:0:0:
320,192,64500,1,0,0:0:0:0:
448,192,64500,1,0,0:0:0:0:
192,192,64650,1,0,0:0:0:0:
320,192,64650,1,0,0:0:0:0:
64,192,64650,1,0,0:0:0:0:
64,192,64800,1,0,0:0:0:0:
192,192,64875,1,0,0:0:0:0:
320,192,64950,1,0,0:0:0:0:
448,192,65025,1,0,0:0:0:0:
64,192,65100,1,0,0:0:0:0:
192,192,65175,1,0,0:0:0:0:
320,192,65250,1,0,0:0:0:0:
448,192,65325,1,0,0:0:0:0:
64,192,65400,1,0,0:0:0:0:
192,192,65400,1,0,0:0:0:0:
320,192,65400,1,0,0:0:0:0:
448,192,65550,1,0,0:0:0:0:
192,192,65550,1,0,0:0:0:0:
64,192,65700,1,0,0:0:0:0:
192,192,65700,1,0,0:0:0:0:
320,192,65700,1,0,0:0:0:0:
448,192,65850,1,0,0:0:0:0:
320,192,65850,1,0,0:0:0:0:
448,192,66000,1,0,0:0:0:0:
64,192,66000,1,0,0:0:0:0:
192,192,66000,1,0,0:0:0:0:
192,192,66150,1,0,0:0:0:0:
320,192,66150,1,0,0:0:0:0:
448,192,66300,1,0,0:0:0:0:
64,192,66300,1,0,0:0:0:0:
320,192,66300,1,0,0:0:0:0:
64,192,66450,1,0,0:0:0:0:
320,192,66450,1,0,0:0:0:0:
64,192,66600,1,0,0:0:0:0:
192,192,66600,1,0,0:0:0:0:
320,192,66600,1,0,0:0:0:0:
448,192,66600,1,0,0:0:0:0:
192,192,66750,1,0,0:0:0:0:
320,192,66750,1,0,0:0:0:0:
64,192,66900,1,0,0:0:0:0:
320,192,66900,1,0,0:0:0:0:
64,192,67050,1,0,0:0:0:0:
320,192,67050,1,0,0:0:0:0:
192,192,67050,1,0,0:0:0:0:
448,192,67050,1,0,0:0:0:0:
64,192,67200,1,0,0:0:0:0:
192,192,67200,1,0,0:0:0:0:
448,192,67200,1,0,0:0:0:0:
64,192,67350,1,0,0:0:0:0:
320,192,67350,1,0,0:0:0:0:
64,192,67500,1,0,0:0:0:0:
192,192,67500,1,0,0:0:0:0:
320,192,67500,1,0,0:0:0:0:
448,192,67500,1,0,0:0:0:0:
192,192,67650,1,0,0:0:0:0:
320,192,67650,1,0,0:0:0:0:
64,192,67800,1,0,0:0:0:0:
320,192,67800,1,0,0:0:0:0:
448,192,67950,1,0,0:0:0:0:
192,192,67950,1,0,0:0:0:0:
64,192,67950,1,0,0:0:0:0:
320,192,67950,1,0,0:0:0:0:
192,192,68100,1,0,0:0:0:0:
320,192,68100,1,0,0:0:0:0:
64,192,68250,1,0,0:0:0:0:
448,192,68250,1,0,0:0:0:0:
192,192,68400,1,0,0:0:0:0:
320,192,68400,1,0,0:0:0:0:
64,192,68400,128,0,68700:0:0:0:0:
320,192,68550,1,0,0:0:0:0:
192,192,68550,1,0,0:0:0:0:
448,192,68700,1,0,0:0:0:0:
192,192,68700,1,0,0:0:0:0:
64,192,68850,1,0,0:0:0:0:
320,192,68850,1,0,0:0:0:0:
192,192,68850,1,0,0:0:0:0:
448,192,69000,1,0,0:0:0:0:
64,192,69000,1,0,0:0:0:0:
192,192,69000,1,0,0:0:0:0:
320,192,69000,1,0,0:0:0:0:
64,192,69150,1,0,0:0:0:0:
448,192,69150,1,0,0:0:0:0:
192,192,69150,1,0,0:0:0:0:
192,192,69300,1,0,0:0:0:0:
320,192,69300,1,0,0:0:0:0:
448,192,69300,1,0,0:0:0:0:
192,192,69450,1,0,0:0:0:0:
320,192,69450,1,0,0:0:0:0:
64,192,69450,1,0,0:0:0:0:
64,192,71400,128,0,71925:0:0:0:0:
192,192,71475,128,0,71925:0:0:0:0:
320,192,71550,128,0,71925:0:0:0:0:
448,192,71625,128,0,71925:0:0:0:0:
64,192,72000,1,0,0:0:0:0:
192,192,72000,1,0,0:0:0:0:
448,192,72000,128,0,73200:0:0:0:0:
320,192,72300,1,0,0:0:0:0:
64,192,72600,1,0,0:0:0:0:
192,192,72600,1,0,0:0:0:0:
192,192,72900,1,0,0:0:0:0:
320,192,73200,128,0,73650:0:0:0:0:
64,192,73200,1,0,0:0:0:0:
192,192,73200,1,0,0:0:0:0:
64,192,73500,1,0,0:0:0:0:
192,192,73650,128,0,73800:0:0:0:0:
320,192,73800,128,0,74400:0:0:0:0:
448,192,73800,1,0,0:0:0:0:
64,192,73800,128,0,73950:0:0:0:0:
192,192,74100,1,0,0:0:0:0:
64,192,74100,1,0,0:0:0:0:
448,192,74100,128,0,74250:0:0:0:0:
64,192,74400,128,0,75000:0:0:0:0:
448,192,74550,128,0,75000:0:0:0:0:
192,192,74550,128,0,74700:0:0:0:0:
320,192,74700,128,0,75000:0:0:0:0:
192,192,75000,128,0,75600:0:0:0:0:
448,192,75300,128,0,75600:0:0:0:0:
64,192,75300,128,0,75600:0:0:0:0:
320,192,75600,128,0,76200:0:0:0:0:
192,192,75750,128,0,76050:0:0:0:0:
64,192,75900,128,0,76050:0:0:0:0:
448,192,75900,128,0,76050:0:0:0:0:
448,192,76200,128,0,76800:0:0:0:0:
192,192,76200,128,0,76350:0:0:0:0:
64,192,76350,128,0,76650:0:0:0:0:
320,192,76500,128,0,76800:0:0:0:0:
192,192,76800,128,0,77100:0:0:0:0:
64,192,76950,128,0,77100:0:0:0:0:
448,192,76950,128,0,77100:0:0:0:0:
320,192,77100,128,0,77400:0:0:0:0:
64,192,77400,128,0,77475:0:0:0:0:
192,192,77475,128,0,77550:0:0:0:0:
320,192,77550,128,0,77625:0:0:0:0:
448,192,77625,128,0,77700:0:0:0:0:
64,192,77700,1,0,0:0:0:0:
320,192,77850,1,0,0:0:0:0:
64,192,78000,128,0,78600:0:0:0:0:
192,192,78300,1,0,0:0:0:0:
320,192,78300,1,0,0:0:0:0:
448,192,78600,128,0,79200:0:0:0:0:
320,192,78900,1,0,0:0:0:0:
192,192,78900,1,0,0:0:0:0:
320,192,79200,128,0,79800:0:0:0:0:
64,192,79500,1,0,0:0:0:0:
192,192,79500,1,0,0:0:0:0:
192,192,80100,1,0,0:0:0:0:
320,192,80100,1,0,0:0:0:0:
64,192,80400,128,0,81000:0:0:0:0:
448,192,80400,128,0,81000:0:0:0:0:
192,192,81000,128,0,81300:0:0:0:0:
320,192,81300,128,0,81600:0:0:0:0:
64,192,81600,1,0,0:0:0:0:
192,192,81675,1,0,0:0:0:0:
320,192,81750,1,0,0:0:0:0:
192,192,82200,1,0,0:0:0:0:
320,192,82200,1,0,0:0:0:0:
192,192,82800,1,0,0:0:0:0:
320,192,82800,1,0,0:0:0:0:
448,192,83400,128,0,84000:0:0:0:0:
64,192,83400,1,0,0:0:0:0:
192,192,83400,1,0,0:0:0:0:
64,192,84000,128,0,84300:0:0:0:0:
192,192,84000,128,0,84600:0:0:0:0:
320,192,84600,128,0,85200:0:0:0:0:
448,192,84600,128,0,84900:0:0:0:0:
64,192,84900,128,0,85200:0:0:0:0:
192,192,85200,128,0,85800:0:0:0:0:
320,192,85500,128,0,85800:0:0:0:0:
64,192,85800,128,0,86250:0:0:0:0:
448,192,86100,128,0,86400:0:0:0:0:
192,192,86400,128,0,87000:0:0:0:0:
320,192,86400,128,0,86700:0:0:0:0:
64,192,86700,128,0,87000:0:0:0:0:
448,192,86700,128,0,87000:0:0:0:0:
320,192,87000,128,0,87600:0:0:0:0:
448,192,87150,128,0,87300:0:0:0:0:
192,192,87300,128,0,87450:0:0:0:0:
64,192,87450,128,0,87600:0:0:0:0:
192,192,87600,128,0,88200:0:0:0:0:
448,192,87600,128,0,87900:0:0:0:0:
320,192,87900,128,0,88050:0:0:0:0:
64,192,87900,128,0,88350:0:0:0:0:
320,192,88200,128,0,88800:0:0:0:0:
448,192,88200,128,0,88350:0:0:0:0:
448,192,88500,128,0,88800:0:0:0:0:
192,192,88500,128,0,88650:0:0:0:0:
64,192,88650,128,0,88800:0:0:0:0:
192,192,88800,128,0,89400:0:0:0:0:
320,192,88950,128,0,89400:0:0:0:0:
64,192,89100,128,0,89250:0:0:0:0:
448,192,89400,128,0,90000:0:0:0:0:
192,192,89550,128,0,89700:0:0:0:0:
320,192,89700,128,0,89850:0:0:0:0:
64,192,89700,128,0,90000:0:0:0:0:
192,192,90000,128,0,90600:0:0:0:0:
320,192,90000,128,0,90600:0:0:0:0:
64,192,90150,128,0,90450:0:0:0:0:
448,192,90300,128,0,90600:0:0:0:0:
192,192,91200,1,0,0:0:0:0:
320,192,91200,1,0,0:0:0:0:
64,192,91350,1,0,0:0:0:0:
448,192,91350,1,0,0:0:0:0:
320,192,91350,1,0,0:0:0:0:
64,192,91500,1,0,0:0:0:0:
192,192,91500,1,0,0:0:0:0:
320,192,91500,1,0,0:0:0:0:
448,192,91500,1,0,0:0:0:0:
192,192,91650,1,0,0:0:0:0:
448,192,91650,1,0,0:0:0:0:
64,192,91800,1,0,0:0:0:0:
448,192,91800,1,0,0:0:0:0:
320,192,91800,1,0,0:0:0:0:
192,192,91950,1,0,0:0:0:0:
320,192,91950,1,0,0:0:0:0:
448,192,91950,1,0,0:0:0:0:
64,192,92100,1,0,0:0:0:0:
320,192,92100,1,0,0:0:0:0:
64,192,92250,1,0,0:0:0:0:
192,192,92250,1,0,0:0:0:0:
320,192,92250,1,0,0:0:0:0:
448,192,92250,1,0,0:0:0:0:
320,192,92400,1,0,0:0:0:0:
64,192,92400,1,0,0:0:0:0:
320,192,92550,1,0,0:0:0:0:
448,192,92550,1,0,0:0:0:0:
192,192,92550,1,0,0:0:0:0:
448,192,92700,1,0,0:0:0:0:
320,192,92700,1,0,0:0:0:0:
64,192,92700,1,0,0:0:0:0:
64,192,92850,1,0,0:0:0:0:
320,192,92850,1,0,0:0:0:0:
64,192,93000,1,0,0:0:0:0:
320,192,93000,1,0,0:0:0:0:
192,192,93000,1,0,0:0:0:0:
448,192,93000,1,0,0:0:0:0:
64,192,93150,1,0,0:0:0:0:
320,192,93150,1,0,0:0:0:0:
448,192,93300,1,0,0:0:0:0:
320,192,93300,1,0,0:0:0:0:
192,192,93300,1,0,0:0:0:0:
64,192,93450,1,0,0:0:0:0:
192,192,93450,1,0,0:0:0:0:
320,192,93450,1,0,0:0:0:0:
448,192,93600,1,0,0:0:0:0:
320,192,93600,1,0,0:0:0:0:
192,192,93600,1,0,0:0:0:0:
64,192,93600,1,0,0:0:0:0:
192,192,93750,1,0,0:0:0:0:
320,192,93750,1,0,0:0:0:0:
64,192,93900,1,0,0:0:0:0:
320,192,93900,1,0,0:0:0:0:
448,192,93900,1,0,0:0:0:0:
64,192,94050,1,0,0:0:0:0:
192,192,94050,1,0,0:0:0:0:
64,192,94200,1,0,0:0:0:0:
192,192,94200,1,0,0:0:0:0:
320,192,94200,1,0,0:0:0:0:
448,192,94200,1,0,0:0:0:0:
448,192,94350,1,0,0:0:0:0:
320,192,94350,1,0,0:0:0:0:
64,192,94500,1,0,0:0:0:0:
320,192,94500,1,0,0:0:0:0:
192,192,94500,1,0,0:0:0:0:
448,192,94650,1,0,0:0:0:0:
192,192,94650,1,0,0:0:0:0:
64,192,94800,1,0,0:0:0:0:
320,192,94800,1,0,0:0:0:0:
192,192,94800,128,0,95100:0:0:0:0:
448,192,94950,1,0,0:0:0:0:
320,192,94950,1,0,0:0:0:0:
64,192,95100,1,0,0:0:0:0:
448,192,95100,1,0,0:0:0:0:
448,192,95250,1,0,0:0:0:0:
192,192,95250,1,0,0:0:0:0:
64,192,95400,1,0,0:0:0:0:
192,192,95400,1,0,0:0:0:0:
448,192,95400,1,0,0:0:0:0:
320,192,95550,1,0,0:0:0:0:
192,192,95550,1,0,0:0:0:0:
448,192,95700,1,0,0:0:0:0:
64,192,95700,1,0,0:0:0:0:
64,192,95850,1,0,0:0:0:0:
192,192,95850,1,0,0:0:0:0:
320,192,95850,1,0,0:0:0:0:
448,192,95850,1,0,0:0:0:0:
64,192,96000,1,0,0:0:0:0:
192,192,96000,1,0,0:0:0:0:
320,192,96000,1,0,0:0:0:0:
448,192,96000,1,0,0:0:0:0:
64,192,96150,1,0,0:0:0:0:
448,192,96150,1,0,0:0:0:0:
64,192,96300,1,0,0:0:0:0:
192,192,96300,1,0,0:0:0:0:
64,192,96450,1,0,0:0:0:0:
192,192,96450,1,0,0:0:0:0:
448,192,96450,1,0,0:0:0:0:
192,192,96600,1,0,0:0:0:0:
64,192,96750,1,0,0:0:0:0:
192,192,96750,1,0,0:0:0:0:
320,192,96750,1,0,0:0:0:0:
320,192,96900,128,0,97050:0:0:0:0:
192,192,96900,1,0,0:0:0:0:
64,192,96900,1,0,0:0:0:0:
448,192,97050,1,0,0:0:0:0:
64,192,97050,1,0,0:0:0:0:
192,192,97050,1,0,0:0:0:0:
64,192,97200,1,0,0:0:0:0:
192,192,97200,1,0,0:0:0:0:
320,192,97200,1,0,0:0:0:0:
448,192,97200,1,0,0:0:0:0:
64,192,97350,1,0,0:0:0:0:
320,192,97350,1,0,0:0:0:0:
192,192,97500,1,0,0:0:0:0:
320,192,97500,1,0,0:0:0:0:
448,192,97500,1,0,0:0:0:0:
64,192,97650,1,0,0:0:0:0:
192,192,97650,1,0,0:0:0:0:
320,192,97650,1,0,0:0:0:0:
448,192,97650,1,0,0:0:0:0:
192,192,97800,1,0,0:0:0:0:
320,192,97800,1,0,0:0:0:0:
64,192,97950,1,0,0:0:0:0:
320,192,97950,1,0,0:0:0:0:
192,192,98100,1,0,0:0:0:0:
320,192,98100,1,0,0:0:0:0:
448,192,98100,1,0,0:0:0:0:
64,192,98250,1,0,0:0:0:0:
192,192,98250,1,0,0:0:0:0:
448,192,98250,1,0,0:0:0:0:
320,192,98250,1,0,0:0:0:0:
192,192,98400,1,0,0:0:0:0:
320,192,98400,1,0,0:0:0:0:
64,192,98400,128,0,98550:0:0:0:0:
448,192,98400,1,0,0:0:0:0:
192,192,98700,1,0,0:0:0:0:
320,192,98700,1,0,0:0:0:0:
448,192,98700,128,0,98850:0:0:0:0:
64,192,98700,1,0,0:0:0:0:
64,192,99000,1,0,0:0:0:0:
192,192,99000,1,0,0:0:0:0:
320,192,99000,1,0,0:0:0:0:
448,192,99000,1,0,0:0:0:0:
64,192,99150,1,0,0:0:0:0:
320,192,99150,1,0,0:0:0:0:
192,192,99300,1,0,0:0:0:0:
448,192,99300,1,0,0:0:0:0:
320,192,99300,1,0,0:0:0:0:
64,192,99450,1,0,0:0:0:0:
192,192,99450,1,0,0:0:0:0:
448,192,99450,1,0,0:0:0:0:
320,192,99450,1,0,0:0:0:0:
192,192,99600,1,0,0:0:0:0:
320,192,99600,1,0,0:0:0:0:
192,192,99900,1,0,0:0:0:0:
320,192,99900,1,0,0:0:0:0:
64,192,100050,1,0,0:0:0:0:
320,192,100050,1,0,0:0:0:0:
192,192,100200,1,0,0:0:0:0:
448,192,100200,1,0,0:0:0:0:
192,192,100350,1,0,0:0:0:0:
320,192,100350,1,0,0:0:0:0:
64,192,100350,1,0,0:0:0:0:
192,192,100500,1,0,0:0:0:0:
320,192,100500,1,0,0:0:0:0:
64,192,100500,1,0,0:0:0:0:
448,192,100500,1,0,0:0:0:0:
448,192,100650,1,0,0:0:0:0:
192,192,100650,1,0,0:0:0:0:
64,192,100800,1,0,0:0:0:0:
192,192,100800,1,0,0:0:0:0:
448,192,100875,1,0,0:0:0:0:
320,192,100950,1,0,0:0:0:0:
64,192,101025,1,0,0:0:0:0:
448,192,101100,1,0,0:0:0:0:
320,192,101100,1,0,0:0:0:0:
192,192,101175,1,0,0:0:0:0:
64,192,101250,1,0,0:0:0:0:
192,192,101325,1,0,0:0:0:0:
448,192,101400,1,0,0:0:0:0:
320,192,101400,1,0,0:0:0:0:
64,192,101550,1,0,0:0:0:0:
192,192,101550,1,0,0:0:0:0:
448,192,101550,1,0,0:0:0:0:
320,192,101700,1,0,0:0:0:0:
192,192,101700,1,0,0:0:0:0:
64,192,101700,1,0,0:0:0:0:
448,192,101700,1,0,0:0:0:0:
192,192,101850,1,0,0:0:0:0:
320,192,101850,1,0,0:0:0:0:
64,192,102000,1,0,0:0:0:0:
320,192,102000,1,0,0:0:0:0:
448,192,102150,1,0,0:0:0:0:
320,192,102150,1,0,0:0:0:0:
64,192,102150,1,0,0:0:0:0:
64,192,102300,1,0,0:0:0:0:
192,192,102300,1,0,0:0:0:0:
320,192,102300,1,0,0:0:0:0:
448,192,102300,1,0,0:0:0:0:
192,192,102450,1,0,0:0:0:0:
448,192,102450,1,0,0:0:0:0:
64,192,102600,1,0,0:0:0:0:
320,192,102600,1,0,0:0:0:0:
192,192,102600,1,0,0:0:0:0:
64,192,102750,1,0,0:0:0:0:
448,192,102750,1,0,0:0:0:0:
64,192,102900,1,0,0:0:0:0:
448,192,102900,1,0,0:0:0:0:
192,192,102900,1,0,0:0:0:0:
64,192,103050,1,0,0:0:0:0:
192,192,103050,1,0,0:0:0:0:
448,192,103050,1,0,0:0:0:0:
448,192,103200,1,0,0:0:0:0:
320,192,103200,1,0,0:0:0:0:
64,192,103200,1,0,0:0:0:0:
64,192,103350,1,0,0:0:0:0:
192,192,103350,1,0,0:0:0:0:
448,192,103350,1,0,0:0:0:0:
448,192,103500,128,0,103800:0:0:0:0:
320,192,103500,1,0,0:0:0:0:
64,192,103500,1,0,0:0:0:0:
192,192,103650,1,0,0:0:0:0:
320,192,103650,1,0,0:0:0:0:
64,192,103650,1,0,0:0:0:0:
64,192,103800,1,0,0:0:0:0:
320,192,103800,1,0,0:0:0:0:
64,192,103950,1,0,0:0:0:0:
192,192,103950,1,0,0:0:0:0:
320,192,103950,1,0,0:0:0:0:
448,192,103950,1,0,0:0:0:0:
448,192,104100,1,0,0:0:0:0:
64,192,104100,1,0,0:0:0:0:
192,192,104100,1,0,0:0:0:0:
64,192,104250,1,0,0:0:0:0:
320,192,104250,1,0,0:0:0:0:
192,192,104250,1,0,0:0:0:0:
448,192,104400,1,0,0:0:0:0:
320,192,104400,1,0,0:0:0:0:
64,192,104400,1,0,0:0:0:0:
64,192,104550,1,0,0:0:0:0:
192,192,104550,1,0,0:0:0:0:
320,192,104550,1,0,0:0:0:0:
448,192,104550,1,0,0:0:0:0:
192,192,104700,1,0,0:0:0:0:
320,192,104700,1,0,0:0:0:0:
448,192,104700,1,0,0:0:0:0:
448,192,104850,1,0,0:0:0:0:
64,192,104850,1,0,0:0:0:0:
192,192,104850,1,0,0:0:0:0:
448,192,105000,1,0,0:0:0:0:
64,192,105000,1,0,0:0:0:0:
320,192,105000,1,0,0:0:0:0:
448,192,105150,1,0,0:0:0:0:
192,192,105150,1,0,0:0:0:0:
64,192,105150,1,0,0:0:0:0:
448,192,105300,1,0,0:0:0:0:
320,192,105300,1,0,0:0:0:0:
64,192,105300,1,0,0:0:0:0:
448,192,105450,1,0,0:0:0:0:
192,192,105450,1,0,0:0:0:0:
320,192,105450,1,0,0:0:0:0:
64,192,105600,1,0,0:0:0:0:
320,192,105600,1,0,0:0:0:0:
64,192,105750,1,0,0:0:0:0:
192,192,105750,1,0,0:0:0:0:
320,192,105750,1,0,0:0:0:0:
64,192,105900,1,0,0:0:0:0:
320,192,105900,1,0,0:0:0:0:
64,192,106050,1,0,0:0:0:0:
192,192,106050,1,0,0:0:0:0:
320,192,106050,1,0,0:0:0:0:
448,192,106200,1,0,0:0:0:0:
320,192,106200,1,0,0:0:0:0:
192,192,106200,1,0,0:0:0:0:
64,192,106200,1,0,0:0:0:0:
192,192,106350,1,0,0:0:0:0:
448,192,106350,1,0,0:0:0:0:
64,192,106500,1,0,0:0:0:0:
320,192,106500,1,0,0:0:0:0:
448,192,106500,1,0,0:0:0:0:
192,192,106650,1,0,0:0:0:0:
448,192,106650,1,0,0:0:0:0:
64,192,106800,1,0,0:0:0:0:
192,192,106800,1,0,0:0:0:0:
448,192,106800,1,0,0:0:0:0:
64,192,106950,1,0,0:0:0:0:
192,192,106950,1,0,0:0:0:0:
448,192,106950,1,0,0:0:0:0:
320,192,106950,1,0,0:0:0:0:
192,192,107100,1,0,0:0:0:0:
320,192,107100,1,0,0:0:0:0:
64,192,107250,1,0,0:0:0:0:
192,192,107250,1,0,0:0:0:0:
320,192,107250,1,0,0:0:0:0:
64,192,107400,1,0,0:0:0:0:
192,192,107400,1,0,0:0:0:0:
320,192,107400,1,0,0:0:0:0:
448,192,107400,1,0,0:0:0:0:
448,192,107550,1,0,0:0:0:0:
64,192,107550,1,0,0:0:0:0:
192,192,107550,1,0,0:0:0:0:
64,192,107700,1,0,0:0:0:0:
192,192,107700,1,0,0:0:0:0:
320,192,107700,1,0,0:0:0:0:
192,192,107850,1,0,0:0:0:0:
320,192,107850,1,0,0:0:0:0:
448,192,107850,1,0,0:0:0:0:
64,192,108000,1,0,0:0:0:0:
192,192,108000,1,0,0:0:0:0:
320,192,108000,1,0,0:0:0:0:
448,192,108000,1,0,0:0:0:0:
448,192,108150,1,0,0:0:0:0:
64,192,108150,1,0,0:0:0:0:
192,192,108300,1,0,0:0:0:0:
320,192,108300,1,0,0:0:0:0:
64,192,108450,1,0,0:0:0:0:
192,192,108450,1,0,0:0:0:0:
320,192,108450,1,0,0:0:0:0:
320,192,108600,1,0,0:0:0:0:
192,192,108600,1,0,0:0:0:0:
64,192,108750,1,0,0:0:0:0:
192,192,108750,1,0,0:0:0:0:
192,192,108900,1,0,0:0:0:0:
64,192,108900,1,0,0:0:0:0:
192,192,109050,1,0,0:0:0:0:
64,192,109050,1,0,0:0:0:0:
192,192,109200,1,0,0:0:0:0:
64,192,109200,1,0,0:0:0:0:
192,192,109350,1,0,0:0:0:0:
64,192,109350,1,0,0:0:0:0:
192,192,109500,1,0,0:0:0:0:
64,192,109500,1,0,0:0:0:0:
448,192,109650,1,0,0:0:0:0:
448,192,109800,1,0,0:0:0:0:
320,192,109800,1,0,0:0:0:0:
192,192,109950,128,0,110400:0:0:0:0:
448,192,109950,1,0,0:0:0:0:
320,192,109950,1,0,0:0:0:0:
448,192,110100,1,0,0:0:0:0:
320,192,110100,1,0,0:0:0:0:
448,192,110250,1,0,0:0:0:0:
320,192,110250,1,0,0:0:0:0:
64,192,112800,128,0,114450:0:0:0:0:
192,192,112800,1,0,0:0:0:0:
320,192,112800,1,0,0:0:0:0:
192,192,113400,1,0,0:0:0:0:
320,192,113400,1,0,0:0:0:0:
448,192,114000,128,0,115200:0:0:0:0:
192,192,114000,1,0,0:0:0:0:
320,192,114000,1,0,0:0:0:0:
192,192,114600,1,0,0:0:0:0:
320,192,114600,1,0,0:0:0:0:
192,192,115200,128,0,117000:0:0:0:0:
64,192,115200,1,0,0:0:0:0:
320,192,115200,1,0,0:0:0:0:
64,192,115800,1,0,0:0:0:0:
320,192,115800,1,0,0:0:0:0:
320,192,116400,128,0,117600:0:0:0:0:
64,192,116400,1,0,0:0:0:0:
448,192,116400,1,0,0:0:0:0:
64,192,117000,1,0,0:0:0:0:
192,192,117300,1,0,0:0:0:0:
64,192,117600,128,0,119400:0:0:0:0:
448,192,117600,1,0,0:0:0:0:
192,192,118200,1,0,0:0:0:0:
448,192,118200,1,0,0:0:0:0:
448,192,118800,128,0,120000:0:0:0:0:
192,192,118800,1,0,0:0:0:0:
320,192,118800,1,0,0:0:0:0:
192,192,119400,1,0,0:0:0:0:
320,192,119400,1,0,0:0:0:0:
192,192,120000,128,0,120600:0:0:0:0:
64,192,120000,1,0,0:0:0:0:
320,192,120600,128,0,121200:0:0:0:0:
448,192,120600,1,0,0:0:0:0:
64,192,121200,128,0,121500:0:0:0:0:
192,192,121200,128,0,122400:0:0:0:0:
448,192,121200,1,0,0:0:0:0:
448,192,121500,128,0,121800:0:0:0:0:
64,192,121800,1,0,0:0:0:0:
448,192,122400,1,0,0:0:0:0:
320,192,122400,1,0,0:0:0:0:
64,192,122400,128,0,124200:0:0:0:0:
192,192,123000,1,0,0:0:0:0:
448,192,123000,1,0,0:0:0:0:
192,192,123600,128,0,124650:0:0:0:0:
320,192,123600,1,0,0:0:0:0:
448,192,123600,1,0,0:0:0:0:
320,192,124200,1,0,0:0:0:0:
448,192,124200,1,0,0:0:0:0:
448,192,124800,1,0,0:0:0:0:
320,192,124800,1,0,0:0:0:0:
64,192,124800,128,0,125400:0:0:0:0:
448,192,125400,128,0,126000:0:0:0:0:
192,192,125400,1,0,0:0:0:0:
192,192,126000,128,0,126600:0:0:0:0:
64,192,126000,1,0,0:0:0:0:
320,192,126000,1,0,0:0:0:0:
320,192,126600,128,0,127200:0:0:0:0:
448,192,126600,1,0,0:0:0:0:
64,192,126600,128,0,127650:0:0:0:0:
192,192,127350,128,0,127800:0:0:0:0:
320,192,127500,128,0,127800:0:0:0:0:
64,192,127800,1,0,0:0:0:0:
448,192,127800,128,0,129600:0:0:0:0:
64,192,128400,1,0,0:0:0:0:
192,192,128400,1,0,0:0:0:0:
320,192,128400,128,0,128700:0:0:0:0:
192,192,128700,128,0,129600:0:0:0:0:
64,192,129600,128,0,130200:0:0:0:0:
448,192,130200,128,0,130800:0:0:0:0:
192,192,130800,128,0,131400:0:0:0:0:
64,192,132000,1,0,0:0:0:0:
192,192,132000,1,0,0:0:0:0:
320,192,132000,1,0,0:0:0:0:
448,192,132000,1,0,0:0:0:0:
192,192,132300,1,0,0:0:0:0:
320,192,132300,1,0,0:0:0:0:
64,192,132600,1,0,0:0:0:0:
192,192,132600,1,0,0:0:0:0:
320,192,132600,1,0,0:0:0:0:
448,192,132600,1,0,0:0:0:0:
64,192,132750,1,0,0:0:0:0:
320,192,132750,1,0,0:0:0:0:
64,192,132900,1,0,0:0:0:0:
192,192,132900,1,0,0:0:0:0:
448,192,132900,1,0,0:0:0:0:
192,192,133050,1,0,0:0:0:0:
320,192,133050,1,0,0:0:0:0:
64,192,133200,1,0,0:0:0:0:
320,192,133200,1,0,0:0:0:0:
64,192,133350,1,0,0:0:0:0:
192,192,133350,1,0,0:0:0:0:
448,192,133350,1,0,0:0:0:0:
192,192,133500,1,0,0:0:0:0:
320,192,133500,1,0,0:0:0:0:
64,192,133650,1,0,0:0:0:0:
192,192,133650,1,0,0:0:0:0:
320,192,133650,1,0,0:0:0:0:
448,192,133650,1,0,0:0:0:0:
192,192,133800,1,0,0:0:0:0:
320,192,133800,1,0,0:0:0:0:
64,192,133950,1,0,0:0:0:0:
192,192,133950,1,0,0:0:0:0:
448,192,133950,1,0,0:0:0:0:
192,192,134100,1,0,0:0:0:0:
320,192,134100,1,0,0:0:0:0:
64,192,134250,1,0,0:0:0:0:
192,192,134250,1,0,0:0:0:0:
320,192,134250,1,0,0:0:0:0:
448,192,134250,1,0,0:0:0:0:
448,192,134400,1,0,0:0:0:0:
320,192,134400,1,0,0:0:0:0:
192,192,134400,1,0,0:0:0:0:
320,192,134550,1,0,0:0:0:0:
448,192,134550,1,0,0:0:0:0:
192,192,134700,1,0,0:0:0:0:
320,192,134700,1,0,0:0:0:0:
64,192,134700,1,0,0:0:0:0:
448,192,134850,1,0,0:0:0:0:
320,192,134850,1,0,0:0:0:0:
64,192,135000,1,0,0:0:0:0:
192,192,135000,1,0,0:0:0:0:
320,192,135000,1,0,0:0:0:0:
448,192,135000,1,0,0:0:0:0:
320,192,135150,1,0,0:0:0:0:
448,192,135150,1,0,0:0:0:0:
64,192,135300,1,0,0:0:0:0:
448,192,135300,1,0,0:0:0:0:
320,192,135300,1,0,0:0:0:0:
64,192,135450,1,0,0:0:0:0:
192,192,135450,1,0,0:0:0:0:
320,192,135450,1,0,0:0:0:0:
448,192,135450,1,0,0:0:0:0:
64,192,135600,1,0,0:0:0:0:
448,192,135600,1,0,0:0:0:0:
64,192,135750,1,0,0:0:0:0:
448,192,135750,1,0,0:0:0:0:
192,192,135750,1,0,0:0:0:0:
64,192,135900,1,0,0:0:0:0:
192,192,135900,1,0,0:0:0:0:
320,192,135900,1,0,0:0:0:0:
448,192,135900,1,0,0:0:0:0:
64,192,136050,1,0,0:0:0:0:
192,192,136050,1,0,0:0:0:0:
448,192,136200,1,0,0:0:0:0:
192,192,136200,1,0,0:0:0:0:
192,192,136350,1,0,0:0:0:0:
448,192,136350,1,0,0:0:0:0:
64,192,136350,1,0,0:0:0:0:
64,192,136500,1,0,0:0:0:0:
320,192,136500,1,0,0:0:0:0:
192,192,136500,1,0,0:0:0:0:
64,192,136650,1,0,0:0:0:0:
320,192,136650,1,0,0:0:0:0:
448,192,136650,1,0,0:0:0:0:
64,192,136800,1,0,0:0:0:0:
192,192,136800,1,0,0:0:0:0:
320,192,136800,1,0,0:0:0:0:
448,192,136800,1,0,0:0:0:0:
448,192,136950,1,0,0:0:0:0:
192,192,136950,1,0,0:0:0:0:
64,192,137100,1,0,0:0:0:0:
192,192,137100,1,0,0:0:0:0:
448,192,137100,1,0,0:0:0:0:
64,192,137250,1,0,0:0:0:0:
448,192,137250,1,0,0:0:0:0:
320,192,137250,1,0,0:0:0:0:
64,192,137400,1,0,0:0:0:0:
320,192,137400,1,0,0:0:0:0:
192,192,137400,1,0,0:0:0:0:
448,192,137400,1,0,0:0:0:0:
192,192,137550,1,0,0:0:0:0:
320,192,137550,1,0,0:0:0:0:
64,192,137700,1,0,0:0:0:0:
448,192,137700,1,0,0:0:0:0:
320,192,137700,1,0,0:0:0:0:
192,192,137850,1,0,0:0:0:0:
320,192,137850,1,0,0:0:0:0:
64,192,138000,1,0,0:0:0:0:
192,192,138000,1,0,0:0:0:0:
320,192,138000,1,0,0:0:0:0:
448,192,138000,1,0,0:0:0:0:
64,192,138150,1,0,0:0:0:0:
320,192,138150,1,0,0:0:0:0:
192,192,138300,1,0,0:0:0:0:
320,192,138300,1,0,0:0:0:0:
448,192,138300,1,0,0:0:0:0:
64,192,138450,1,0,0:0:0:0:
64,192,138600,1,0,0:0:0:0:
192,192,138600,1,0,0:0:0:0:
320,192,138600,1,0,0:0:0:0:
448,192,138750,1,0,0:0:0:0:
320,192,138750,1,0,0:0:0:0:
64,192,138900,1,0,0:0:0:0:
192,192,138900,1,0,0:0:0:0:
448,192,138900,1,0,0:0:0:0:
64,192,139050,1,0,0:0:0:0:
192,192,139050,1,0,0:0:0:0:
448,192,139050,1,0,0:0:0:0:
192,192,139200,1,0,0:0:0:0:
320,192,139200,1,0,0:0:0:0:
448,192,139200,1,0,0:0:0:0:
64,192,139200,1,0,0:0:0:0:
64,192,139350,1,0,0:0:0:0:
320,192,139350,1,0,0:0:0:0:
192,192,139500,1,0,0:0:0:0:
448,192,139500,1,0,0:0:0:0:
320,192,139500,1,0,0:0:0:0:
64,192,139650,1,0,0:0:0:0:
320,192,139650,1,0,0:0:0:0:
192,192,139650,1,0,0:0:0:0:
448,192,139800,1,0,0:0:0:0:
192,192,139800,1,0,0:0:0:0:
320,192,139800,1,0,0:0:0:0:
64,192,139800,1,0,0:0:0:0:
192,192,139950,1,0,0:0:0:0:
320,192,139950,1,0,0:0:0:0:
192,192,140100,1,0,0:0:0:0:
320,192,140100,1,0,0:0:0:0:
64,192,140100,128,0,140400:0:0:0:0:
448,192,140100,128,0,140400:0:0:0:0:
192,192,140400,1,0,0:0:0:0:
320,192,140400,1,0,0:0:0:0:
192,192,140700,1,0,0:0:0:0:
320,192,140700,1,0,0:0:0:0:
448,192,140700,1,0,0:0:0:0:
192,192,141000,1,0,0:0:0:0:
320,192,141000,1,0,0:0:0:0:
64,192,141000,1,0,0:0:0:0:
192,192,141300,1,0,0:0:0:0:
320,192,141300,1,0,0:0:0:0:
64,192,141300,1,0,0:0:0:0:
448,192,141300,1,0,0:0:0:0:
64,192,141600,1,0,0:0:0:0:
192,192,141600,1,0,0:0:0:0:
320,192,141600,1,0,0:0:0:0:
448,192,141600,1,0,0:0:0:0:
192,192,141750,1,0,0:0:0:0:
320,192,141750,1,0,0:0:0:0:
320,192,141900,1,0,0:0:0:0:
64,192,141900,1,0,0:0:0:0:
64,192,142050,1,0,0:0:0:0:
320,192,142050,1,0,0:0:0:0:
448,192,142050,1,0,0:0:0:0:
64,192,142200,1,0,0:0:0:0:
192,192,142200,1,0,0:0:0:0:
448,192,142200,1,0,0:0:0:0:
192,192,142350,1,0,0:0:0:0:
320,192,142350,1,0,0:0:0:0:
64,192,142500,1,0,0:0:0:0:
320,192,142500,1,0,0:0:0:0:
192,192,142650,1,0,0:0:0:0:
448,192,142650,1,0,0:0:0:0:
192,192,142800,1,0,0:0:0:0:
320,192,142800,1,0,0:0:0:0:
448,192,142800,1,0,0:0:0:0:
64,192,142950,1,0,0:0:0:0:
320,192,142950,1,0,0:0:0:0:
64,192,143100,1,0,0:0:0:0:
192,192,143100,1,0,0:0:0:0:
448,192,143100,1,0,0:0:0:0:
320,192,143100,1,0,0:0:0:0:
192,192,143250,1,0,0:0:0:0:
320,192,143250,1,0,0:0:0:0:
64,192,143400,1,0,0:0:0:0:
320,192,143400,1,0,0:0:0:0:
64,192,143550,1,0,0:0:0:0:
320,192,143550,1,0,0:0:0:0:
192,192,143550,1,0,0:0:0:0:
448,192,143700,1,0,0:0:0:0:
320,192,143700,1,0,0:0:0:0:
192,192,143700,1,0,0:0:0:0:
64,192,143850,1,0,0:0:0:0:
320,192,143850,1,0,0:0:0:0:
192,192,144000,1,0,0:0:0:0:
320,192,144000,1,0,0:0:0:0:
448,192,144000,1,0,0:0:0:0:
192,192,144150,1,0,0:0:0:0:
320,192,144150,1,0,0:0:0:0:
64,192,144300,1,0,0:0:0:0:
192,192,144300,1,0,0:0:0:0:
320,192,144300,1,0,0:0:0:0:
448,192,144450,1,0,0:0:0:0:
320,192,144450,1,0,0:0:0:0:
64,192,144600,1,0,0:0:0:0:
320,192,144600,1,0,0:0:0:0:
64,192,144750,1,0,0:0:0:0:
192,192,144750,1,0,0:0:0:0:
320,192,144750,1,0,0:0:0:0:
448,192,144900,1,0,0:0:0:0:
320,192,144900,1,0,0:0:0:0:
192,192,144900,1,0,0:0:0:0:
64,192,144900,1,0,0:0:0:0:
192,192,145050,1,0,0:0:0:0:
320,192,145050,1,0,0:0:0:0:
64,192,145200,1,0,0:0:0:0:
320,192,145200,1,0,0:0:0:0:
448,192,145200,1,0,0:0:0:0:
192,192,145350,1,0,0:0:0:0:
320,192,145350,1,0,0:0:0:0:
64,192,145500,1,0,0:0:0:0:
320,192,145500,1,0,0:0:0:0:
448,192,145500,1,0,0:0:0:0:
192,192,145650,1,0,0:0:0:0:
320,192,145650,1,0,0:0:0:0:
448,192,145650,1,0,0:0:0:0:
64,192,145650,1,0,0:0:0:0:
64,192,145800,1,0,0:0:0:0:
320,192,145800,1,0,0:0:0:0:
448,192,145800,1,0,0:0:0:0:
192,192,145950,1,0,0:0:0:0:
320,192,145950,1,0,0:0:0:0:
64,192,146100,1,0,0:0:0:0:
320,192,146100,1,0,0:0:0:0:
448,192,146250,1,0,0:0:0:0:
192,192,146250,1,0,0:0:0:0:
64,192,146400,1,0,0:0:0:0:
192,192,146400,1,0,0:0:0:0:
320,192,146400,1,0,0:0:0:0:
448,192,146400,1,0,0:0:0:0:
192,192,146550,1,0,0:0:0:0:
320,192,146550,1,0,0:0:0:0:
320,192,146700,1,0,0:0:0:0:
64,192,146700,1,0,0:0:0:0:
64,192,146850,1,0,0:0:0:0:
320,192,146850,1,0,0:0:0:0:
448,192,146850,1,0,0:0:0:0:
64,192,147000,1,0,0:0:0:0:
192,192,147000,1,0,0:0:0:0:
448,192,147000,1,0,0:0:0:0:
192,192,147150,1,0,0:0:0:0:
320,192,147150,1,0,0:0:0:0:
64,192,147300,1,0,0:0:0:0:
320,192,147300,1,0,0:0:0:0:
192,192,147450,1,0,0:0:0:0:
448,192,147450,1,0,0:0:0:0:
192,192,147600,1,0,0:0:0:0:
320,192,147600,1,0,0:0:0:0:
448,192,147600,1,0,0:0:0:0:
64,192,147750,1,0,0:0:0:0:
320,192,147750,1,0,0:0:0:0:
64,192,147900,1,0,0:0:0:0:
192,192,147900,1,0,0:0:0:0:
448,192,147900,1,0,0:0:0:0:
320,192,147900,1,0,0:0:0:0:
192,192,148050,1,0,0:0:0:0:
320,192,148050,1,0,0:0:0:0:
64,192,148200,1,0,0:0:0:0:
320,192,148200,1,0,0:0:0:0:
64,192,148350,1,0,0:0:0:0:
320,192,148350,1,0,0:0:0:0:
192,192,148350,1,0,0:0:0:0:
448,192,148500,1,0,0:0:0:0:
320,192,148500,1,0,0:0:0:0:
192,192,148500,1,0,0:0:0:0:
64,192,148650,1,0,0:0:0:0:
320,192,148650,1,0,0:0:0:0:
192,192,148800,1,0,0:0:0:0:
320,192,148800,1,0,0:0:0:0:
448,192,148800,1,0,0:0:0:0:
192,192,148950,1,0,0:0:0:0:
320,192,148950,1,0,0:0:0:0:
64,192,149100,1,0,0:0:0:0:
192,192,149100,1,0,0:0:0:0:
320,192,149100,1,0,0:0:0:0:
448,192,149250,1,0,0:0:0:0:
320,192,149250,1,0,0:0:0:0:
64,192,149400,1,0,0:0:0:0:
320,192,149400,1,0,0:0:0:0:
64,192,149550,1,0,0:0:0:0:
192,192,149550,1,0,0:0:0:0:
320,192,149550,1,0,0:0:0:0:
448,192,149700,1,0,0:0:0:0:
320,192,149700,1,0,0:0:0:0:
192,192,149700,1,0,0:0:0:0:
64,192,149700,1,0,0:0:0:0:
192,192,149850,1,0,0:0:0:0:
320,192,149850,1,0,0:0:0:0:
64,192,150000,1,0,0:0:0:0:
320,192,150000,1,0,0:0:0:0:
448,192,150000,1,0,0:0:0:0:
192,192,150150,1,0,0:0:0:0:
320,192,150150,1,0,0:0:0:0:
64,192,150300,1,0,0:0:0:0:
320,192,150300,1,0,0:0:0:0:
448,192,150300,1,0,0:0:0:0:
192,192,150450,1,0,0:0:0:0:
320,192,150450,1,0,0:0:0:0:
448,192,150450,1,0,0:0:0:0:
64,192,150450,1,0,0:0:0:0:
64,192,150600,1,0,0:0:0:0:
320,192,150600,1,0,0:0:0:0:
448,192,150600,1,0,0:0:0:0:
192,192,150750,1,0,0:0:0:0:
320,192,150750,1,0,0:0:0:0:
64,192,150900,1,0,0:0:0:0:
320,192,150900,1,0,0:0:0:0:
448,192,151050,1,0,0:0:0:0:
192,192,151050,1,0,0:0:0:0:
