osu file format v14

[General]
AudioFilename: audio.mp3
AudioLeadIn: 0
PreviewTime: -1
Countdown: 0
SampleSet: None
StackLeniency: 0.7
Mode: 3
LetterboxInBreaks: 0
SpecialStyle: 0
WidescreenStoryboard: 0

[Editor]
DistanceSpacing: 2
BeatDivisor: 4
GridSize: 4
TimelineZoom: 1

[Metadata]
Title:pshelobavurod
TitleUnicode:pshelobavurod
Artist:BAV
ArtistUnicode:BAV
Creator:StoledSomeOSU
Version:Hard
Source:minecraft
Tags:minecraft bee sting
BeatmapID:4556301
BeatmapSetID:2160654

[Difficulty]
HPDrainRate:5
CircleSize:4
OverallDifficulty:5
ApproachRate:5
SliderMultiplier:1.4
SliderTickRate:1

[Events]
//Background and Video events
//Break Periods
2,78800,89550
2,110450,130800
//Storyboard Layer 0 (Background)
//Storyboard Layer 1 (Fail)
//Storyboard Layer 2 (Pass)
//Storyboard Layer 3 (Foreground)
//Storyboard Layer 4 (Overlay)
//Storyboard Sound Samples

[TimingPoints]
0,600,4,2,0,100,1,0
50400,-100,4,2,0,100,0,1
69600,-100,4,2,0,100,0,0
91200,-100,4,2,0,100,0,1
110400,-100,4,2,0,100,0,0

[HitObjects]
64,192,38400,128,0,38700:0:0:0:0:
320,192,38400,1,0,0:0:0:0:
192,192,38550,128,0,38700:0:0:0:0:
448,192,38700,128,0,39000:0:0:0:0:
320,192,38850,128,0,39000:0:0:0:0:
64,192,39000,128,0,39300:0:0:0:0:
192,192,39000,1,0,0:0:0:0:
192,192,39150,128,0,39300:0:0:0:0:
448,192,39300,128,0,39600:0:0:0:0:
320,192,39450,128,0,39600:0:0:0:0:
192,192,39600,128,0,39900:0:0:0:0:
64,192,39600,1,0,0:0:0:0:
64,192,39750,128,0,39900:0:0:0:0:
320,192,39900,128,0,40200:0:0:0:0:
448,192,40050,128,0,40200:0:0:0:0:
192,192,40200,128,0,40500:0:0:0:0:
64,192,40200,1,0,0:0:0:0:
64,192,40350,128,0,40500:0:0:0:0:
320,192,40500,128,0,40800:0:0:0:0:
64,192,40800,128,0,41100:0:0:0:0:
448,192,40800,128,0,41100:0:0:0:0:
320,192,41100,128,0,41400:0:0:0:0:
192,192,41100,128,0,41400:0:0:0:0:
448,192,41400,128,0,41700:0:0:0:0:
64,192,41400,128,0,41550:0:0:0:0:
320,192,41700,128,0,42000:0:0:0:0:
64,192,41700,128,0,42000:0:0:0:0:
192,192,42000,128,0,42300:0:0:0:0:
448,192,42000,128,0,42300:0:0:0:0:
320,192,42300,128,0,42600:0:0:0:0:
64,192,42450,128,0,42600:0:0:0:0:
192,192,42600,128,0,42750:0:0:0:0:
448,192,42750,128,0,42900:0:0:0:0:
320,192,42900,128,0,43050:0:0:0:0:
64,192,43050,128,0,43200:0:0:0:0:
448,192,43200,1,0,0:0:0:0:
320,192,43200,1,0,0:0:0:0:
320,192,43500,1,0,0:0:0:0:
64,192,43800,1,0,0:0:0:0:
192,192,43800,1,0,0:0:0:0:
192,192,44100,1,0,0:0:0:0:
64,192,44400,1,0,0:0:0:0:
320,192,44400,1,0,0:0:0:0:
192,192,44700,1,0,0:0:0:0:
448,192,45000,1,0,0:0:0:0:
192,192,45000,1,0,0:0:0:0:
320,192,45300,1,0,0:0:0:0:
64,192,45600,1,0,0:0:0:0:
192,192,45600,1,0,0:0:0:0:
320,192,45600,128,0,45900:0:0:0:0:
64,192,45900,1,0,0:0:0:0:
192,192,45900,128,0,46200:0:0:0:0:
64,192,46200,1,0,0:0:0:0:
320,192,46200,128,0,46500:0:0:0:0:
64,192,46350,1,0,0:0:0:0:
448,192,46500,1,0,0:0:0:0:
192,192,46500,128,0,46800:0:0:0:0:
448,192,46650,1,0,0:0:0:0:
448,192,46800,1,0,0:0:0:0:
64,192,47100,1,0,0:0:0:0:
448,192,47250,1,0,0:0:0:0:
64,192,47550,1,0,0:0:0:0:
192,192,47700,1,0,0:0:0:0:
64,192,48000,128,0,48600:0:0:0:0:
192,192,48000,1,0,0:0:0:0:
448,192,48600,128,0,49200:0:0:0:0:
320,192,48600,1,0,0:0:0:0:
64,192,49200,128,0,49800:0:0:0:0:
192,192,49200,1,0,0:0:0:0:
320,192,49350,1,0,0:0:0:0:
448,192,49500,1,0,0:0:0:0:
320,192,49650,1,0,0:0:0:0:
448,192,49800,1,0,0:0:0:0:
320,192,49950,1,0,0:0:0:0:
192,192,50100,1,0,0:0:0:0:
64,192,50250,1,0,0:0:0:0:
448,192,50400,1,0,0:0:0:0:
64,192,50400,1,0,0:0:0:0:
192,192,50550,1,0,0:0:0:0:
64,192,50700,1,0,0:0:0:0:
448,192,50700,1,0,0:0:0:0:
192,192,50850,1,0,0:0:0:0:
448,192,51000,1,0,0:0:0:0:
320,192,51000,1,0,0:0:0:0:
320,192,51150,1,0,0:0:0:0:
64,192,51300,1,0,0:0:0:0:
192,192,51300,1,0,0:0:0:0:
192,192,51450,1,0,0:0:0:0:
192,192,51600,1,0,0:0:0:0:
320,192,51600,1,0,0:0:0:0:
192,192,51750,1,0,0:0:0:0:
448,192,51900,1,0,0:0:0:0:
64,192,51900,1,0,0:0:0:0:
320,192,51900,128,0,52200:0:0:0:0:
64,192,52200,1,0,0:0:0:0:
192,192,52200,1,0,0:0:0:0:
192,192,52350,1,0,0:0:0:0:
448,192,52500,1,0,0:0:0:0:
320,192,52650,1,0,0:0:0:0:
64,192,52800,128,0,53100:0:0:0:0:
192,192,52800,1,0,0:0:0:0:
320,192,52950,1,0,0:0:0:0:
192,192,53100,128,0,53400:0:0:0:0:
448,192,53100,1,0,0:0:0:0:
320,192,53250,1,0,0:0:0:0:
64,192,53400,128,0,53550:0:0:0:0:
448,192,53400,1,0,0:0:0:0:
192,192,53550,128,0,53700:0:0:0:0:
320,192,53700,128,0,53850:0:0:0:0:
448,192,53850,128,0,54000:0:0:0:0:
64,192,53850,1,0,0:0:0:0:
64,192,54000,1,0,0:0:0:0:
192,192,54000,1,0,0:0:0:0:
64,192,54300,1,0,0:0:0:0:
320,192,54600,1,0,0:0:0:0:
448,192,54600,1,0,0:0:0:0:
448,192,54900,1,0,0:0:0:0:
64,192,55200,1,0,0:0:0:0:
192,192,55200,1,0,0:0:0:0:
320,192,55350,1,0,0:0:0:0:
64,192,55500,1,0,0:0:0:0:
192,192,55500,1,0,0:0:0:0:
320,192,55650,1,0,0:0:0:0:
448,192,55800,1,0,0:0:0:0:
320,192,55800,1,0,0:0:0:0:
192,192,55950,1,0,0:0:0:0:
448,192,56100,1,0,0:0:0:0:
320,192,56100,1,0,0:0:0:0:
192,192,56250,1,0,0:0:0:0:
64,192,56400,1,0,0:0:0:0:
192,192,56400,1,0,0:0:0:0:
64,192,56550,1,0,0:0:0:0:
320,192,56700,1,0,0:0:0:0:
448,192,56700,1,0,0:0:0:0:
448,192,56850,1,0,0:0:0:0:
192,192,57000,1,0,0:0:0:0:
320,192,57000,1,0,0:0:0:0:
192,192,57150,1,0,0:0:0:0:
192,192,57300,1,0,0:0:0:0:
320,192,57300,1,0,0:0:0:0:
320,192,57450,1,0,0:0:0:0:
64,192,57600,128,0,57900:0:0:0:0:
192,192,57900,128,0,58200:0:0:0:0:
448,192,58200,128,0,58500:0:0:0:0:
320,192,58500,128,0,58800:0:0:0:0:
64,192,58800,128,0,59100:0:0:0:0:
192,192,59100,128,0,59250:0:0:0:0:
320,192,59250,128,0,59400:0:0:0:0:
64,192,59550,128,0,59700:0:0:0:0:
192,192,59550,128,0,59700:0:0:0:0:
320,192,59700,128,0,59850:0:0:0:0:
448,192,59700,128,0,59850:0:0:0:0:
64,192,59850,128,0,60000:0:0:0:0:
192,192,60000,1,0,0:0:0:0:
320,192,60000,1,0,0:0:0:0:
448,192,60300,128,0,60450:0:0:0:0:
64,192,60300,1,0,0:0:0:0:
320,192,60450,128,0,60900:0:0:0:0:
64,192,60600,1,0,0:0:0:0:
192,192,60900,1,0,0:0:0:0:
64,192,60900,1,0,0:0:0:0:
448,192,61050,1,0,0:0:0:0:
64,192,61050,1,0,0:0:0:0:
192,192,61200,1,0,0:0:0:0:
320,192,61200,1,0,0:0:0:0:
192,192,61350,1,0,0:0:0:0:
64,192,61500,1,0,0:0:0:0:
320,192,61500,1,0,0:0:0:0:
448,192,61650,1,0,0:0:0:0:
320,192,61650,1,0,0:0:0:0:
192,192,61800,1,0,0:0:0:0:
320,192,61800,1,0,0:0:0:0:
64,192,61950,1,0,0:0:0:0:
448,192,61950,1,0,0:0:0:0:
64,192,62100,1,0,0:0:0:0:
192,192,62100,1,0,0:0:0:0:
320,192,62250,1,0,0:0:0:0:
448,192,62250,1,0,0:0:0:0:
64,192,62400,1,0,0:0:0:0:
320,192,62400,1,0,0:0:0:0:
192,192,62550,1,0,0:0:0:0:
448,192,62550,1,0,0:0:0:0:
192,192,62700,1,0,0:0:0:0:
320,192,62700,1,0,0:0:0:0:
64,192,62850,1,0,0:0:0:0:
192,192,62850,1,0,0:0:0:0:
448,192,63000,1,0,0:0:0:0:
320,192,63000,1,0,0:0:0:0:
448,192,63150,1,0,0:0:0:0:
320,192,63150,1,0,0:0:0:0:
64,192,63300,128,0,63450:0:0:0:0:
320,192,63300,1,0,0:0:0:0:
192,192,63450,128,0,63600:0:0:0:0:
64,192,63600,128,0,63750:0:0:0:0:
320,192,63600,1,0,0:0:0:0:
192,192,63750,128,0,63900:0:0:0:0:
448,192,63900,128,0,64200:0:0:0:0:
320,192,63900,1,0,0:0:0:0:
64,192,64050,1,0,0:0:0:0:
192,192,64200,1,0,0:0:0:0:
320,192,64200,1,0,0:0:0:0:
192,192,64350,1,0,0:0:0:0:
320,192,64500,1,0,0:0:0:0:
192,192,64500,1,0,0:0:0:0:
64,192,64650,1,0,0:0:0:0:
448,192,64650,1,0,0:0:0:0:
64,192,64800,1,0,0:0:0:0:
192,192,64800,1,0,0:0:0:0:
64,192,65100,1,0,0:0:0:0:
192,192,65100,1,0,0:0:0:0:
64,192,65400,1,0,0:0:0:0:
192,192,65400,1,0,0:0:0:0:
64,192,65700,1,0,0:0:0:0:
192,192,65700,1,0,0:0:0:0:
64,192,65850,1,0,0:0:0:0:
192,192,65850,1,0,0:0:0:0:
448,192,66000,1,0,0:0:0:0:
64,192,66000,1,0,0:0:0:0:
64,192,66150,1,0,0:0:0:0:
192,192,66150,1,0,0:0:0:0:
64,192,66300,1,0,0:0:0:0:
192,192,66300,1,0,0:0:0:0:
64,192,66450,1,0,0:0:0:0:
448,192,66450,1,0,0:0:0:0:
320,192,66600,1,0,0:0:0:0:
448,192,66600,1,0,0:0:0:0:
320,192,66750,1,0,0:0:0:0:
448,192,66750,1,0,0:0:0:0:
64,192,66900,1,0,0:0:0:0:
448,192,66900,1,0,0:0:0:0:
64,192,67050,1,0,0:0:0:0:
192,192,67050,1,0,0:0:0:0:
64,192,67200,1,0,0:0:0:0:
64,192,67500,1,0,0:0:0:0:
64,192,67800,1,0,0:0:0:0:
192,192,67800,1,0,0:0:0:0:
64,192,68100,1,0,0:0:0:0:
192,192,68100,1,0,0:0:0:0:
64,192,68400,1,0,0:0:0:0:
192,192,68400,1,0,0:0:0:0:
320,192,68400,1,0,0:0:0:0:
64,192,68700,1,0,0:0:0:0:
192,192,68700,1,0,0:0:0:0:
320,192,68700,1,0,0:0:0:0:
64,192,69000,1,0,0:0:0:0:
192,192,69000,1,0,0:0:0:0:
320,192,69000,1,0,0:0:0:0:
448,192,69000,1,0,0:0:0:0:
64,192,69300,1,0,0:0:0:0:
192,192,69300,1,0,0:0:0:0:
320,192,69300,1,0,0:0:0:0:
448,192,69300,1,0,0:0:0:0:
64,192,72000,128,0,73200:0:0:0:0:
192,192,72000,128,0,72300:0:0:0:0:
320,192,72300,128,0,72600:0:0:0:0:
448,192,72600,128,0,72900:0:0:0:0:
320,192,72900,128,0,73200:0:0:0:0:
448,192,73200,128,0,73800:0:0:0:0:
192,192,73200,128,0,73350:0:0:0:0:
64,192,73350,128,0,73500:0:0:0:0:
192,192,73500,128,0,73650:0:0:0:0:
64,192,73650,128,0,73800:0:0:0:0:
320,192,73800,128,0,74400:0:0:0:0:
192,192,73800,128,0,73950:0:0:0:0:
448,192,73950,128,0,74100:0:0:0:0:
192,192,74100,128,0,74250:0:0:0:0:
64,192,74250,128,0,74400:0:0:0:0:
192,192,74400,128,0,74700:0:0:0:0:
448,192,74400,128,0,74550:0:0:0:0:
64,192,74700,128,0,74850:0:0:0:0:
320,192,74700,128,0,74850:0:0:0:0:
448,192,74700,128,0,74850:0:0:0:0:
192,192,74850,128,0,75000:0:0:0:0:
64,192,75000,128,0,75150:0:0:0:0:
320,192,75150,128,0,75300:0:0:0:0:
192,192,75300,128,0,75450:0:0:0:0:
448,192,75300,128,0,75600:0:0:0:0:
320,192,75600,128,0,75750:0:0:0:0:
64,192,75600,128,0,75750:0:0:0:0:
192,192,75750,128,0,75900:0:0:0:0:
64,192,75900,128,0,76200:0:0:0:0:
448,192,75900,128,0,76050:0:0:0:0:
320,192,76050,128,0,76800:0:0:0:0:
192,192,76200,128,0,76350:0:0:0:0:
448,192,76350,128,0,76500:0:0:0:0:
64,192,76500,128,0,76650:0:0:0:0:
192,192,76650,128,0,76800:0:0:0:0:
64,192,76800,128,0,77100:0:0:0:0:
192,192,77100,128,0,77250:0:0:0:0:
320,192,77250,128,0,77400:0:0:0:0:
448,192,77250,128,0,77400:0:0:0:0:
64,192,77400,128,0,78600:0:0:0:0:
192,192,77400,128,0,77550:0:0:0:0:
320,192,77550,128,0,77700:0:0:0:0:
192,192,77700,128,0,77850:0:0:0:0:
448,192,77850,128,0,78000:0:0:0:0:
192,192,78000,128,0,78150:0:0:0:0:
320,192,78150,128,0,78300:0:0:0:0:
192,192,78300,128,0,78450:0:0:0:0:
448,192,78450,128,0,78600:0:0:0:0:
64,192,90750,5,0,0:0:0:0:
64,192,90900,1,0,0:0:0:0:
64,192,91050,1,0,0:0:0:0:
448,192,91200,1,0,0:0:0:0:
64,192,91200,1,0,0:0:0:0:
192,192,91350,1,0,0:0:0:0:
64,192,91500,1,0,0:0:0:0:
448,192,91500,1,0,0:0:0:0:
192,192,91650,1,0,0:0:0:0:
448,192,91800,1,0,0:0:0:0:
64,192,91800,1,0,0:0:0:0:
320,192,91950,1,0,0:0:0:0:
64,192,92100,1,0,0:0:0:0:
448,192,92100,1,0,0:0:0:0:
320,192,92250,1,0,0:0:0:0:
192,192,92400,1,0,0:0:0:0:
320,192,92400,1,0,0:0:0:0:
64,192,92550,1,0,0:0:0:0:
192,192,92700,1,0,0:0:0:0:
320,192,92700,1,0,0:0:0:0:
448,192,92850,1,0,0:0:0:0:
192,192,93000,1,0,0:0:0:0:
320,192,93000,1,0,0:0:0:0:
64,192,93150,1,0,0:0:0:0:
192,192,93300,1,0,0:0:0:0:
320,192,93300,1,0,0:0:0:0:
448,192,93450,1,0,0:0:0:0:
64,192,93600,128,0,94200:0:0:0:0:
192,192,93600,1,0,0:0:0:0:
320,192,93600,1,0,0:0:0:0:
448,192,93750,1,0,0:0:0:0:
192,192,93900,1,0,0:0:0:0:
320,192,93900,1,0,0:0:0:0:
448,192,94050,1,0,0:0:0:0:
192,192,94200,128,0,94800:0:0:0:0:
320,192,94200,1,0,0:0:0:0:
448,192,94200,1,0,0:0:0:0:
64,192,94350,1,0,0:0:0:0:
320,192,94500,1,0,0:0:0:0:
448,192,94500,1,0,0:0:0:0:
64,192,94650,1,0,0:0:0:0:
448,192,94800,128,0,95400:0:0:0:0:
320,192,94800,1,0,0:0:0:0:
64,192,94800,1,0,0:0:0:0:
192,192,94950,1,0,0:0:0:0:
64,192,95100,1,0,0:0:0:0:
320,192,95100,1,0,0:0:0:0:
192,192,95250,1,0,0:0:0:0:
64,192,95400,1,0,0:0:0:0:
192,192,95400,1,0,0:0:0:0:
320,192,95400,1,0,0:0:0:0:
448,192,95550,1,0,0:0:0:0:
320,192,95550,1,0,0:0:0:0:
64,192,95700,1,0,0:0:0:0:
192,192,95700,1,0,0:0:0:0:
320,192,95700,1,0,0:0:0:0:
448,192,95850,1,0,0:0:0:0:
448,192,96000,1,0,0:0:0:0:
64,192,96000,1,0,0:0:0:0:
192,192,96150,1,0,0:0:0:0:
64,192,96300,1,0,0:0:0:0:
448,192,96300,1,0,0:0:0:0:
192,192,96450,1,0,0:0:0:0:
448,192,96600,1,0,0:0:0:0:
64,192,96600,1,0,0:0:0:0:
320,192,96750,1,0,0:0:0:0:
64,192,96900,1,0,0:0:0:0:
448,192,96900,1,0,0:0:0:0:
320,192,97050,1,0,0:0:0:0:
192,192,97200,1,0,0:0:0:0:
320,192,97200,1,0,0:0:0:0:
64,192,97350,1,0,0:0:0:0:
192,192,97500,1,0,0:0:0:0:
320,192,97500,1,0,0:0:0:0:
448,192,97650,1,0,0:0:0:0:
192,192,97800,1,0,0:0:0:0:
320,192,97800,1,0,0:0:0:0:
64,192,97950,1,0,0:0:0:0:
192,192,98100,1,0,0:0:0:0:
320,192,98100,1,0,0:0:0:0:
448,192,98250,1,0,0:0:0:0:
64,192,98400,128,0,99000:0:0:0:0:
192,192,98400,1,0,0:0:0:0:
320,192,98400,1,0,0:0:0:0:
448,192,98550,1,0,0:0:0:0:
192,192,98700,1,0,0:0:0:0:
320,192,98700,1,0,0:0:0:0:
448,192,98850,1,0,0:0:0:0:
192,192,99000,128,0,99600:0:0:0:0:
320,192,99000,1,0,0:0:0:0:
448,192,99000,1,0,0:0:0:0:
64,192,99150,1,0,0:0:0:0:
320,192,99300,1,0,0:0:0:0:
448,192,99300,1,0,0:0:0:0:
64,192,99450,1,0,0:0:0:0:
448,192,99600,128,0,100200:0:0:0:0:
320,192,99600,1,0,0:0:0:0:
64,192,99600,1,0,0:0:0:0:
192,192,99750,1,0,0:0:0:0:
64,192,99900,1,0,0:0:0:0:
320,192,99900,1,0,0:0:0:0:
192,192,100050,1,0,0:0:0:0:
64,192,100200,1,0,0:0:0:0:
192,192,100200,1,0,0:0:0:0:
320,192,100200,1,0,0:0:0:0:
448,192,100350,1,0,0:0:0:0:
320,192,100350,1,0,0:0:0:0:
64,192,100500,1,0,0:0:0:0:
192,192,100500,1,0,0:0:0:0:
320,192,100500,1,0,0:0:0:0:
448,192,100650,1,0,0:0:0:0:
64,192,100800,1,0,0:0:0:0:
192,192,100800,1,0,0:0:0:0:
448,192,100950,1,0,0:0:0:0:
64,192,101100,1,0,0:0:0:0:
192,192,101100,1,0,0:0:0:0:
448,192,101250,1,0,0:0:0:0:
64,192,101400,1,0,0:0:0:0:
192,192,101400,1,0,0:0:0:0:
448,192,101550,1,0,0:0:0:0:
64,192,101700,1,0,0:0:0:0:
192,192,101700,1,0,0:0:0:0:
320,192,101700,1,0,0:0:0:0:
448,192,101700,1,0,0:0:0:0:
64,192,101850,1,0,0:0:0:0:
192,192,101850,1,0,0:0:0:0:
320,192,101850,1,0,0:0:0:0:
448,192,101850,1,0,0:0:0:0:
64,192,102000,1,0,0:0:0:0:
192,192,102075,1,0,0:0:0:0:
448,192,102150,1,0,0:0:0:0:
320,192,102225,1,0,0:0:0:0:
64,192,102300,1,0,0:0:0:0:
192,192,102375,1,0,0:0:0:0:
320,192,102450,1,0,0:0:0:0:
64,192,102525,1,0,0:0:0:0:
448,192,102600,1,0,0:0:0:0:
320,192,102675,1,0,0:0:0:0:
192,192,102750,1,0,0:0:0:0:
448,192,102825,1,0,0:0:0:0:
320,192,102900,1,0,0:0:0:0:
192,192,102975,1,0,0:0:0:0:
64,192,103050,1,0,0:0:0:0:
192,192,103125,1,0,0:0:0:0:
448,192,103200,1,0,0:0:0:0:
64,192,103275,1,0,0:0:0:0:
448,192,103350,1,0,0:0:0:0:
320,192,103425,1,0,0:0:0:0:
192,192,103500,1,0,0:0:0:0:
64,192,103575,1,0,0:0:0:0:
448,192,103650,1,0,0:0:0:0:
192,192,103725,1,0,0:0:0:0:
64,192,103800,1,0,0:0:0:0:
192,192,103875,1,0,0:0:0:0:
64,192,103950,1,0,0:0:0:0:
448,192,104025,1,0,0:0:0:0:
320,192,104100,1,0,0:0:0:0:
448,192,104175,1,0,0:0:0:0:
64,192,104250,1,0,0:0:0:0:
192,192,104325,1,0,0:0:0:0:
64,192,104400,1,0,0:0:0:0:
448,192,104475,1,0,0:0:0:0:
192,192,104550,1,0,0:0:0:0:
448,192,104625,1,0,0:0:0:0:
320,192,104700,1,0,0:0:0:0:
64,192,104775,1,0,0:0:0:0:
192,192,104850,1,0,0:0:0:0:
448,192,104850,1,0,0:0:0:0:
320,192,104925,1,0,0:0:0:0:
64,192,105000,1,0,0:0:0:0:
192,192,105075,1,0,0:0:0:0:
64,192,105150,1,0,0:0:0:0:
448,192,105150,1,0,0:0:0:0:
320,192,105225,1,0,0:0:0:0:
448,192,105300,1,0,0:0:0:0:
320,192,105375,1,0,0:0:0:0:
192,192,105450,1,0,0:0:0:0:
64,192,105600,1,0,0:0:0:0:
192,192,105600,1,0,0:0:0:0:
64,192,105750,1,0,0:0:0:0:
192,192,105750,1,0,0:0:0:0:
64,192,105900,1,0,0:0:0:0:
192,192,105900,1,0,0:0:0:0:
448,192,106050,1,0,0:0:0:0:
320,192,106200,128,0,106500:0:0:0:0:
64,192,106200,1,0,0:0:0:0:
448,192,106350,1,0,0:0:0:0:
192,192,106500,128,0,106800:0:0:0:0:
64,192,106500,1,0,0:0:0:0:
320,192,106650,1,0,0:0:0:0:
448,192,106800,128,0,106950:0:0:0:0:
64,192,106800,1,0,0:0:0:0:
320,192,106950,128,0,107100:0:0:0:0:
192,192,106950,1,0,0:0:0:0:
448,192,107100,128,0,107250:0:0:0:0:
64,192,107100,1,0,0:0:0:0:
320,192,107250,128,0,107400:0:0:0:0:
192,192,107250,1,0,0:0:0:0:
64,192,107400,1,0,0:0:0:0:
448,192,107550,1,0,0:0:0:0:
320,192,107700,1,0,0:0:0:0:
192,192,107850,1,0,0:0:0:0:
64,192,108000,1,0,0:0:0:0:
448,192,108000,1,0,0:0:0:0:
64,192,108300,1,0,0:0:0:0:
448,192,108300,1,0,0:0:0:0:
192,192,108600,1,0,0:0:0:0:
320,192,108600,1,0,0:0:0:0:
192,192,108900,1,0,0:0:0:0:
320,192,108900,1,0,0:0:0:0:
64,192,109200,1,0,0:0:0:0:
192,192,109350,1,0,0:0:0:0:
64,192,109500,1,0,0:0:0:0:
192,192,109500,1,0,0:0:0:0:
448,192,109800,1,0,0:0:0:0:
320,192,109950,1,0,0:0:0:0:
192,192,110100,1,0,0:0:0:0:
64,192,110250,1,0,0:0:0:0:
64,192,132000,132,0,132300:0:0:0:0:
192,192,132000,1,0,0:0:0:0:
320,192,132000,1,0,0:0:0:0:
448,192,132000,1,0,0:0:0:0:
192,192,132300,128,0,132600:0:0:0:0:
320,192,132300,128,0,132600:0:0:0:0:
448,192,132300,128,0,132600:0:0:0:0:
64,192,132600,1,0,0:0:0:0:
448,192,132675,1,0,0:0:0:0:
320,192,132750,1,0,0:0:0:0:
64,192,132825,1,0,0:0:0:0:
192,192,132900,1,0,0:0:0:0:
64,192,132975,1,0,0:0:0:0:
448,192,133050,1,0,0:0:0:0:
320,192,133125,1,0,0:0:0:0:
192,192,133200,1,0,0:0:0:0:
448,192,133275,1,0,0:0:0:0:
64,192,133350,1,0,0:0:0:0:
320,192,133425,1,0,0:0:0:0:
192,192,133500,1,0,0:0:0:0:
64,192,133575,1,0,0:0:0:0:
448,192,133650,1,0,0:0:0:0:
192,192,133725,1,0,0:0:0:0:
448,192,133800,1,0,0:0:0:0:
64,192,133875,1,0,0:0:0:0:
192,192,133950,1,0,0:0:0:0:
320,192,134025,1,0,0:0:0:0:
448,192,134100,1,0,0:0:0:0:
64,192,134175,1,0,0:0:0:0:
192,192,134250,1,0,0:0:0:0:
320,192,134325,1,0,0:0:0:0:
448,192,134400,1,0,0:0:0:0:
64,192,134475,1,0,0:0:0:0:
192,192,134550,1,0,0:0:0:0:
64,192,134625,1,0,0:0:0:0:
448,192,134700,1,0,0:0:0:0:
320,192,134775,1,0,0:0:0:0:
192,192,134850,1,0,0:0:0:0:
448,192,134925,1,0,0:0:0:0:
64,192,135000,1,0,0:0:0:0:
320,192,135075,1,0,0:0:0:0:
192,192,135150,1,0,0:0:0:0:
64,192,135225,1,0,0:0:0:0:
448,192,135300,1,0,0:0:0:0:
192,192,135375,1,0,0:0:0:0:
320,192,135450,1,0,0:0:0:0:
448,192,135525,1,0,0:0:0:0:
64,192,135600,1,0,0:0:0:0:
192,192,135675,1,0,0:0:0:0:
448,192,135750,1,0,0:0:0:0:
64,192,135825,1,0,0:0:0:0:
320,192,135900,1,0,0:0:0:0:
192,192,135975,1,0,0:0:0:0:
448,192,136050,1,0,0:0:0:0:
320,192,136125,1,0,0:0:0:0:
64,192,136200,1,0,0:0:0:0:
192,192,136275,1,0,0:0:0:0:
320,192,136350,1,0,0:0:0:0:
448,192,136425,1,0,0:0:0:0:
64,192,136500,1,0,0:0:0:0:
192,192,136575,1,0,0:0:0:0:
64,192,136650,1,0,0:0:0:0:
192,192,136725,1,0,0:0:0:0:
448,192,136800,1,0,0:0:0:0:
320,192,136800,1,0,0:0:0:0:
64,192,136950,1,0,0:0:0:0:
192,192,136950,1,0,0:0:0:0:
448,192,137100,1,0,0:0:0:0:
320,192,137100,1,0,0:0:0:0:
64,192,137250,1,0,0:0:0:0:
192,192,137250,1,0,0:0:0:0:
448,192,137400,1,0,0:0:0:0:
320,192,137400,1,0,0:0:0:0:
192,192,137475,1,0,0:0:0:0:
64,192,137550,1,0,0:0:0:0:
448,192,137625,1,0,0:0:0:0:
320,192,137700,1,0,0:0:0:0:
192,192,137775,1,0,0:0:0:0:
448,192,137850,1,0,0:0:0:0:
320,192,137925,1,0,0:0:0:0:
64,192,138000,1,0,0:0:0:0:
192,192,138000,1,0,0:0:0:0:
448,192,138075,1,0,0:0:0:0:
320,192,138150,1,0,0:0:0:0:
192,192,138225,1,0,0:0:0:0:
320,192,138300,1,0,0:0:0:0:
448,192,138375,1,0,0:0:0:0:
320,192,138450,1,0,0:0:0:0:
448,192,138525,1,0,0:0:0:0:
192,192,138600,1,0,0:0:0:0:
320,192,138600,1,0,0:0:0:0:
64,192,138675,1,0,0:0:0:0:
320,192,138750,1,0,0:0:0:0:
192,192,138825,1,0,0:0:0:0:
448,192,138900,1,0,0:0:0:0:
320,192,138975,1,0,0:0:0:0:
192,192,139050,1,0,0:0:0:0:
448,192,139125,1,0,0:0:0:0:
64,192,139200,1,0,0:0:0:0:
320,192,139200,1,0,0:0:0:0:
192,192,139275,1,0,0:0:0:0:
320,192,139350,1,0,0:0:0:0:
192,192,139425,1,0,0:0:0:0:
64,192,139500,1,0,0:0:0:0:
320,192,139575,1,0,0:0:0:0:
192,192,139650,1,0,0:0:0:0:
64,192,139725,1,0,0:0:0:0:
192,192,139800,1,0,0:0:0:0:
448,192,139800,1,0,0:0:0:0:
320,192,139875,1,0,0:0:0:0:
64,192,139950,1,0,0:0:0:0:
192,192,140025,1,0,0:0:0:0:
448,192,140100,1,0,0:0:0:0:
320,192,140175,1,0,0:0:0:0:
64,192,140250,1,0,0:0:0:0:
192,192,140325,1,0,0:0:0:0:
64,192,140400,1,0,0:0:0:0:
448,192,140400,1,0,0:0:0:0:
320,192,140475,1,0,0:0:0:0:
192,192,140550,1,0,0:0:0:0:
64,192,140625,1,0,0:0:0:0:
192,192,140700,1,0,0:0:0:0:
320,192,140700,1,0,0:0:0:0:
448,192,140775,1,0,0:0:0:0:
192,192,140850,1,0,0:0:0:0:
320,192,140925,1,0,0:0:0:0:
64,192,141000,1,0,0:0:0:0:
448,192,141000,1,0,0:0:0:0:
320,192,141075,1,0,0:0:0:0:
192,192,141150,1,0,0:0:0:0:
64,192,141225,1,0,0:0:0:0:
320,192,141300,1,0,0:0:0:0:
192,192,141300,1,0,0:0:0:0:
448,192,141600,1,0,0:0:0:0:
320,192,141600,1,0,0:0:0:0:
64,192,141600,1,0,0:0:0:0:
64,192,141750,1,0,0:0:0:0:
192,192,141750,1,0,0:0:0:0:
448,192,141750,1,0,0:0:0:0:
192,192,141900,1,0,0:0:0:0:
320,192,141900,1,0,0:0:0:0:
448,192,141900,1,0,0:0:0:0:
64,192,142050,1,0,0:0:0:0:
192,192,142050,1,0,0:0:0:0:
320,192,142050,1,0,0:0:0:0:
448,192,142200,1,0,0:0:0:0:
64,192,142200,1,0,0:0:0:0:
192,192,142200,1,0,0:0:0:0:
320,192,142200,1,0,0:0:0:0:
192,192,142350,1,0,0:0:0:0:
320,192,142350,1,0,0:0:0:0:
64,192,142500,1,0,0:0:0:0:
192,192,142500,1,0,0:0:0:0:
320,192,142500,1,0,0:0:0:0:
448,192,142650,1,0,0:0:0:0:
192,192,142650,1,0,0:0:0:0:
64,192,142800,1,0,0:0:0:0:
320,192,142800,1,0,0:0:0:0:
448,192,142800,1,0,0:0:0:0:
192,192,142800,1,0,0:0:0:0:
192,192,142950,1,0,0:0:0:0:
320,192,142950,1,0,0:0:0:0:
64,192,143100,1,0,0:0:0:0:
320,192,143100,1,0,0:0:0:0:
448,192,143100,1,0,0:0:0:0:
192,192,143250,1,0,0:0:0:0:
64,192,143250,1,0,0:0:0:0:
448,192,143400,1,0,0:0:0:0:
320,192,143400,1,0,0:0:0:0:
192,192,143400,1,0,0:0:0:0:
64,192,143400,1,0,0:0:0:0:
192,192,143550,1,0,0:0:0:0:
64,192,143700,1,0,0:0:0:0:
320,192,143700,1,0,0:0:0:0:
448,192,143700,1,0,0:0:0:0:
192,192,143850,1,0,0:0:0:0:
448,192,144000,1,0,0:0:0:0:
64,192,144075,1,0,0:0:0:0:
192,192,144150,1,0,0:0:0:0:
320,192,144225,1,0,0:0:0:0:
448,192,144300,1,0,0:0:0:0:
64,192,144375,1,0,0:0:0:0:
192,192,144450,1,0,0:0:0:0:
320,192,144525,1,0,0:0:0:0:
64,192,144600,1,0,0:0:0:0:
448,192,144675,1,0,0:0:0:0:
320,192,144750,1,0,0:0:0:0:
64,192,144825,1,0,0:0:0:0:
448,192,144900,1,0,0:0:0:0:
192,192,144975,1,0,0:0:0:0:
320,192,145050,1,0,0:0:0:0:
192,192,145125,1,0,0:0:0:0:
64,192,145200,1,0,0:0:0:0:
448,192,145275,1,0,0:0:0:0:
192,192,145350,1,0,0:0:0:0:
320,192,145425,1,0,0:0:0:0:
192,192,145500,1,0,0:0:0:0:
64,192,145575,1,0,0:0:0:0:
448,192,145650,1,0,0:0:0:0:
320,192,145725,1,0,0:0:0:0:
192,192,145800,1,0,0:0:0:0:
448,192,145875,1,0,0:0:0:0:
320,192,145950,1,0,0:0:0:0:
448,192,146025,1,0,0:0:0:0:
320,192,146100,1,0,0:0:0:0:
192,192,146175,1,0,0:0:0:0:
64,192,146250,1,0,0:0:0:0:
192,192,146325,1,0,0:0:0:0:
448,192,146400,1,0,0:0:0:0:
320,192,146475,1,0,0:0:0:0:
64,192,146550,1,0,0:0:0:0:
192,192,146625,1,0,0:0:0:0:
448,192,146700,1,0,0:0:0:0:
320,192,146775,1,0,0:0:0:0:
64,192,146850,1,0,0:0:0:0:
192,192,146925,1,0,0:0:0:0:
448,192,147000,1,0,0:0:0:0:
64,192,147075,1,0,0:0:0:0:
192,192,147150,1,0,0:0:0:0:
448,192,147225,1,0,0:0:0:0:
64,192,147300,1,0,0:0:0:0:
192,192,147375,1,0,0:0:0:0:
448,192,147450,1,0,0:0:0:0:
64,192,147525,1,0,0:0:0:0:
320,192,147600,1,0,0:0:0:0:
192,192,147675,1,0,0:0:0:0:
448,192,147750,1,0,0:0:0:0:
64,192,147825,1,0,0:0:0:0:
320,192,147900,1,0,0:0:0:0:
192,192,147975,1,0,0:0:0:0:
448,192,148050,1,0,0:0:0:0:
320,192,148125,1,0,0:0:0:0:
448,192,148200,1,0,0:0:0:0:
192,192,148275,1,0,0:0:0:0:
320,192,148350,1,0,0:0:0:0:
64,192,148425,1,0,0:0:0:0:
192,192,148500,1,0,0:0:0:0:
448,192,148575,1,0,0:0:0:0:
320,192,148650,1,0,0:0:0:0:
192,192,148725,1,0,0:0:0:0:
64,192,148800,1,0,0:0:0:0:
320,192,148800,1,0,0:0:0:0:
448,192,148800,1,0,0:0:0:0:
192,192,149100,1,0,0:0:0:0:
320,192,149100,1,0,0:0:0:0:
448,192,149100,1,0,0:0:0:0:
64,192,149400,1,0,0:0:0:0:
192,192,149400,1,0,0:0:0:0:
448,192,149400,1,0,0:0:0:0:
192,192,149700,1,0,0:0:0:0:
320,192,149700,1,0,0:0:0:0:
64,192,150000,1,0,0:0:0:0:
192,192,150000,1,0,0:0:0:0:
448,192,150000,1,0,0:0:0:0:
320,192,150150,1,0,0:0:0:0:
64,192,150300,1,0,0:0:0:0:
192,192,150300,1,0,0:0:0:0:
320,192,150300,1,0,0:0:0:0:
448,192,150300,1,0,0:0:0:0:
192,192,150450,1,0,0:0:0:0:
64,192,150450,1,0,0:0:0:0:
448,192,150600,1,0,0:0:0:0:
320,192,150600,1,0,0:0:0:0:
192,192,150675,1,0,0:0:0:0:
64,192,150750,1,0,0:0:0:0:
448,192,150825,1,0,0:0:0:0:
320,192,150900,1,0,0:0:0:0:
448,192,150975,1,0,0:0:0:0:
320,192,151200,1,0,0:0:0:0:
448,192,151200,1,0,0:0:0:0:
192,192,151200,1,0,0:0:0:0:
64,192,151200,1,0,0:0:0:0:
