osu file format v14

[General]
AudioFilename: Beethoven Virus - Banya.mp3
AudioLeadIn: 2
PreviewTime: 37067
Countdown: 0
SampleSet: Soft
StackLeniency: 0.7
Mode: 3
LetterboxInBreaks: 0
SpecialStyle: 0
WidescreenStoryboard: 0

[Editor]
DistanceSpacing: 0.8
BeatDivisor: 4
GridSize: 8
TimelineZoom: 1

[Metadata]
Title:Beethoven Virus
TitleUnicode:Beethoven Virus
Artist:BANYA
ArtistUnicode:BANYA
Creator:chuchy
Version:Easy
Source:Stepmania
Tags:Stepmania
BeatmapID:982414
BeatmapSetID:458469

[Difficulty]
HPDrainRate:5
CircleSize:5
OverallDifficulty:7
ApproachRate:10
SliderMultiplier:1.4
SliderTickRate:1

[Events]
//Background and Video events
0,0,"background.jpg",0,0
//Break Periods
//Storyboard Layer 0 (Background)
//Storyboard Layer 1 (Fail)
//Storyboard Layer 2 (Pass)
//Storyboard Layer 3 (Foreground)
//Storyboard Sound Samples

[TimingPoints]
160,370.3704,4,2,0,15,1,0

[HitObjects]
51,192,6085,5,0,0:0:0:0:
256,192,6456,1,0,0:0:0:0:
51,192,6826,1,0,0:0:0:0:
460,192,7567,1,0,0:0:0:0:
256,192,7937,1,0,0:0:0:0:
460,192,8308,1,0,0:0:0:0:
51,192,9048,1,0,0:0:0:0:
460,192,9048,1,0,0:0:0:0:
51,192,9789,1,0,0:0:0:0:
460,192,9789,1,0,0:0:0:0:
51,192,10530,1,0,0:0:0:0:
460,192,10530,1,0,0:0:0:0:
51,192,12752,1,0,0:0:0:0:
460,192,12752,1,0,0:0:0:0:
153,192,14234,1,0,0:0:0:0:
358,192,14234,1,0,0:0:0:0:
51,192,14604,1,0,0:0:0:0:
460,192,14974,1,0,0:0:0:0:
153,192,15345,1,0,0:0:0:0:
358,192,15715,1,0,0:0:0:0:
256,192,16085,1,0,0:0:0:0:
256,192,16456,1,0,0:0:0:0:
51,192,17937,1,0,0:0:0:0:
256,192,18308,1,0,0:0:0:0:
51,192,18678,1,0,0:0:0:0:
460,192,19419,1,0,0:0:0:0:
256,192,19789,1,0,0:0:0:0:
460,192,20160,1,0,0:0:0:0:
153,192,20900,1,0,0:0:0:0:
358,192,20900,1,0,0:0:0:0:
153,192,21641,1,0,0:0:0:0:
358,192,21641,1,0,0:0:0:0:
153,192,22382,1,0,0:0:0:0:
358,192,22382,1,0,0:0:0:0:
51,192,24604,1,0,0:0:0:0:
460,192,24604,1,0,0:0:0:0:
153,192,26085,1,0,0:0:0:0:
358,192,26085,1,0,0:0:0:0:
460,192,26456,1,0,0:0:0:0:
51,192,26826,1,0,0:0:0:0:
358,192,27197,1,0,0:0:0:0:
153,192,27567,1,0,0:0:0:0:
256,192,27937,1,0,0:0:0:0:
256,192,28308,1,0,0:0:0:0:
256,192,29789,1,0,0:0:0:0:
256,192,30160,1,0,0:0:0:0:
51,192,30530,1,0,0:0:0:0:
460,192,30900,1,0,0:0:0:0:
256,192,31271,1,0,0:0:0:0:
256,192,31641,1,0,0:0:0:0:
460,192,32011,1,0,0:0:0:0:
51,192,32382,1,0,0:0:0:0:
358,192,32752,1,0,0:0:0:0:
256,192,33122,1,0,0:0:0:0:
460,192,33493,1,0,0:0:0:0:
256,192,33863,1,0,0:0:0:0:
153,192,34234,1,0,0:0:0:0:
256,192,34604,1,0,0:0:0:0:
51,192,34974,1,0,0:0:0:0:
256,192,35345,1,0,0:0:0:0:
51,192,35715,1,0,0:0:0:0:
460,192,36085,1,0,0:0:0:0:
153,192,36456,1,0,0:0:0:0:
358,192,36826,1,0,0:0:0:0:
256,192,37197,1,0,0:0:0:0:
256,192,37567,1,0,0:0:0:0:
256,192,37937,1,0,0:0:0:0:
51,192,38308,1,0,0:0:0:0:
460,192,38308,1,0,0:0:0:0:
460,192,38678,1,0,0:0:0:0:
51,192,39048,1,0,0:0:0:0:
358,192,39419,1,0,0:0:0:0:
153,192,39789,1,0,0:0:0:0:
256,192,40160,1,0,0:0:0:0:
256,192,40530,1,0,0:0:0:0:
256,192,40900,1,0,0:0:0:0:
51,192,42382,1,0,0:0:0:0:
358,192,42752,1,0,0:0:0:0:
256,192,43123,1,0,0:0:0:0:
460,192,43493,1,0,0:0:0:0:
51,192,43863,1,0,0:0:0:0:
256,192,44234,1,0,0:0:0:0:
51,192,44604,1,0,0:0:0:0:
51,192,45345,1,0,0:0:0:0:
256,192,45715,1,0,0:0:0:0:
153,192,46085,1,0,0:0:0:0:
358,192,46456,1,0,0:0:0:0:
256,192,46826,1,0,0:0:0:0:
51,192,47197,1,0,0:0:0:0:
460,192,47567,1,0,0:0:0:0:
460,192,48308,1,0,0:0:0:0:
256,192,48678,1,0,0:0:0:0:
358,192,49048,1,0,0:0:0:0:
256,192,49419,1,0,0:0:0:0:
460,192,49789,1,0,0:0:0:0:
51,192,50160,1,0,0:0:0:0:
256,192,50530,1,0,0:0:0:0:
460,192,51271,1,0,0:0:0:0:
153,192,51641,1,0,0:0:0:0:
153,192,52011,1,0,0:0:0:0:
358,192,52011,1,0,0:0:0:0:
256,192,52382,1,0,0:0:0:0:
153,192,52752,1,0,0:0:0:0:
358,192,52752,1,0,0:0:0:0:
256,192,53123,1,0,0:0:0:0:
51,192,53493,1,0,0:0:0:0:
460,192,53493,1,0,0:0:0:0:
256,192,53863,1,0,0:0:0:0:
153,192,54234,1,0,0:0:0:0:
358,192,54604,1,0,0:0:0:0:
153,192,54974,1,0,0:0:0:0:
358,192,54974,1,0,0:0:0:0:
256,192,55345,1,0,0:0:0:0:
358,192,55715,1,0,0:0:0:0:
153,192,56085,1,0,0:0:0:0:
51,192,56456,1,0,0:0:0:0:
358,192,56456,1,0,0:0:0:0:
256,192,56826,1,0,0:0:0:0:
51,192,57197,1,0,0:0:0:0:
358,192,57567,1,0,0:0:0:0:
153,192,57937,1,0,0:0:0:0:
460,192,57937,1,0,0:0:0:0:
256,192,58308,1,0,0:0:0:0:
460,192,58678,1,0,0:0:0:0:
153,192,59048,1,0,0:0:0:0:
51,192,59419,1,0,0:0:0:0:
153,192,59419,1,0,0:0:0:0:
256,192,59789,1,0,0:0:0:0:
460,192,60160,1,0,0:0:0:0:
358,192,60530,1,0,0:0:0:0:
358,192,60900,1,0,0:0:0:0:
460,192,60900,1,0,0:0:0:0:
256,192,61271,1,0,0:0:0:0:
51,192,61641,1,0,0:0:0:0:
153,192,62011,1,0,0:0:0:0:
51,192,62382,1,0,0:0:0:0:
460,192,62382,1,0,0:0:0:0:
51,192,63123,1,0,0:0:0:0:
460,192,63123,1,0,0:0:0:0:
153,192,63863,1,0,0:0:0:0:
358,192,64234,1,0,0:0:0:0:
153,192,64604,1,0,0:0:0:0:
358,192,64604,1,0,0:0:0:0:
51,192,65345,1,0,0:0:0:0:
460,192,65345,1,0,0:0:0:0:
153,192,66086,1,0,0:0:0:0:
358,192,66086,1,0,0:0:0:0:
51,192,67197,1,0,0:0:0:0:
460,192,67197,1,0,0:0:0:0:
51,192,67937,1,0,0:0:0:0:
460,192,67937,1,0,0:0:0:0:
51,192,68678,1,0,0:0:0:0:
460,192,68678,1,0,0:0:0:0:
51,192,69048,1,0,0:0:0:0:
460,192,69048,1,0,0:0:0:0:
460,192,69789,1,0,0:0:0:0:
256,192,70160,1,0,0:0:0:0:
51,192,70530,1,0,0:0:0:0:
256,192,70900,1,0,0:0:0:0:
460,192,71271,1,0,0:0:0:0:
51,192,73493,1,0,0:0:0:0:
460,192,73493,1,0,0:0:0:0:
153,192,74974,1,0,0:0:0:0:
358,192,74974,1,0,0:0:0:0:
51,192,75345,1,0,0:0:0:0:
460,192,75715,1,0,0:0:0:0:
153,192,76085,1,0,0:0:0:0:
358,192,76456,1,0,0:0:0:0:
256,192,76826,1,0,0:0:0:0:
256,192,77197,1,0,0:0:0:0:
51,192,79048,1,0,0:0:0:0:
460,192,79048,1,0,0:0:0:0:
51,192,79789,1,0,0:0:0:0:
460,192,79789,1,0,0:0:0:0:
51,192,80530,1,0,0:0:0:0:
460,192,80530,1,0,0:0:0:0:
51,192,80900,1,0,0:0:0:0:
460,192,80900,1,0,0:0:0:0:
153,192,81641,1,0,0:0:0:0:
358,192,81641,1,0,0:0:0:0:
153,192,82382,1,0,0:0:0:0:
358,192,82382,1,0,0:0:0:0:
153,192,83122,1,0,0:0:0:0:
358,192,83122,1,0,0:0:0:0:
51,192,85345,1,0,0:0:0:0:
460,192,85345,1,0,0:0:0:0:
153,192,86826,1,0,0:0:0:0:
358,192,86826,1,0,0:0:0:0:
460,192,87196,1,0,0:0:0:0:
51,192,87567,1,0,0:0:0:0:
358,192,87937,1,0,0:0:0:0:
153,192,88308,1,0,0:0:0:0:
256,192,88678,1,0,0:0:0:0:
256,192,89048,1,0,0:0:0:0:
51,192,90159,1,0,0:0:0:0:
460,192,90530,1,0,0:0:0:0:
51,192,91270,1,0,0:0:0:0:
460,192,91270,1,0,0:0:0:0:
153,192,91641,1,0,0:0:0:0:
358,192,92011,1,0,0:0:0:0:
153,192,92752,1,0,0:0:0:0:
358,192,92752,1,0,0:0:0:0:
51,192,93122,1,0,0:0:0:0:
460,192,93493,1,0,0:0:0:0:
153,192,93863,1,0,0:0:0:0:
358,192,94233,1,0,0:0:0:0:
256,192,94604,1,0,0:0:0:0:
256,192,94974,1,0,0:0:0:0:
51,192,96456,1,0,0:0:0:0:
460,192,96456,1,0,0:0:0:0:
