osu file format v14

[General]
AudioFilename: audio.mp3
AudioLeadIn: 0
PreviewTime: -1
Countdown: 1
SampleSet: Normal
StackLeniency: 0.7
Mode: 0
LetterboxInBreaks: 0
WidescreenStoryboard: 0

[Editor]
DistanceSpacing: 1
BeatDivisor: 4
GridSize: 4
TimelineZoom: 1

[Metadata]
Title:DBZ Dokkan battle Vegeto black rose(no slider)
TitleUnicode:DBZ Dokkan battle Vegeto black rose(no slider)
Artist:BANDAI
ArtistUnicode:BANDAI
Creator:kamikatzi
Version:3
Source:Dragonballsuper
Tags:
BeatmapID:1476147
BeatmapSetID:696956

[Difficulty]
HPDrainRate:5
CircleSize:5
OverallDifficulty:5
ApproachRate:5
SliderMultiplier:2.9
SliderTickRate:4

[Events]
//Background and Video events
0,0,"lol.jpg",0,0
//Break Periods
2,107609,108934
//Storyboard Layer 0 (Background)
//Storyboard Layer 1 (Fail)
//Storyboard Layer 2 (Pass)
//Storyboard Layer 3 (Foreground)
//Storyboard Sound Samples

[TimingPoints]
34,1200,4,1,0,100,1,0
500,-66.6666666666667,4,1,0,100,0,0

[HitObjects]
256,192,34,12,0,3234,0:0:0:0:
204,32,3934,6,0,B|72:48|48:48|88:92|92:60,1,108.750004148483
168,192,4534,2,0,L|276:192,1,108.750004148483
460,252,5434,2,0,B|468:396|468:396|452:284,7,217.500008296967
200,224,12784,5,0,0:0:0:0:
288,208,13409,1,0,0:0:0:0:
284,272,14159,1,0,0:0:0:0:
188,224,14784,1,0,0:0:0:0:
256,196,15409,1,0,0:0:0:0:
328,216,16034,1,0,0:0:0:0:
232,236,16659,1,0,0:0:0:0:
236,192,17159,1,0,0:0:0:0:
140,216,18034,5,0,0:0:0:0:
364,340,18634,1,0,0:0:0:0:
216,256,21334,1,0,0:0:0:0:
140,152,21634,1,0,0:0:0:0:
260,364,22234,1,0,0:0:0:0:
184,232,22534,1,0,0:0:0:0:
208,252,23734,1,0,0:0:0:0:
208,252,24034,1,0,0:0:0:0:
208,252,24634,1,0,0:0:0:0:
208,252,24934,1,0,0:0:0:0:
88,180,26034,5,0,0:0:0:0:
296,204,26784,1,0,0:0:0:0:
204,232,27284,1,0,0:0:0:0:
312,136,27909,1,0,0:0:0:0:
236,220,28409,1,0,0:0:0:0:
100,208,30634,1,0,0:0:0:0:
100,208,30934,1,0,0:0:0:0:
100,208,31234,1,0,0:0:0:0:
100,208,31534,1,0,0:0:0:0:
100,208,31834,1,0,0:0:0:0:
100,208,32134,1,0,0:0:0:0:
100,208,32434,1,0,0:0:0:0:
100,208,32734,1,0,0:0:0:0:
72,176,33159,1,0,0:0:0:0:
276,176,33659,1,0,0:0:0:0:
148,204,34284,1,0,0:0:0:0:
12,200,34784,1,0,0:0:0:0:
424,320,35284,1,0,0:0:0:0:
56,200,36034,1,0,0:0:0:0:
92,212,38134,2,0,P|200:216|208:216,4,108.750004148483
200,200,40409,1,0,0:0:0:0:
256,200,40909,1,0,0:0:0:0:
152,200,41909,5,0,0:0:0:0:
272,132,42534,1,0,0:0:0:0:
104,184,43234,2,0,B|280:196|220:192|284:184,1,108.750004148483
52,288,45034,6,0,P|168:292|180:292,1,108.750004148483
260,200,45634,2,0,B|96:192|100:192,1,108.750004148483
200,100,46234,2,0,L|312:100,1,108.750004148483
256,192,46834,12,0,47434,0:0:0:0:
144,200,51159,5,0,0:0:0:0:
448,208,51534,1,0,0:0:0:0:
84,188,51909,1,0,0:0:0:0:
504,28,52409,1,0,0:0:0:0:
160,176,53659,1,0,0:0:0:0:
464,328,54034,1,0,0:0:0:0:
144,72,54534,1,0,0:0:0:0:
128,208,56409,1,0,0:0:0:0:
292,200,57034,1,0,0:0:0:0:
344,184,58034,5,0,0:0:0:0:
220,236,58659,1,0,0:0:0:0:
240,144,59284,1,0,0:0:0:0:
36,204,61234,2,0,P|224:216|228:216,3,108.750004148483
484,176,63034,2,0,P|200:188|196:188,2,217.500008296967
140,200,64659,5,0,0:0:0:0:
244,216,65159,1,0,0:0:0:0:
332,164,65784,1,0,0:0:0:0:
232,148,66284,1,0,0:0:0:0:
440,140,66909,1,0,0:0:0:0:
300,160,68909,1,8,0:0:0:0:
208,184,69409,1,8,0:0:0:0:
416,168,70034,1,0,0:0:0:0:
288,172,70534,1,0,0:0:0:0:
280,200,73159,1,8,0:0:0:0:
328,192,73909,1,0,0:0:0:0:
216,180,74409,1,0,0:0:0:0:
396,160,74909,1,0,0:0:0:0:
368,168,75534,1,0,0:0:0:0:
452,160,76909,1,0,0:0:0:0:
300,144,77659,1,0,0:0:0:0:
444,152,78284,1,0,0:0:0:0:
236,196,78784,1,0,0:0:0:0:
156,144,79284,1,0,0:0:0:0:
236,188,79909,1,0,0:0:0:0:
116,176,80409,1,0,0:0:0:0:
200,164,81034,1,0,0:0:0:0:
144,172,81659,1,0,0:0:0:0:
268,164,82409,1,0,0:0:0:0:
48,288,83134,2,0,L|132:216,3,108.750004148483
120,196,86434,6,0,L|248:196,18,108.750004148483
128,184,93659,5,0,0:0:0:0:
296,188,94159,1,0,0:0:0:0:
168,160,94909,1,0,0:0:0:0:
288,68,95409,1,0,0:0:0:0:
340,144,95909,1,0,0:0:0:0:
184,176,96409,1,0,0:0:0:0:
312,172,96909,1,0,0:0:0:0:
312,172,98034,1,0,0:0:0:0:
200,220,98534,1,0,0:0:0:0:
168,212,99534,5,0,0:0:0:0:
312,224,100159,1,0,0:0:0:0:
312,224,101284,5,0,0:0:0:0:
428,216,101784,1,0,0:0:0:0:
376,100,102159,1,0,0:0:0:0:
208,128,102659,1,0,0:0:0:0:
276,220,103034,1,0,0:0:0:0:
328,132,103534,1,0,0:0:0:0:
208,136,104159,5,0,0:0:0:0:
360,176,104534,1,0,0:0:0:0:
44,208,104909,1,0,0:0:0:0:
324,236,105284,1,0,0:0:0:0:
44,308,105659,1,0,0:0:0:0:
220,168,106409,5,0,0:0:0:0:
292,244,107034,1,0,0:0:0:0:
228,284,107409,1,0,0:0:0:0:
256,192,110134,12,0,111934,0:0:0:0:
256,192,113534,12,0,113659,0:0:0:0:
292,336,116009,6,0,P|248:156|160:200,1,320
