osu file format v14

[General]
AudioFilename: audio.mp3
AudioLeadIn: 0
PreviewTime: 59107
Countdown: 0
SampleSet: Soft
StackLeniency: 0.7
Mode: 0
LetterboxInBreaks: 0
WidescreenStoryboard: 0

[Editor]
DistanceSpacing: 1
BeatDivisor: 4
GridSize: 4
TimelineZoom: 1

[Metadata]
Title:Thrill
TitleUnicode:Thrill
Artist:BAND-MAID
ArtistUnicode:BAND-MAID
Creator:Noctiam
Version:Resolve
Source:
Tags:band maid thrill new beginning
BeatmapID:1533923
BeatmapSetID:726582

[Difficulty]
HPDrainRate:5
CircleSize:4
OverallDifficulty:6
ApproachRate:9.3
SliderMultiplier:2
SliderTickRate:1

[Events]
//Background and Video events
0,0,"JRock247-BAND-MAID-2015-10-group-3.jpg",0,0
//Break Periods
2,83096,88039
2,143213,155539
//Storyboard Layer 0 (Background)
//Storyboard Layer 1 (Fail)
//Storyboard Layer 2 (Pass)
//Storyboard Layer 3 (Foreground)
//Storyboard Sound Samples

[TimingPoints]
514.153846153846,468.75,4,1,0,100,1,0
555,-80,4,2,0,100,0,0
1920,-66.6666666666667,4,2,0,100,0,0
2857,-80,4,2,0,100,0,0
5553,-166.666666666667,4,2,0,100,0,0
6139,-80,4,3,0,100,0,0
11764,-66.6666666666667,4,2,0,100,0,0
13639,-80,4,3,0,100,0,0
19264,-66.6666666666667,4,2,0,100,0,0
23014,-100,4,3,0,100,0,0
30514,-80,4,3,0,100,0,0
56529,-66.6666666666667,4,3,0,100,0,0
60045,-66.6666666666667,4,2,0,100,0,0
61920,-80,4,3,0,100,0,0
64381,-66.6666666666667,4,2,0,100,0,0
69420,-80,4,3,0,100,0,0
71412,-66.6666666666667,4,2,0,100,0,0
75514,-86.9565217391304,4,2,0,100,0,0
81139,-66.6666666666667,4,2,0,100,0,0
88639,-66.6666666666667,4,2,0,100,0,0
90514,-80,4,3,0,100,0,0
104693,-66.6666666666667,4,3,0,100,0,0
105514,-80,4,3,0,100,0,0
107740,-66.6666666666667,4,3,0,100,0,0
109264,-80,4,3,0,100,0,0
111842,-66.6666666666667,4,3,0,100,0,0
113014,-80,4,3,0,100,0,0
115475,-66.6666666666667,4,3,0,100,0,0
118639,-66.6666666666667,4,2,0,100,0,0
122389,-80,4,3,0,100,0,0
124264,-66.6666666666667,4,2,0,100,0,0
127311,-66.6666666666667,4,2,0,100,0,0
129420,-80,4,3,0,100,0,0
131529,-66.6666666666667,4,2,0,100,0,0
135514,-66.6666666666667,4,3,0,100,0,0
138912,-80,4,3,0,100,0,0
141256,-66.6666666666667,4,2,0,100,0,0
156139,-90.9090909090909,4,3,0,100,0,0
158014,-66.6666666666667,4,3,0,100,0,0
161998,-66.6666666666667,4,2,0,100,0,0
165514,-66.6666666666667,4,3,0,100,0,0
170904,-66.6666666666667,4,2,0,100,0,0
176998,-80,4,3,0,100,0,0
182623,-66.6666666666667,4,3,0,100,0,0
184264,-80,4,3,0,100,0,0
187896,-66.6666666666667,4,2,0,100,0,0
190357,-66.6666666666667,4,2,0,100,0,1
193639,-80,4,3,0,100,0,1
195514,-66.6666666666667,4,2,0,100,0,1
198795,-66.6666666666667,4,2,0,100,0,1
200670,-80,4,3,0,100,0,1
206764,-80,4,3,0,100,0,0
213326,-66.6666666666667,4,2,0,100,0,0
214264,-80,4,3,0,100,0,0
219889,-66.6666666666667,4,2,0,100,0,0
221764,-80,4,3,0,100,0,0
224576,-66.6666666666667,4,3,0,100,0,0
225396,-80,4,3,0,100,0,0
227389,-66.6666666666667,4,2,0,100,0,0
229264,-66.6666666666667,4,3,0,100,0,0
234889,-66.6666666666667,4,2,0,100,0,0
236764,-100,4,2,0,100,0,0

[HitObjects]
352,80,631,6,0,L|408:192,1,125
80,148,1100,2,0,L|140:268,1,125
384,312,1568,1,0,0:0:0:0:
196,328,1803,1,0,0:0:0:0:
120,120,1920,6,0,P|120:200|132:216,1,75.0000028610231
216,96,2154,2,0,L|240:180,1,75.0000028610231
304,64,2389,2,0,P|356:64|384:112,1,75.0000028610231
436,204,2623,2,0,L|364:272,1,75.0000028610231
224,312,2975,5,0,0:0:0:0:
140,144,3209,2,0,L|264:128,1,125
256,300,3678,1,0,0:0:0:0:
412,196,3912,1,0,0:0:0:0:
256,64,4146,1,0,0:0:0:0:
184,164,5553,6,0,B|200:144|204:216|284:172,1,100
448,88,6139,6,0,L|424:232,1,125
368,280,6490,1,0,0:0:0:0:
268,288,6607,1,0,0:0:0:0:
192,248,6725,2,0,L|68:156,1,125
48,276,7076,1,0,0:0:0:0:
156,328,7193,1,0,0:0:0:0:
216,216,7311,2,0,L|328:120,1,125
36,52,7779,6,0,L|92:188,1,125
408,136,8248,2,0,L|292:84,1,125
192,64,8600,1,0,0:0:0:0:
64,176,8834,6,0,L|128:300,1,125
224,312,9186,1,0,0:0:0:0:
200,168,9303,2,0,L|256:256,1,62.5
396,200,9537,2,0,L|364:136,1,62.5
68,88,9889,6,0,L|92:232,1,125
160,296,10240,1,0,0:0:0:0:
260,288,10357,1,0,0:0:0:0:
348,252,10475,2,0,L|472:160,1,125
464,276,10826,1,0,0:0:0:0:
360,332,10943,1,0,0:0:0:0:
296,216,11061,2,0,L|184:120,1,125
104,160,11412,2,0,L|80:228,1,62.5
432,60,11764,6,0,L|328:148,1,93.7500035762788
236,88,11998,1,0,0:0:0:0:
184,232,12115,2,0,P|232:208|328:204,1,150.000005722046
424,184,12467,1,0,0:0:0:0:
344,264,12584,2,0,P|272:320|164:356,1,150.000005722046
136,272,12936,2,0,L|136:104,1,93.7500035762788
208,80,13170,1,0,0:0:0:0:
48,44,13287,2,0,L|48:164,1,93.7500035762788
176,84,13639,5,0,0:0:0:0:
376,164,13873,2,0,P|376:184|280:236,1,125
300,96,14342,5,0,0:0:0:0:
448,248,14459,2,0,P|448:256|352:344,1,125
264,320,14811,1,0,0:0:0:0:
140,296,14928,1,0,0:0:0:0:
92,200,15045,2,0,P|44:136|88:96,1,125
156,60,15396,1,0,0:0:0:0:
260,76,15514,2,0,L|412:96,2,125
200,192,16100,1,0,0:0:0:0:
448,212,16334,6,0,L|368:332,1,125
228,328,16686,1,0,0:0:0:0:
124,224,16803,2,0,L|240:188,1,62.5
108,84,17037,2,0,L|212:100,1,62.5
400,64,17389,6,0,L|300:148,1,125
80,268,17857,2,0,L|224:312,1,125
352,276,18326,2,0,L|444:156,1,125
200,84,18795,2,0,L|64:60,1,125
448,88,19264,6,0,L|424:176,1,75.0000028610231
392,256,19498,1,0,0:0:0:0:
308,200,19615,2,0,L|264:132,1,75.0000028610231
160,220,19850,1,0,0:0:0:0:
160,220,19967,2,0,L|156:84,2,125
172,352,20436,1,0,0:0:0:0:
384,316,20553,2,0,L|268:324,1,75.0000028610231
244,208,20787,2,0,L|368:208,1,75.0000028610231
256,192,21139,12,0,22545,0:0:0:0:
124,116,23014,5,0,0:0:0:0:
232,104,23248,1,0,0:0:0:0:
356,104,23482,2,0,L|408:228,1,125
288,264,23951,2,0,L|160:312,1,125
128,228,24420,1,0,0:0:0:0:
296,168,24654,1,0,0:0:0:0:
192,100,24889,5,0,0:0:0:0:
88,204,25123,1,0,0:0:0:0:
144,328,25357,1,0,0:0:0:0:
264,328,25592,2,0,L|436:292,1,125
376,184,26061,1,0,0:0:0:0:
336,56,26295,1,0,0:0:0:0:
224,104,26529,6,0,L|280:224,1,125
168,316,26998,1,0,0:0:0:0:
112,200,27232,1,0,0:0:0:0:
136,108,27467,2,0,L|288:104,1,125
336,204,27936,1,0,0:0:0:0:
196,284,28170,1,0,0:0:0:0:
136,216,28404,5,0,0:0:0:0:
312,96,28639,1,0,0:0:0:0:
404,224,28873,1,0,0:0:0:0:
112,76,29107,2,0,L|104:224,1,125
204,184,29576,1,0,0:0:0:0:
252,176,29693,1,0,0:0:0:0:
300,168,29811,1,0,0:0:0:0:
348,248,30045,2,0,L|200:300,1,125
108,48,30514,6,0,P|64:112|88:152,1,125
160,120,30865,2,0,L|228:104,1,62.5
232,196,31100,1,0,0:0:0:0:
232,196,31217,2,0,L|140:292,1,125
360,208,31568,2,0,P|388:248|360:276,1,62.5
260,324,31803,1,0,0:0:0:0:
256,328,31920,2,0,L|128:336,1,125
20,312,32389,5,0,0:0:0:0:
60,212,32623,2,0,P|60:136|96:116,1,125
200,88,33092,1,0,0:0:0:0:
292,80,33326,2,0,P|360:140|368:176,1,125
184,256,33795,1,0,0:0:0:0:
96,176,34029,6,0,L|224:168,1,125
328,100,34498,2,0,L|360:224,1,125
144,120,34967,2,0,L|152:248,1,125
256,256,35318,1,0,0:0:0:0:
360,248,35436,2,0,L|336:116,1,125
272,64,35904,1,0,0:0:0:0:
152,76,36139,2,0,P|80:112|64:172,1,125
220,196,36607,1,0,0:0:0:0:
388,108,36842,6,0,L|392:232,1,125
328,288,37193,2,0,L|268:320,1,62.5
180,320,37428,2,0,L|176:192,1,125
156,96,37779,1,0,0:0:0:0:
80,156,37896,2,0,L|28:216,1,62.5
288,88,38248,5,0,0:0:0:0:
372,144,38482,2,0,P|420:176|380:244,1,125
316,236,38834,2,0,P|248:196|196:188,1,125
176,276,39186,1,0,0:0:0:0:
52,212,39420,6,0,L|120:92,1,125
320,76,39889,1,0,0:0:0:0:
256,236,40123,1,0,0:0:0:0:
84,212,40357,1,0,0:0:0:0:
216,92,40592,2,0,L|280:204,1,125
412,100,41061,5,0,0:0:0:0:
64,100,41295,1,0,0:0:0:0:
396,268,41529,1,0,0:0:0:0:
96,268,41764,1,0,0:0:0:0:
248,184,41998,1,0,0:0:0:0:
100,72,42232,6,0,L|108:204,1,125
216,280,42584,1,0,0:0:0:0:
400,212,42701,2,0,L|284:160,1,125
316,240,43170,1,0,0:0:0:0:
184,232,43404,1,0,0:0:0:0:
124,120,43639,1,0,0:0:0:0:
276,88,43873,2,0,L|364:180,1,125
192,312,44342,1,0,0:0:0:0:
268,120,44576,1,0,0:0:0:0:
80,136,44811,6,0,L|92:216,1,62.5
144,280,45045,1,0,0:0:0:0:
232,316,45162,1,0,0:0:0:0:
344,288,45279,2,0,L|316:208,1,62.5
344,104,45748,5,0,0:0:0:0:
392,228,45982,1,0,0:0:0:0:
136,260,46217,5,0,0:0:0:0:
144,128,46451,1,0,0:0:0:0:
320,96,46686,6,0,L|240:88,1,62.5
112,100,46920,2,0,L|92:224,1,125
64,288,47271,1,0,0:0:0:0:
184,300,47389,1,0,0:0:0:0:
184,300,47506,2,0,L|308:300,1,125
368,272,47857,2,0,P|432:208|416:176,1,125
76,68,48326,2,0,L|64:196,1,125
184,168,48678,1,0,0:0:0:0:
104,248,48795,2,0,P|60:296|140:360,1,187.5
256,292,49264,1,0,0:0:0:0:
100,316,49498,6,0,P|52:264|76:224,1,125
128,168,49967,1,0,0:0:0:0:
224,108,50201,2,0,P|304:156|336:168,1,125
436,216,50670,1,0,0:0:0:0:
400,308,50787,2,0,L|280:348,1,125
192,332,51139,1,0,0:0:0:0:
116,120,51373,5,0,0:0:0:0:
116,120,51490,1,0,0:0:0:0:
116,120,51607,2,0,P|80:216|88:232,1,125
400,104,52076,5,0,0:0:0:0:
400,104,52193,1,0,0:0:0:0:
400,104,52311,2,0,P|432:196|424:228,1,125
160,192,52779,5,0,0:0:0:0:
324,188,52896,1,0,0:0:0:0:
96,120,53131,6,0,L|60:244,1,125
144,320,53600,2,0,P|220:344|272:352,1,125
360,324,53951,1,0,0:0:0:0:
424,120,54068,2,0,L|296:136,1,125
76,112,54420,2,0,L|200:136,1,125
44,236,54889,5,0,0:0:0:0:
68,332,55123,2,0,P|160:344|208:344,1,125
352,304,55592,6,0,P|404:240|408:200,1,125
308,232,55943,2,0,P|264:192|264:164,1,62.5
336,84,56178,1,0,0:0:0:0:
236,52,56295,1,0,0:0:0:0:
112,140,56529,5,0,0:0:0:0:
116,232,56646,2,0,P|184:284|240:260,1,150.000005722046
304,200,56998,1,0,0:0:0:0:
392,236,57115,2,0,P|432:188|432:104,1,150.000005722046
360,80,57467,5,0,0:0:0:0:
284,112,57584,2,0,L|152:184,1,150.000005722046
84,276,57936,1,0,0:0:0:0:
184,276,58053,2,0,L|336:276,1,150.000005722046
420,268,58404,1,0,0:0:0:0:
372,128,58639,6,0,L|296:156,1,75.0000028610231
224,272,58873,2,0,L|148:248,1,75.0000028610231
92,112,59107,6,0,L|196:122,3,62.5
428,124,59576,2,0,L|368:141,3,62.5
156,324,60045,5,0,0:0:0:0:
136,296,60162,1,0,0:0:0:0:
112,268,60279,1,0,0:0:0:0:
92,244,60396,5,0,0:0:0:0:
200,228,60514,2,0,L|287:225,1,75.0000028610231
396,304,60748,2,0,L|312:317,1,75.0000028610231
204,324,60982,2,0,L|112:336,1,75.0000028610231
88,248,61217,2,0,L|92:164,1,75.0000028610231
100,72,61451,1,0,0:0:0:0:
208,80,61568,1,0,0:0:0:0:
304,60,61686,2,0,P|388:128|376:172,1,150.000005722046
300,212,62154,5,0,0:0:0:0:
384,280,62389,2,0,P|392:348|340:368,1,125
232,348,62857,2,0,P|148:356|104:344,1,125
64,248,63326,2,0,P|64:184|104:132,1,125
136,80,63795,1,0,0:0:0:0:
64,288,64029,2,0,P|100:308|192:320,1,125
300,232,64498,5,0,0:0:0:0:
240,56,64615,1,0,0:0:0:0:
432,116,64732,1,0,0:0:0:0:
152,172,64967,6,0,L|88:224,1,75.0000028610231
136,308,65201,1,0,0:0:0:0:
240,192,65318,2,0,L|292:248,1,75.0000028610231
368,328,65553,1,0,0:0:0:0:
412,52,65787,6,0,P|380:44|336:48,1,75.0000028610231
236,68,66021,1,0,0:0:0:0:
372,176,66139,2,0,L|304:124,1,75.0000028610231
104,80,66373,2,0,L|156:148,2,75.0000028610231
104,208,66725,1,0,0:0:0:0:
68,288,66842,2,0,L|144:312,2,75.0000028610231
92,108,67311,5,0,0:0:0:0:
172,240,67428,2,0,P|224:336|256:352,1,150.000005722046
324,316,67779,1,0,0:0:0:0:
400,240,67896,2,0,P|452:168|440:108,1,150.000005722046
112,40,68365,5,0,0:0:0:0:
56,168,68483,1,0,0:0:0:0:
200,152,68600,1,0,0:0:0:0:
56,280,68717,2,0,L|132:296,1,75.0000028610231
212,292,68951,1,0,0:0:0:0:
316,324,69068,2,0,P|368:240|352:112,1,225.000008583069
120,56,69654,5,0,0:0:0:0:
216,80,69889,2,0,P|296:96|336:124,1,125
328,208,70357,2,0,P|320:280|288:328,1,125
124,323,70826,2,0,P|64:255|54:203,1,125
56,224,71178,1,0,0:0:0:0:
56,224,71295,1,0,0:0:0:0:
48,44,71529,6,0,L|16:192,1,150.000005722046
32,292,71881,1,0,0:0:0:0:
80,360,71998,2,0,L|212:288,1,150.000005722046
140,208,72467,1,0,0:0:0:0:
216,152,72701,1,0,0:0:0:0:
240,240,72818,1,0,0:0:0:0:
240,240,72936,2,0,L|304:376,1,150.000005722046
400,244,73404,1,0,0:0:0:0:
384,160,73639,6,0,L|312:80,1,75.0000028610231
240,80,73873,2,0,L|196:160,1,75.0000028610231
108,124,74107,1,0,0:0:0:0:
64,220,74225,2,0,P|128:292|252:272,1,225.000008583069
312,212,74693,1,0,0:0:0:0:
404,212,74811,2,0,P|464:248|468:328,1,150.000005722046
312,352,75162,1,0,0:0:0:0:
92,112,75514,5,0,0:0:0:0:
68,224,75748,1,0,0:0:0:0:
52,320,75982,2,0,P|144:312|168:320,1,115.000002193451
232,320,76334,2,0,P|284:328|352:324,1,115.000002193451
424,264,76686,1,0,0:0:0:0:
376,192,76803,2,0,P|288:144|276:132,1,115.000002193451
208,108,77154,1,0,0:0:0:0:
100,84,77271,2,0,L|60:196,1,115.000002193451
60,288,77623,2,0,L|184:308,1,115.000002193451
272,320,77975,1,0,0:0:0:0:
392,312,78092,2,0,L|384:188,1,115.000002193451
300,116,78443,1,0,0:0:0:0:
184,128,78561,2,0,L|112:228,1,115.000002193451
248,196,79029,5,0,0:0:0:0:
172,272,79264,2,0,P|104:232|112:192,1,115.000002193451
160,96,79732,1,0,0:0:0:0:
284,84,79967,2,0,P|344:120|360:164,1,115.000002193451
360,228,80436,1,0,0:0:0:0:
284,308,80670,2,0,P|204:320|160:312,1,115.000002193451
88,84,81139,5,0,0:0:0:0:
88,84,81256,1,0,0:0:0:0:
88,84,81373,2,0,P|116:140|144:224,1,150.000005722046
72,300,81725,1,0,0:0:0:0:
72,300,81842,1,0,0:0:0:0:
72,300,81959,2,0,L|152:308,1,75.0000028610231
244,312,82193,6,0,L|324:304,1,75.0000028610231
384,216,82428,2,0,L|300:208,1,75.0000028610231
224,200,82662,1,0,0:0:0:0:
40,192,82779,1,0,0:0:0:0:
136,64,82896,1,0,0:0:0:0:
72,108,88639,6,0,L|128:192,2,75.0000028610231
92,272,88990,2,0,P|168:336|188:320,2,150.000005722046
264,280,89576,1,0,0:0:0:0:
416,264,89693,2,0,P|432:316|352:360,2,150.000005722046
432,152,90279,2,0,L|360:192,1,75.0000028610231
256,192,90514,1,0,0:0:0:0:
80,112,90748,6,0,L|88:236,1,125
100,324,91217,1,0,0:0:0:0:
192,336,91451,2,0,P|256:360|320:360,1,125
392,248,91920,1,0,0:0:0:0:
308,252,92154,2,0,P|236:240|212:260,1,62.5
72,204,92506,6,0,P|32:140|56:96,1,125
128,76,92857,1,0,0:0:0:0:
200,136,92975,2,0,P|240:60|276:52,1,125
376,56,93326,1,0,0:0:0:0:
424,128,93443,2,0,P|444:192|400:224,1,125
404,223,93795,1,0,0:0:0:0:
408,328,94029,6,0,L|280:324,1,125
56,320,94498,2,0,L|192:320,1,125
80,168,94967,5,0,0:0:0:0:
168,212,95084,2,0,P|124:264|76:252,2,125
44,120,95670,2,0,P|80:76|152:96,2,125
216,112,96373,5,0,0:0:0:0:
364,200,96607,1,0,0:0:0:0:
432,324,96842,6,0,P|356:348|304:348,2,125
404,240,97428,1,0,0:0:0:0:
288,232,97545,2,0,P|352:172|396:160,2,125
76,84,98248,6,0,P|104:148|76:200,1,125
196,96,98717,1,0,0:0:0:0:
280,92,98951,2,0,P|344:52|408:48,1,125
432,148,99420,6,0,L|464:216,1,62.5
332,160,99654,1,0,0:0:0:0:
356,228,99771,1,0,0:0:0:0:
424,264,99889,2,0,P|424:320|400:336,1,62.5
352,352,100123,2,0,P|300:320|288:252,1,125
220,344,100592,5,0,0:0:0:0:
92,340,100826,2,0,P|52:240|60:212,1,125
92,152,101295,1,0,0:0:0:0:
152,84,101529,2,0,P|224:56|272:48,1,125
136,64,101998,6,0,P|60:88|36:156,1,125
108,192,102350,1,0,0:0:0:0:
52,280,102467,2,0,P|108:312|184:312,1,125
256,312,102818,1,0,0:0:0:0:
436,252,102936,6,0,P|372:288|320:288,1,125
352,184,103404,1,0,0:0:0:0:
260,172,103639,2,0,P|204:140|220:84,1,125
336,76,104107,2,0,P|400:84|448:144,1,125
472,184,104576,1,0,0:0:0:0:
396,264,104811,6,0,L|400:344,1,75.0000028610231
304,304,105045,1,0,0:0:0:0:
212,324,105162,2,0,L|180:244,1,75.0000028610231
88,264,105396,1,0,0:0:0:0:
32,352,105514,1,0,0:0:0:0:
72,84,105748,6,0,P|184:84|204:104,1,125
264,116,106217,1,0,0:0:0:0:
220,192,106451,2,0,P|156:232|92:240,1,125
56,328,106920,1,0,0:0:0:0:
140,344,107154,2,0,P|200:308|200:252,1,125
208,168,107623,5,0,0:0:0:0:
264,208,107857,2,0,L|308:272,1,75.0000028610231
288,356,108092,2,0,L|360:336,1,75.0000028610231
400,248,108326,1,0,0:0:0:0:
456,176,108443,2,0,P|380:160|352:172,1,75.0000028610231
324,164,108678,1,0,0:0:0:0:
332,84,108795,2,0,P|388:68|472:100,1,150.000005722046
64,76,109264,6,0,P|44:144|52:204,1,125
72,296,109732,1,0,0:0:0:0:
160,344,109967,2,0,P|192:296|236:236,1,125
152,96,110436,2,0,L|272:148,1,125
288,328,110904,2,0,P|360:336|384:296,1,125
344,188,111373,2,0,P|372:128|424:136,1,125
356,44,111842,5,0,0:0:0:0:
276,56,112076,2,0,L|220:120,1,75.0000028610231
80,56,112311,2,0,L|152:120,1,75.0000028610231
60,160,112545,1,0,0:0:0:0:
168,192,112662,2,0,P|124:248|96:256,1,75.0000028610231
76,352,112896,1,0,0:0:0:0:
268,296,113014,1,0,0:0:0:0:
76,68,113248,6,0,P|68:152|100:192,1,125
60,288,113717,2,0,P|112:336|164:336,1,125
244,336,114186,1,0,0:0:0:0:
360,300,114420,1,0,0:0:0:0:
360,204,114654,2,0,P|260:180|232:148,1,125
156,176,115123,2,0,P|88:212|80:256,1,125
264,236,115592,5,0,0:0:0:0:
292,304,115709,2,0,P|248:360|168:356,1,150.000005722046
96,288,116061,5,0,0:0:0:0:
60,132,116178,1,0,0:0:0:0:
224,164,116295,1,0,0:0:0:0:
304,40,116529,6,0,P|304:132|344:164,1,150.000005722046
408,68,116881,1,0,0:0:0:0:
472,232,116998,1,0,0:0:0:0:
328,252,117115,1,0,0:0:0:0:
256,332,117350,6,0,P|192:304|152:232,1,150.000005722046
268,176,117701,1,0,0:0:0:0:
204,64,117818,1,0,0:0:0:0:
96,184,117936,1,0,0:0:0:0:
352,76,118170,6,0,P|312:152|344:196,1,150.000005722046
124,288,118521,1,0,0:0:0:0:
88,88,118756,5,0,0:0:0:0:
88,88,118873,1,0,0:0:0:0:
84,92,118990,2,0,P|84:172|88:176,1,75.0000028610231
68,312,119225,5,0,0:0:0:0:
68,312,119342,1,0,0:0:0:0:
64,308,119459,2,0,P|160:308|160:308,1,75.0000028610231
428,288,119694,5,0,0:0:0:0:
428,288,119811,1,0,0:0:0:0:
428,288,119928,2,0,P|348:312|340:316,1,75.0000028610231
100,72,120162,5,0,0:0:0:0:
116,108,120279,1,0,0:0:0:0:
136,148,120396,1,0,0:0:0:0:
148,192,120514,2,0,P|220:160|300:168,1,150.000005722046
288,216,120865,1,0,0:0:0:0:
268,264,120982,1,0,0:0:0:0:
244,312,121100,1,0,0:0:0:0:
196,296,121217,2,0,P|120:272|48:288,1,150.000005722046
64,192,121568,6,0,L|116:124,1,75.0000028610231
204,176,121803,1,0,0:0:0:0:
320,148,121920,2,0,P|392:200|380:256,1,150.000005722046
120,320,122389,5,0,0:0:0:0:
184,248,122623,2,0,P|92:232|64:248,1,125
232,88,123092,1,0,0:0:0:0:
36,160,123326,2,0,P|116:124|188:144,1,125
312,156,123795,2,0,P|320:88|376:48,1,125
428,316,124264,5,0,0:0:0:0:
332,324,124381,2,0,P|312:252|252:200,1,150.000005722046
136,88,124732,2,0,P|188:48|268:68,1,150.000005722046
116,248,125084,1,0,0:0:0:0:
44,176,125201,2,0,P|92:148|176:176,1,150.000005722046
388,280,125553,2,0,L|320:328,1,75.0000028610231
56,332,125904,5,0,0:0:0:0:
56,248,126021,2,0,L|140:232,1,75.0000028610231
208,176,126256,5,0,0:0:0:0:
136,64,126373,2,0,P|64:40|40:28,1,75.0000028610231
324,124,126607,5,0,0:0:0:0:
448,332,126725,2,0,L|360:344,1,75.0000028610231
192,304,126959,6,0,L|116:260,1,75.0000028610231
52,100,127193,1,0,0:0:0:0:
408,224,127428,5,0,0:0:0:0:
424,256,127545,1,0,0:0:0:0:
432,288,127662,2,0,P|388:332|296:368,1,150.000005722046
276,272,128014,5,0,0:0:0:0:
200,340,128131,1,0,0:0:0:0:
120,316,128248,2,0,P|48:268|40:244,1,75.0000028610231
128,236,128482,1,0,0:0:0:0:
134,146,128600,2,0,P|190:170|202:198,1,75.0000028610231
128,236,128834,1,0,0:0:0:0:
56,280,128951,2,0,P|76:316|128:320,1,75.0000028610231
196,180,129186,2,0,L|108:160,2,75.0000028610231
408,72,129654,5,0,0:0:0:0:
336,124,129889,2,0,P|272:144|240:192,1,125
424,236,130357,2,0,P|400:288|344:328,1,125
328,228,130826,1,0,0:0:0:0:
260,324,131061,2,0,P|184:336|136:328,1,125
80,240,131529,5,0,0:0:0:0:
136,80,131646,2,0,L|212:128,1,75.0000028610231
356,240,131880,1,0,0:0:0:0:
428,104,131998,2,0,P|376:72|288:84,1,150.000005722046
280,216,132350,2,0,P|224:248|200:252,1,75.0000028610231
304,68,132701,5,0,0:0:0:0:
172,160,132819,2,0,P|120:188|100:204,1,75.0000028610231
328,240,133053,1,0,0:0:0:0:
156,340,133170,1,0,0:0:0:0:
416,64,133404,6,0,L|388:148,1,75.0000028610231
416,292,133639,2,0,L|400:216,1,75.0000028610231
332,184,133873,1,0,0:0:0:0:
224,68,133990,2,0,L|156:128,1,75.0000028610231
280,304,134225,2,0,L|228:240,1,75.0000028610231
220,192,134459,1,0,0:0:0:0:
40,244,134576,2,0,P|80:296|112:296,1,75.0000028610231
88,160,134811,2,0,B|128:112|212:148|228:276|264:248|344:156,1,300.000011444092
396,56,135513,6,0,L|436:200,1,150.000005722046
352,244,135865,1,0,0:0:0:0:
452,304,135982,2,0,P|420:348|324:348,1,150.000005722046
240,340,136334,1,0,0:0:0:0:
160,328,136451,2,0,P|88:272|104:228,1,150.000005722046
56,112,136803,2,0,P|96:52|168:28,1,150.000005722046
244,84,137154,1,0,0:0:0:0:
364,100,137388,5,0,0:0:0:0:
96,200,137623,1,0,0:0:0:0:
36,304,137857,2,0,P|108:340|176:344,1,150.000005722046
180,244,138209,2,0,P|240:252|312:308,1,150.000005722046
232,356,138561,1,0,0:0:0:0:
300,180,138678,1,0,0:0:0:0:
156,112,138795,1,0,0:0:0:0:
408,44,139029,6,0,P|452:100|440:168,1,125
108,40,139498,2,0,P|56:72|64:164,1,125
48,288,139967,2,0,P|92:344|160:352,1,125
428,264,140436,2,0,P|408:344|360:360,1,125
192,192,140904,2,0,P|216:200|316:176,1,125
92,80,141373,5,0,0:0:0:0:
84,168,141490,2,0,P|56:224|104:292,1,150.000005722046
240,128,141842,2,0,P|216:36|136:56,1,150.000005722046
180,252,142193,1,0,0:0:0:0:
212,224,142311,1,0,0:0:0:0:
244,196,142428,1,0,0:0:0:0:
424,264,142545,2,0,P|372:308|344:320,1,75.0000028610231
328,152,142779,1,0,0:0:0:0:
184,80,142896,2,0,P|228:44|264:40,1,75.0000028610231
84,120,156139,6,0,L|216:120,2,110.000003356934
416,200,156725,2,0,L|296:200,2,110.000003356934
58,241,157311,2,0,B|114:305|202:321|186:249|326:349,1,275.000008392334
308,336,158014,5,0,0:0:0:0:
328,308,158131,1,0,0:0:0:0:
352,276,158248,1,0,0:0:0:0:
384,240,158365,1,0,0:0:0:0:
400,196,158482,1,0,0:0:0:0:
404,156,158600,1,0,0:0:0:0:
400,116,158717,1,0,0:0:0:0:
384,80,158834,1,0,0:0:0:0:
348,68,158951,1,0,0:0:0:0:
320,96,159068,1,0,0:0:0:0:
308,136,159186,1,0,0:0:0:0:
292,176,159303,1,0,0:0:0:0:
280,216,159420,1,0,0:0:0:0:
264,256,159537,6,0,P|216:304|64:328,1,225.000008583069
68,292,160006,1,0,0:0:0:0:
72,252,160123,1,0,0:0:0:0:
80,212,160240,1,0,0:0:0:0:
88,172,160357,1,0,0:0:0:0:
92,132,160475,2,0,B|144:80|212:44|284:48|304:112|376:152|384:136,1,300.000011444092
416,236,161178,5,0,0:0:0:0:
328,328,161295,1,0,0:0:0:0:
252,260,161412,2,0,P|168:224|104:320,1,225.000008583069
68,80,161998,6,0,L|132:140,1,75.0000028610231
80,304,162232,2,0,L|136:244,1,75.0000028610231
256,80,162467,2,0,L|256:168,1,75.0000028610231
256,304,162701,2,0,L|256:224,1,75.0000028610231
440,80,162936,2,0,L|372:148,1,75.0000028610231
428,304,163170,2,0,L|352:252,1,75.0000028610231
76,192,163521,6,0,L|160:192,1,75.0000028610231
416,192,163756,2,0,L|296:192,1,75.0000028610231
64,64,163990,2,0,L|136:104,1,75.0000028610231
416,64,164225,2,0,L|336:116,1,75.0000028610231
64,324,164459,2,0,L|132:280,1,75.0000028610231
416,316,164693,2,0,L|324:264,1,75.0000028610231
208,192,164928,2,0,L|284:192,5,75.0000028610231
200,224,165631,5,0,0:0:0:0:
208,272,165748,1,0,0:0:0:0:
236,304,165865,1,0,0:0:0:0:
272,328,165982,1,0,0:0:0:0:
308,308,166100,1,0,0:0:0:0:
336,280,166217,1,0,0:0:0:0:
352,240,166334,1,0,0:0:0:0:
368,200,166451,1,0,0:0:0:0:
380,160,166568,1,0,0:0:0:0:
388,120,166686,1,0,0:0:0:0:
392,80,166803,2,0,P|308:80|248:104,1,150.000005722046
247,104,167154,2,0,P|212:164|144:204,1,150.000005722046
136,232,167506,1,0,0:0:0:0:
124,264,167623,1,0,0:0:0:0:
44,316,167740,6,0,P|32:244|88:204,1,150.000005722046
104,24,168092,2,0,P|48:76|104:128,1,150.000005722046
160,200,168443,1,0,0:0:0:0:
216,112,168561,2,0,P|268:72|356:80,1,150.000005722046
368,164,168912,1,0,0:0:0:0:
444,232,169029,2,0,P|384:288|320:320,1,150.000005722046
244,344,169498,6,0,P|184:316|108:268,1,150.000005722046
76,208,169850,2,0,L|-16:180,2,75.0000028610231
64,56,170201,2,0,L|112:120,1,75.0000028610231
272,56,170436,2,0,L|216:112,1,75.0000028610231
433,320,170670,2,0,L|361:276,1,75.0000028610231
444,89,170904,6,0,L|374:139,1,75.0000028610231
356,144,171139,1,0,0:0:0:0:
324,116,171256,1,0,0:0:0:0:
292,144,171373,1,0,0:0:0:0:
272,180,171490,1,0,0:0:0:0:
252,216,171607,1,0,0:0:0:0:
240,256,171725,1,0,0:0:0:0:
200,248,171842,1,0,0:0:0:0:
172,216,171959,1,0,0:0:0:0:
148,180,172076,1,0,0:0:0:0:
124,144,172193,1,0,0:0:0:0:
48,316,172311,6,0,L|136:292,1,75.0000028610231
432,304,172545,2,0,L|348:280,1,75.0000028610231
252,52,172779,2,0,L|252:136,1,75.0000028610231
256,192,173014,12,0,175709,0:0:0:0:
76,272,175826,5,0,0:0:0:0:
76,272,175943,1,0,0:0:0:0:
76,272,176061,2,0,P|80:160|112:124,1,150.000005722046
424,264,176412,5,0,0:0:0:0:
424,264,176529,1,0,0:0:0:0:
424,264,176647,2,0,P|400:176|348:140,1,150.000005722046
80,76,177115,6,0,P|60:168|72:208,1,125
76,296,177584,1,0,0:0:0:0:
140,352,177818,2,0,P|200:296|256:292,1,125
344,280,178170,2,0,L|344:344,1,62.5
452,344,178404,2,0,L|444:280,1,62.5
368,32,178756,6,0,L|280:72,1,62.5
432,120,179107,1,0,0:0:0:0:
340,184,179342,2,0,P|280:208|212:192,1,125
222,197,179693,1,0,0:0:0:0:
180,84,179811,1,0,0:0:0:0:
176,80,179928,2,0,P|96:96|76:128,1,125
92,224,180279,1,0,0:0:0:0:
424,340,180514,6,0,P|460:288|420:248,1,125
80,340,180982,2,0,P|28:284|68:236,1,125
248,192,181451,1,0,0:0:0:0:
136,52,181686,2,0,P|92:92|88:156,1,125
252,48,182037,1,0,0:0:0:0:
344,56,182154,2,0,P|396:96|368:172,1,125
120,320,182623,5,0,0:0:0:0:
128,204,182857,2,0,L|208:252,1,75.0000028610231
376,324,183092,2,0,L|280:284,1,75.0000028610231
408,32,183326,2,0,L|352:104,1,75.0000028610231
164,112,183561,2,0,L|232:144,1,75.0000028610231
452,228,183795,2,0,L|376:196,1,75.0000028610231
304,180,184029,1,0,0:0:0:0:
160,68,184264,6,0,P|244:48|344:68,1,187.5
252,192,184850,1,0,0:0:0:0:
336,320,185084,2,0,P|228:344|144:332,1,187.5
72,172,185553,2,0,L|72:240,1,62.5
412,240,185787,2,0,L|412:172,1,62.5
116,280,186139,6,0,P|64:216|96:180,1,125
376,280,186607,2,0,P|444:232|448:164,1,125
344,188,187076,1,0,0:0:0:0:
176,184,187193,1,0,0:0:0:0:
256,40,187311,1,0,0:0:0:0:
196,296,187428,2,0,P|260:328|312:296,1,125
324,56,187896,6,0,P|256:28|192:72,1,150.000005722046
156,192,188248,1,0,0:0:0:0:
256,300,188365,1,0,0:0:0:0:
352,192,188482,1,0,0:0:0:0:
72,260,188717,6,0,L|148:328,1,75.0000028610231
440,104,188951,2,0,L|368:52,1,75.0000028610231
152,76,189303,6,0,L|88:128,1,75.0000028610231
348,324,189537,2,0,L|400:264,1,75.0000028610231
256,192,189771,1,0,0:0:0:0:
120,288,189889,2,0,L|192:328,3,75.0000028610231
160,84,190474,5,0,0:0:0:0:
160,84,190592,1,0,0:0:0:0:
160,84,190709,2,0,P|104:136|136:212,1,150.000005722046
356,96,191060,1,0,0:0:0:0:
356,96,191178,1,0,0:0:0:0:
356,96,191295,2,0,P|396:168|344:204,1,150.000005722046
68,284,191764,6,0,L|152:336,1,75.0000028610231
232,332,191998,1,0,0:0:0:0:
356,296,192115,2,0,P|312:292|280:256,1,75.0000028610231
280,200,192350,2,0,P|320:192|376:228,1,75.0000028610231
440,252,192584,1,0,0:0:0:0:
444,148,192701,1,0,0:0:0:0:
72,44,192936,6,0,L|132:108,1,75.0000028610231
424,56,193170,2,0,L|348:100,1,75.0000028610231
248,192,193404,1,0,0:0:0:0:
308,312,193639,6,0,P|400:312|424:276,1,125
408,216,194107,2,0,P|336:192|288:236,1,125
76,296,194576,2,0,P|128:344|200:336,1,125
204,260,195045,2,0,P|176:200|112:196,1,125
80,36,195514,6,0,L|68:112,1,75.0000028610231
68,208,195748,1,0,0:0:0:0:
192,252,195865,1,0,0:0:0:0:
248,128,195982,1,0,0:0:0:0:
96,312,196100,2,0,P|188:348|240:340,1,150.000005722046
468,324,196451,6,0,L|420:264,1,75.0000028610231
424,168,196685,1,0,0:0:0:0:
288,272,196802,1,0,0:0:0:0:
280,136,196920,1,0,0:0:0:0:
320,32,197037,2,0,P|256:56|208:124,1,150.000005722046
80,236,197389,6,0,P|108:156|164:132,1,150.000005722046
264,192,197740,1,0,0:0:0:0:
260,292,197857,2,0,P|188:324|116:336,1,150.000005722046
104,220,198209,1,0,0:0:0:0:
340,148,198326,2,0,P|408:100|440:100,1,75.0000028610231
144,140,198561,2,0,P|76:92|44:92,1,75.0000028610231
260,292,198795,1,0,0:0:0:0:
72,320,199029,6,0,L|164:312,1,75.0000028610231
200,228,199264,2,0,L|296:224,1,75.0000028610231
420,308,199498,1,0,0:0:0:0:
308,316,199615,1,0,0:0:0:0:
204,324,199732,2,0,L|112:336,1,75.0000028610231
88,248,199967,2,0,L|92:164,1,75.0000028610231
100,72,200201,1,0,0:0:0:0:
208,80,200318,1,0,0:0:0:0:
304,60,200436,2,0,P|388:128|376:172,1,150.000005722046
176,196,200904,6,0,P|224:244|296:196,1,125
232,128,201373,2,0,P|280:120|336:196,1,125
376,248,201842,2,0,P|336:304|284:320,1,125
184,72,202311,2,0,P|132:108|120:180,1,125
84,304,202779,6,0,P|160:336|224:328,1,125
172,244,203131,1,0,0:0:0:0:
352,260,203248,1,0,0:0:0:0:
172,244,203365,1,0,0:0:0:0:
440,88,203600,6,0,P|384:128|316:120,1,125
260,64,203951,1,0,0:0:0:0:
96,100,204068,1,0,0:0:0:0:
260,64,204186,1,0,0:0:0:0:
368,336,204420,6,0,P|444:308|440:272,1,125
360,240,204771,1,0,0:0:0:0:
236,256,204889,1,0,0:0:0:0:
156,268,205006,2,0,P|88:228|88:180,1,125
192,116,205357,2,0,L|256:104,3,62.5
308,180,205826,1,0,0:0:0:0:
384,272,205943,2,0,L|288:296,5,62.5
88,296,206764,6,0,L|80:168,1,125
172,121,207116,1,0,0:0:0:0:
80,60,207233,2,0,P|120:23|188:40,1,125
302,50,207585,1,0,0:0:0:0:
378,78,207702,2,0,P|436:148|424:172,1,125
448,288,208054,2,0,P|397:339|344:348,1,125
245,300,208405,1,0,0:0:0:0:
131,259,208639,5,0,0:0:0:0:
231,190,208873,1,0,0:0:0:0:
81,134,209107,2,0,P|127:70|173:57,1,125
169,58,209459,2,0,P|239:94|256:136,1,125
196,203,209811,1,0,0:0:0:0:
277,262,209928,2,0,L|332:216,1,62.5
344,120,210162,1,0,0:0:0:0:
465,93,210279,1,0,0:0:0:0:
108,348,210514,6,0,P|56:288|72:240,1,125
116,180,210982,1,0,0:0:0:0:
344,344,211217,2,0,P|424:316|440:272,1,125
364,196,211686,1,0,0:0:0:0:
144,28,211920,2,0,P|80:52|24:108,1,125
116,180,212389,1,0,0:0:0:0:
396,208,212623,2,0,P|434:275|424:324,1,125
256,336,213092,1,0,0:0:0:0:
392,128,213326,5,0,0:0:0:0:
392,128,213443,1,0,0:0:0:0:
392,128,213561,2,0,P|360:83|312:88,1,75.0000028610231
112,132,213795,5,0,0:0:0:0:
336,332,213912,2,0,P|408:307|424:296,1,75.0000028610231
180,40,214264,6,0,P|96:64|84:96,1,125
368,296,214732,1,0,0:0:0:0:
440,112,214967,2,0,P|388:56|336:56,1,125
92,280,215436,1,0,0:0:0:0:
204,288,215670,6,0,P|256:328|312:352,1,125
192,52,216139,2,0,P|112:48|68:52,1,125
432,276,216490,1,0,0:0:0:0:
312,216,216607,2,0,P|280:196|272:152,1,62.5
292,72,216842,1,0,0:0:0:0:
392,76,216959,2,0,P|424:128|424:144,1,62.5
264,180,217193,2,0,P|172:196|152:216,1,125
116,320,217545,1,0,0:0:0:0:
88,88,217779,6,0,L|148:200,1,125
268,64,218248,2,0,L|356:168,1,125
452,320,218717,2,0,L|356:236,1,125
264,352,219186,2,0,L|180:256,1,125
152,192,219654,1,0,0:0:0:0:
356,192,219889,1,0,0:0:0:0:
112,300,220123,5,0,0:0:0:0:
112,300,220240,1,0,0:0:0:0:
112,300,220357,2,0,P|196:304|248:288,1,75.0000028610231
436,88,220592,1,0,0:0:0:0:
436,88,220709,1,0,0:0:0:0:
436,88,220826,2,0,L|352:72,1,75.0000028610231
144,132,221178,6,0,P|112:156|104:220,1,75.0000028610231
180,304,221412,1,0,0:0:0:0:
336,272,221529,2,0,P|376:236|372:188,1,75.0000028610231
136,96,221881,6,0,L|208:72,1,62.5
300,96,222115,1,0,0:0:0:0:
376,164,222232,2,0,P|376:184|280:236,1,125
204,224,222584,1,0,0:0:0:0:
64,248,222818,6,0,P|64:256|160:344,1,125
248,320,223170,1,0,0:0:0:0:
372,296,223287,1,0,0:0:0:0:
420,200,223404,2,0,P|468:136|424:96,1,125
356,60,223755,1,0,0:0:0:0:
252,76,223873,2,0,L|100:96,2,125
312,192,224459,1,0,0:0:0:0:
48,188,224693,6,0,L|92:276,1,75.0000028610231
168,348,224928,1,0,0:0:0:0:
300,332,225045,2,0,L|232:284,1,75.0000028610231
380,224,225279,1,0,0:0:0:0:
396,72,225514,5,0,0:0:0:0:
280,92,225748,1,0,0:0:0:0:
424,172,225983,2,0,P|352:216|300:232,1,125
152,104,226451,2,0,P|120:188|104:232,1,125
92,320,226920,1,0,0:0:0:0:
216,340,227154,1,0,0:0:0:0:
376,88,227389,6,0,P|288:68|236:92,1,150.000005722046
260,224,227740,2,0,P|172:256|112:252,1,150.000005722046
48,88,228092,2,0,P|164:80|228:88,1,150.000005722046
256,236,228443,2,0,P|356:252|412:256,1,150.000005722046
244,104,228795,1,0,0:0:0:0:
100,192,228912,1,0,0:0:0:0:
188,320,229029,1,0,0:0:0:0:
112,268,229264,6,0,P|96:188|136:140,1,150.000005722046
212,112,229615,1,0,0:0:0:0:
300,92,229733,2,0,P|348:168|348:228,1,150.000005722046
268,240,230084,1,0,0:0:0:0:
188,216,230201,2,0,P|156:144|144:72,1,150.000005722046
240,80,230553,1,0,0:0:0:0:
300,272,230670,2,0,P|376:316|324:360,1,150.000005722046
332,128,231022,2,0,P|356:64|292:32,1,150.000005722046
220,56,231373,1,0,0:0:0:0:
112,56,231490,2,0,P|72:108|116:168,1,150.000005722046
80,336,231959,6,0,P|152:308|196:248,1,150.000005722046
148,120,232311,1,0,0:0:0:0:
56,240,232428,2,0,L|96:172,1,75.0000028610231
148,120,232662,1,0,0:0:0:0:
296,216,232779,2,0,L|216:176,1,75.0000028610231
252,84,233014,6,0,P|328:68|368:120,1,150.000005722046
448,180,233482,2,0,P|412:232|328:244,1,150.000005722046
200,184,233951,2,0,P|96:188|60:224,1,150.000005722046
48,312,234420,2,0,P|128:340|192:336,1,150.000005722046
180,84,234889,5,0,0:0:0:0:
148,84,235006,1,0,0:0:0:0:
116,84,235123,2,0,P|80:156|120:216,1,150.000005722046
320,216,235475,5,0,0:0:0:0:
356,216,235592,1,0,0:0:0:0:
392,216,235709,2,0,P|428:180|372:104,1,150.000005722046
200,72,236061,2,0,L|128:116,1,75.0000028610231
136,324,236295,5,0,0:0:0:0:
256,192,236412,1,0,0:0:0:0:
364,312,236529,1,0,0:0:0:0:
256,192,236764,12,0,238639,0:0:0:0:
