osu file format v14

[General]
AudioFilename: audio.mp3
AudioLeadIn: 0
PreviewTime: 47297
Countdown: 0
SampleSet: None
StackLeniency: 0.4
Mode: 0
LetterboxInBreaks: 0
WidescreenStoryboard: 1

[Editor]
DistanceSpacing: 1
BeatDivisor: 4
GridSize: 32
TimelineZoom: 2.200001

[Metadata]
Title:Spirit!!
TitleUnicode:Spirit!!
Artist:BAND-MAID
ArtistUnicode:BAND-MAID
Creator:Lasse
Version:Normal!!
Source:
Tags:bandmaid WORLD DOMINATION japanese english rock owc o!wc osu world cup 2020 finals hd2
BeatmapID:2709017
BeatmapSetID:1306578

[Difficulty]
HPDrainRate:3
CircleSize:3.4
OverallDifficulty:5
ApproachRate:6
SliderMultiplier:1
SliderTickRate:1

[Events]
//Background and Video events
0,0,"bg.jpg",0,0
//Break Periods
2,78883,88804
2,157054,166976
//Storyboard Layer 0 (Background)
//Storyboard Layer 1 (Fail)
//Storyboard Layer 2 (Pass)
//Storyboard Layer 3 (Foreground)
//Storyboard Layer 4 (Overlay)
//Storyboard Sound Samples

[TimingPoints]
712,342.857142857143,4,1,1,67,1,0
11683,-100,4,2,2,50,0,0
13054,-111.111111111111,4,1,1,57,0,0
24026,-111.111111111111,4,1,1,60,0,0
34997,-100,4,1,1,62,0,0
43226,-100,4,1,1,65,0,0
45969,-100,4,3,2,65,0,0
48712,-90.9090909090909,4,1,1,70,0,0
67226,-100,4,3,2,65,0,0
67569,-100,4,3,1,60,0,0
67912,-100,4,1,1,67,0,0
78197,-100,4,2,2,50,0,0
78883,-100,4,2,2,56,0,0
89854,-111.111111111111,4,2,2,58,0,0
100826,-100,4,1,1,62,0,0
109054,-100,4,1,1,65,0,0
111797,-100,4,2,2,62,0,0
112483,-100,4,2,2,64,0,0
112826,-100,4,2,2,66,0,0
113169,-90.9090909090909,4,1,1,70,0,0
132369,-100,4,2,2,70,0,0
132597,-100,4,2,2,68,0,0
132826,-100,4,2,2,66,0,0
133054,-100,4,2,2,64,0,0
133283,-100,4,2,2,62,0,0
133512,-100,4,2,2,60,0,0
133740,-100,4,1,1,65,0,0
143340,-100,4,2,2,65,0,0
144712,-90.9090909090909,4,1,1,67,0,0
149512,-90.9090909090909,4,1,2,67,0,0
150197,-90.9090909090909,4,1,1,70,0,0
155083,-90.9090909090909,4,1,1,68,0,0
155169,-90.9090909090909,4,1,1,66,0,0
155254,-90.9090909090909,4,1,1,64,0,0
155340,-90.9090909090909,4,1,1,62,0,0
155683,-90.9090909090909,4,1,1,52,0,0
155854,-100,4,3,2,50,0,0
156369,-90.9090909090909,4,3,2,55,0,0
157054,-125,4,1,1,52,0,0
176254,-117.647058823529,4,1,1,54,0,0
176940,-111.111111111111,4,1,1,57,0,0
177626,-105.263157894737,4,1,1,60,0,0
178312,-100,4,3,1,50,0,0
178483,-100,4,3,1,48,0,0
178654,-100,4,3,1,46,0,0
178826,-100,4,3,1,44,0,0
180369,-90.9090909090909,4,1,1,72,0,0
187226,-90.9090909090909,4,1,1,72,0,0
187912,-90.9090909090909,4,1,1,72,0,0
188597,-90.9090909090909,4,1,1,72,0,0
189283,-90.9090909090909,4,1,1,72,0,0
189969,-90.9090909090909,4,1,1,72,0,0
191340,-90.9090909090909,4,1,1,72,0,0
195454,-90.9090909090909,4,1,2,70,0,0
196826,-90.9090909090909,4,1,1,72,0,0
198537,-90.9090909090909,4,1,1,72,0,0
199226,-90.9090909090909,4,1,1,72,0,0
199912,-90.9090909090909,4,1,1,72,0,0
200597,-90.9090909090909,4,1,1,72,0,0
204369,-90.9090909090909,4,3,2,67,0,0
204712,-90.9090909090909,4,3,1,63,0,0
205054,-90.9090909090909,4,1,1,65,0,0

[Colours]
Combo1 : 250,180,240
Combo2 : 120,200,230
Combo3 : 255,230,130
Combo4 : 160,230,150

[HitObjects]
43,68,711,6,0,P|28:102|30:177,1,100,14|0,0:0|0:0,0:0:0:0:
56,204,1226,2,0,P|106:186|163:191,1,100,10|0,0:1|0:0,0:0:0:0:
195,213,1740,1,8,0:0:0:0:
205,312,2083,1,2,0:0:0:0:
289,364,2426,1,8,0:0:0:0:
386,342,2769,1,10,0:0:0:0:
410,244,3112,1,0,0:0:0:0:
333,171,3454,6,0,L|215:163,1,100,10|0,0:0|0:0,0:0:0:0:
185,147,3969,2,0,P|168:105|183:52,1,100,10|0,0:1|0:0,0:0:0:0:
224,27,4483,1,8,0:0:0:0:
314,69,4826,1,2,0:1:0:0:
406,31,5169,1,8,0:0:0:0:
482,95,5512,1,2,0:0:0:0:
462,192,5854,1,8,0:0:0:0:
359,217,6197,6,0,L|243:198,1,100,10|2,0:1|0:1,0:0:0:0:
224,236,6712,1,8,0:0:0:0:
224,236,6883,2,0,P|233:279|203:346,1,100,2|8,0:1|0:0,0:0:0:0:
124,372,7569,2,0,L|26:357,1,100,2|8,0:0|0:0,0:0:0:0:
7,314,8083,1,0,0:1:0:0:
7,314,8254,2,0,P|-1:265|15:218,1,100,10|0,0:0|0:0,0:0:0:0:
96,147,8940,6,0,L|207:139,1,100,10|0,0:0|0:0,0:0:0:0:
235,178,9454,1,10,0:1:0:0:
235,178,9626,1,0,0:0:0:0:
326,217,9969,1,0,0:0:0:0:
387,137,10312,2,0,P|400:89|382:39,1,100,2|8,0:1|0:0,0:0:0:0:
342,25,10826,1,2,0:1:0:0:
342,25,10997,2,0,L|222:35,2,100,2|8|12,0:0|0:0|2:1,0:0:0:0:
466,218,13054,6,0,P|476:246|461:307,1,89.9999972534181,4|8,0:2|0:0,0:0:0:0:
404,371,13740,1,2,0:2:0:0:
404,371,13912,1,2,0:2:0:0:
330,319,14254,1,2,0:2:0:0:
366,236,14597,1,2,0:2:0:0:
307,167,14940,1,2,0:2:0:0:
336,82,15283,1,2,0:2:0:0:
268,30,15626,1,2,0:2:0:0:
268,30,15797,2,0,P|217:41|164:25,1,89.9999972534181,0|8,0:0|0:0,0:0:0:0:
89,10,16483,5,2,0:2:0:0:
89,10,16654,1,2,0:2:0:0:
41,86,16997,1,2,0:2:0:0:
97,155,17340,1,2,0:2:0:0:
48,230,17683,1,2,0:2:0:0:
90,309,18026,1,2,0:2:0:0:
174,279,18369,1,2,0:2:0:0:
174,279,18540,2,0,P|215:271|270:273,1,89.9999972534181,0|8,0:0|0:0,0:0:0:0:
320,345,19226,6,0,P|361:353|416:351,1,89.9999972534181,2|8,0:2|0:0,0:0:0:0:
451,336,19740,1,2,0:2:0:0:
489,254,20083,1,2,0:2:0:0:
423,192,20426,1,2,0:2:0:0:
340,229,20769,1,2,0:3:0:0:
255,197,21112,1,2,0:3:0:0:
255,197,21283,2,0,L|244:93,2,89.9999972534181,0|10|2,0:0|0:2|0:2,0:0:0:0:
221,293,22312,5,8,0:0:0:0:
221,293,22483,2,0,P|181:314|130:302,1,89.9999972534181,2|0,0:2|0:2,0:0:0:0:
95,291,22997,1,10,0:2:0:0:
45,215,23340,1,2,0:2:0:0:
88,136,23683,1,10,0:2:0:0:
188,166,24026,6,0,L|288:167,1,89.9999972534181,4|8,0:2|0:0,0:0:0:0:
341,230,24712,2,0,L|441:231,1,89.9999972534181,2|8,0:2|0:0,0:0:0:0:
472,214,25226,2,0,P|483:177|471:120,1,89.9999972534181,2|0,0:2|0:0,0:0:0:0:
450,89,25740,1,10,0:2:0:0:
366,121,26083,1,2,0:2:0:0:
366,121,26254,1,0,0:2:0:0:
301,58,26597,1,2,0:2:0:0:
301,58,26769,2,0,P|253:48|197:51,1,89.9999972534181,0|8,0:0|0:0,0:0:0:0:
135,108,27454,6,0,L|142:202,1,89.9999972534181,2|8,0:2|0:0,0:0:0:0:
146,242,27969,1,2,0:2:0:0:
220,293,28312,1,2,0:2:0:0:
154,354,28654,1,2,0:2:0:0:
77,307,28997,1,2,0:2:0:0:
146,242,29340,5,2,0:2:0:0:
146,242,29512,2,0,L|153:140,1,89.9999972534181,4|10,0:2|0:2,0:0:0:0:
159,62,30197,1,2,0:2:0:0:
159,62,30369,1,0,0:0:0:0:
238,114,30712,1,8,0:3:0:0:
238,114,30883,2,0,P|282:121|329:102,1,89.9999972534181,8|10,0:3|0:2,0:0:0:0:
388,43,31569,1,0,0:0:0:0:
388,43,31740,1,0,0:0:0:0:
468,98,32083,6,0,P|489:159|481:190,1,89.9999972534181,8|8,0:3|0:3,0:0:0:0:
466,223,32597,1,10,0:2:0:0:
392,272,32940,1,4,0:3:0:0:
392,272,33112,1,4,0:3:0:0:
323,213,33454,1,2,0:2:0:0:
323,213,33626,2,0,L|311:111,1,89.9999972534181,12|2,0:2|0:2,0:0:0:0:
266,46,34312,1,10,0:3:0:0:
204,111,34654,1,6,0:3:0:0:
119,57,34997,6,2,P|72:52|53:105,1,100,6|8,0:1|0:0,0:1:0:0:
52,144,35512,1,2,0:1:0:0:
52,144,35683,2,2,L|66:249,1,100,0|0,0:0|0:2,0:1:0:0:
123,324,36369,2,0,P|170:329|189:276,1,100,8|8,0:3|0:0,0:0:0:0:
201,238,36883,1,8,0:3:0:0:
201,238,37054,2,0,P|190:179|208:128,1,100,4|12,0:3|0:2,0:0:0:0:
271,57,37740,6,2,L|375:46,1,100,6|8,0:1|0:0,0:1:0:0:
419,54,38254,2,0,P|442:85|431:158,1,100,2|0,0:1|0:0,0:0:0:0:
419,190,38769,1,8,0:0:0:0:
320,155,39112,1,8,0:3:0:0:
254,230,39454,1,8,0:0:0:0:
282,325,39797,1,6,0:3:0:0:
378,352,40140,1,8,0:3:0:0:
470,298,40483,6,0,L|477:193,1,100,6|8,0:1|0:0,0:0:0:0:
480,148,40997,1,10,0:1:0:0:
480,148,41169,2,2,P|440:156|388:119,1,100,0|8,0:0|0:1,0:1:0:0:
324,52,41854,1,8,0:3:0:0:
274,139,42197,1,8,0:0:0:0:
342,211,42540,1,2,0:2:0:0:
319,308,42883,1,12,0:2:0:0:
227,358,43226,6,2,L|117:347,1,100,14|2,0:0|0:3,0:1:0:0:
28,364,43912,2,2,P|18:323|42:259,1,100,12|2,0:2|0:3,0:1:0:0:
70,234,44426,1,8,0:3:0:0:
70,234,44597,2,2,L|179:212,1,100,12|2,0:2|0:3,0:1:0:0:
261,177,45283,1,14,0:2:0:0:
324,254,45626,1,8,0:0:0:0:
411,194,45969,6,0,P|420:135|398:85,1,100,8|8,0:2|0:1,0:0:0:0:
372,61,46483,2,0,P|331:75|272:64,1,100,8|8,0:2|0:1,0:0:0:0:
226,63,46997,2,0,P|215:31|203:16,1,50,8|8,0:0|0:3,0:0:0:0:
155,12,47340,6,0,B|111:18|93:81|93:81|119:102|126:132|126:132|90:152|79:192|79:192|102:209|125:250,1,300,8|8,0:1|0:2,0:0:0:0:
149,344,48712,5,6,0:1:0:0:
248,298,49054,1,8,0:0:0:0:
356,307,49397,1,2,0:2:0:0:
445,368,49740,1,8,0:0:0:0:
501,265,50083,6,0,P|507:216|487:152,1,110.000003356934,2|8,0:1|0:2,0:0:0:0:
455,115,50597,1,2,0:1:0:0:
362,175,50940,1,2,0:1:0:0:
265,122,51283,1,2,0:1:0:0:
183,195,51626,1,2,0:1:0:0:
183,195,51797,2,0,B|135:226|135:226|76:194,1,110.000003356934,8|2,0:0|0:2,0:0:0:0:
10,57,52654,5,2,0:1:0:0:
10,57,52826,1,8,0:3:0:0:
114,21,53169,1,8,0:0:0:0:
216,58,53512,1,4,0:3:0:0:
321,25,53854,1,8,0:0:0:0:
420,71,54197,2,0,P|438:108|424:182,1,110.000003356934,6|8,0:1|0:0,0:0:0:0:
334,232,54883,2,0,P|292:213|224:217,1,110.000003356934,2|8,0:2|0:0,0:0:0:0:
119,249,55569,5,2,0:1:0:0:
119,249,55740,1,2,0:2:0:0:
141,356,56083,1,2,0:1:0:0:
248,332,56426,1,2,0:1:0:0:
354,359,56769,2,0,L|475:355,1,110.000003356934,2|0,0:1|0:0,0:0:0:0:
496,312,57283,1,10,0:0:0:0:
496,312,57454,2,0,P|505:256|481:198,1,110.000003356934,2|0,0:2|0:0,0:0:0:0:
403,128,58140,5,2,0:1:0:0:
403,128,58312,2,0,B|362:121|362:121|340:130|340:130|291:119,1,110.000003356934,8|4,0:0|0:3,0:0:0:0:
242,110,58826,1,8,0:0:0:0:
219,218,59169,1,4,0:3:0:0:
57,273,59683,6,0,B|27:256|27:256|42:163,1,110.000003356934,6|8,0:1|0:0,0:0:0:0:
110,97,60369,2,0,B|151:90|151:90|173:99|173:99|222:88,1,110.000003356934,2|8,0:1|0:0,0:0:0:0:
314,139,61054,1,2,0:1:0:0:
394,63,61397,1,10,0:1:0:0:
486,121,61740,1,2,0:1:0:0:
406,197,62083,1,10,0:1:0:0:
304,137,62426,6,0,P|270:121|182:125,1,110.000003356934,2|8,0:1|0:0,0:0:0:0:
153,149,62940,1,2,0:2:0:0:
153,149,63112,2,0,P|174:200|163:262,1,110.000003356934,2|8,0:1|0:0,0:0:0:0:
115,350,63797,1,2,0:1:0:0:
12,310,64140,1,10,0:2:0:0:
34,202,64483,1,8,0:3:0:0:
143,191,64826,1,10,0:1:0:0:
222,274,65169,6,0,P|267:284|312:263,1,82.5000025177003,2|2,0:1|0:1,0:0:0:0:
371,230,65683,1,2,0:2:0:0:
371,230,65854,2,0,L|353:134,1,82.5000025177003,10|2,0:2|0:1,0:0:0:0:
295,92,66369,1,2,0:2:0:0:
295,92,66540,2,0,L|313:-4,2,82.5000025177003,2|2|2,0:2|0:1|0:1,0:0:0:0:
266,133,67226,2,0,B|235:164|235:164|169:151,1,100,8|8,0:2|0:3,0:0:0:0:
87,112,67912,6,0,B|42:106|42:106|14:167,1,100,14|0,0:0|0:0,0:0:0:0:
23,205,68426,2,0,L|47:326,1,100,10|0,0:1|0:0,0:0:0:0:
60,350,68940,1,8,0:0:0:0:
157,328,69283,1,2,0:0:0:0:
248,368,69626,1,8,0:0:0:0:
342,335,69969,1,10,0:0:0:0:
436,366,70312,1,0,0:0:0:0:
494,277,70654,6,0,P|498:232|478:177,1,100,8|0,0:0|0:0,0:0:0:0:
435,159,71169,2,0,B|401:151|401:151|380:160|380:160|331:150,1,100,10|0,0:1|0:0,0:0:0:0:
294,176,71683,1,8,0:0:0:0:
269,78,72026,1,2,0:1:0:0:
176,41,72369,1,8,0:0:0:0:
79,66,72712,1,2,0:0:0:0:
36,156,73054,1,8,0:0:0:0:
88,246,73397,6,0,L|202:240,1,100,10|2,0:1|0:1,0:0:0:0:
232,214,73912,1,8,0:0:0:0:
232,214,74083,2,0,P|223:171|253:104,1,100,2|8,0:1|0:0,0:0:0:0:
309,46,74769,2,0,L|409:39,1,100,0|8,0:0|0:0,0:0:0:0:
457,64,75283,1,0,0:1:0:0:
457,64,75454,2,0,P|476:103|465:175,1,100,8|0,0:0|0:0,0:0:0:0:
397,225,76140,6,0,P|354:212|286:217,1,100,8|0,0:0|0:0,0:0:0:0:
268,253,76654,1,10,0:1:0:0:
268,253,76826,1,0,0:0:0:0:
322,336,77169,2,0,L|378:333,1,50,0|6,0:0|0:2,0:0:0:0:
449,184,89854,6,0,P|466:139|453:93,1,89.9999972534181,10|8,0:1|0:0,0:0:0:0:
391,37,90540,2,0,L|292:28,1,89.9999972534181,10|8,0:1|0:0,0:0:0:0:
221,71,91226,2,0,L|122:62,1,89.9999972534181,10|8,0:1|0:0,0:0:0:0:
52,106,91912,2,0,P|35:151|48:197,1,89.9999972534181,10|8,0:1|0:0,0:0:0:0:
104,270,92597,5,10,0:1:0:0:
104,270,92769,1,0,0:0:0:0:
182,226,93112,1,10,0:1:0:0:
170,136,93454,1,2,0:0:0:0:
228,67,93797,1,8,0:1:0:0:
228,67,93969,2,0,L|324:55,1,89.9999972534181,10|8,0:1|0:0,0:0:0:0:
353,29,94483,1,8,0:0:0:0:
429,75,94826,2,0,P|437:98|438:133,1,44.999998626709,2|8,0:1|0:0,0:0:0:0:
395,204,95340,6,0,P|354:191|299:194,1,89.9999972534181,10|8,0:1|0:0,0:0:0:0:
275,223,95854,1,8,0:1:0:0:
275,223,96026,2,0,P|265:274|275:318,1,89.9999972534181,8|8,0:1|0:0,0:0:0:0:
342,366,96712,2,0,L|442:359,1,89.9999972534181,10|8,0:1|0:0,0:0:0:0:
481,284,97397,2,0,P|488:239|478:196,1,89.9999972534181,10|8,0:1|0:0,0:0:0:0:
397,147,98083,6,0,P|358:162|302:154,1,89.9999972534181,10|8,0:1|0:0,0:0:0:0:
273,132,98597,1,8,0:1:0:0:
216,203,98940,2,0,B|206:235|206:235|209:256|209:256|194:300,1,89.9999972534181,2|8,0:2|0:1,0:0:0:0:
173,328,99454,1,10,0:1:0:0:
173,328,99626,2,0,L|75:313,1,89.9999972534181,8|8,0:1|0:1,0:0:0:0:
49,343,100140,1,10,0:1:0:0:
6,263,100483,1,12,0:0:0:0:
65,182,100826,6,2,L|87:62,1,100,6|8,0:1|0:0,0:1:0:0:
115,45,101340,1,2,0:1:0:0:
115,45,101512,2,2,B|160:64|160:64|218:49,1,100,0|0,0:0|0:2,0:1:0:0:
299,95,102197,2,0,B|344:76|344:76|402:91,1,100,8|8,0:3|0:0,0:0:0:0:
441,116,102712,1,8,0:3:0:0:
441,116,102883,2,0,L|459:214,1,100,4|12,0:3|0:2,0:0:0:0:
387,291,103569,6,2,P|340:301|283:280,1,100,6|8,0:1|0:0,0:1:0:0:
258,247,104083,2,0,L|241:135,1,100,2|0,0:1|0:0,0:0:0:0:
212,108,104597,1,8,0:0:0:0:
124,60,104940,1,8,0:3:0:0:
33,101,105283,1,8,0:0:0:0:
12,198,105626,1,6,0:3:0:0:
83,267,105969,1,8,0:3:0:0:
182,226,106312,6,0,P|234:209|296:210,1,100,6|8,0:1|0:0,0:0:0:0:
326,223,106826,1,10,0:1:0:0:
326,223,106997,2,2,B|317:275|317:275|339:336,1,100,0|8,0:0|0:1,0:1:0:0:
420,367,107683,1,8,0:3:0:0:
498,305,108026,1,8,0:0:0:0:
461,211,108369,1,2,0:0:0:0:
484,113,108712,1,12,0:2:0:0:
410,37,109054,6,2,L|316:26,1,75,14|4,0:0|0:3,0:1:0:0:
225,86,109740,2,2,L|131:75,1,75,12|4,0:2|0:3,0:1:0:0:
42,140,110426,2,2,P|31:171|33:220,1,75,12|4,0:2|0:3,0:1:0:0:
85,325,111112,1,14,0:2:0:0:
181,298,111454,1,8,0:0:0:0:
273,336,111797,6,0,B|299:370|352:363|352:363|366:342|393:330|393:330|378:305|388:263,1,200,8|8,3:1|3:1,0:0:0:0:
473,212,112826,5,8,3:2:0:0:
473,212,112997,1,8,3:2:0:0:
473,212,113169,2,0,P|488:154|470:98,1,110.000003356934,14|8,0:1|0:0,0:0:0:0:
397,29,113854,2,0,L|281:20,1,110.000003356934,2|8,0:2|0:0,0:0:0:0:
185,75,114540,6,0,P|161:129|170:188,1,110.000003356934,2|8,0:1|0:2,0:0:0:0:
197,223,115054,1,2,0:1:0:0:
190,332,115397,1,2,0:1:0:0:
86,368,115740,1,2,0:1:0:0:
8,290,116083,1,2,0:1:0:0:
8,290,116254,2,0,L|19:173,1,110.000003356934,8|2,0:0|0:2,0:0:0:0:
93,35,117112,5,2,0:1:0:0:
93,35,117283,1,8,0:3:0:0:
121,141,117626,1,8,0:0:0:0:
208,207,117969,1,4,0:3:0:0:
317,215,118312,1,8,0:0:0:0:
421,180,118654,2,0,P|436:136|425:69,1,110.000003356934,6|8,0:1|0:0,0:0:0:0:
326,27,119340,2,0,B|288:23|288:23|259:37|259:37|216:33,1,110.000003356934,2|8,0:2|0:0,0:0:0:0:
114,17,120026,5,2,0:1:0:0:
114,17,120197,1,2,0:2:0:0:
52,108,120540,1,2,0:1:0:0:
101,206,120883,1,2,0:1:0:0:
210,198,121226,2,0,L|334:178,1,110.000003356934,2|0,0:1|0:0,0:0:0:0:
376,197,121740,1,10,0:0:0:0:
376,197,121912,2,0,P|400:248|388:310,1,110.000003356934,2|0,0:2|0:0,0:0:0:0:
299,357,122597,5,2,0:1:0:0:
299,357,122769,2,0,B|258:350|258:350|236:359|236:359|189:352,1,110.000003356934,8|4,0:0|0:3,0:0:0:0:
139,335,123283,1,8,0:0:0:0:
37,377,123626,1,4,0:3:0:0:
9,206,124140,6,0,B|27:84,1,110.000003356934,6|8,0:1|0:0,0:0:0:0:
128,59,124826,2,0,B|177:85|177:85|243:64,1,110.000003356934,2|8,0:1|0:0,0:0:0:0:
326,17,125512,1,2,0:1:0:0:
423,67,125854,1,10,0:1:0:0:
327,120,126197,1,2,0:1:0:0:
228,68,126540,1,10,0:1:0:0:
140,145,126883,6,0,P|123:191|135:257,1,110.000003356934,2|8,0:1|0:0,0:0:0:0:
172,295,127397,1,2,0:2:0:0:
172,295,127569,2,0,L|284:279,1,110.000003356934,2|8,0:1|0:0,0:0:0:0:
357,362,128254,1,2,0:1:0:0:
464,337,128597,1,10,0:2:0:0:
484,228,128940,1,8,0:3:0:0:
403,153,129283,1,10,0:1:0:0:
300,205,129626,6,0,P|255:215|211:188,1,82.5000025177003,2|2,0:1|0:1,0:0:0:0:
165,149,130140,1,2,0:2:0:0:
165,149,130312,2,0,L|147:53,1,82.5000025177003,10|2,0:2|0:1,0:0:0:0:
74,33,130826,1,2,0:2:0:0:
74,33,130997,2,0,P|36:57|28:112,2,82.5000025177003,2|2|2,0:2|0:1|0:1,0:0:0:0:
233,91,132026,5,2,0:1:0:0:
233,91,132197,1,2,0:1:0:0:
0,307,133740,6,0,L|111:291,1,100,6|2,0:1|0:2,0:0:0:0:
192,352,134426,1,10,0:1:0:0:
192,352,134597,1,2,0:2:0:0:
192,352,134769,1,2,0:2:0:0:
253,273,135112,2,0,P|246:220|262:158,1,100,2|2,0:1|0:2,0:0:0:0:
298,84,135797,1,10,0:1:0:0:
397,70,136140,1,8,0:0:0:0:
467,151,136483,6,0,P|474:204|458:266,1,100,6|2,0:1|0:2,0:0:0:0:
409,332,137169,1,10,0:0:0:0:
409,332,137340,1,0,0:0:0:0:
409,332,137512,1,10,0:2:0:0:
315,296,137854,2,0,P|270:283|209:295,2,100,2|10|2,0:1|0:2|0:2,0:0:0:0:
471,170,139226,6,0,P|479:121|454:63,1,100,6|2,0:0|0:2,0:0:0:0:
387,26,139912,1,10,0:0:0:0:
387,26,140083,1,2,0:2:0:0:
387,26,140254,1,2,0:2:0:0:
307,86,140597,2,0,P|254:98|207:75,1,100,2|2,0:1|0:2,0:0:0:0:
134,38,141283,1,10,0:0:0:0:
134,38,141454,1,0,0:0:0:0:
134,38,141626,1,8,0:0:0:0:
44,93,141969,6,0,P|27:123|28:191,1,100,6|2,0:1|0:2,0:0:0:0:
67,289,142654,1,10,0:1:0:0:
67,289,142826,1,0,0:0:0:0:
67,289,142997,1,10,0:2:0:0:
142,354,143340,2,0,L|246:336,1,100,8|8,3:2|3:2,0:0:0:0:
262,239,144026,2,0,L|244:140,1,100,8|8,3:3|3:3,0:0:0:0:
305,44,144712,6,0,P|362:22|430:37,1,110.000003356934,4|0,0:1|0:2,0:0:0:0:
456,65,145226,1,8,0:0:0:0:
456,65,145397,2,0,L|477:176,1,110.000003356934,0|0,0:1|0:0,0:0:0:0:
499,280,146083,2,2,B|309:221|393:394|195:332,1,330.000010070801,2|2,0:0|0:1,0:1:0:0:
115,245,147454,5,6,0:1:0:0:
212,194,147797,1,2,0:1:0:0:
193,85,148140,1,2,0:1:0:0:
83,69,148483,1,2,0:1:0:0:
33,168,148826,1,2,0:1:0:0:
115,245,149169,1,2,0:1:0:0:
212,194,149512,1,10,0:1:0:0:
290,270,149854,1,10,0:1:0:0:
401,242,150197,6,2,P|423:197|406:133,1,110.000003356934,6|2,0:1|0:2,0:1:0:0:
376,96,150712,2,0,L|264:80,1,110.000003356934,10|10,0:0|0:2,0:0:0:0:
222,112,151226,2,0,P|193:153|200:218,1,110.000003356934,2|2,0:1|0:2,0:0:0:0:
296,256,151912,2,0,P|300:309|270:354,1,110.000003356934,0|2,0:0|0:2,0:0:0:0:
216,366,152426,2,0,L|106:350,1,110.000003356934,10|10,0:0|0:2,0:0:0:0:
58,376,152940,5,14,0:0:0:0:
32,268,153283,1,2,0:2:0:0:
32,268,153454,2,0,P|33:218|68:147,1,110.000003356934,10|10,0:1|0:2,0:0:0:0:
93,122,153969,1,2,0:1:0:0:
188,187,154312,1,2,0:2:0:0:
188,187,154483,2,0,B|239:206|239:206|304:172,1,110.000003356934,10|10,0:1|0:2,0:0:0:0:
334,149,154997,6,2,P|323:118|453:80,1,220.000006713867,4|2,0:3|3:3,0:1:0:0:
481,123,155854,1,8,0:2:0:0:
481,123,156026,2,6,L|463:240,1,100,4|12,0:3|0:2,0:1:0:0:
0,278,168026,6,0,B|48:253|48:253|162:279,1,160,2|10,0:2|0:2,0:0:0:0:
300,329,169397,1,2,0:2:0:0:
375,355,169740,1,2,0:2:0:0:
401,280,170083,1,10,0:2:0:0:
326,254,170426,1,10,0:2:0:0:
247,238,170769,6,0,B|148:213|185:284|86:275,1,160,2|10,0:2|0:2,0:2:0:0:
1,149,172140,1,2,0:2:0:0:
19,71,172483,1,2,0:2:0:0:
97,89,172826,1,10,0:2:0:0:
79,167,173169,1,10,0:2:0:0:
111,240,173512,6,0,P|147:270|257:229,1,160,2|10,0:2|0:2,0:0:0:0:
323,102,174883,1,2,0:2:0:0:
352,27,175226,1,2,0:2:0:0:
427,56,175569,1,10,0:2:0:0:
398,131,175912,1,2,0:2:0:0:
436,217,176254,6,0,P|447:253|434:299,1,85.0000016212464,2|0,0:2|0:0,0:0:0:0:
368,359,176940,6,0,L|279:339,1,89.9999972534181,10|0,0:2|0:0,0:0:0:0:
206,278,177626,6,0,P|230:226|215:172,1,94.9999974632264,2|8,0:2|0:0,0:0:0:0:
165,108,178312,6,0,L|53:83,1,100,10|0,0:2|0:2,0:0:0:0:
67,86,180369,5,14,0:1:0:0:
27,188,180712,1,8,0:0:0:0:
79,284,181054,1,2,0:2:0:0:
187,300,181397,1,8,0:0:0:0:
272,227,181740,6,0,L|285:96,1,110.000003356934,2|8,0:1|0:2,0:0:0:0:
292,63,182254,1,2,0:1:0:0:
397,32,182597,1,2,0:1:0:0:
489,91,182940,1,2,0:1:0:0:
505,204,183283,1,2,0:1:0:0:
505,204,183454,2,0,L|492:335,1,110.000003356934,8|2,0:0|0:2,0:0:0:0:
336,374,184312,5,2,0:1:0:0:
336,374,184483,1,8,0:3:0:0:
280,279,184826,1,8,0:0:0:0:
345,190,185169,1,4,0:3:0:0:
324,82,185512,1,8,0:0:0:0:
217,53,185854,2,0,L|91:42,1,110.000003356934,6|8,0:1|0:0,0:0:0:0:
17,107,186540,2,0,P|0:141|7:220,1,110.000003356934,2|8,0:2|0:0,0:0:0:0:
77,293,187226,6,0,B|116:262|161:277|161:277|169:311|203:344,1,165.000005035401,2|2,0:1|0:2,0:2:0:0:
254,332,187912,2,0,B|264:266|328:263|328:263|382:305,1,165.000005035401,2|2,0:1|0:2,0:0:0:0:
408,334,188597,2,0,B|455:358|493:340|493:340|508:308|490:259,1,165.000005035401,2|2,0:0|0:2,0:0:0:0:
462,218,189283,2,0,B|435:196|436:161|436:161|460:123|444:59,1,165.000005035401,2|2,0:1|0:2,0:0:0:0:
409,21,189969,5,10,0:1:0:0:
333,100,190312,1,8,0:3:0:0:
223,92,190654,1,6,0:3:0:0:
150,3,190997,1,8,0:0:0:0:
55,58,191340,6,0,P|35:98|39:167,1,110.000003356934,6|0,0:1|0:0,0:0:0:0:
101,251,192026,1,10,0:1:0:0:
198,198,192369,2,0,P|245:181|323:193,1,110.000003356934,2|0,0:2|0:0,0:0:0:0:
389,254,193054,1,2,0:1:0:0:
483,198,193397,1,10,0:0:0:0:
398,127,193740,2,0,B|379:79|379:79|409:11,2,110.000003356934,2|2|2,0:1|0:2|0:2,0:0:0:0:
490,207,194769,5,10,0:0:0:0:
404,276,195112,2,0,P|367:280|301:229,1,110.000003356934,10|8,0:2|0:1,0:0:0:0:
255,145,195797,1,8,0:1:0:0:
150,111,196140,1,8,0:1:0:0:
50,157,196483,2,0,P|28:207|32:263,2,110.000003356934,8|6|10,0:1|0:1|0:2,0:0:0:0:
149,94,197512,5,2,0:1:0:0:
240,154,197854,2,0,L|361:124,1,110.000003356934,10|0,0:2|0:0,0:0:0:0:
454,150,198540,2,0,P|480:176|480:249,1,110.000003356934,10|2,0:1|0:2,0:0:0:0:
458,295,199054,1,0,0:0:0:0:
458,295,199226,2,0,L|345:281,1,110.000003356934,10|0,0:0|0:0,0:0:0:0:
257,343,199912,2,0,L|144:329,1,110.000003356934,10|2,0:0|0:2,0:0:0:0:
36,350,200597,6,0,P|25:308|59:238,1,110.000003356934,10|4,0:0|0:3,0:0:0:0:
123,167,201283,1,10,0:0:0:0:
192,252,201626,1,8,0:3:0:0:
274,179,201969,1,10,0:0:0:0:
366,252,202312,6,0,B|405:262|405:262|454:233,1,82.5000025177003,2|2,0:1|0:1,0:0:0:0:
489,173,202826,1,2,0:1:0:0:
489,173,202997,2,0,L|469:89,1,82.5000025177003,2|2,0:1|0:1,0:0:0:0:
396,55,203512,1,2,0:1:0:0:
396,55,203683,2,0,L|302:41,1,82.5000025177003,2|2,0:1|0:1,0:0:0:0:
242,82,204197,5,2,0:1:0:0:
242,82,204369,2,0,B|196:132|196:132|216:223|216:223|167:268,1,220.000006713867,8|6,0:2|0:1,0:0:0:0:
