osu file format v14

[General]
AudioFilename: audio.mp3
AudioLeadIn: 0
PreviewTime: 47297
Countdown: 0
SampleSet: Normal
StackLeniency: 0.7
Mode: 0
LetterboxInBreaks: 0
WidescreenStoryboard: 1

[Editor]
Bookmarks: 180369
DistanceSpacing: 1.4
BeatDivisor: 4
GridSize: 16
TimelineZoom: 2.200001

[Metadata]
Title:Spirit!!
TitleUnicode:Spirit!!
Artist:BAND-MAID
ArtistUnicode:BAND-MAID
Creator:Lasse
Version:Hard!!
Source:
Tags:bandmaid WORLD DOMINATION japanese english rock owc o!wc osu world cup 2020 finals hd2
BeatmapID:2709015
BeatmapSetID:1306578

[Difficulty]
HPDrainRate:5
CircleSize:3.8
OverallDifficulty:6.8
ApproachRate:8
SliderMultiplier:1.4
SliderTickRate:1

[Events]
//Background and Video events
0,0,"bg.jpg",0,0
//Break Periods
//Storyboard Layer 0 (Background)
//Storyboard Layer 1 (Fail)
//Storyboard Layer 2 (Pass)
//Storyboard Layer 3 (Foreground)
//Storyboard Layer 4 (Overlay)
//Storyboard Sound Samples

[TimingPoints]
712,342.857142857143,4,1,1,67,1,0
11683,-125,4,2,2,50,0,0
13054,-125,4,1,1,57,0,0
24026,-111.111111111111,4,1,1,60,0,0
34312,-500,4,1,1,60,0,0
34997,-111.111111111111,4,1,1,62,0,0
43226,-100,4,1,1,65,0,0
45969,-100,4,3,2,65,0,0
48712,-90.9090909090909,4,1,1,70,0,0
67226,-100,4,3,2,65,0,0
67569,-100,4,3,1,60,0,0
67912,-100,4,1,1,67,0,0
78197,-111.111111111111,4,2,2,50,0,0
78883,-125,4,2,2,56,0,0
89854,-111.111111111111,4,2,2,58,0,0
93969,-99.9999999999999,4,2,2,58,0,0
95340,-111.111111111111,4,2,2,58,0,0
99454,-100,4,2,2,58,0,0
100826,-111.111111111111,4,1,1,62,0,0
109054,-100,4,1,1,65,0,0
111797,-133.333333333333,4,2,2,62,0,0
112483,-133.333333333333,4,2,2,64,0,0
112826,-100,4,2,2,66,0,0
113169,-90.9090909090909,4,1,1,70,0,0
132369,-100,4,2,2,70,0,0
132597,-111.111111111111,4,2,2,68,0,0
132826,-125,4,2,2,66,0,0
133054,-142.857142857143,4,2,2,64,0,0
133283,-166.666666666667,4,2,2,62,0,0
133512,-200,4,2,2,60,0,0
133740,-100,4,1,1,65,0,0
143340,-100,4,2,2,65,0,0
144712,-90.9090909090909,4,1,1,67,0,0
149512,-90.9090909090909,4,1,2,67,0,0
150197,-90.9090909090909,4,1,1,70,0,0
155083,-90.9090909090909,4,1,1,68,0,0
155169,-90.9090909090909,4,1,1,66,0,0
155254,-90.9090909090909,4,1,1,64,0,0
155340,-90.9090909090909,4,1,1,62,0,0
155683,-90.9090909090909,4,1,1,52,0,0
155854,-100,4,3,2,50,0,0
156369,-100,4,3,2,55,0,0
157054,-125,4,1,1,52,0,0
176254,-125,4,1,1,54,0,0
176940,-111.111111111111,4,1,1,57,0,0
177626,-100,4,1,1,60,0,0
178312,-125,4,3,1,50,0,0
178483,-125,4,3,1,48,0,0
178654,-125,4,3,1,46,0,0
178826,-125,4,3,1,44,0,0
180369,-90.9090909090909,4,1,1,72,0,0
187226,-90.9090909090909,4,1,1,72,0,0
188597,-90.9090909090909,4,1,1,72,0,0
189969,-90.9090909090909,4,1,1,72,0,0
191340,-90.9090909090909,4,1,1,72,0,0
195454,-90.9090909090909,4,1,2,70,0,0
196826,-90.9090909090909,4,1,1,72,0,0
198537,-90.9090909090909,4,1,1,72,0,0
199226,-90.9090909090909,4,1,1,72,0,0
199912,-90.9090909090909,4,1,1,72,0,0
200597,-90.9090909090909,4,1,1,72,0,0
202312,-90.9090909090909,4,1,1,72,0,0
202997,-90.9090909090909,4,1,1,72,0,0
203683,-90.9090909090909,4,1,1,72,0,0
204369,-90.9090909090909,4,3,2,67,0,0
204712,-90.9090909090909,4,3,1,63,0,0
205054,-100,4,1,1,65,0,0

[Colours]
Combo1 : 250,180,240
Combo2 : 120,200,230
Combo3 : 255,230,130
Combo4 : 160,230,150

[HitObjects]
133,108,711,6,0,P|55:105|3:153,1,140,14|0,0:0|0:0,0:0:0:0:
49,224,1226,2,0,P|32:262|30:310,1,70,10|0,0:1|0:0,0:0:0:0:
76,367,1569,1,0,0:0:0:0:
157,327,1740,2,0,P|193:312|242:310,1,70,8|0,0:0|0:0,0:0:0:0:
335,334,2083,6,0,B|368:364|368:364|483:342,1,140,2|8,0:0|0:0,0:0:0:0:
508,267,2597,1,2,0:1:0:0:
508,267,2683,1,0,0:0:0:0:
508,267,2769,2,0,L|488:178,1,70,8|0,0:0|0:0,0:0:0:0:
416,263,3112,2,0,L|396:174,1,70,0|0,0:0|0:1,0:0:0:0:
420,93,3454,6,0,P|454:103|489:101,1,70,10|0,0:0|0:0,0:0:0:0:
380,11,3797,1,0,0:0:0:0:
317,78,3969,2,0,P|301:124|308:171,1,70,10|0,0:1|0:0,0:0:0:0:
359,215,4312,1,0,0:0:0:0:
308,290,4483,2,0,P|262:306|215:299,1,70,8|0,0:0|0:1,0:0:0:0:
129,251,4826,6,0,P|124:222|112:191,2,46.6666666666667,2|0|0,3:1|3:0|3:0,0:0:0:0:
103,195,5169,2,0,P|106:143|122:109,1,70,8|0,0:0|0:1,0:0:0:0:
181,67,5512,2,0,L|242:61,2,46.6666666666667,2|0|0,3:0|3:0|3:0,0:0:0:0:
239,81,5854,2,0,L|334:85,1,70,8|8,0:0|0:0,0:0:0:0:
392,168,6197,6,0,P|412:100|387:37,1,140,10|0,0:1|0:1,0:0:0:0:
290,6,6712,1,8,0:0:0:0:
239,81,6883,2,0,P|219:149|244:212,1,140,2|8,0:1|0:0,0:0:0:0:
350,283,7397,5,2,0:0:0:0:
350,283,7569,2,0,L|439:276,1,70,0|0,0:0|0:2,0:0:0:0:
354,377,7912,2,0,L|265:370,1,70,8|0,0:0|0:1,0:0:0:0:
267,377,8169,1,0,0:0:0:0:
249,379,8254,2,0,L|160:372,1,70,10|0,0:0|0:0,0:0:0:0:
99,328,8597,2,0,L|29:322,1,70,0|0,0:0|0:1,0:0:0:0:
136,244,8940,6,0,P|156:190|128:100,1,140,10|0,0:0|0:0,0:0:0:0:
78,48,9454,2,0,L|-2:60,1,70,10|0,0:1|0:0,0:0:0:0:
144,119,9797,1,0,0:0:0:0:
144,119,9969,2,0,L|224:107,1,70,0|0,0:0|0:1,0:0:0:0:
317,52,10312,6,0,L|324:2,2,46.6666666666667,2|0|0,3:1|3:0|3:0,0:0:0:0:
361,93,10654,2,0,P|400:81|454:85,1,70,8|0,0:0|0:1,0:0:0:0:
504,131,10997,2,0,L|495:176,2,46.6666666666667,2|0|0,3:0|3:0|3:0,0:0:0:0:
490,190,11340,2,0,P|451:202|397:198,1,70,8|0,0:0|0:0,0:0:0:0:
323,177,11683,6,0,L|311:310,1,112,12|8,2:1|2:2,0:0:0:0:
259,374,12283,2,0,P|212:355|162:356,1,84,8|8,0:1|0:1,0:0:0:0:
83,374,12797,1,8,2:1:0:0:
83,374,12883,1,8,2:0:0:0:
12,331,13054,6,0,P|6:302|37:208,1,112,4|8,0:2|0:0,0:0:0:0:
124,132,13740,1,2,0:2:0:0:
124,132,13912,1,2,0:2:0:0:
215,231,14254,1,2,0:2:0:0:
116,322,14597,1,2,0:2:0:0:
215,231,14940,1,2,0:2:0:0:
341,276,15283,1,2,0:2:0:0:
451,197,15626,1,2,0:2:0:0:
451,197,15712,1,0,0:0:0:0:
451,197,15797,2,0,P|463:142|437:77,1,112,0|8,0:0|0:0,0:0:0:0:
347,6,16483,5,2,0:2:0:0:
347,6,16654,1,2,0:2:0:0:
246,94,16997,1,2,0:2:0:0:
122,41,17340,1,2,0:2:0:0:
23,132,17683,1,2,0:2:0:0:
122,41,18026,1,2,0:2:0:0:
254,102,18369,1,2,0:2:0:0:
254,102,18454,1,0,0:0:0:0:
254,102,18540,2,0,P|278:151|274:206,1,112,0|8,0:0|0:0,0:0:0:0:
190,325,19226,6,0,P|142:304|71:319,1,112,2|8,0:2|0:0,0:0:0:0:
20,346,19740,1,2,0:2:0:0:
106,229,20083,1,2,0:2:0:0:
11,118,20426,1,2,0:2:0:0:
132,37,20769,2,0,L|138:3,2,28,2|2|8,0:3|0:3|0:0,0:0:0:0:
191,112,21112,5,2,0:3:0:0:
191,112,21197,1,2,0:3:0:0:
191,112,21283,2,0,P|235:121|305:86,1,112,0|10,0:0|0:2,0:0:0:0:
356,47,21797,1,0,0:2:0:0:
428,77,21969,2,0,P|440:105|436:154,1,56,2|0,0:2|0:0,0:0:0:0:
389,216,22312,5,8,0:0:0:0:
389,216,22483,2,0,P|334:201|269:213,1,112,2|0,0:2|0:2,0:0:0:0:
223,262,22997,1,10,0:2:0:0:
223,262,23169,1,0,0:0:0:0:
274,320,23340,2,0,P|305:323|334:313,1,56,2|0,0:2|0:0,0:0:0:0:
341,310,23597,1,8,0:2:0:0:
352,301,23683,2,0,L|357:232,1,56,10|8,0:2|0:2,0:0:0:0:
398,165,24026,6,0,B|459:183|459:183|524:144,1,125.999996154785,4|8,0:2|0:0,0:0:0:0:
407,24,24712,2,0,L|319:33,1,62.9999980773926,2|0,0:2|0:0,0:0:0:0:
278,79,25054,1,8,0:0:0:0:
201,49,25226,2,0,P|143:24|69:46,1,125.999996154785,2|0,0:2|0:0,0:0:0:0:
15,114,25740,6,0,L|25:182,1,62.9999980773926,10|0,0:2|0:0,0:0:0:0:
73,241,26083,1,2,0:2:0:0:
145,202,26254,2,0,L|154:139,1,62.9999980773926,0|8,0:2|0:2,0:2:0:0:
219,88,26597,1,2,0:2:0:0:
219,88,26769,2,0,B|280:103|280:103|337:68,1,125.999996154785,0|8,0:0|0:0,0:0:0:0:
482,0,27454,5,2,0:2:0:0:
511,76,27626,2,0,P|515:108|501:151,1,62.9999980773926,2|8,0:2|0:0,0:0:0:0:
453,198,27969,2,0,P|401:183|315:188,1,125.999996154785,2|2,0:2|0:2,0:0:0:0:
258,221,28483,1,8,0:0:0:0:
198,165,28654,2,0,P|195:135|203:103,1,62.9999980773926,2|0,0:2|0:0,0:0:0:0:
265,50,28997,2,0,L|342:44,1,62.9999980773926,2|10,0:2|0:2,0:0:0:0:
422,107,29340,5,2,0:2:0:0:
422,107,29512,2,0,P|445:163|417:244,1,125.999996154785,4|10,0:2|0:2,0:0:0:0:
382,291,30026,1,0,0:0:0:0:
308,268,30197,1,2,0:2:0:0:
308,268,30369,2,0,P|276:260|240:264,1,62.9999980773926,0|8,0:0|0:0,0:0:0:0:
170,334,30712,6,0,B|148:365|148:365|50:348,1,125.999996154785,8|8,0:3|0:3,0:0:0:0:
0,294,31226,2,0,P|-5:247|5:215,1,62.9999980773926,10|0,0:2|0:0,0:0:0:0:
46,165,31569,1,0,0:0:0:0:
123,191,31740,2,0,P|154:193|186:185,1,62.9999980773926,0|8,0:0|0:0,0:0:0:0:
279,133,32083,6,0,B|253:107|253:107|242:57|285:21,1,125.999996154785,8|8,0:3|0:3,0:0:0:0:
358,5,32597,2,0,L|374:89,1,62.9999980773926,10|0,0:2|0:0,0:0:0:0:
446,119,32940,1,4,0:3:0:0:
446,119,33026,1,4,0:3:0:0:
446,119,33112,2,0,P|483:122|516:105,1,62.9999980773926,4|4,0:3|0:3,0:0:0:0:
362,10,33626,5,12,0:2:0:0:
362,10,33797,1,0,0:3:0:0:
332,86,33969,1,2,0:2:0:0:
332,86,34140,1,8,0:0:0:0:
276,17,34312,5,10,0:3:0:0:
414,77,34654,1,6,0:3:0:0:
302,162,34997,6,2,P|285:221|308:297,1,125.999996154785,6|8,0:1|0:0,0:1:0:0:
367,345,35512,1,2,0:1:0:0:
367,345,35597,1,0,0:0:0:0:
367,345,35683,2,2,L|439:338,1,62.9999980773926,0|0,0:0|0:0,0:1:0:0:
490,283,36026,2,2,L|480:194,1,62.9999980773926,0|0,0:2|0:0,0:1:0:0:
422,150,36369,5,8,0:3:0:0:
422,150,36454,2,0,P|387:160|348:149,1,62.9999980773926,8|8,0:3|0:3,0:0:0:0:
347,147,36712,2,0,P|347:116|330:78,1,62.9999980773926,8|8,0:0|0:3,0:0:0:0:
281,25,37054,1,4,0:3:0:0:
216,71,37226,1,8,0:3:0:0:
216,71,37312,1,8,0:3:0:0:
216,71,37397,1,12,0:2:0:0:
63,13,37740,6,2,P|50:44|53:85,1,62.9999980773926,6|0,0:1|0:0,0:1:0:0:
58,87,37997,2,0,L|93:99,1,31.4999990386963,4|8,0:3|0:0,0:0:0:0:
141,190,38254,1,2,0:1:0:0:
141,190,38340,1,0,0:3:0:0:
141,190,38426,2,2,L|232:177,1,62.9999980773926,0|0,0:0|0:0,0:1:0:0:
264,113,38769,2,2,L|355:100,1,62.9999980773926,8|0,0:0|0:0,0:1:0:0:
418,164,39112,5,8,0:3:0:0:
418,164,39197,2,0,P|440:205|437:232,1,62.9999980773926,8|8,0:3|0:3,0:0:0:0:
438,238,39454,2,0,P|418:257|374:267,1,62.9999980773926,8|8,0:0|0:3,0:0:0:0:
368,269,39712,1,8,0:3:0:0:
352,270,39797,2,2,P|321:261|245:318,1,125.999996154785,6|8,0:3|0:3,0:1:0:0:
87,384,40483,5,6,0:1:0:0:
87,384,40569,2,0,L|70:274,1,94.499997116089,0|8,0:3|0:0,0:0:0:0:
8,236,40997,1,10,0:1:0:0:
8,236,41083,1,0,0:3:0:0:
8,236,41169,2,2,P|-1:206|1:167,1,62.9999980773926,0|0,0:0|0:0,0:1:0:0:
57,108,41512,2,2,P|88:118|128:113,1,62.9999980773926,8|0,0:1|0:0,0:1:0:0:
202,66,41854,5,8,0:3:0:0:
202,66,41940,2,0,P|231:51|282:49,1,62.9999980773926,8|8,0:3|0:3,0:0:0:0:
276,50,42197,2,0,P|294:79|295:124,1,62.9999980773926,8|8,0:0|0:3,0:0:0:0:
281,187,42540,2,0,P|268:216|267:264,1,62.9999980773926,0|8,0:0|0:3,0:0:0:0:
267,262,42797,1,8,0:3:0:0:
274,275,42883,2,0,P|306:288|355:279,1,62.9999980773926,12|0,0:2|0:0,0:0:0:0:
436,240,43226,6,2,L|451:143,1,70,14|0,0:0|0:0,0:1:0:0:
460,159,43483,1,4,0:3:0:0:
472,146,43569,2,0,P|485:110|469:64,1,70,2|8,0:3|0:3,0:0:0:0:
394,13,43912,6,2,P|371:29|316:25,1,70,12|0,0:2|0:0,0:1:0:0:
312,30,44169,1,4,0:3:0:0:
296,23,44254,2,0,P|272:10|218:11,1,70,2|8,0:3|0:3,0:0:0:0:
165,97,44597,6,2,L|170:188,1,70,12|0,0:2|0:0,0:1:0:0:
172,184,44854,1,4,0:3:0:0:
174,201,44940,2,0,L|179:292,1,70,2|8,0:3|0:3,0:0:0:0:
110,361,45283,6,0,B|74:368|74:368|21:342,1,70,14|4,0:2|0:3,0:0:0:0:
3,279,45626,1,8,0:0:0:0:
53,211,45797,1,4,0:3:0:0:
140,245,45969,5,8,0:2:0:0:
140,245,46054,1,8,0:2:0:0:
140,245,46140,2,0,P|179:248|207:220,1,70,8|8,0:1|0:1,0:0:0:0:
255,165,46483,1,8,0:2:0:0:
255,165,46569,1,8,0:2:0:0:
255,165,46654,2,0,P|235:123|243:90,1,70,8|8,0:1|0:1,0:0:0:0:
285,34,46997,1,8,0:0:0:0:
285,34,47083,1,8,0:0:0:0:
285,34,47169,1,8,0:3:0:0:
362,66,47340,6,0,L|417:68,3,35,8|8|8|8,0:1|0:1|0:1|0:1,0:0:0:0:
430,77,47683,2,0,L|467:117,3,35,8|8|8|8,0:3|0:3|0:3|0:3,0:0:0:0:
464,136,48026,2,0,L|462:191,4,35,4|4|4|4|8,0:3|0:3|0:3|0:3|0:2,0:0:0:0:
285,34,48712,6,0,P|227:27|156:101,1,154.000004699707,6|8,0:1|0:0,0:0:0:0:
148,179,49226,1,0,0:0:0:0:
237,201,49397,2,0,P|278:187|338:195,1,77.0000023498536,2|0,0:2|0:0,0:0:0:0:
386,241,49740,2,0,P|399:276|397:317,1,77.0000023498536,8|0,0:0|0:0,0:0:0:0:
286,363,50083,6,0,L|123:353,1,154.000004699707,2|8,0:1|0:2,0:0:0:0:
43,379,50597,2,0,P|39:344|59:296,1,77.0000023498536,2|0,0:1|0:0,0:0:0:0:
135,263,50940,2,0,P|148:227|144:189,1,77.0000023498536,2|8,0:1|0:0,0:0:0:0:
76,108,51283,6,0,B|40:124|40:124|2:118,1,77.0000023498536,2|0,0:1|0:0,0:0:0:0:
112,22,51626,1,2,0:1:0:0:
182,81,51797,1,8,0:0:0:0:
267,46,51969,1,2,0:2:0:0:
267,46,52054,1,2,0:2:0:0:
267,46,52140,2,0,P|322:34|425:53,1,154.000004699707,2|8,0:2|0:0,0:0:0:0:
497,124,52654,5,2,0:1:0:0:
422,174,52826,1,8,0:3:0:0:
422,174,52912,1,8,0:3:0:0:
422,174,52997,2,0,P|380:158|337:157,1,77.0000023498536,8|8,0:3|0:0,0:0:0:0:
262,192,53340,1,4,0:3:0:0:
285,281,53512,2,0,P|318:310|358:327,1,77.0000023498536,4|0,0:3|0:0,0:0:0:0:
439,324,53854,2,0,L|470:252,1,77.0000023498536,8|0,0:0|0:0,0:0:0:0:
468,141,54197,6,0,B|392:154|392:154|313:92,1,154.000004699707,6|8,0:1|0:0,0:0:0:0:
262,53,54712,1,0,0:0:0:0:
185,103,54883,2,0,P|173:132|181:194,1,77.0000023498536,2|0,0:2|0:0,0:0:0:0:
251,230,55226,2,0,P|262:259|254:321,1,77.0000023498536,8|0,0:0|0:0,0:0:0:0:
180,381,55569,5,2,0:1:0:0:
105,345,55740,1,2,0:2:0:0:
105,345,55826,1,2,0:2:0:0:
105,345,55912,1,8,0:0:0:0:
19,379,56083,2,0,P|15:347|23:301,1,77.0000023498536,2|0,0:1|0:0,0:0:0:0:
93,241,56426,2,0,L|194:230,1,77.0000023498536,2|8,0:1|0:0,0:0:0:0:
42,154,56769,6,0,B|6:134|6:134|10:65|56:27,1,154.000004699707,2|0,0:1|0:0,0:0:0:0:
140,13,57283,1,10,0:0:0:0:
211,71,57454,1,2,0:2:0:0:
211,71,57540,1,2,0:2:0:0:
211,71,57626,2,0,P|244:96|356:51,1,154.000004699707,2|8,0:2|0:0,0:0:0:0:
429,2,58140,5,2,0:1:0:0:
489,72,58312,2,0,P|494:115|473:167,1,77.0000023498536,8|8,0:0|0:3,0:0:0:0:
419,212,58654,1,4,0:3:0:0:
338,166,58826,2,0,P|299:152|253:156,1,77.0000023498536,8|4,0:0|0:3,0:0:0:0:
178,188,59169,1,4,0:3:0:0:
193,278,59340,1,8,0:0:0:0:
194,287,59425,1,8,0:0:0:0:
196,297,59511,1,8,0:0:0:0:
197,306,59597,1,8,0:0:0:0:
199,316,59683,6,0,B|230:344|230:344|343:324,1,154.000004699707,6|8,0:1|0:0,0:0:0:0:
400,373,60197,1,0,0:0:0:0:
462,327,60369,2,0,P|473:279|424:168,1,154.000004699707,2|8,0:1|0:0,0:0:0:0:
346,34,61054,6,0,L|336:123,1,77.0000023498536,2|0,0:1|0:0,0:0:0:0:
261,155,61397,2,0,L|252:78,1,77.0000023498536,10|0,0:1|0:1,0:0:0:0:
240,68,61654,1,0,0:0:0:0:
228,57,61740,2,0,P|189:48|148:54,1,77.0000023498536,2|0,0:1|0:0,0:0:0:0:
87,107,62083,2,0,L|78:183,1,77.0000023498536,10|0,0:1|0:0,0:0:0:0:
157,265,62426,6,0,B|248:238|218:311|307:287,1,154.000004699707,2|8,0:1|0:0,0:0:0:0:
386,251,62940,1,2,0:2:0:0:
340,170,63112,2,0,P|336:88|407:34,1,154.000004699707,2|8,0:1|0:0,0:0:0:0:
512,187,63797,5,2,0:1:0:0:
512,187,63883,1,0,0:3:0:0:
512,187,63969,1,0,0:3:0:0:
462,259,64140,2,0,L|375:249,1,77.0000023498536,10|8,0:2|0:0,0:0:0:0:
371,257,64397,1,8,0:0:0:0:
356,262,64483,2,0,L|269:252,1,77.0000023498536,8|4,0:3|0:3,0:0:0:0:
209,204,64826,1,10,0:1:0:0:
256,134,64997,1,4,0:3:0:0:
205,52,65169,6,0,P|172:34|115:39,1,77.0000023498536,2|0,0:1|0:0,0:0:0:0:
116,43,65426,2,0,L|97:87,1,38.5000011749268,2|8,0:1|0:0,0:0:0:0:
75,177,65683,5,2,0:2:0:0:
159,172,65854,1,10,0:2:0:0:
207,247,66026,1,2,0:2:0:0:
207,247,66112,2,0,P|186:278|186:335,1,77.0000023498536,2|0,0:1|0:0,0:0:0:0:
187,335,66369,5,2,0:2:0:0:
270,323,66540,1,2,0:2:0:0:
345,370,66712,1,2,0:2:0:0:
345,370,66797,2,0,B|398:385|398:385|464:352,1,115.50000352478,2|2,0:1|0:1,0:0:0:0:
510,284,67226,6,0,L|496:226,2,46.6666666666667,8|8|8,0:2|0:2|0:2,0:0:0:0:
462,263,67569,2,0,L|448:205,2,46.6666666666667,8|8|8,0:3|0:3|0:3,0:0:0:0:
414,242,67912,6,0,P|370:211|268:217,1,140,14|0,0:0|0:0,0:0:0:0:
219,271,68426,2,0,P|219:311|203:339,1,70,10|0,0:1|0:0,0:0:0:0:
123,378,68769,1,0,0:0:0:0:
41,338,68940,2,0,P|25:306|27:272,1,70,8|0,0:0|0:0,0:0:0:0:
96,181,69283,6,0,B|161:204|161:204|229:162,1,140,2|8,0:0|0:0,0:0:0:0:
284,90,69797,1,2,0:1:0:0:
284,90,69883,1,0,0:0:0:0:
284,90,69969,2,0,P|270:55|272:19,1,70,8|0,0:0|0:0,0:0:0:0:
374,43,70312,2,0,P|388:78|386:114,1,70,0|0,0:0|0:1,0:0:0:0:
293,183,70654,6,0,P|260:195|223:224,1,70,10|0,0:0|0:0,0:0:0:0:
182,292,70997,1,0,0:0:0:0:
257,344,71169,2,0,P|292:344|337:330,1,70,10|0,0:1|0:0,0:0:0:0:
406,294,71512,1,0,0:0:0:0:
420,204,71683,2,0,L|395:130,1,70,8|0,0:0|0:1,0:0:0:0:
315,59,72026,6,0,P|279:63|251:54,2,46.6666666666667,2|0|0,3:1|3:0|3:0,0:0:0:0:
253,56,72369,2,0,P|222:44|165:51,1,70,8|0,0:0|0:1,0:0:0:0:
108,104,72712,2,0,L|99:158,2,46.6666666666667,2|0|0,3:0|3:0|3:0,0:0:0:0:
88,167,73054,2,0,L|100:247,1,70,8|8,0:0|0:0,0:0:0:0:
214,258,73397,6,0,P|276:225|345:227,1,140,10|2,0:1|0:1,0:0:0:0:
428,265,73912,1,8,0:0:0:0:
379,341,74083,2,0,P|317:373|248:371,1,140,2|8,0:1|0:0,0:0:0:0:
152,325,74597,5,2,0:0:0:0:
152,325,74769,2,0,L|166:238,1,70,0|0,0:0|0:2,0:0:0:0:
259,234,75112,2,0,L|245:147,1,70,8|0,0:0|0:1,0:0:0:0:
257,146,75369,1,0,0:0:0:0:
269,129,75454,2,0,P|275:96|243:44,1,70,10|0,0:0|0:0,0:0:0:0:
173,20,75797,2,0,L|93:18,1,70,0|0,0:0|0:1,0:0:0:0:
17,88,76140,6,0,P|-4:135|12:233,1,140,10|0,0:0|0:0,0:0:0:0:
94,301,76654,2,0,L|103:226,1,70,10|0,0:1|0:0,0:0:0:0:
174,139,76997,1,0,0:0:0:0:
174,139,77169,2,0,L|93:146,1,70,0|6,0:0|0:2,0:0:0:0:
246,12,78197,5,8,0:0:0:0:
246,12,78283,2,0,P|248:71|261:89,1,62.9999980773926,8|8,0:0|0:3,0:0:0:0:
312,134,78626,2,0,L|355:139,2,31.4999990386963,4|4|4,0:3|0:3|0:3,0:0:0:0:
296,148,78883,6,8,B|251:158|251:158|245:168|245:168|184:185,1,112,8|8,0:1|0:2,0:1:0:0:
52,124,79569,1,8,0:1:0:0:
52,124,79654,2,0,P|55:74|78:35,1,84,8|8,0:1|0:0,0:0:0:0:
179,20,80254,1,8,0:1:0:0:
218,124,80597,1,8,0:0:0:0:
279,71,80769,2,0,P|336:79|422:13,1,168,2|8,0:0|0:0,0:0:0:0:
467,139,81626,6,0,P|505:178|512:233,1,112,8|8,0:1|0:0,0:0:0:0:
447,325,82312,1,8,0:1:0:0:
447,325,82397,2,0,P|404:313|353:315,1,84,8|8,0:1|0:0,0:0:0:0:
261,356,82997,1,8,0:1:0:0:
284,246,83340,1,8,0:0:0:0:
223,195,83512,2,0,B|210:142|210:142|225:103|225:103|203:23,1,168,2|8,0:0|0:0,0:0:0:0:
75,16,84369,6,0,P|49:39|54:124,1,112,8|8,0:1|0:0,0:0:0:0:
117,198,85054,1,8,0:1:0:0:
117,198,85140,2,0,P|149:182|206:181,1,84,8|8,0:1|0:0,0:0:0:0:
306,199,85740,1,8,0:1:0:0:
331,308,86083,1,8,0:0:0:0:
282,368,86254,2,0,B|227:356|227:356|190:374|190:374|114:359,1,168,2|8,0:0|0:0,0:0:0:0:
33,272,87112,6,0,P|23:215|55:154,1,112,8|8,0:1|0:0,0:0:0:0:
141,109,87797,1,8,0:1:0:0:
141,109,87883,2,0,B|182:118|182:118|231:99,1,84,8|8,0:1|0:0,0:0:0:0:
344,2,88483,6,0,P|338:28|342:62,1,56,8|8,3:1|3:2,0:0:0:0:
348,71,88740,1,8,3:1:0:0:
355,85,88826,2,0,P|361:111|357:145,1,56,8|8,3:0|3:3,0:0:0:0:
289,218,89169,1,8,3:3:0:0:
275,215,89254,1,8,3:2:0:0:
261,213,89340,1,8,3:2:0:0:
247,211,89426,1,8,3:3:0:0:
233,209,89512,2,0,L|168:218,1,56,8|4,3:2|3:3,0:0:0:0:
98,283,89854,6,0,P|95:316|109:347,1,62.9999980773926,10|0,0:1|0:0,0:0:0:0:
115,355,90112,1,8,0:1:0:0:
128,362,90197,2,0,L|208:350,1,62.9999980773926,8|8,0:0|0:1,0:0:0:0:
285,370,90540,2,0,P|272:321|287:258,1,94.499997116089,8|8,0:1|0:1,0:0:0:0:
287,265,90883,2,0,L|372:247,1,62.9999980773926,8|8,0:0|0:1,0:0:0:0:
448,260,91226,6,0,P|437:221|446:181,1,62.9999980773926,10|8,0:1|0:1,0:0:0:0:
449,187,91483,1,8,0:1:0:0:
460,176,91569,2,0,P|461:144|451:115,1,62.9999980773926,8|8,0:0|0:1,0:0:0:0:
406,46,91912,1,10,0:1:0:0:
342,96,92083,1,8,0:1:0:0:
342,96,92169,1,8,0:1:0:0:
342,96,92254,2,0,B|305:101|305:101|265:84,1,62.9999980773926,8|8,0:0|0:1,0:0:0:0:
208,18,92597,6,0,P|181:77|192:142,1,125.999996154785,10|8,0:1|0:0,0:0:0:0:
243,198,93112,1,8,0:1:0:0:
306,249,93283,2,0,P|320:308|297:359,1,94.499997116089,8|8,0:1|0:1,0:0:0:0:
298,353,93626,2,0,P|261:345|219:345,1,62.9999980773926,8|8,0:0|0:1,0:0:0:0:
138,383,93969,5,10,0:1:0:0:
95,304,94140,1,8,0:1:0:0:
95,304,94226,1,8,0:1:0:0:
95,304,94312,2,0,P|93:261|107:231,1,70,8|8,0:0|0:0,0:0:0:0:
181,190,94654,2,0,B|249:210|249:210|316:180,1,140,10|8,0:1|0:0,0:0:0:0:
395,118,95169,5,8,0:0:0:0:
395,118,95254,1,8,0:0:0:0:
395,118,95340,2,0,B|409:70|382:30|382:30|341:16,1,125.999996154785,10|8,0:1|0:0,0:0:0:0:
268,5,95854,1,8,0:1:0:0:
216,69,96026,2,0,P|206:109|215:171,1,94.499997116089,8|8,0:1|0:1,0:0:0:0:
220,176,96369,2,0,P|236:201|236:241,1,62.9999980773926,8|8,0:0|0:1,0:0:0:0:
176,312,96712,6,0,L|97:307,1,62.9999980773926,10|8,0:1|0:1,0:0:0:0:
94,312,96969,1,8,0:1:0:0:
76,319,97054,2,0,P|64:278|72:243,1,62.9999980773926,8|8,0:0|0:1,0:0:0:0:
98,182,97397,1,10,0:1:0:0:
186,202,97569,1,8,0:1:0:0:
186,202,97654,1,8,0:1:0:0:
186,202,97740,2,0,P|217:202|264:187,1,62.9999980773926,8|8,0:0|0:1,0:0:0:0:
330,137,98083,6,0,P|329:79|387:23,1,125.999996154785,10|8,0:1|0:0,0:0:0:0:
452,19,98597,1,8,0:1:0:0:
504,81,98769,2,0,P|516:142|499:191,1,94.499997116089,8|8,0:1|0:1,0:0:0:0:
505,191,99112,2,0,L|437:200,1,62.9999980773926,8|8,0:0|0:1,0:0:0:0:
328,186,99454,5,10,0:1:0:0:
367,279,99626,1,8,0:1:0:0:
367,279,99712,1,8,0:1:0:0:
367,279,99797,2,0,P|369:319|352:349,1,70,8|8,0:0|0:1,0:0:0:0:
267,370,100140,2,0,P|228:354|192:356,1,70,10|8,0:1|0:1,0:0:0:0:
112,376,100483,1,12,0:0:0:0:
0,244,100826,6,2,B|64:251|64:251|131:216,1,125.999996154785,6|8,0:1|0:0,0:1:0:0:
172,161,101341,1,2,0:1:0:0:
172,161,101426,1,0,0:0:0:0:
172,161,101512,2,2,P|160:121|159:73,1,62.9999980773926,0|0,0:0|0:0,0:1:0:0:
246,100,101854,2,2,P|254:64|273:27,1,62.9999980773926,0|0,0:2|0:0,0:1:0:0:
363,60,102198,5,8,0:3:0:0:
363,60,102283,2,0,P|398:50|440:51,1,62.9999980773926,8|8,0:3|0:3,0:0:0:0:
439,57,102540,2,0,P|477:79|490:98,1,62.9999980773926,8|8,0:0|0:3,0:0:0:0:
511,172,102883,1,4,0:3:0:0:
479,252,103055,1,8,0:3:0:0:
479,252,103141,1,8,0:3:0:0:
479,252,103226,1,12,0:2:0:0:
313,205,103569,6,2,L|304:132,1,62.9999980773926,6|0,0:1|0:0,0:1:0:0:
300,127,103826,2,0,P|285:120|265:116,1,31.4999990386963,4|8,0:3|0:0,0:0:0:0:
202,167,104083,1,2,0:1:0:0:
202,167,104169,1,0,0:3:0:0:
202,167,104254,2,2,L|194:229,1,62.9999980773926,0|0,0:0|0:0,0:1:0:0:
160,328,104598,2,2,L|250:308,1,62.9999980773926,8|0,0:0|0:0,0:1:0:0:
308,360,104941,5,8,0:3:0:0:
308,360,105026,2,0,L|381:366,1,62.9999980773926,8|8,0:3|0:3,0:0:0:0:
384,373,105283,2,0,L|457:367,1,62.9999980773926,8|8,0:0|0:3,0:0:0:0:
461,360,105541,1,8,0:3:0:0:
473,351,105626,2,2,P|498:301|470:226,1,125.999996154785,6|8,0:3|0:3,0:1:0:0:
375,103,106312,5,6,0:1:0:0:
375,103,106397,2,0,B|353:128|353:128|269:111,1,94.499997116089,0|8,0:3|0:0,0:0:0:0:
220,79,106826,1,10,0:1:0:0:
220,79,106912,1,0,0:3:0:0:
220,79,106998,2,2,P|225:46|218:14,1,62.9999980773926,0|0,0:0|0:0,0:1:0:0:
133,43,107340,2,2,P|128:76|135:108,1,62.9999980773926,8|0,0:1|0:0,0:1:0:0:
211,177,107683,5,8,0:3:0:0:
211,177,107769,2,0,P|239:166|290:165,1,62.9999980773926,8|8,0:3|0:3,0:0:0:0:
285,170,108026,2,0,P|300:198|304:244,1,62.9999980773926,8|8,0:0|0:3,0:0:0:0:
246,294,108369,2,0,L|174:286,1,62.9999980773926,0|8,0:0|0:3,0:0:0:0:
169,293,108626,1,8,0:3:0:0:
155,300,108712,2,0,L|83:308,1,62.9999980773926,12|0,0:2|0:0,0:0:0:0:
0,250,109055,6,2,P|-4:217|24:159,1,70,14|0,0:0|0:0,0:1:0:0:
18,169,109312,1,4,0:3:0:0:
32,160,109397,2,0,L|105:152,1,70,2|8,0:3|0:3,0:0:0:0:
177,201,109740,2,2,L|250:209,1,70,12|0,0:2|0:0,0:1:0:0:
262,202,109997,1,4,0:3:0:0:
276,192,110083,2,0,P|274:149|288:117,1,70,2|8,0:3|0:3,0:0:0:0:
367,72,110426,6,2,L|462:81,1,70,12|0,0:2|0:0,0:1:0:0:
452,85,110683,1,4,0:3:0:0:
466,94,110769,2,0,P|477:128|471:185,1,70,2|8,0:3|0:3,0:0:0:0:
414,251,111112,6,0,P|384:238|319:237,1,70,14|4,0:2|0:3,0:0:0:0:
268,263,111455,1,8,0:0:0:0:
268,263,111626,1,4,0:3:0:0:
201,206,111797,6,0,L|195:158,3,26.2500010013581,8|8|8|8,3:1|3:1|3:1|3:1,0:0:0:0:
178,161,112140,2,0,L|172:113,3,26.2500010013581,8|8|8|8,3:1|3:1|3:1|3:1,0:0:0:0:
158,114,112483,2,0,L|152:66,3,26.2500010013581,8|8|8|8,3:1|3:1|3:1|3:1,0:0:0:0:
137,69,112826,2,0,P|91:57|63:68,1,70,8|8,3:2|3:2,0:0:0:0:
0,171,113169,6,0,P|4:232|25:335,1,154.000004699707,14|8,0:1|0:0,0:0:0:0:
98,374,113683,1,0,0:0:0:0:
170,317,113854,2,0,P|174:284|171:222,1,77.0000023498536,2|0,0:2|0:0,0:0:0:0:
109,173,114197,2,0,P|105:140|108:78,1,77.0000023498536,8|0,0:0|0:0,0:0:0:0:
196,24,114540,6,0,B|236:53|236:53|356:16,1,154.000004699707,2|8,0:1|0:2,0:0:0:0:
345,114,115054,2,0,P|384:99|423:98,1,77.0000023498536,2|0,0:1|0:0,0:0:0:0:
491,155,115397,2,0,P|501:187|499:234,1,77.0000023498536,2|8,0:1|0:0,0:0:0:0:
424,308,115740,6,0,L|339:296,1,77.0000023498536,2|0,0:1|0:0,0:0:0:0:
265,339,116083,1,2,0:1:0:0:
207,267,116254,1,8,0:0:0:0:
288,218,116426,1,2,0:2:0:0:
288,218,116511,1,2,0:2:0:0:
288,218,116597,2,0,P|314:170|291:66,1,154.000004699707,2|8,0:2|0:0,0:0:0:0:
216,0,117111,5,2,0:1:0:0:
160,75,117283,1,8,0:3:0:0:
160,75,117369,1,8,0:3:0:0:
160,75,117454,2,0,L|58:68,1,77.0000023498536,8|8,0:3|0:0,0:0:0:0:
11,128,117797,1,4,0:3:0:0:
79,190,117969,2,0,L|155:184,1,77.0000023498536,4|0,0:3|0:0,0:0:0:0:
225,245,118311,2,0,P|221:280|241:328,1,77.0000023498536,8|0,0:0|0:0,0:0:0:0:
347,364,118654,6,0,B|408:354|408:354|436:375|436:375|515:366,1,154.000004699707,6|8,0:1|0:0,0:0:0:0:
427,276,119169,1,0,0:0:0:0:
488,207,119340,2,0,P|499:158|486:121,1,77.0000023498536,2|0,0:2|0:0,0:0:0:0:
431,63,119683,2,0,L|349:58,1,77.0000023498536,8|0,0:0|0:0,0:0:0:0:
256,107,120026,5,2,0:1:0:0:
321,185,120197,1,2,0:2:0:0:
321,185,120283,1,2,0:2:0:0:
321,185,120369,1,8,0:0:0:0:
274,264,120540,2,0,P|257:275|191:271,1,77.0000023498536,2|0,0:1|0:0,0:0:0:0:
136,211,120883,2,0,P|136:172|120:129,1,77.0000023498536,2|8,0:1|0:0,0:0:0:0:
18,91,121226,6,0,P|-4:151|11:254,1,154.000004699707,2|0,0:1|0:0,0:0:0:0:
47,321,121740,1,10,0:0:0:0:
141,359,121911,1,2,0:2:0:0:
141,359,121997,1,2,0:2:0:0:
141,359,122083,2,0,L|304:346,1,154.000004699707,2|8,0:2|0:0,0:0:0:0:
407,376,122597,5,2,0:1:0:0:
481,320,122769,2,0,B|488:283|488:283|470:247,1,77.0000023498536,8|8,0:0|0:3,0:0:0:0:
396,198,123111,1,4,0:3:0:0:
317,246,123283,2,0,B|281:257|281:257|241:244,1,77.0000023498536,8|4,0:0|0:3,0:0:0:0:
156,214,123626,1,4,0:3:0:0:
178,124,123797,1,8,0:0:0:0:
180,114,123882,1,8,0:0:0:0:
182,105,123968,1,8,0:0:0:0:
184,95,124054,1,8,0:0:0:0:
188,87,124140,6,0,B|274:61|244:129|357:95,1,154.000004699707,6|8,0:1|0:0,0:0:0:0:
403,62,124654,1,0,0:0:0:0:
467,105,124826,2,0,P|488:154|470:264,1,154.000004699707,2|8,0:1|0:0,0:0:0:0:
352,383,125512,6,0,L|342:299,1,77.0000023498536,2|0,0:1|0:0,0:0:0:0:
277,241,125854,2,0,L|267:157,1,77.0000023498536,10|0,0:1|0:1,0:0:0:0:
257,148,126111,1,0,0:0:0:0:
245,132,126197,2,0,P|208:119|165:127,1,77.0000023498536,2|0,0:1|0:0,0:0:0:0:
158,216,126540,2,0,P|121:229|78:221,1,77.0000023498536,10|0,0:1|0:0,0:0:0:0:
1,154,126883,6,0,B|-22:94|22:38|22:38|61:46,1,154.000004699707,2|8,0:1|0:0,0:0:0:0:
140,70,127397,1,2,0:2:0:0:
228,96,127569,2,0,B|269:112|322:101|322:101|340:72|370:59,1,154.000004699707,2|8,0:1|0:0,0:0:0:0:
512,190,128254,5,2,0:1:0:0:
512,190,128340,1,0,0:3:0:0:
512,190,128426,1,0,0:3:0:0:
440,248,128597,2,0,P|401:249|358:227,1,77.0000023498536,10|8,0:2|0:0,0:0:0:0:
351,221,128854,1,8,0:0:0:0:
338,206,128940,2,0,P|333:158|325:126,1,77.0000023498536,8|4,0:3|0:3,0:0:0:0:
277,60,129283,1,10,0:1:0:0:
193,48,129454,1,4,0:3:0:0:
130,116,129626,6,0,P|120:163|121:211,1,77.0000023498536,2|0,0:1|0:0,0:0:0:0:
123,210,129883,2,0,L|182:221,1,38.5000011749268,2|8,0:1|0:0,0:0:0:0:
244,274,130140,5,2,0:2:0:0:
322,243,130311,1,10,0:2:0:0:
394,296,130483,1,2,0:2:0:0:
394,296,130569,2,0,P|393:339|421:377,1,77.0000023498536,2|0,0:1|0:0,0:0:0:0:
426,378,130826,5,2,0:2:0:0:
505,350,130997,1,2,0:2:0:0:
496,265,131169,1,2,0:2:0:0:
496,265,131254,2,0,L|478:162,1,77.0000023498536,2|0,0:1|0:0,0:0:0:0:
473,171,131512,2,0,L|479:84,2,77.0000023498536,2|0|0,0:1|0:0|0:0,0:0:0:0:
403,229,132026,5,2,0:1:0:0:
403,229,132197,1,2,0:1:0:0:
352,145,132369,6,0,B|311:78|220:105|220:105|226:187|300:218|300:218|218:201|170:261|170:261|191:236|192:192,1,513.333333333333,8|4,3:1|3:3,0:0:0:0:
178,176,133740,6,0,P|137:153|40:194,1,140,6|2,0:1|0:2,0:0:0:0:
0,324,134426,1,10,0:1:0:0:
0,324,134597,1,2,0:2:0:0:
65,365,134769,2,0,L|161:357,1,70,2|0,0:2|0:0,0:0:0:0:
215,319,135112,5,2,0:1:0:0:
158,267,135283,1,2,0:2:0:0:
190,197,135454,1,2,0:2:0:0:
333,252,135797,2,0,L|428:259,1,70,10|0,0:1|0:0,0:0:0:0:
471,222,136140,2,0,P|478:193|469:136,1,70,8|0,0:0|0:0,0:0:0:0:
409,81,136483,5,6,0:1:0:0:
350,130,136654,1,2,0:2:0:0:
350,130,136740,1,2,0:2:0:0:
350,130,136826,2,0,P|307:139|269:125,1,70,2|0,0:2|0:0,0:0:0:0:
210,76,137169,1,10,0:0:0:0:
210,76,137340,1,0,0:0:0:0:
152,127,137512,2,0,P|142:172|150:201,1,70,10|0,0:2|0:0,0:0:0:0:
202,265,137854,5,2,0:1:0:0:
275,242,138026,1,2,0:2:0:0:
341,281,138197,2,0,P|383:289|413:273,1,70,10|0,0:2|0:0,0:0:0:0:
424,274,138454,2,0,L|442:325,1,35,8|2,0:0|0:2,0:0:0:0:
451,308,139226,6,0,P|479:258|449:180,1,140,6|2,0:0|0:2,0:0:0:0:
338,74,139912,1,10,0:0:0:0:
338,74,140083,1,2,0:2:0:0:
301,141,140254,2,0,P|307:175|292:238,1,70,2|0,0:2|0:0,0:0:0:0:
250,284,140597,5,2,0:1:0:0:
177,256,140769,1,2,0:2:0:0:
125,313,140940,1,2,0:2:0:0:
5,216,141283,2,0,L|14:142,1,70,10|0,0:0|0:0,0:0:0:0:
90,140,141626,2,0,L|99:66,1,70,8|0,0:0|0:0,0:0:0:0:
176,17,141969,5,6,0:1:0:0:
242,73,142140,1,2,0:2:0:0:
242,73,142226,1,2,0:2:0:0:
242,73,142312,2,0,P|282:78|330:54,1,70,2|0,0:2|0:0,0:0:0:0:
385,24,142654,1,10,0:1:0:0:
385,24,142826,1,0,0:0:0:0:
447,68,142997,2,0,P|464:118|459:145,1,70,10|0,0:2|0:0,0:0:0:0:
399,207,143340,6,0,L|359:197,3,35,8|8|8|8,3:2|3:2|3:3|3:3,0:0:0:0:
337,204,143683,2,0,L|297:194,3,35,8|8|4|4,3:2|3:2|3:3|3:3,0:0:0:0:
275,201,144026,2,0,L|235:191,3,35,8|8|8|8,3:3|3:3|3:1|3:1,0:0:0:0:
213,198,144369,2,0,L|173:188,3,35,8|8|4|4,3:3|3:3|3:3|3:3,0:0:0:0:
151,195,144712,6,0,P|93:189|43:278,1,154.000004699707,4|0,0:1|0:2,0:0:0:0:
99,344,145226,1,8,0:0:0:0:
99,344,145312,1,0,0:0:0:0:
99,344,145397,2,0,L|182:334,1,77.0000023498536,0|8,0:1|0:0,0:0:0:0:
261,368,145740,2,0,L|344:358,1,77.0000023498536,0|8,0:2|0:0,0:0:0:0:
451,384,146083,6,0,B|456:346|456:346|441:310,1,77.0000023498536,2|8,0:0|0:0,0:0:0:0:
428,297,146340,1,0,0:0:0:0:
414,283,146426,2,2,B|401:249|401:249|404:209,1,77.0000023498536,2|8,0:1|0:0,0:1:0:0:
439,123,146769,1,2,0:1:0:0:
394,54,146940,1,8,0:0:0:0:
394,54,147026,1,0,0:0:0:0:
394,54,147112,2,2,L|298:46,1,77.0000023498536,2|8,0:1|0:1,0:1:0:0:
224,5,147454,5,6,0:1:0:0:
224,5,147626,1,8,0:0:0:0:
204,97,147797,1,2,0:1:0:0:
204,97,147969,1,8,0:0:0:0:
258,169,148140,2,0,P|280:201|289:241,1,77.0000023498536,2|8,0:1|0:0,0:0:0:0:
290,258,148397,1,0,0:0:0:0:
290,277,148483,2,0,P|285:305|247:346,1,77.0000023498536,2|10,0:1|0:1,0:0:0:0:
153,369,148826,6,0,L|104:362,3,38.5000011749268,2|0|8|0,0:1|0:0|0:0|0:0,0:0:0:0:
85,345,149169,2,0,L|76:296,3,38.5000011749268,2|0|8|0,0:1|0:0|0:0|0:0,0:0:0:0:
86,272,149512,2,0,L|129:248,3,38.5000011749268,10|8|8|8,0:1|0:1|0:1|0:1,0:0:0:0:
155,250,149854,2,2,L|190:284,3,38.5000011749268,10|8|8|8,0:1|0:1|0:1|0:1,0:1:0:0:
197,308,150197,6,2,P|263:335|340:264,1,154.000004699707,6|2,0:1|0:2,0:1:0:0:
398,221,150712,1,10,0:0:0:0:
398,221,150797,1,2,0:1:0:0:
398,221,150883,2,2,L|380:120,1,77.0000023498536,2|10,0:2|0:2,0:1:0:0:
336,56,151226,2,0,B|333:88|302:110|302:110|206:85,1,154.000004699707,2|2,0:1|0:1,0:0:0:0:
141,25,151740,5,10,0:1:0:0:
141,25,151826,1,0,0:0:0:0:
141,25,151912,2,0,P|74:44|63:133,1,154.000004699707,0|2,0:0|0:1,0:0:0:0:
127,205,152426,1,10,0:0:0:0:
127,205,152512,1,0,0:0:0:0:
127,205,152597,2,0,P|158:193|206:189,1,77.0000023498536,0|10,0:0|0:1,0:0:0:0:
291,253,152940,6,0,B|362:282|362:282|436:240,1,154.000004699707,14|2,0:0|0:1,0:0:0:0:
507,181,153454,1,10,0:1:0:0:
507,181,153540,1,0,0:0:0:0:
507,181,153626,2,0,L|488:89,1,77.0000023498536,0|10,0:0|0:1,0:0:0:0:
411,20,153969,6,0,P|359:36|351:143,1,154.000004699707,2|2,0:1|0:1,0:0:0:0:
393,218,154483,2,0,P|387:291|320:322,1,154.000004699707,10|10,0:1|0:2,0:0:0:0:
230,277,154997,5,4,0:3:0:0:
228,267,155082,1,4,0:3:0:0:
227,257,155168,1,4,0:3:0:0:
226,248,155254,1,4,0:3:0:0:
225,238,155340,2,2,B|251:168|251:168|218:95,1,154.000004699707,10|2,0:1|3:3,0:1:0:0:
148,44,155854,5,8,0:2:0:0:
148,44,155940,1,8,0:2:0:0:
148,44,156026,2,6,B|127:58|127:58|90:49|90:49|81:40|81:40|37:30|37:30|19:36,1,140,4|12,0:3|0:2,0:2:0:0:
19,35,157054,6,0,L|153:31,1,112,2|2,0:2|0:2,0:0:0:0:
203,8,157569,1,0,0:0:0:0:
252,64,157740,2,0,P|266:102|247:184,1,112,10|0,0:2|0:0,0:0:0:0:
114,230,158426,2,0,P|77:230|26:299,1,112
41,356,158940,1,2,0:2:0:0:
115,339,159112,1,8,0:0:0:0:
262,370,159454,1,0,0:0:0:0:
428,342,159797,6,0,P|447:282|425:228,1,112,2|2,0:2|0:2,0:0:0:0:
382,179,160312,1,0,0:0:0:0:
313,210,160483,2,0,B|260:229|260:229|198:196,1,112,10|0,0:2|0:0,0:0:0:0:
205,51,161169,2,0,B|254:24|254:24|307:43,1,112,2|0,0:2|0:0,0:0:0:0:
369,98,161683,1,2,0:2:0:0:
444,58,161854,2,0,P|446:30|454:3,1,56,8|2,0:0|0:2,0:0:0:0:
503,119,162197,2,0,P|500:151|482:194,1,56,8|2,0:0|0:2,0:0:0:0:
419,237,162540,6,0,P|382:221|292:232,1,112,2|0,0:2|0:0,0:0:0:0:
247,263,163054,1,2,0:2:0:0:
273,334,163226,1,10,0:2:0:0:
129,381,163569,1,0,0:0:0:0:
10,263,163912,6,0,P|7:203|34:142,1,112,2|0,0:2|0:0,0:0:0:0:
82,95,164426,1,2,0:2:0:0:
82,95,164512,1,2,0:2:0:0:
82,95,164597,2,0,B|116:119|116:119|202:98,1,112,10|2,0:2|0:2,0:0:0:0:
331,37,165283,6,0,B|365:13|365:13|433:29,1,112,2|0,0:2|0:0,0:0:0:0:
495,78,165797,1,0,0:0:0:0:
508,155,165969,2,0,L|496:228,1,56,10|0,0:2|0:0,0:0:0:0:
430,277,166312,2,0,L|420:221,1,56,2|0,0:2|0:0,0:0:0:0:
345,145,166654,6,0,P|320:171|226:160,1,112,2|2,0:2|0:2,0:0:0:0:
191,123,167169,1,0,3:0:0:0:
117,139,167340,1,10,0:2:0:0:
47,273,167683,1,10,0:2:0:0:
175,371,168026,6,0,L|307:356,1,112,2|2,0:2|0:2,0:0:0:0:
362,378,168540,1,0,0:0:0:0:
421,327,168712,2,0,P|428:293|405:202,1,112,10|0,0:2|0:0,0:0:0:0:
274,147,169397,2,0,L|142:162,1,112,2|2,0:2|0:2,0:0:0:0:
94,199,169912,1,0,0:0:0:0:
25,161,170083,1,10,0:2:0:0:
99,22,170426,1,10,0:2:0:0:
240,116,170769,6,0,L|351:103,1,112,2|0,0:2|0:2,0:2:0:0:
414,56,171283,1,0,0:0:0:0:
478,99,171454,2,0,P|496:142|487:219,1,112,10|2,0:2|0:2,0:0:0:0:
402,335,172140,2,0,P|371:321|281:321,1,112,2|2,0:2|0:2,0:0:0:0:
229,371,172654,1,0,0:0:0:0:
159,322,172826,2,0,P|149:292|154:255,1,56,10|0,0:2|0:0,0:0:0:0:
233,227,173169,2,0,P|243:197|238:160,1,56,10|0,0:2|0:0,0:0:0:0:
159,116,173512,6,0,B|134:129|134:129|93:111|94:57,1,112,2|0,0:2|0:0,0:0:0:0:
147,3,174026,1,0,0:0:0:0:
214,42,174197,1,10,0:2:0:0:
367,11,174540,1,2,0:2:0:0:
481,138,174883,6,0,P|490:195|473:253,1,112,2|2,0:2|0:2,0:0:0:0:
436,321,175397,1,0,0:0:0:0:
367,271,175569,2,0,P|337:257|304:257,1,56,10|0,0:2|0:0,0:0:0:0:
280,332,175912,2,0,P|250:346|217:346,1,56,2|0,0:2|0:0,0:0:0:0:
132,297,176254,6,0,L|118:234,1,56,2|0,0:2|0:0,0:0:0:0:
142,300,176597,2,0,L|128:237,1,56
221,223,176940,6,0,L|227:157,1,62.9999980773926,10|0,0:2|0:0,0:0:0:0:
232,228,177283,2,0,L|238:162,1,62.9999980773926
328,174,177626,6,0,L|314:90,1,70,2|0,0:2|0:0,0:0:0:0:
343,176,177969,2,0,L|329:92,1,70,8|0,0:0|0:0,0:0:0:0:
377,20,178312,5,10,0:2:0:0:
385,32,178483,5,0,0:2:0:0:
397,24,178654,5,0,0:2:0:0:
389,12,178826,5,0,0:2:0:0:
483,137,180369,6,0,B|513:183|513:183|483:298,1,154.000004699707,14|8,0:1|0:0,0:0:0:0:
450,363,180883,1,0,0:0:0:0:
369,318,181054,2,0,P|327:301|284:303,1,77.0000023498536,2|0,0:2|0:0,0:0:0:0:
218,351,181397,2,0,P|183:366|144:368,1,77.0000023498536,8|0,0:0|0:0,0:0:0:0:
40,309,181740,6,0,B|29:267|29:267|38:222|38:222|18:159,1,154.000004699707,2|8,0:1|0:2,0:0:0:0:
119,199,182254,2,0,P|159:200|194:183,1,77.0000023498536,2|0,0:1|0:0,0:0:0:0:
239,97,182597,2,0,L|224:20,1,77.0000023498536,2|8,0:1|0:0,0:0:0:0:
333,118,182940,6,0,P|367:102|405:103,1,77.0000023498536,2|0,0:1|0:0,0:0:0:0:
492,137,183283,1,2,0:1:0:0:
500,228,183454,1,8,0:0:0:0:
422,273,183626,1,2,0:2:0:0:
422,273,183711,1,2,0:2:0:0:
422,273,183797,2,0,L|266:264,1,154.000004699707,2|8,0:2|0:0,0:0:0:0:
180,196,184311,5,2,0:1:0:0:
240,125,184483,1,8,0:3:0:0:
240,125,184569,1,8,0:3:0:0:
240,125,184654,2,0,P|253:93|245:44,1,77.0000023498536,8|8,0:3|0:0,0:0:0:0:
167,6,184997,1,4,0:3:0:0:
79,36,185169,2,0,L|2:28,1,77.0000023498536,4|0,0:3|0:0,0:0:0:0:
75,125,185512,2,0,L|-4:150,1,77.0000023498536,8|0,0:0|0:0,0:0:0:0:
117,216,185854,6,0,B|87:251|87:251|81:313|127:359,1,154.000004699707,6|8,0:1|0:0,0:0:0:0:
207,381,186369,1,0,0:0:0:0:
269,303,186540,2,0,P|279:261|267:217,1,77.0000023498536,2|0,0:2|0:0,0:0:0:0:
197,161,186883,2,0,P|187:119|199:75,1,77.0000023498536,8|0,0:0|0:0,0:0:0:0:
282,23,187226,6,0,L|368:11,1,77.0000023498536,2|0,0:1|0:0,0:0:0:0:
370,27,187483,1,2,0:1:0:0:
378,42,187569,2,0,L|464:27,1,77.0000023498536,8|2,0:0|0:1,0:0:0:0:
512,116,187912,6,0,P|517:170|500:209,1,77.0000023498536,2|0,0:1|0:0,0:0:0:0:
498,206,188169,1,2,0:1:0:0:
482,216,188254,2,0,L|388:208,1,77.0000023498536,8|2,0:0|0:1,0:0:0:0:
304,169,188597,6,0,P|301:115|288:84,1,77.0000023498536,2|0,0:0|0:0,0:0:0:0:
280,79,188854,1,2,0:1:0:0:
263,68,188940,2,0,L|174:62,1,77.0000023498536,8|2,0:0|0:1,0:0:0:0:
92,107,189283,6,0,P|80:143|81:182,1,77.0000023498536,2|0,0:1|0:0,0:0:0:0:
87,199,189540,1,2,0:0:0:0:
94,216,189626,2,0,L|183:222,1,77.0000023498536,8|2,0:0|0:0,0:0:0:0:
256,285,189969,5,10,0:1:0:0:
265,283,190054,1,8,0:3:0:0:
274,281,190140,1,8,0:3:0:0:
284,279,190226,1,8,0:1:0:0:
293,277,190312,2,0,B|322:275|322:275|333:281|333:281|386:275,1,77.0000023498536,8|8,0:3|0:2,0:0:0:0:
447,334,190654,1,6,0:3:0:0:
447,334,190826,1,6,0:3:0:0:
505,262,190997,2,0,L|497:213,3,38.5000011749268,8|8|8|8,0:0|0:0|0:0|0:0,0:0:0:0:
505,201,191340,6,0,B|527:163|527:163|520:103|466:40,1,154.000004699707,6|2,0:1|0:2,0:0:0:0:
416,11,191854,1,0,0:0:0:0:
358,73,192026,2,0,P|349:104|353:159,1,77.0000023498536,10|0,0:1|0:0,0:0:0:0:
399,217,192369,2,0,P|408:254|406:292,1,77.0000023498536,2|0,0:2|0:2,0:0:0:0:
398,309,192626,1,0,0:2:0:0:
384,323,192712,2,0,L|301:334,1,77.0000023498536
217,264,193054,6,0,B|187:177|237:205|203:96,1,154.000004699707,2|10,0:1|0:0,0:0:0:0:
146,42,193569,1,0,0:0:0:0:
60,77,193740,2,0,P|43:120|45:170,1,77.0000023498536,2|8,0:1|0:0,0:0:0:0:
46,169,193997,1,0,0:0:0:0:
53,186,194083,2,0,P|95:200|142:195,1,77.0000023498536,2|0,0:2|0:0,0:0:0:0:
202,253,194426,2,0,P|237:239|276:240,1,77.0000023498536,2|0,0:2|0:0,0:0:0:0:
368,310,194769,6,0,B|408:346|408:346|477:350|491:286,1,154.000004699707,10|10,0:0|0:2,0:0:0:0:
505,215,195283,1,0,0:0:0:0:
456,145,195454,2,0,L|409:136,3,38.5000011749268,8|8|8|8,0:1|0:1|0:1|0:1,0:0:0:0:
391,141,195797,2,0,L|344:132,3,38.5000011749268,8|8|8|8,0:1|0:1|0:1|0:1,0:0:0:0:
326,137,196140,2,0,L|279:128,3,38.5000011749268,8|8|8|8,0:1|0:1|0:1|0:1,0:0:0:0:
261,133,196483,2,0,L|214:124,3,38.5000011749268,8|8|8|8,0:1|0:1|0:1|0:1,0:0:0:0:
197,134,196826,6,0,B|165:209|234:213|182:298,1,154.000004699707,6|10,0:1|0:2,0:0:0:0:
124,347,197340,1,0,0:0:0:0:
42,303,197512,2,0,P|36:236|51:205,1,77.0000023498536,2|0,0:1|0:0,0:0:0:0:
4,142,197854,2,0,P|25:78|52:56,1,77.0000023498536,10|0,0:2|0:0,0:0:0:0:
49,64,198112,1,0,0:0:0:0:
67,59,198197,2,0,B|89:53|89:53|107:60|107:60|146:53,1,77.0000023498536
241,0,198540,6,0,P|227:56|268:163,1,154.000004699707,10|2,0:1|0:2,0:0:0:0:
308,211,199054,1,0,0:0:0:0:
387,179,199226,2,0,P|425:165|463:166,1,77.0000023498536,10|0,0:0|0:0,0:0:0:0:
478,174,199483,1,0,0:0:0:0:
492,186,199569,2,0,P|508:222|501:272,1,77.0000023498536
438,351,199912,6,0,L|272:337,1,154.000004699707,10|2,0:0|0:2,0:0:0:0:
208,375,200426,1,0,0:0:0:0:
123,306,200597,6,0,P|118:268|129:230,1,77.0000023498536,10|0,0:0|0:0,0:0:0:0:
191,164,200940,1,4,0:3:0:0:
191,164,201026,1,4,0:3:0:0:
191,164,201112,1,4,0:3:0:0:
274,204,201283,2,0,P|310:206|349:191,1,77.0000023498536,10|8,0:0|0:3,0:0:0:0:
365,183,201540,1,8,0:0:0:0:
376,167,201626,2,0,P|383:131|370:84,1,77.0000023498536,8|4,0:3|0:3,0:0:0:0:
320,23,201969,1,10,0:0:0:0:
320,23,202140,1,4,0:3:0:0:
218,52,202312,6,0,L|108:43,1,77.0000023498536,2|0,0:1|0:0,0:0:0:0:
121,45,202569,1,2,0:1:0:0:
101,44,202654,2,0,P|82:73|84:126,1,77.0000023498536,8|2,0:0|0:1,0:0:0:0:
157,185,202997,6,0,L|267:176,1,77.0000023498536,2|0,0:1|0:0,0:0:0:0:
251,185,203254,1,2,0:1:0:0:
267,195,203340,2,0,L|377:186,1,77.0000023498536,8|2,0:0|0:1,0:0:0:0:
449,244,203683,6,0,P|459:280|450:317,1,77.0000023498536,2|0,0:1|0:0,0:0:0:0:
431,322,203939,1,2,0:1:0:0:
410,327,204025,2,0,L|327:323,1,77.0000023498536,8|2,0:0|0:1,0:0:0:0:
246,374,204369,6,0,L|233:304,2,51.3333348999024,8|8|8,0:2|0:2|0:2,0:0:0:0:
200,349,204712,2,0,L|187:279,2,51.3333348999024,8|8|8,0:3|0:3|0:3,0:0:0:0:
147,317,205054,6,2,B|81:295|79:351|1:319,1,140,6|0,0:1|0:0,0:1:0:0:
90,234,205569,2,0,P|109:178|79:87,1,140,8|0,0:0|0:0,0:0:0:0:
18,34,206083,2,2,L|111:16,1,70,8|0,0:0|0:0,0:1:0:0:
177,85,206426,5,2,0:1:0:0:
177,85,206597,2,0,L|268:84,1,70,2|8,0:1|0:0,0:0:0:0:
345,136,206940,1,2,0:0:0:0:
345,136,207026,1,0,0:1:0:0:
345,136,207112,2,2,P|396:150|471:89,2,140,0|0|8,0:2|0:0|0:0,0:1:0:0:
246,84,207969,6,2,P|244:48|218:14,1,70,2|0,0:1|0:0,0:1:0:0:
210,12,208226,2,2,L|169:27,1,35,2|0,0:1|0:0,0:1:0:0:
120,101,208483,2,2,P|122:137|148:171,1,70,2|0,0:1|0:0,0:1:0:0:
153,175,208740,1,2,0:1:0:0:
167,184,208826,2,0,L|258:167,1,70,8|2,0:0|0:1,0:0:0:0:
280,254,209169,6,0,L|371:271,1,70,2|0,0:1|0:0,0:0:0:0:
366,265,209426,2,0,L|380:233,1,35,0|8,0:0|0:0,0:0:0:0:
472,177,209683,1,2,0:1:0:0:
472,177,209769,1,0,0:0:0:0:
472,177,209854,2,0,P|507:250|487:318,1,140,0|8,0:0|0:0,0:0:0:0:
413,375,210369,5,10,0:1:0:0:
413,375,210454,1,10,0:1:0:0:
413,375,210540,2,2,L|264:364,1,140,12|0,0:2|0:0,0:1:0:0:
200,317,211054,1,10,0:2:0:0:
200,317,211140,1,0,0:2:0:0:
200,317,211226,2,0,P|195:279|210:240,1,70,2|2,0:1|0:2,0:0:0:0:
267,186,211569,2,0,P|272:151|262:118,1,70,10|2,0:1|0:2,0:0:0:0:
253,103,211826,1,2,0:2:0:0:
241,90,211912,6,0,P|190:70|81:96,1,140,2|10,0:1|0:1,0:0:0:0:
43,150,212426,1,2,0:2:0:0:
43,150,212512,1,2,0:2:0:0:
43,150,212597,2,0,L|32:302,2,140,10|2|8,0:2|0:2|0:0,0:0:0:0:
115,88,213454,5,2,0:2:0:0:
115,88,213540,1,2,0:2:0:0:
115,88,213626,2,0,P|175:87|190:74,1,70,2|10,0:2|0:2,0:0:0:0:
246,150,213969,2,0,P|278:137|311:144,1,70,2|2,0:2|0:2,0:0:0:0:
360,219,214312,2,2,P|392:231|425:224,1,70,10|2,0:2|0:2,0:1:0:0:
510,166,214654,6,0,L|498:100,2,46.6666666666667,2|2|2,3:2|3:2|3:2,0:0:0:0:
512,111,214997,2,2,P|515:81|489:28,1,70,10|2,0:0|0:2,0:1:0:0:
408,16,215340,6,0,L|339:22,2,46.6666666666667,2|2|2,3:2|3:2|3:2,0:0:0:0:
353,40,215683,2,0,P|320:70|277:55,1,70,10|14,0:1|0:1,0:0:0:0:
