osu file format v14

[General]
AudioFilename: audio.mp3
AudioLeadIn: 0
PreviewTime: 49505
Countdown: 0
SampleSet: Soft
StackLeniency: 0.7
Mode: 0
LetterboxInBreaks: 0
WidescreenStoryboard: 1

[Editor]
Bookmarks: 56017
DistanceSpacing: 0.8
BeatDivisor: 4
GridSize: 4
TimelineZoom: 1.6

[Metadata]
Title:Sense (TV Size)
TitleUnicode:Sense (TV Size)
Artist:BAND-MAID
ArtistUnicode:BAND-MAID
Creator:HabiHolic
Version:Hard
Source:プラチナエンド
Tags:original3s lit120 Amats Am4ts -Amats- -Hakurei- platinum end anime op opening 2021 japanese rock jrock j-rock female vocals vocalist Froskya Revialink
BeatmapID:3577162
BeatmapSetID:1738864

[Difficulty]
HPDrainRate:5.5
CircleSize:4
OverallDifficulty:6
ApproachRate:8
SliderMultiplier:1.5
SliderTickRate:1

[Events]
//Background and Video events
Video,-498,"zz.mp4"
0,0,"BG.jpg",0,0
//Break Periods
//Storyboard Layer 0 (Background)
//Storyboard Layer 1 (Fail)
//Storyboard Layer 2 (Pass)
//Storyboard Layer 3 (Foreground)
//Storyboard Layer 4 (Overlay)
//Storyboard Sound Samples

[TimingPoints]
3895,379.746835443038,4,2,1,55,1,0
4270,375,4,2,1,55,1,0
4645,320.855614973262,4,2,1,55,1,0
4965,302.267002518892,4,2,1,55,1,0
5267,307.692307692308,4,2,1,55,1,0
5267,-250,4,2,1,55,0,0
6190,333.333333333334,4,2,1,55,1,0
6523,338.028169014085,4,2,1,55,1,0
6861,312.5,4,2,1,55,1,0
7486,354.505169867061,4,2,1,55,1,0
7839,421.052631578948,4,2,1,55,1,0
8260,413.793103448277,4,2,1,55,1,0
8673,428.571428571429,4,2,1,55,1,0
9101,312.5,4,2,1,55,1,0
9727,306.122448979592,4,2,1,55,1,0
10033,226.415094339623,4,2,1,55,1,0
10259,214.285714285714,4,2,1,55,1,0
10473,193.548387096774,4,2,1,55,1,0
10666,187.5,4,2,1,55,1,0
10853,181.818181818182,4,2,1,55,1,0
11034,179.10447761194,4,2,1,55,1,0
11213,181.818181818182,4,2,1,55,1,0
11394,193.548387096775,4,2,1,55,1,0
11587,200.000000000001,4,2,1,55,1,0
11787,210.526315789474,4,2,1,55,1,0
11997,240,4,2,1,55,1,0
12237,250,4,2,1,55,1,0
12487,375,4,2,1,55,1,0
12487,-200,4,2,1,55,0,0
12862,324.324324324324,4,2,1,55,1,0
12862,-333.333333333333,4,2,1,55,0,0
13186,400,4,2,1,55,1,0
13186,-500,4,2,1,55,0,0
13586,562.060889929743,4,2,1,55,1,0
14710,668.523676880223,4,2,1,55,1,0
16047,379.746835443038,4,2,1,55,1,0
19749,307.692307692308,4,2,1,45,1,0
19749,-333.333333333333,4,2,1,45,0,0
19979,-166.666666666667,4,2,1,45,0,0
20056,-166.666666666667,4,2,1,45,0,0
20310,292.682926829268,4,2,1,80,1,0
21480,-100,4,2,1,80,0,0
21627,-100,4,2,1,80,0,0
21773,-100,4,2,1,80,0,0
21774,-100,4,2,1,80,0,0
21919,-100,4,2,1,80,0,0
21920,-100,4,2,1,80,0,0
22066,-100,4,2,1,80,0,0
22797,-100,4,2,1,80,0,0
22944,-100,4,2,1,80,0,0
24114,-100,4,2,1,80,0,0
24115,-100,4,2,1,80,0,0
24188,-100,4,2,1,80,0,0
24262,-100,4,2,1,80,0,0
25139,-100,4,2,1,80,0,0
25285,-100,4,2,1,80,0,0
26163,-100,4,2,1,80,0,0
26309,-100,4,2,1,80,0,0
26310,-100,4,2,1,80,0,0
26456,-100,4,2,1,80,0,0
26457,-100,4,2,1,80,0,0
26529,-100,4,2,1,5,0,0
26602,-100,4,2,1,80,0,0
26749,-100,4,2,1,80,0,0
27480,-100,4,2,1,80,0,0
27627,-100,4,2,1,80,0,0
29675,-142.857142857143,4,2,1,70,0,0
29822,-142.857142857143,4,2,1,70,0,0
30919,-142.857142857143,4,2,1,70,0,0
30992,-142.857142857143,4,2,1,70,0,0
32017,-142.857142857143,4,2,1,70,0,0
32163,-142.857142857143,4,2,1,70,0,0
33919,-142.857142857143,4,2,1,70,0,0
34066,-142.857142857143,4,2,1,70,0,0
34505,-142.857142857143,4,2,1,70,0,0
37139,-142.857142857143,4,2,1,70,0,0
37870,-100,4,2,1,70,0,0
38017,-100,4,2,1,70,0,0
38309,-100,4,2,1,70,0,0
38602,-100,4,2,1,70,0,0
38749,-100,4,2,1,70,0,0
39041,-133.333333333333,4,2,1,60,0,0
43431,-133.333333333333,4,2,1,60,0,0
43724,-133.333333333333,4,2,1,60,0,0
46651,-133.333333333333,4,2,1,60,0,0
47529,-100,4,2,1,60,0,0
47822,-100,4,2,1,60,0,0
48114,-100,4,2,1,60,0,0
48407,-125,4,2,1,60,0,0
49578,-200,4,2,1,60,0,0
49870,-200,4,2,1,60,0,0
50749,-100,4,2,1,80,0,0
51188,-100,4,2,1,80,0,0
53163,-100,4,2,1,80,0,0
53236,-100,4,2,1,80,0,0
53309,-100,4,2,1,80,0,0
53382,-100,4,2,1,80,0,0
53749,-100,4,2,1,80,0,0
53822,-100,4,2,1,80,0,0
53895,-100,4,2,1,80,0,0
53968,-100,4,2,1,80,0,0
54334,-100,4,2,1,80,0,0
54407,-100,4,2,1,80,0,0
54480,-100,4,2,1,80,0,0
54553,-100,4,2,1,80,0,0
54627,-100,4,2,1,80,0,0
54700,-100,4,2,1,80,0,0
54773,-100,4,2,1,80,0,0
54846,-100,4,2,1,80,0,0
54919,-100,4,2,1,80,0,0
54992,-100,4,2,1,80,0,0
55066,-100,4,2,1,80,0,0
55139,-100,4,2,1,80,0,0
55285,-100,4,2,1,80,0,0
57553,-100,4,2,1,80,0,0
57626,-100,4,2,1,80,0,0
57700,-100,4,2,1,80,0,0
57773,-100,4,2,1,80,0,0
58944,-100,4,2,1,80,0,0
59090,-100,4,2,1,80,0,0
59383,-100,4,2,1,80,0,0
59675,-100,4,2,1,80,0,0
60114,-133.333333333333,4,2,1,80,0,0
64505,-133.333333333333,4,2,1,80,0,0
64797,-133.333333333333,4,2,1,80,0,0
68309,-100,4,2,1,80,0,0
69480,-100,4,2,1,80,0,0
69627,-100,4,2,1,80,0,0
69773,-100,4,2,1,80,0,0
70651,-100,4,2,1,80,0,0
70797,-100,4,2,1,80,0,0
70944,-100,4,2,1,80,0,0
71090,-100,4,2,1,80,0,0
71236,-100,4,2,1,80,0,0
71968,-100,4,2,1,80,0,0
72114,-100,4,2,1,80,0,0
73285,-100,4,2,1,80,0,0
73358,-100,4,2,1,80,0,0
73431,-100,4,2,1,80,0,0
74309,-100,4,2,1,80,0,0
74456,-100,4,2,1,80,0,0
75334,-100,4,2,1,80,0,0
75480,-100,4,2,1,80,0,0
75627,-100,4,2,1,80,0,0
75773,-100,4,2,1,80,0,0
75919,-100,4,2,1,80,0,0
76651,-100,4,2,1,80,0,0
76797,-100,4,2,1,80,0,0
78846,-100,4,2,1,85,0,0
81773,-100,4,2,1,85,0,0
82358,-100,4,2,1,60,0,0
82944,-100,4,2,1,60,0,0
83529,-100,4,2,1,60,0,0
84114,-100,4,2,1,60,0,0
84895,-100,4,2,1,60,0,0

[Colours]
Combo1 : 214,187,105
Combo2 : 242,172,172
Combo3 : 231,124,124
Combo4 : 128,205,234
Combo5 : 134,138,223
Combo6 : 233,225,154

[HitObjects]
256,192,16047,12,0,19084,0:0:0:0:
36,43,20310,6,0,P|86:98|159:105,1,150,4|8,1:0|1:2,0:0:0:0:
242,62,20749,1,0,3:0:0:0:
316,120,20895,2,0,L|298:194,1,75,2|2,3:2|3:2,0:0:0:0:
405,142,21188,2,0,L|387:216,1,75,10|0,1:2|3:0,0:0:0:0:
319,284,21480,6,0,B|237:268|257:320|173:308,1,150,2|8,3:2|1:2,0:0:0:0:
102,247,21919,1,0,3:0:0:0:
185,200,22066,2,0,L|167:127,1,75,0|0,3:2|3:0,0:0:0:0:
250,59,22358,2,0,L|268:132,1,75,10|0,1:2|3:0,0:0:0:0:
291,218,22651,6,0,B|378:213|342:166|429:165,1,150,2|8,3:2|1:2,0:0:0:0:
500,227,23090,1,0,3:0:0:0:
412,259,23236,2,0,L|423:297,2,37.5,2|8|0,3:2|1:2|3:0,0:0:0:0:
426,165,23529,2,0,L|405:85,1,75,10|0,1:2|3:0,0:0:0:0:
335,29,23822,6,0,P|279:74|206:67,1,150,2|8,3:2|1:2,0:0:0:0:
129,17,24261,1,2,3:2:0:0:
58,77,24407,2,0,L|68:117,3,37.5,2|10|0|0,3:2|1:2|3:0|3:0,0:0:0:0:
46,134,24700,2,0,L|56:170,3,37.5,10|4|4|4,1:2|3:0|3:0|3:0,0:0:0:0:
44,203,24992,6,0,P|116:195|174:240,1,150,4|8,1:0|1:2,0:0:0:0:
245,297,25431,1,0,3:0:0:0:
329,261,25578,2,0,L|349:186,1,75,2|2,3:2|3:2,0:0:0:0:
309,53,25870,2,0,L|289:125,1,75,10|0,1:2|3:0,0:0:0:0:
234,200,26163,6,0,B|214:168|183:158|151:178|151:178|143:206|116:220,1,150,2|8,3:2|1:2,0:0:0:0:
29,184,26602,1,2,3:2:0:0:
88,111,26749,2,0,L|67:38,1,75,2|0,3:2|3:0,0:0:0:0:
178,87,27041,2,0,L|157:14,1,75,10|0,1:2|3:0,0:0:0:0:
283,39,27334,6,0,L|259:191,1,150,2|8,3:2|1:2,0:0:0:0:
243,277,27773,1,0,3:0:0:0:
163,230,27919,2,0,L|123:236,2,37.5,2|8|0,3:2|1:2|3:0,0:0:0:0:
243,277,28212,2,0,L|326:265,1,75,10|0,1:2|3:0,0:0:0:0:
396,210,28505,6,0,L|452:221,2,50,10|0|0,1:2|3:0|3:0,0:0:0:0:
415,134,28797,2,0,L|471:145,2,50,8|0|0,1:2|3:0|3:0,0:0:0:0:
330,128,29090,2,0,L|280:137,2,50,8|0|0,1:2|3:0|3:0,0:0:0:0:
311,52,29382,2,0,L|261:61,2,50,10|0|0,1:2|3:0|3:0,0:0:0:0:
392,14,29675,5,4,1:0:0:0:
391,14,29822,2,0,P|443:17|482:50,1,104.999996795654,2|2,3:2|0:0,0:0:0:0:
411,101,30261,2,0,P|428:122|438:146,1,52.4999983978272,2|2,3:2|3:2,0:0:0:0:
389,219,30553,1,10,1:2:0:0:
389,219,30700,6,0,L|279:204,1,104.999996795654,2|2,0:0|3:2,0:0:0:0:
211,250,31139,1,8,1:2:0:0:
211,250,31286,2,0,L|101:235,1,104.999996795654,2|2,0:0|3:2,0:0:0:0:
38,172,31724,1,8,1:2:0:0:
38,172,32017,6,0,L|27:114,1,52.4999983978272,2|2,3:2|3:2,0:0:0:0:
75,46,32309,1,8,1:2:0:0:
75,46,32456,2,0,P|120:71|171:71,1,104.999996795654,2|2,0:0|3:2,0:0:0:0:
253,29,32895,1,8,1:2:0:0:
253,29,33041,2,0,P|304:28|349:54,1,104.999996795654,2|2,0:0|3:2,0:0:0:0:
386,121,33480,6,0,L|415:17,2,104.999996795654,10|0|8,1:2|3:0|1:2,0:0:0:0:
386,121,34139,1,8,3:0:0:0:
386,121,34212,1,4,3:0:0:0:
282,121,34358,5,4,1:0:0:0:
282,121,34505,2,0,L|304:227,1,104.999996795654,2|2,3:2|0:0,0:0:0:0:
379,269,34944,2,0,L|394:320,2,52.4999983978272,2|2|10,3:2|3:2|1:2,0:0:0:0:
379,269,35383,1,2,0:0:0:0:
299,318,35529,5,2,3:2:0:0:
299,318,35675,2,0,L|188:307,1,104.999996795654,2|2,3:2|0:0,0:0:0:0:
112,355,36114,1,2,3:2:0:0:
32,310,36261,2,0,P|21:260|33:209,1,104.999996795654,2|2,3:2|0:0,0:0:0:0:
105,151,36700,6,0,L|210:165,1,104.999996795654,2|10,3:2|1:2,0:0:0:0:
282,226,37139,2,0,P|302:177|292:126,1,104.999996795654,2|2,0:0|3:2,0:0:0:0:
240,53,37578,2,0,P|204:70|165:70,1,78.7499975967408,10|0,1:2|0:0,0:0:0:0:
149,92,37870,6,0,L|131:16,1,75,4|2,1:0|3:2,0:0:0:0:
47,89,38163,2,0,L|64:161,1,75,8|2,1:2|3:2,0:0:0:0:
190,249,38456,2,0,L|172:176,1,75,10|0,1:2|3:0,0:0:0:0:
86,250,38749,1,10,1:2:0:0:
86,250,38822,1,8,3:0:0:0:
86,250,38895,1,4,3:0:0:0:
117,349,39041,6,0,L|235:332,1,112.500004291535,4|0,1:0|0:0,0:0:0:0:
313,352,39480,1,2,0:0:0:0:
313,352,39627,2,0,L|431:335,1,112.500004291535,2|0,3:2|3:0,0:0:0:0:
493,126,40212,6,0,P|452:162|397:171,1,112.500004291535,2|0,0:0|3:0,0:0:0:0:
304,125,40651,1,2,0:0:0:0:
304,125,40797,2,0,L|325:241,1,112.500004291535,2|0,3:2|0:0,0:0:0:0:
175,345,41383,6,0,P|130:314|75:315,2,112.500004291535,2|2|2,3:2|3:2|3:2,0:0:0:0:
258,318,42114,2,0,L|269:261,1,56.2500021457673,2|0,0:0|0:0,0:0:0:0:
211,197,42407,2,0,L|235:74,1,112.500004291535,2|2,3:2|0:0,0:0:0:0:
302,29,42846,1,0,3:0:0:0:
302,29,42992,2,0,P|348:59|404:60,1,112.500004291535,2|2,3:2|3:2,0:0:0:0:
492,45,43431,2,0,L|502:18,2,28.1250010728836,8|8|4,3:0|3:0|3:0,0:0:0:0:
404,59,43724,6,0,L|443:233,1,168.750006437302,4|2,1:0|0:0,0:0:0:0:
379,291,44309,2,0,B|289:276|313:343|220:328,1,168.750006437302,6|2,0:0|0:0,0:0:0:0:
148,277,44895,6,0,B|130:196|130:196|129:187|129:187|113:109,1,168.750006437302,6|2,0:0|0:0,0:0:0:0:
173,46,45480,2,0,P|242:90|323:75,1,168.750006437302,6|2,0:0|0:0,0:0:0:0:
402,24,46066,6,0,P|457:31|492:73,1,112.500004291535,6|6,0:0|0:0,0:0:0:0:
412,113,46505,1,0,0:0:0:0:
412,113,46651,2,0,P|445:157|453:212,1,112.500004291535,6|6,0:0|0:0,0:0:0:0:
290,334,47236,6,0,P|254:311|213:314,1,84.3750032186509,10|0,1:2|3:0,0:0:0:0:
186,330,47529,2,0,L|157:177,2,150,10|10|10,1:2|1:2|1:2,0:0:0:0:
258,188,48407,5,2,0:0:0:0:
12,151,49578,2,0,L|4:114,1,37.5,2|0,0:0|0:0,0:0:0:0:
62,51,49870,2,0,P|100:51|131:71,2,75,2|2|2,0:0|0:0|0:0,0:0:0:0:
121,214,50749,6,0,L|269:192,1,150,4|10,1:0|1:2,0:0:0:0:
350,244,51188,1,0,3:0:0:0:
434,202,51334,2,0,P|442:165|433:129,1,75,2|0,3:2|3:0,0:0:0:0:
376,51,51627,2,0,L|303:64,1,75,10|0,1:2|3:0,0:0:0:0:
231,119,51919,6,0,B|146:116|180:69|93:68,1,150,0|10,3:0|1:2,0:0:0:0:
14,109,52358,1,0,3:0:0:0:
91,161,52505,2,0,L|105:235,1,75,2|0,3:2|3:0,0:0:0:0:
177,289,52797,2,0,P|224:260|278:270,1,112.5,10|0,1:2|0:0,0:0:0:0:
305,281,53090,6,0,L|330:132,1,150,0|10,3:0|1:2,0:0:0:0:
345,50,53529,1,0,3:0:0:0:
261,18,53675,2,0,P|223:17|189:36,1,75,2|0,3:2|3:0,0:0:0:0:
95,21,53968,2,0,L|113:96,1,75,10|0,1:2|3:0,0:0:0:0:
68,176,54261,6,0,P|126:132|198:145,1,150,2|10,3:2|1:2,0:0:0:0:
277,193,54700,1,0,3:0:0:0:
363,156,54846,2,0,L|383:77,1,75,2|0,3:2|3:0,0:0:0:0:
319,24,55139,2,0,L|279:37,3,37.5,8|0|8|8,1:2|0:0|1:2|1:2,0:0:0:0:
263,56,55431,6,0,L|113:34,1,150,4|10,1:0|1:2,0:0:0:0:
29,86,55870,1,0,3:0:0:0:
110,142,56017,2,0,P|101:178|93:215,1,75,2|0,3:2|0:0,0:0:0:0:
179,276,56309,2,0,P|187:239|196:203,1,75,10|0,1:2|3:0,0:0:0:0:
259,127,56602,6,0,P|314:177|387:182,1,150,0|10,3:0|1:2,0:0:0:0:
482,118,57041,1,0,3:0:0:0:
482,118,57188,2,0,L|461:267,1,150,2|10,3:2|1:2,0:0:0:0:
445,356,57627,1,2,3:2:0:0:
373,295,57773,6,0,B|288:293|327:344|234:345,1,150,0|10,3:0|1:2,0:0:0:0:
150,323,58212,2,0,L|114:173,1,150,2|0,3:2|3:0,0:0:0:0:
93,91,58651,1,10,1:2:0:0:
93,91,58797,1,2,3:2:0:0:
174,33,58944,2,0,P|211:32|245:47,1,75,8|0,1:2|3:0,0:0:0:0:
334,22,59236,2,0,P|352:54|357:91,1,75,10|2,1:2|3:2,0:0:0:0:
428,151,59529,2,0,P|409:183|380:206,1,75,8|2,1:2|3:2,0:0:0:0:
294,164,59822,1,10,1:2:0:0:
294,164,59895,1,0,3:0:0:0:
294,164,59968,1,0,3:0:0:0:
221,224,60114,6,0,L|236:282,2,56.2500021457673,4|0|0,1:0|3:0|3:0,0:0:0:0:
131,219,60553,1,0,3:0:0:0:
131,219,60700,2,0,L|163:331,1,112.500004291535,14|0,1:2|3:0,0:0:0:0:
242,365,61139,1,0,3:0:0:0:
242,365,61285,6,0,L|299:354,1,56.2500021457673,2|2,1:2|3:2,0:0:0:0:
404,277,61578,2,0,L|348:287,1,56.2500021457673,2|2,3:2|3:2,0:0:0:0:
273,242,61870,2,0,P|261:188|271:133,1,112.500004291535,10|2,1:2|3:2,0:0:0:0:
330,68,62309,1,2,3:2:0:0:
330,68,62456,6,0,L|440:86,2,112.500004291535,6|2|10,1:2|3:2|1:2,0:0:0:0:
254,25,63188,1,0,3:0:0:0:
254,25,63334,2,0,L|196:33,1,56.2500021457673,2|0,3:2|3:0,0:0:0:0:
107,21,63627,6,0,P|123:74|136:129,1,112.500004291535,2|2,1:2|3:2,0:0:0:0:
87,201,64066,1,0,3:0:0:0:
156,260,64212,2,0,L|192:254,3,28.1250010728836,10|8|8|8,1:2|3:0|3:0|3:0,0:0:0:0:
219,276,64505,2,0,L|255:270,3,28.1250010728836,4|4|0|0,3:0|3:0|3:0|3:0,0:0:0:0:
281,287,64797,6,0,L|303:169,2,112.500004291535,4|2|10,1:0|3:2|1:2,0:0:0:0:
207,353,65529,1,0,3:0:0:0:
207,353,65675,2,0,L|151:341,1,56.2500021457673,2|0,3:2|3:0,0:0:0:0:
71,286,65968,6,0,P|62:230|49:175,1,112.500004291535,2|2,3:2|3:2,0:0:0:0:
129,122,66407,1,0,3:0:0:0:
129,122,66553,2,0,P|142:177|151:233,1,112.500004291535,10|2,1:2|3:2,0:0:0:0:
223,292,66992,1,0,3:0:0:0:
223,292,67139,6,0,L|335:275,2,112.500004291535,2|0|8,3:2|3:0|1:2,0:0:0:0:
145,348,67870,1,0,3:0:0:0:
145,348,68017,2,0,L|84:338,1,56.2500021457673,2|0,3:2|3:0,0:0:0:0:
21,278,68309,6,0,P|1:207|22:136,1,150,10|10,1:2|1:2,0:0:0:0:
94,75,68749,1,4,3:0:0:0:
94,75,68895,6,0,L|76:9,2,56.25,10|8|8,1:2|3:0|3:0,0:0:0:0:
106,114,69188,2,0,P|150:80|205:78,1,112.5,4|0,3:0|0:0,0:0:0:0:
226,64,69480,6,0,P|279:113|351:104,1,150,4|8,1:0|1:2,0:0:0:0:
433,64,69919,1,0,3:0:0:0:
498,127,70066,2,0,P|481:161|478:198,1,75,2|0,3:2|0:0,0:0:0:0:
411,242,70358,2,0,P|379:224|342:220,1,75,10|0,1:2|3:0,0:0:0:0:
247,174,70651,6,0,L|273:322,1,150,2|8,3:2|1:2,0:0:0:0:
196,365,71090,1,0,3:0:0:0:
115,320,71236,2,0,L|79:329,2,37.5,0|0|0,3:2|0:0|3:0,0:0:0:0:
110,229,71529,2,0,L|33:249,1,75,10|0,1:2|3:0,0:0:0:0:
82,129,71822,6,0,L|235:168,1,150,2|8,3:2|1:2,0:0:0:0:
310,116,72261,1,0,3:0:0:0:
385,187,72407,2,0,L|376:226,2,37.5,2|0|0,3:2|0:0|3:0,0:0:0:0:
479,148,72700,2,0,L|497:71,1,75,10|0,1:2|0:0,0:0:0:0:
418,17,72992,6,0,P|358:59|284:57,1,150,2|8,3:2|1:2,0:0:0:0:
197,21,73431,1,2,3:2:0:0:
123,78,73578,2,0,L|133:115,3,37.5,2|0|0|0,3:2|3:0|3:0|3:0,0:0:0:0:
111,128,73870,2,0,L|121:165,3,37.5,10|4|4|4,1:2|3:0|3:0|3:0,0:0:0:0:
113,198,74163,6,0,P|171:154|243:167,1,150,4|8,1:0|1:2,0:0:0:0:
287,236,74602,1,0,3:0:0:0:
363,192,74749,2,0,L|375:118,1,75,2|2,3:2|3:2,0:0:0:0:
306,15,75041,2,0,L|285:133,1,112.5,10|0,1:2|0:0,0:0:0:0:
279,153,75334,6,0,P|221:108|148:114,1,150,2|8,3:2|1:2,0:0:0:0:
71,162,75773,1,2,3:2:0:0:
132,234,75919,2,0,L|207:224,1,75,2|0,3:2|3:0,0:0:0:0:
267,288,76212,2,0,L|342:278,1,75,10|0,1:2|3:0,0:0:0:0:
420,321,76505,6,0,L|449:165,1,150,2|10,3:2|1:2,0:0:0:0:
465,90,76944,1,0,3:0:0:0:
387,32,77090,1,2,3:2:0:0:
387,32,77163,1,8,1:2:0:0:
387,32,77236,1,0,3:0:0:0:
313,88,77383,2,0,P|276:89|242:75,1,75,10|0,1:2|3:0,0:0:0:0:
169,27,77675,6,0,P|120:22|80:51,1,100,10|0,1:2|3:0,0:0:0:0:
39,34,77968,2,0,L|62:131,1,100,10|0,1:2|3:0,0:0:0:0:
27,170,78261,6,0,B|113:158|84:218|167:206,1,150,10|10,1:2|1:2,0:0:0:0:
455,348,78846,6,0,L|477:241,1,100,4|0,1:0|3:0,0:0:0:0:
484,218,79139,2,0,P|433:226|389:200,1,100,10|0,1:2|3:0,0:0:0:0:
339,156,79431,2,0,P|374:222|368:296,1,150,10|10,1:2|1:2,0:0:0:0:
209,349,80017,6,0,L|104:332,1,100,10|0,1:2|3:0,0:0:0:0:
67,359,80309,2,0,P|64:310|44:264,1,100,10|0,1:2|3:0,0:0:0:0:
9,197,80602,2,0,P|61:247|135:248,1,150,10|10,1:2|1:2,0:0:0:0:
306,186,81188,6,0,L|285:83,1,100,10|0,1:2|3:0,0:0:0:0:
280,53,81480,2,0,P|322:78|371:81,1,100,10|0,1:2|3:0,0:0:0:0:
443,49,81773,2,0,P|398:108|393:182,1,150,10|10,1:2|1:2,0:0:0:0:
458,315,82358,5,6,1:3:0:0:
458,315,82944,1,6,1:3:0:0:
458,315,83529,1,6,1:3:0:0:
260,198,84114,6,0,L|185:212,1,75,2|0,0:0|0:0,0:0:0:0:
118,163,84407,6,0,L|108:110,2,50,2|8|4,3:2|3:0|3:0,0:0:0:0:
118,163,84700,1,2,3:2:0:0:
