osu file format v14

[General]
AudioFilename: audio.mp3
AudioLeadIn: 0
PreviewTime: 49505
Countdown: 0
SampleSet: Soft
StackLeniency: 0.7
Mode: 0
LetterboxInBreaks: 0
WidescreenStoryboard: 0

[Editor]
Bookmarks: 56017
DistanceSpacing: 0.8
BeatDivisor: 8
GridSize: 4
TimelineZoom: 4.199998

[Metadata]
Title:Sense (TV Size)
TitleUnicode:Sense (TV Size)
Artist:BAND-MAID
ArtistUnicode:BAND-MAID
Creator:HabiHolic
Version:Ex
Source:プラチナエンド
Tags:original3s lit120 Amats Am4ts -Amats- -Hakurei- platinum end anime op opening 2021 japanese rock jrock j-rock female vocals vocalist Froskya Revialink
BeatmapID:3553951
BeatmapSetID:1738864

[Difficulty]
HPDrainRate:6.5
CircleSize:4.2
OverallDifficulty:9
ApproachRate:9.5
SliderMultiplier:1.98
SliderTickRate:1

[Events]
//Background and Video events
Video,-498,"zz.mp4"
0,0,"BG.jpg",0,0
//Break Periods
//Storyboard Layer 0 (Background)
//Storyboard Layer 1 (Fail)
//Storyboard Layer 2 (Pass)
//Storyboard Layer 3 (Foreground)
//Storyboard Layer 4 (Overlay)
//Storyboard Sound Samples

[TimingPoints]
3895,379.746835443038,4,2,1,55,1,0
4270,375,4,2,1,55,1,0
4645,320.855614973262,4,2,1,55,1,0
4965,302.267002518892,4,2,1,55,1,0
5267,307.692307692308,4,2,1,55,1,0
5267,-250,4,2,1,55,0,0
6190,333.333333333334,4,2,1,55,1,0
6523,338.028169014085,4,2,1,55,1,0
6861,312.5,4,2,1,55,1,0
7486,354.505169867061,4,2,1,55,1,0
7839,421.052631578948,4,2,1,55,1,0
8260,413.793103448277,4,2,1,55,1,0
8673,428.571428571429,4,2,1,55,1,0
9101,312.5,4,2,1,55,1,0
9727,306.122448979592,4,2,1,55,1,0
10033,226.415094339623,4,2,1,55,1,0
10259,214.285714285714,4,2,1,55,1,0
10473,193.548387096774,4,2,1,55,1,0
10666,187.5,4,2,1,55,1,0
10853,181.818181818182,4,2,1,55,1,0
11034,179.10447761194,4,2,1,55,1,0
11213,181.818181818182,4,2,1,55,1,0
11394,193.548387096775,4,2,1,55,1,0
11587,200.000000000001,4,2,1,55,1,0
11787,210.526315789474,4,2,1,55,1,0
11997,240,4,2,1,55,1,0
12237,250,4,2,1,55,1,0
12487,375,4,2,1,55,1,0
12487,-200,4,2,1,55,0,0
12862,324.324324324324,4,2,1,55,1,0
12862,-333.333333333333,4,2,1,55,0,0
13186,400,4,2,1,55,1,0
13186,-500,4,2,1,55,0,0
13586,562.060889929743,4,2,1,55,1,0
14710,668.523676880223,4,2,1,55,1,0
16047,379.746835443038,4,2,1,55,1,0
19749,307.692307692308,4,2,1,45,1,0
19749,-333.333333333333,4,2,1,45,0,0
19979,-166.666666666667,4,2,1,45,0,0
20056,-166.666666666667,4,2,1,45,0,0
20310,292.682926829268,4,2,1,80,1,0
21480,-100,4,2,1,80,0,0
21627,-100,4,2,1,80,0,0
21773,-100,4,2,1,80,0,0
21774,-100,4,2,1,80,0,0
21919,-100,4,2,1,80,0,0
21920,-100,4,2,1,80,0,0
22066,-100,4,2,1,80,0,0
22797,-100,4,2,1,80,0,0
24114,-100,4,2,1,80,0,0
24115,-100,4,2,1,80,0,0
24188,-100,4,2,1,80,0,0
24262,-100,4,2,1,80,0,0
25139,-100,4,2,1,80,0,0
25285,-100,4,2,1,80,0,0
26163,-100,4,2,1,80,0,0
26309,-100,4,2,1,80,0,0
26310,-100,4,2,1,80,0,0
26456,-100,4,2,1,80,0,0
26457,-100,4,2,1,80,0,0
26602,-100,4,2,1,80,0,0
26603,-100,4,2,1,80,0,0
26749,-100,4,2,1,80,0,0
27480,-100,4,2,1,80,0,0
27627,-100,4,2,1,80,0,0
29675,-142.857142857143,4,2,1,70,0,0
29822,-142.857142857143,4,2,1,70,0,0
30919,-142.857142857143,4,2,1,70,0,0
30992,-142.857142857143,4,2,1,70,0,0
32017,-142.857142857143,4,2,1,70,0,0
32163,-142.857142857143,4,2,1,70,0,0
33919,-142.857142857143,4,2,1,70,0,0
34066,-142.857142857143,4,2,1,70,0,0
34505,-142.857142857143,4,2,1,70,0,0
37139,-142.857142857143,4,2,1,70,0,0
37870,-100,4,2,1,70,0,0
38017,-100,4,2,1,70,0,0
38309,-100,4,2,1,70,0,0
38602,-100,4,2,1,70,0,0
38749,-100,4,2,1,70,0,0
39041,-200,4,2,1,60,0,0
43431,-200,4,2,1,60,0,0
43724,-200,4,2,1,60,0,0
46651,-200,4,2,1,60,0,0
47236,-83.3333333333333,4,2,1,60,0,0
47529,-83.3333333333333,4,2,1,60,0,0
47822,-83.3333333333333,4,2,1,60,0,0
48114,-83.3333333333333,4,2,1,60,0,0
48407,-125,4,2,1,60,0,0
49578,-200,4,2,1,60,0,0
49870,-90.9090909090909,4,2,1,60,0,0
50163,-250,4,2,1,60,0,0
50456,-250,4,2,1,60,0,0
50749,-83.3333333333333,4,2,1,80,0,0
51188,-100,4,2,1,80,0,0
53163,-100,4,2,1,80,0,0
53236,-100,4,2,1,80,0,0
53309,-100,4,2,1,80,0,0
53382,-100,4,2,1,80,0,0
53749,-100,4,2,1,80,0,0
53822,-100,4,2,1,80,0,0
53895,-100,4,2,1,80,0,0
53968,-100,4,2,1,80,0,0
54334,-100,4,2,1,80,0,0
54407,-100,4,2,1,80,0,0
54480,-100,4,2,1,80,0,0
54553,-100,4,2,1,80,0,0
54627,-100,4,2,1,80,0,0
54700,-100,4,2,1,80,0,0
54773,-100,4,2,1,80,0,0
54846,-100,4,2,1,80,0,0
54919,-100,4,2,1,80,0,0
54992,-100,4,2,1,80,0,0
55066,-100,4,2,1,80,0,0
55139,-100,4,2,1,80,0,0
55285,-100,4,2,1,80,0,0
57553,-100,4,2,1,80,0,0
57626,-100,4,2,1,80,0,0
57700,-100,4,2,1,80,0,0
57773,-100,4,2,1,80,0,0
58944,-100,4,2,1,80,0,0
59090,-100,4,2,1,80,0,0
59383,-100,4,2,1,80,0,0
59675,-100,4,2,1,80,0,0
60114,-125,4,2,1,80,0,0
64505,-125,4,2,1,80,0,0
64797,-125,4,2,1,80,0,0
68309,-100,4,2,1,80,0,0
69480,-100,4,2,1,80,0,0
69627,-100,4,2,1,80,0,0
69773,-100,4,2,1,80,0,0
70651,-100,4,2,1,80,0,0
70797,-100,4,2,1,80,0,0
70944,-100,4,2,1,80,0,0
71090,-100,4,2,1,80,0,0
71236,-100,4,2,1,80,0,0
71968,-100,4,2,1,80,0,0
72114,-100,4,2,1,80,0,0
73285,-100,4,2,1,80,0,0
73358,-100,4,2,1,80,0,0
73431,-100,4,2,1,80,0,0
74309,-100,4,2,1,80,0,0
74456,-100,4,2,1,80,0,0
75334,-100,4,2,1,80,0,0
75480,-100,4,2,1,80,0,0
75627,-100,4,2,1,80,0,0
75773,-100,4,2,1,80,0,0
75919,-100,4,2,1,80,0,0
76651,-100,4,2,1,80,0,0
76797,-100,4,2,1,80,0,0
78846,-76.9230769230769,4,2,1,85,0,0
81773,-76.9230769230769,4,2,1,85,0,0
82358,-76.9230769230769,4,2,1,60,0,0
82944,-76.9230769230769,4,2,1,60,0,0
83529,-76.9230769230769,4,2,1,60,0,0
84114,-76.9230769230769,4,2,1,60,0,0
84895,-76.9230769230769,4,2,1,60,0,0

[Colours]
Combo1 : 191,191,191
Combo2 : 186,116,116
Combo3 : 117,180,255
Combo4 : 247,115,135

[HitObjects]
48,108,3894,5,4,1:0:0:0:
130,70,4270,1,2,0:0:0:0:
122,160,4645,1,2,0:0:0:0:
48,108,4965,1,2,0:0:0:0:
7,197,5267,6,0,L|26:275,2,79.2,6|2|2,3:0|0:0|0:0,0:0:0:0:
48,108,6190,1,2,0:0:0:0:
137,153,6523,5,4,3:0:0:0:
194,77,6861,1,2,0:0:0:0:
275,129,7173,1,2,0:0:0:0:
331,52,7486,1,2,0:0:0:0:
414,109,7839,5,6,3:0:0:0:
414,109,8260,1,2,0:0:0:0:
488,180,8673,1,6,3:0:0:0:
488,180,9101,1,2,0:0:0:0:
417,243,9726,5,6,3:0:0:0:
417,243,10033,1,2,0:0:0:0:
336,193,10259,1,2,0:0:0:0:
331,286,10473,1,2,0:0:0:0:
247,229,10666,5,2,0:0:0:0:
190,314,10853,1,2,0:0:0:0:
95,272,11034,1,2,0:0:0:0:
95,272,11213,1,2,0:0:0:0:
23,348,11394,5,2,0:0:0:0:
23,348,11587,1,2,0:0:0:0:
95,272,11787,1,2,0:0:0:0:
95,272,11997,1,2,0:0:0:0:
23,198,12237,1,2,0:0:0:0:
97,124,12487,6,0,P|126:145|162:152,1,74.25,10|0,3:0|0:0,0:0:0:0:
197,228,12862,6,0,P|216:219|232:203,1,44.5499986404419,6|0,3:0|0:0,0:0:0:0:
312,195,13186,6,0,P|308:180|302:164,1,29.7,10|0,3:0|0:0,0:0:0:0:
257,96,13586,5,6,3:0:0:0:
257,96,14710,1,6,3:0:0:0:
257,96,16047,1,4,1:0:0:0:
256,192,16141,12,0,19084,0:0:0:0:
46,89,19749,6,0,L|37:56,1,29.699999093628,2|2,0:0|0:0,0:0:0:0:
60,187,20056,2,0,P|83:168|112:165,1,59.3999981872559,2|0,0:0|0:0,0:0:0:0:
319,280,20310,6,0,B|225:260|225:260|220:261|220:261|123:240,1,198,4|8,1:0|1:2,0:0:0:0:
205,111,20749,1,0,3:0:0:0:
392,352,20895,2,0,P|416:310|415:261,1,99,2|2,3:2|3:2,0:0:0:0:
277,39,21188,2,0,L|298:139,1,99,10|0,1:2|3:0,0:0:0:0:
237,358,21480,5,2,3:2:0:0:
388,160,21627,1,0,3:0:0:0:
141,164,21773,2,0,P|132:214|146:261,1,99,8|0,1:2|3:0,0:0:0:0:
255,207,22066,1,0,3:2:0:0:
44,287,22212,1,0,3:0:0:0:
334,370,22358,2,0,L|351:268,1,99,10|0,1:2|3:0,0:0:0:0:
283,48,22651,6,0,B|262:12|201:5|172:39|172:39|159:66|114:78,1,198,2|8,3:2|1:2,0:0:0:0:
34,46,23090,1,0,3:0:0:0:
195,212,23236,2,0,L|205:163,2,49.5,2|8|0,3:2|1:2|3:0,0:0:0:0:
20,139,23529,2,0,L|42:239,1,99,10|0,1:2|3:0,0:0:0:0:
136,358,23822,5,2,3:2:0:0:
136,358,23895,1,8,1:2:0:0:
136,358,23968,1,0,3:2:0:0:
216,124,24114,1,8,1:2:0:0:
40,314,24261,1,2,3:2:0:0:
285,246,24407,1,2,3:2:0:0:
285,246,24480,1,10,1:2:0:0:
285,246,24553,2,0,L|295:193,1,49.5,0|0,3:0|3:0,0:0:0:0:
202,30,24700,5,10,1:2:0:0:
174,70,24773,1,4,3:0:0:0:
131,94,24846,1,4,3:0:0:0:
82,95,24919,1,4,3:0:0:0:
38,74,24992,6,0,L|75:268,1,198,4|8,1:0|1:2,0:0:0:0:
162,358,25431,1,0,3:0:0:0:
269,178,25578,2,0,P|222:162|175:176,1,99,2|2,3:2|3:2,0:0:0:0:
350,355,25870,2,0,L|368:253,1,99,10|0,1:2|3:0,0:0:0:0:
287,60,26163,6,0,B|266:22|220:15|184:38|184:38|166:77|123:82,1,198,2|8,3:2|1:2,0:0:0:0:
41,32,26602,1,2,3:2:0:0:
140,276,26749,1,2,3:2:0:0:
303,53,26895,1,0,3:0:0:0:
19,198,27041,2,0,L|124:181,1,99,10|0,1:2|3:0,0:0:0:0:
399,119,27334,6,0,B|424:103|440:89|440:89|404:129|396:176|417:234,1,198,2|8,3:2|1:2,0:0:0:0:
486,297,27773,1,0,3:0:0:0:
299,100,27919,1,2,3:2:0:0:
299,100,27992,1,8,1:2:0:0:
299,100,28066,1,0,3:0:0:0:
279,366,28212,1,10,1:2:0:0:
489,172,28358,1,0,3:0:0:0:
213,303,28505,6,0,P|187:323|157:334,2,66,10|0|0,1:2|3:0|3:0,0:0:0:0:
124,226,28797,6,0,P|93:213|68:192,2,66,8|0|0,1:2|3:0|3:0,0:0:0:0:
148,123,29090,6,0,P|143:90|148:57,2,66,8|0|0,1:2|3:0|3:0,0:0:0:0:
248,87,29383,6,0,P|274:66|304:55,2,66,10|0|0,1:2|3:0|3:0,0:0:0:0:
303,192,29675,5,4,1:0:0:0:
228,241,29822,2,0,L|90:217,1,138.599995770264,2|2,3:2|0:0,0:0:0:0:
83,54,30261,1,2,3:2:0:0:
175,16,30407,2,0,P|181:51|176:85,1,69.2999978851319,2|10,3:2|1:2,0:0:0:0:
7,171,30700,6,0,P|74:166|129:206,1,138.599995770264,2|2,0:0|3:2,0:0:0:0:
193,286,31139,1,8,1:2:0:0:
277,227,31285,2,0,P|285:194|289:160,1,69.2999978851319,2|0,0:0|3:0,0:0:0:0:
220,27,31578,2,0,P|212:60|208:94,1,69.2999978851319,2|8,3:2|1:2,0:0:0:0:
289,160,31870,1,0,0:0:0:0:
189,205,32017,6,0,L|120:190,1,69.2999978851319,2|2,3:2|3:2,0:0:0:0:
43,246,32309,1,8,1:2:0:0:
121,348,32456,2,0,L|260:329,1,138.599995770264,2|2,0:0|3:2,0:0:0:0:
258,329,32895,1,8,1:2:0:0:
350,363,33041,2,0,P|361:331|361:297,1,69.2999978851319,2|0,0:0|3:0,0:0:0:0:
275,174,33334,1,2,3:2:0:0:
275,174,33480,2,0,L|291:243,1,69.2999978851319,10|0,1:2|0:0,0:0:0:0:
375,183,33773,1,0,3:0:0:0:
193,234,33919,1,0,3:0:0:0:
242,42,34066,5,8,1:2:0:0:
242,42,34139,1,8,3:0:0:0:
242,42,34212,1,4,3:0:0:0:
242,42,34285,1,4,3:0:0:0:
242,42,34358,1,4,1:0:0:0:
164,98,34505,2,0,L|194:239,1,138.599995770264,2|2,3:2|0:0,0:0:0:0:
347,357,34944,2,0,P|353:323|355:289,1,69.2999978851319,2|2,3:2|3:2,0:0:0:0:
292,135,35236,2,0,P|285:169|283:203,1,69.2999978851319,10|2,1:2|0:0,0:0:0:0:
389,186,35529,5,2,3:2:0:0:
247,304,35675,2,0,L|179:290,2,69.2999978851319,2|8|2,3:2|1:2|0:0,0:0:0:0:
310,232,36114,1,2,3:2:0:0:
153,364,36261,2,0,L|124:226,1,138.599995770264,2|2,3:2|0:0,0:0:0:0:
181,145,36700,6,0,B|262:144|234:180|317:181,1,138.599995770264,2|10,3:2|1:2,0:0:0:0:
436,124,37139,2,0,L|363:108,1,69.2999978851319,2|0,0:0|0:0,0:0:0:0:
311,39,37431,1,2,3:2:0:0:
478,186,37578,2,0,L|503:74,1,103.949996827698,10|0,1:2|0:0,0:0:0:0:
452,21,37870,5,4,1:0:0:0:
373,234,38017,1,2,3:2:0:0:
220,76,38163,5,8,1:2:0:0:
461,191,38310,1,2,3:2:0:0:
261,308,38456,5,10,1:2:0:0:
372,72,38602,1,0,3:0:0:0:
116,102,38749,2,0,L|124:150,2,49.5,10|8|4,1:2|3:0|3:0,0:0:0:0:
134,338,39041,6,0,P|176:313|225:315,1,99,4|0,1:0|0:0,0:0:0:0:
273,243,39480,1,2,0:0:0:0:
273,243,39627,2,0,P|304:280|311:328,1,99,2|0,3:2|3:0,0:0:0:0:
191,191,40212,6,0,L|206:90,1,99,2|0,0:0|3:0,0:0:0:0:
110,175,40651,1,2,0:0:0:0:
110,175,40797,2,0,L|125:74,1,99,2|0,3:2|0:0,0:0:0:0:
423,29,41383,6,0,L|476:37,1,49.5,2|0,3:2|0:0,0:0:0:0:
347,76,41675,2,0,L|299:69,1,49.5,2|0,3:2|0:0,0:0:0:0:
218,88,41968,1,2,3:2:0:0:
288,140,42114,2,0,P|299:104|298:68,1,74.25,2|0,0:0|0:0,0:0:0:0:
242,10,42407,6,0,P|197:29|148:30,1,99,2|2,3:2|0:0,0:0:0:0:
148,30,42846,1,0,3:0:0:0:
60,21,42992,2,0,L|73:71,1,49.5,2|0,3:2|3:0,0:0:0:0:
20,139,43285,1,2,3:2:0:0:
102,185,43431,1,8,3:0:0:0:
102,185,43505,1,8,3:0:0:0:
102,185,43578,2,0,L|134:176,1,24.75,4|4,3:0|3:0,0:0:0:0:
185,111,43724,6,0,P|250:145|323:136,1,148.5,4|2,1:0|0:0,0:0:0:0:
341,44,44309,2,0,P|276:10|203:19,1,148.5,6|2,0:0|0:0,0:0:0:0:
120,69,44895,6,0,L|151:218,1,148.5,6|2,0:0|0:0,0:0:0:0:
217,279,45480,2,0,B|296:262|283:309|361:293,1,148.5,6|2,0:0|0:0,0:0:0:0:
428,229,46066,2,0,L|451:132,3,99,6|6|6|6,0:0|0:0|0:0|0:0,0:0:0:0:
350,30,47236,6,0,P|285:87|200:71,1,178.199994561768,10|0,1:2|3:0,0:0:0:0:
127,36,47529,6,0,B|99:14|65:24|53:58|53:58|83:153,1,178.199994561768,10|0,1:2|0:0,0:0:0:0:
37,229,47822,6,0,B|131:208|111:279|206:255,1,178.199994561768,10|0,1:2|3:0,0:0:0:0:
285,202,48114,6,0,P|368:194|402:270,1,178.199994561768,10|0,1:2|0:0,0:0:0:0:
321,313,48407,5,2,0:0:0:0:
321,313,48480,1,0,0:0:0:0:
321,313,48553,2,0,L|328:272,1,39.6,0|0,0:0|0:0,0:0:0:0:
285,202,48700,1,2,0:0:0:0:
285,202,48773,1,0,0:0:0:0:
285,202,48846,2,0,L|292:161,1,39.6,2|0,0:0|0:0,0:0:0:0:
218,106,48992,6,0,L|225:65,3,39.6,2|0|2|0,0:0|0:0|0:0|0:0,0:0:0:0:
130,23,49285,2,0,L|136:62,3,39.6,0|0|2|0,0:0|0:0|0:0|0:0,0:0:0:0:
112,152,49578,6,0,P|80:152|46:174,1,74.25,2|0,0:0|0:0,0:0:0:0:
41,254,49870,6,0,P|121:257|179:202,1,163.350004985047,2|0,0:0|0:0,0:0:0:0:
213,131,50163,6,0,L|202:88,1,39.6,2|0,0:0|0:0,0:0:0:0:
291,114,50456,2,0,L|280:71,1,39.6,2|0,0:0|0:0,0:0:0:0:
500,172,50749,6,0,B|439:189|439:189|397:216|397:216|394:228|394:228|350:265|350:265|288:278,1,237.599992749024,4|10,1:0|1:2,0:0:0:0:
147,197,51188,1,0,3:0:0:0:
326,0,51334,2,0,P|364:33|374:78,1,99,2|0,3:2|3:0,0:0:0:0:
242,156,51627,2,0,P|204:123|194:78,1,99,10|0,1:2|3:0,0:0:0:0:
490,194,51919,6,0,B|428:160|380:204|380:204|365:249|320:257,1,198,0|10,3:0|1:2,0:0:0:0:
139,164,52358,1,0,3:0:0:0:
293,28,52505,2,0,P|317:72|320:121,1,99,2|0,3:2|3:0,0:0:0:0:
195,253,52797,1,10,1:2:0:0:
404,148,52944,1,0,3:0:0:0:
182,48,53090,6,0,P|135:66|86:73,1,99,0|0,3:0|3:0,0:0:0:0:
34,278,53383,2,0,P|98:243|171:244,1,148.5,10|0,1:2|0:0,0:0:0:0:
244,307,53675,1,2,3:2:0:0:
186,61,53822,1,0,3:0:0:0:
393,128,53968,1,10,1:2:0:0:
171,244,54114,1,0,3:0:0:0:
375,25,54261,6,0,P|424:29|468:50,1,99,2|0,3:2|3:0,0:0:0:0:
286,216,54553,2,0,L|265:107,1,99,10|0,1:2|3:0,0:0:0:0:
245,14,54846,1,2,3:2:0:0:
161,187,54992,1,0,3:0:0:0:
394,123,55139,1,8,1:2:0:0:
394,123,55212,1,0,0:0:0:0:
394,123,55285,2,0,L|447:134,1,49.5,8|8,1:2|1:2,0:0:0:0:
489,256,55431,6,0,P|416:251|357:295,1,148.5,4|0,1:0|0:0,0:0:0:0:
264,259,55724,2,0,P|263:308|279:354,1,99,10|0,1:2|3:0,0:0:0:0:
391,138,56017,2,0,P|391:88|375:42,1,99,2|0,3:2|0:0,0:0:0:0:
127,130,56309,6,0,B|195:118|195:118|201:119|201:119|275:105,1,148.5,10|0,1:2|0:0,0:0:0:0:
291,102,56602,1,0,3:0:0:0:
101,34,56749,1,0,3:0:0:0:
161,239,56895,2,0,L|261:216,1,99,10|0,1:2|0:0,0:0:0:0:
415,34,57188,6,0,B|450:16|492:36|495:77|495:77|456:158,1,198,10|0,1:2|0:0,0:0:0:0:
388,317,57627,1,2,3:2:0:0:
234,109,57773,5,0,3:0:0:0:
473,249,57919,1,0,3:0:0:0:
258,340,58066,1,10,1:2:0:0:
409,83,58212,1,2,3:2:0:0:
166,256,58358,6,0,L|272:236,1,99,0|0,3:2|3:0,0:0:0:0:
499,83,58651,2,0,L|398:100,1,99,10|2,1:2|3:2,0:0:0:0:
267,58,58944,5,8,1:2:0:0:
324,310,59090,1,0,3:0:0:0:
114,245,59236,5,10,1:2:0:0:
391,153,59383,1,2,3:2:0:0:
172,23,59529,2,0,P|182:71|191:120,1,99,8|2,1:2|3:2,0:0:0:0:
328,288,59822,1,10,1:2:0:0:
328,288,59895,1,0,3:0:0:0:
328,288,59968,2,0,L|338:236,1,49.5,0|0,3:0|3:0,0:0:0:0:
356,151,60114,5,4,1:0:0:0:
356,151,60261,1,0,3:0:0:0:
275,95,60407,1,0,3:0:0:0:
241,183,60553,1,0,3:0:0:0:
251,8,60700,2,0,P|184:50|106:52,1,158.4,14|0,1:2|3:0,0:0:0:0:
106,52,61139,1,0,3:0:0:0:
28,178,61285,5,2,1:2:0:0:
28,178,61431,1,2,3:2:0:0:
25,260,61578,1,2,3:2:0:0:
97,224,61725,1,2,3:2:0:0:
127,55,61870,2,0,L|148:134,1,79.2,10|0,1:2|3:0,0:0:0:0:
206,34,62163,2,0,L|227:113,1,79.2,2|2,3:2|3:2,0:0:0:0:
432,192,62456,6,0,P|376:139|300:150,1,158.4,6|2,1:2|3:2,0:0:0:0:
229,195,62895,1,0,3:0:0:0:
289,311,63041,2,0,L|306:230,1,79.2,10|0,1:2|3:0,0:0:0:0:
248,29,63334,2,0,L|231:106,1,79.2,2|0,3:2|3:0,0:0:0:0:
156,265,63627,5,2,1:2:0:0:
156,265,63773,1,0,3:0:0:0:
91,335,63919,2,0,P|70:301|64:262,1,79.2,2|0,3:2|3:0,0:0:0:0:
239,238,64212,1,10,1:2:0:0:
239,238,64285,1,8,3:0:0:0:
239,238,64358,2,0,L|251:282,1,39.6,8|8,3:0|3:0,0:0:0:0:
316,217,64505,2,0,L|328:261,2,39.6,4|4|0,3:0|3:0|3:0,0:0:0:0:
254,130,64797,6,0,B|166:118|191:166|101:157,2,158.4,4|2|10,1:0|3:2|1:2,0:0:0:0:
254,130,65529,1,0,3:0:0:0:
328,197,65675,2,0,P|345:161|347:122,1,79.2,2|0,3:2|3:0,0:0:0:0:
271,26,65968,6,0,B|216:36|216:36|209:39|209:39|153:49,1,118.8,2|0,3:2|0:0,0:0:0:0:
68,30,66261,2,0,P|79:68|88:106,1,79.2,2|0,3:2|3:0,0:0:0:0:
53,303,66553,2,0,P|44:265|33:227,1,79.2,10|0,1:2|3:0,0:0:0:0:
187,192,66846,2,0,P|246:196|295:164,1,118.8,2|0,3:2|0:0,0:0:0:0:
329,91,67139,5,2,3:2:0:0:
329,91,67285,1,0,3:0:0:0:
201,26,67431,2,0,L|223:106,1,79.2,0|0,3:0|3:0,0:0:0:0:
330,264,67724,2,0,P|390:216|465:232,1,158.4,8|2,1:2|3:2,0:0:0:0:
465,232,68163,1,0,3:0:0:0:
358,78,68309,5,10,1:2:0:0:
328,100,68382,1,8,3:0:0:0:
293,111,68455,1,8,3:0:0:0:
256,108,68528,1,8,3:0:0:0:
223,92,68602,5,10,1:2:0:0:
154,67,68675,1,4,3:0:0:0:
89,97,68748,1,4,3:0:0:0:
63,165,68821,1,4,3:0:0:0:
91,231,68895,6,0,L|8:249,2,74.25,10|8|8,3:2|3:0|3:0,0:0:0:0:
159,288,69188,5,6,3:0:0:0:
183,292,69261,1,4,3:0:0:0:
207,297,69334,1,4,3:0:0:0:
231,301,69407,1,4,3:0:0:0:
259,310,69480,6,0,L|286:153,1,148.5,4|0,1:0|0:0,0:0:0:0:
272,90,69773,2,0,P|322:95|355:130,1,99,8|0,1:2|3:0,0:0:0:0:
194,155,70066,1,2,3:2:0:0:
369,32,70212,1,2,3:2:0:0:
169,59,70358,2,0,L|195:161,1,99,10|0,1:2|3:0,0:0:0:0:
162,355,70651,6,0,B|256:337|256:337|261:338|261:338|361:315,1,198,2|8,3:2|1:2,0:0:0:0:
437,223,71090,1,0,3:0:0:0:
299,112,71236,2,0,P|286:160|290:209,1,99,0|0,3:2|3:0,0:0:0:0:
439,310,71529,1,10,1:2:0:0:
185,204,71675,1,0,3:0:0:0:
437,6,71822,6,0,B|455:52|455:52|446:96|446:96|436:106|436:106|419:150|419:150|431:199,1,198,2|8,3:2|1:2,0:0:0:0:
279,339,72261,1,0,3:0:0:0:
212,100,72407,1,2,3:2:0:0:
212,100,72480,1,8,1:2:0:0:
212,100,72553,1,0,3:0:0:0:
77,300,72700,2,0,L|178:278,1,99,10|0,1:2|0:0,0:0:0:0:
492,148,72992,6,0,P|442:95|369:92,1,148.5,2|0,3:2|0:0,0:0:0:0:
290,36,73285,2,0,P|277:83|283:134,1,99,8|2,1:2|3:2,0:0:0:0:
383,335,73578,1,2,3:2:0:0:
383,335,73651,1,10,1:2:0:0:
383,335,73724,2,0,L|393:279,1,49.5,0|0,3:0|3:0,0:0:0:0:
88,171,73870,1,10,1:2:0:0:
88,171,73944,1,4,3:0:0:0:
88,171,74017,1,4,3:0:0:0:
88,171,74090,1,4,3:0:0:0:
88,171,74163,6,0,B|183:152|183:152|189:152|189:152|281:131,1,198,4|8,1:0|1:2,0:0:0:0:
200,48,74602,1,0,3:0:0:0:
151,260,74749,2,0,L|164:307,2,49.5,2|0|2,3:2|0:0|3:2,0:0:0:0:
291,52,75041,1,10,1:2:0:0:
65,200,75188,1,0,3:0:0:0:
332,310,75334,6,0,P|344:262|343:212,1,99,2|0,3:2|3:0,0:0:0:0:
163,20,75627,2,0,L|185:128,1,99,8|2,1:2|3:2,0:0:0:0:
170,356,75919,1,2,3:2:0:0:
298,107,76066,1,0,3:0:0:0:
46,275,76212,2,0,L|154:251,1,99,10|0,1:2|3:0,0:0:0:0:
425,110,76505,6,0,B|394:68|341:77|341:77|324:98|298:106,1,148.5,2|0,3:2|0:0,0:0:0:0:
230,46,76797,2,0,P|207:91|215:138,1,99,10|0,1:2|3:0,0:0:0:0:
271,322,77090,1,2,3:2:0:0:
271,322,77163,1,8,1:2:0:0:
271,322,77236,1,0,3:0:0:0:
441,215,77383,2,0,P|394:199|346:214,1,99,10|0,1:2|3:0,0:0:0:0:
194,157,77675,6,0,L|180:90,2,66,10|0|0,1:2|3:0|3:0,0:0:0:0:
111,173,77968,2,0,L|97:106,2,66,10|0|0,1:2|3:0|3:0,0:0:0:0:
173,262,78261,1,10,1:2:0:0:
257,233,78358,1,0,3:0:0:0:
315,297,78456,1,0,3:0:0:0:
392,344,78553,1,10,1:2:0:0:
472,306,78650,1,0,3:0:0:0:
472,216,78748,1,0,3:0:0:0:
394,165,78846,6,0,L|409:77,2,85.7999960723879,4|0|0,1:0|3:0|3:0,0:0:0:0:
297,276,79139,2,0,L|282:360,2,85.7999960723879,10|0|0,1:2|3:0|3:0,0:0:0:0:
311,103,79431,6,0,L|326:15,2,85.7999960723879,10|0|0,1:2|3:0|3:0,0:0:0:0:
208,291,79724,2,0,L|193:375,2,85.7999960723879,10|0|0,1:2|3:0|3:0,0:0:0:0:
28,88,80017,5,10,1:2:0:0:
104,51,80114,1,0,3:0:0:0:
186,67,80212,1,0,3:0:0:0:
244,130,80309,5,10,1:2:0:0:
252,213,80407,1,0,3:0:0:0:
316,269,80504,1,0,3:0:0:0:
400,276,80602,5,10,1:2:0:0:
473,233,80699,1,0,3:0:0:0:
506,155,80797,1,0,3:0:0:0:
487,73,80894,5,10,1:2:0:0:
423,17,80992,1,0,3:0:0:0:
341,9,81090,1,0,3:0:0:0:
276,68,81188,6,0,L|297:154,2,85.7999960723879,10|0|0,1:2|3:0|3:0,0:0:0:0:
257,379,81480,2,0,L|236:293,2,85.7999960723879,10|0|0,1:2|3:0|3:0,0:0:0:0:
165,5,81773,6,0,L|186:91,2,85.7999960723879,10|0|0,1:2|3:0|3:0,0:0:0:0:
349,379,82066,2,0,L|328:293,2,85.7999960723879,10|0|0,1:2|3:0|3:0,0:0:0:0:
378,87,82358,5,6,1:3:0:0:
378,87,82944,1,6,1:3:0:0:
378,87,83529,1,6,1:3:0:0:
34,225,84114,6,0,B|-1:195|-3:149|38:109|38:109|41:144|76:170,1,193.049991162873,2|2,0:0|0:0,0:0:0:0:
148,187,84407,6,0,L|231:169,2,85.7999960723879,2|8|4,3:2|3:0|3:0,0:0:0:0:
129,104,84700,5,2,3:2:0:0:
