osu file format v14

[General]
AudioFilename: audio.mp3
AudioLeadIn: 0
PreviewTime: 49505
Countdown: 0
SampleSet: Soft
StackLeniency: 0.7
Mode: 0
LetterboxInBreaks: 0
WidescreenStoryboard: 1

[Editor]
Bookmarks: 56017
DistanceSpacing: 1.1
BeatDivisor: 8
GridSize: 4
TimelineZoom: 1.6

[Metadata]
Title:Sense (TV Size)
TitleUnicode:Sense (TV Size)
Artist:BAND-MAID
ArtistUnicode:BAND-MAID
Creator:HabiHolic
Version:Easy
Source:プラチナエンド
Tags:original3s lit120 Amats Am4ts -Amats- -Hakurei- platinum end anime op opening 2021 japanese rock jrock j-rock female vocals vocalist Froskya Revialink
BeatmapID:3590171
BeatmapSetID:1738864

[Difficulty]
HPDrainRate:2
CircleSize:2
OverallDifficulty:2
ApproachRate:3
SliderMultiplier:0.9
SliderTickRate:1

[Events]
//Background and Video events
Video,-498,"zz.mp4"
0,0,"BG.jpg",0,0
//Break Periods
//Storyboard Layer 0 (Background)
//Storyboard Layer 1 (Fail)
//Storyboard Layer 2 (Pass)
//Storyboard Layer 3 (Foreground)
//Storyboard Layer 4 (Overlay)
//Storyboard Sound Samples

[TimingPoints]
3895,379.746835443038,4,2,1,55,1,0
4270,375,4,2,1,55,1,0
4645,320.855614973262,4,2,1,55,1,0
4965,302.267002518892,4,2,1,55,1,0
5267,307.692307692308,4,2,1,55,1,0
6190,333.333333333334,4,2,1,55,1,0
6523,338.028169014085,4,2,1,55,1,0
6861,312.5,4,2,1,55,1,0
7486,354.505169867061,4,2,1,55,1,0
7839,421.052631578948,4,2,1,55,1,0
8260,413.793103448277,4,2,1,55,1,0
8673,428.571428571429,4,2,1,55,1,0
9101,312.5,4,2,1,55,1,0
9727,306.122448979592,4,2,1,55,1,0
10033,226.415094339623,4,2,1,55,1,0
10259,214.285714285714,4,2,1,55,1,0
10473,193.548387096774,4,2,1,55,1,0
10666,187.5,4,2,1,55,1,0
10853,181.818181818182,4,2,1,55,1,0
11034,179.10447761194,4,2,1,55,1,0
11213,181.818181818182,4,2,1,55,1,0
11394,193.548387096775,4,2,1,55,1,0
11587,200.000000000001,4,2,1,55,1,0
11787,210.526315789474,4,2,1,55,1,0
11997,240,4,2,1,55,1,0
12237,250,4,2,1,55,1,0
12487,375,4,2,1,55,1,0
12862,324.324324324324,4,2,1,55,1,0
13186,400,4,2,1,55,1,0
13586,562.060889929743,4,2,1,55,1,0
14710,668.523676880223,4,2,1,55,1,0
16047,379.746835443038,4,2,1,55,1,0
19749,307.692307692308,4,2,1,45,1,0
20310,292.682926829268,4,2,1,80,1,0
29675,-100,4,2,1,50,0,0
37870,-100,4,2,1,70,0,0
39041,-133.333333333333,4,2,1,50,0,0
50749,-100,4,2,1,80,0,0
60114,-100,4,2,1,50,0,0
69480,-100,4,2,1,80,0,0
84114,-100,4,2,1,50,0,0

[Colours]
Combo1 : 214,187,105
Combo2 : 242,172,172
Combo3 : 231,124,124
Combo4 : 128,205,234
Combo5 : 134,138,223
Combo6 : 233,225,154

[HitObjects]
256,192,16047,12,0,19084,0:0:0:0:
34,210,20310,6,0,P|83:282|168:302,1,180,4|2,1:0|3:2,0:0:0:0:
256,255,21188,1,10,1:2:0:0:
340,305,21480,2,0,P|425:285|474:212,1,180,2|0,3:2|3:2,0:0:0:0:
443,116,22358,1,10,1:2:0:0:
382,35,22651,6,0,P|338:31|298:50,1,90,2|8,3:2|1:2,0:0:0:0:
242,131,23236,2,0,L|148:115,1,90,2|10,3:2|1:2,0:0:0:0:
62,155,23822,2,0,P|25:99|25:32,2,135,2|2|10,3:2|3:2|1:2,0:0:0:0:
109,240,24992,6,0,P|197:234|263:291,1,180,4|2,1:0|3:2,0:0:0:0:
346,346,25870,1,10,1:2:0:0:
429,292,26163,2,0,B|445:222|445:222|464:193|464:193|483:112,1,180,2|2,3:2|3:2,0:0:0:0:
429,36,27041,1,10,1:2:0:0:
332,61,27334,6,0,P|288:61|249:83,1,90,2|8,3:2|1:2,0:0:0:0:
160,39,27919,2,0,P|136:77|136:121,1,90,2|10,3:2|1:2,0:0:0:0:
147,220,28505,2,0,L|4:199,2,135,10|8|10,1:2|3:0|1:2,0:0:0:0:
213,306,29675,6,0,L|401:286,1,180,4|2,1:0|3:2,0:0:0:0:
473,221,30553,1,10,1:2:0:0:
473,221,30846,2,0,P|496:273|478:353,2,135,0|2|8,3:0|0:0|1:2,0:0:0:0:
406,147,32017,6,0,B|303:132|343:200|231:190,1,180,2|0,3:2|3:0,0:0:0:0:
153,138,32895,1,8,1:2:0:0:
70,192,33188,2,0,L|92:282,2,90,0|10|0,3:0|1:2|3:0,0:0:0:0:
45,95,34066,1,8,1:2:0:0:
120,30,34358,6,0,P|207:33|271:94,1,180,4|2,1:0|3:2,0:0:0:0:
364,60,35236,1,10,1:2:0:0:
364,59,35529,2,0,P|376:147|334:225,1,180,2|2,3:2|3:2,0:0:0:0:
251,280,36407,1,8,1:2:0:0:
162,234,36700,2,0,B|105:243|105:243|68:259|61:304,2,135,2|2|10,3:2|3:0|0:0,0:0:0:0:
240,174,37870,6,0,P|222:133|223:88,1,90
288,13,38456,1,0,0:0:0:0:
433,40,39041,6,0,P|407:102|412:168,1,135.000005149842,4|2,1:0|3:2,0:0:0:0:
369,310,40212,2,0,P|310:278|244:285,1,135.000005149842,2|2,0:0|3:2,0:0:0:0:
109,347,41383,6,0,L|76:216,1,135.000005149842,2|2,3:2|3:2,0:0:0:0:
47,147,42261,1,0,0:0:0:0:
96,91,42553,2,0,P|145:134|211:134,1,135.000005149842,0|0,3:0|3:0,0:0:0:0:
285,124,43431,1,8,3:0:0:0:
345,166,43724,6,0,L|372:31,2,135.000005149842,4|6|6,1:0|0:0|0:0,0:0:0:0:
258,287,45480,1,6,0:0:0:0:
114,247,46066,6,0,L|79:112,1,135.000005149842,6|6,0:0|0:0,0:0:0:0:
116,51,46944,1,6,0:0:0:0:
180,84,47236,2,0,P|214:89|246:80,1,67.5000025749208,10|10,1:2|1:2,0:0:0:0:
309,39,47822,2,0,P|342:36|373:48,1,67.5000025749208,10|10,1:2|1:2,0:0:0:0:
437,87,48407,5,2,0:0:0:0:
472,346,50749,6,0,P|482:303|469:258,1,90,4|10,1:0|1:2,0:0:0:0:
414,177,51334,1,2,3:2:0:0:
324,220,51627,2,0,B|221:220|265:275|156:273,1,180,10|10,1:2|1:2,0:0:0:0:
81,209,52505,1,2,3:2:0:0:
43,117,52797,1,10,1:2:0:0:
113,41,53090,6,0,P|201:44|253:113,1,180,0|2,3:0|3:2,0:0:0:0:
295,203,53968,1,10,1:2:0:0:
384,156,54261,2,0,L|489:170,1,90,2|10,3:2|1:2,0:0:0:0:
464,266,54846,2,0,L|374:254,1,90,2|8,3:2|1:2,0:0:0:0:
295,203,55431,6,0,P|236:268|149:267,1,180,4|2,1:0|3:2,0:0:0:0:
75,201,56309,1,10,1:2:0:0:
116,111,56602,2,0,B|225:109|172:53|283:51,1,180,0|2,3:0|3:2,0:0:0:0:
374,22,57480,1,10,1:2:0:0:
455,79,57773,6,0,L|436:174,1,90,0|10,3:0|1:2,0:0:0:0:
506,237,58358,2,0,L|487:332,1,90,0|10,3:2|1:2,0:0:0:0:
390,341,58944,2,0,P|351:319|306:321,1,90,8|10,1:2|1:2,0:0:0:0:
210,345,59529,1,8,1:2:0:0:
123,296,59822,1,10,1:2:0:0:
36,349,60114,6,0,L|3:163,1,180,4|14,1:0|1:2,0:0:0:0:
157,45,61285,2,0,P|186:80|226:100,1,90,2|2,1:2|3:2,0:0:0:0:
218,199,61870,2,0,P|262:191|299:166,1,90,10|2,1:2|3:2,0:0:0:0:
381,111,62456,6,0,P|328:181|325:270,1,180,6|10,1:2|1:2,0:0:0:0:
260,345,63334,1,2,3:2:0:0:
173,292,63627,2,0,L|149:192,1,90,2|2,1:2|3:2,0:0:0:0:
56,178,64212,2,0,L|32:78,1,90,10|4,1:2|3:0,0:0:0:0:
106,21,64797,6,0,P|181:68|270:72,1,180,4|10,1:0|1:2,0:0:0:0:
356,23,65675,1,2,3:2:0:0:
433,84,65968,2,0,L|411:266,1,180,2|10,3:2|1:2,0:0:0:0:
349,340,66846,1,2,3:2:0:0:
269,280,67139,6,0,P|181:278|118:339,1,180,2|8,3:2|1:2,0:0:0:0:
9,173,68309,2,0,P|96:174|159:113,1,180,10|10,1:2|1:2,0:0:0:0:
221,35,69188,1,10,1:2:0:0:
305,86,69480,6,0,B|289:152|289:152|291:187|291:187|272:271,1,180,4|2,1:0|3:2,0:0:0:0:
247,358,70358,1,10,1:2:0:0:
343,337,70651,2,0,P|429:342|482:274,1,180,2|0,3:2|3:2,0:0:0:0:
459,178,71529,1,10,1:2:0:0:
377,121,71822,6,0,B|274:121|319:175|208:177,1,180,2|0,3:2|3:0,0:0:0:0:
126,124,72700,1,10,1:2:0:0:
45,181,72992,2,0,L|13:36,2,135,2|2|10,3:2|3:2|1:2,0:0:0:0:
82,271,74163,6,0,P|155:220|244:223,1,180,4|2,1:0|3:2,0:0:0:0:
322,284,75041,1,10,1:2:0:0:
418,259,75334,2,0,L|451:70,1,180,2|2,3:2|3:2,0:0:0:0:
374,16,76212,1,10,1:2:0:0:
291,71,76505,6,0,L|196:60,1,90,2|10,3:2|1:2,0:0:0:0:
193,159,77090,2,0,L|98:148,1,90,2|10,3:2|1:2,0:0:0:0:
13,106,77675,2,0,P|66:175|61:263,1,180,10|10,1:2|1:2,0:0:0:0:
121,342,78553,1,10,1:2:0:0:
256,192,78846,12,6,82358,1:3:0:0:
30,98,84114,6,0,B|131:81|103:151|208:131,1,180,2|2,0:0|3:2,0:0:0:0:
