osu file format v14

[General]
AudioFilename: audio.mp3
AudioLeadIn: 0
PreviewTime: 45689
Countdown: 0
SampleSet: Soft
StackLeniency: 0.5
Mode: 0
LetterboxInBreaks: 0
WidescreenStoryboard: 0

[Editor]
DistanceSpacing: 1
BeatDivisor: 4
GridSize: 4
TimelineZoom: 1.5

[Metadata]
Title:RINNE
TitleUnicode:輪廻
Artist:BAND-MAID
ArtistUnicode:BAND-MAID
Creator:ShirohaMyMommy
Version:REINCARNATION
Source:
Tags:mirash delis japanese rock
BeatmapID:2485993
BeatmapSetID:1193063

[Difficulty]
HPDrainRate:7
CircleSize:4
OverallDifficulty:9
ApproachRate:9.5
SliderMultiplier:2
SliderTickRate:1

[Events]
//Background and Video events
0,0,"BG.jpg",0,0
//Break Periods
2,161031,163664
//Storyboard Layer 0 (Background)
//Storyboard Layer 1 (Fail)
//Storyboard Layer 2 (Pass)
//Storyboard Layer 3 (Foreground)
//Storyboard Layer 4 (Overlay)
//Storyboard Sound Samples

[TimingPoints]
1242,315.789473684211,4,1,1,5,1,0
5031,-111.111111111111,4,1,1,50,0,0
10084,-111.111111111111,4,1,1,50,0,0
12610,-111.111111111111,4,1,1,60,0,0
25242,-200,4,1,1,50,0,0
25715,-200,4,2,1,50,0,0
35505,-142.857142857143,4,2,1,50,0,0
36294,-142.857142857143,4,2,2,50,0,0
36452,-142.857142857143,4,2,1,50,0,0
36610,-142.857142857143,4,2,2,50,0,0
36926,-142.857142857143,4,2,1,50,0,0
38584,-142.857142857143,4,2,2,50,0,0
39057,-142.857142857143,4,2,1,50,0,0
39294,-125,4,2,1,50,0,0
40084,-111.111111111111,4,2,1,50,0,0
40399,-142.857142857143,4,2,1,50,0,0
44110,-142.857142857143,4,2,2,50,0,0
44268,-142.857142857143,4,2,1,50,0,0
45452,-200,4,1,0,60,0,0
45689,-200,4,2,1,5,0,0
45768,-200,4,2,1,55,0,0
45847,-200,4,2,1,5,0,0
45926,-200,4,2,1,55,0,0
46005,-200,4,2,1,5,0,0
46084,-600.024000960038,4,2,1,65,0,0
46163,-600.0024000096,4,2,1,5,0,0
46399,-600.0024000096,4,2,1,25,0,0
46715,-200,4,1,1,60,0,0
46794,-200,4,2,1,10,0,0
46873,-100,4,1,1,60,0,0
56820,-83.3333333333333,4,1,1,60,0,0
61873,-55.5555555555556,4,1,1,60,0,0
62031,-100,4,1,1,60,0,0
62347,-62.5,4,1,1,60,0,0
62505,-83.3333333333333,4,1,1,60,0,0
62820,-71.4285714285714,4,1,1,60,0,0
62978,-71.4285714285714,4,1,1,60,0,0
63294,-83.3333333333333,4,1,1,60,0,0
63452,-62.5,4,1,1,60,0,0
64399,-166.666666666667,4,1,1,60,0,0
65347,-83.3333333333333,4,1,1,60,0,0
66926,-52.6315789473684,4,1,1,60,0,0
69452,-500.000000000005,4,1,1,60,0,0
69768,-83.3333333333333,4,1,1,60,0,0
70084,-52.6315789473684,4,1,1,60,0,0
71978,-71.4285714285714,4,1,1,60,0,0
72136,-90.9090909090909,4,1,1,60,0,0
72294,-52.6315789473684,4,1,1,60,0,0
74505,-62.5,4,1,1,60,0,0
75768,-76.9230769230769,4,1,1,60,0,0
77031,-62.5,4,1,1,60,0,0
78136,-62.5,4,1,2,60,0,0
78294,-62.5,4,1,1,60,0,0
80031,-62.5,4,1,2,60,0,0
80189,-62.5,4,1,1,60,0,0
82084,-100,4,1,1,60,0,0
91242,-95.2380952380952,4,1,1,60,0,0
91557,-45.4545454545455,4,1,1,60,0,0
91636,-45.4545454545455,4,1,1,60,0,0
91794,-45.4545454545455,4,1,1,60,0,0
91952,-45.4545454545455,4,1,1,60,0,0
92189,-71.4285714285714,4,1,1,60,0,0
94715,-62.5,4,1,1,60,0,0
95031,-55.5555555555556,4,1,1,60,0,0
95189,-62.5,4,1,1,60,0,0
95663,-55.5555555555556,4,1,1,60,0,0
95978,-62.5,4,1,1,60,0,0
96610,-71.4285714285714,4,1,1,50,0,0
97242,-71.4285714285714,4,1,1,60,0,0
98505,-71.4285714285714,4,1,1,60,0,0
108610,-90.9090909090909,4,1,1,60,0,0
113663,-58.8235294117647,4,1,1,60,0,0
117610,-76.9230769230769,4,1,1,60,0,0
118084,-66.6666666666667,4,1,1,60,0,0
118715,-52.6315789473684,4,1,1,60,0,0
122505,-47.6190476190476,4,1,1,60,0,0
123768,-55.5555555555556,4,1,1,60,0,0
128820,-142.857142857143,4,2,1,70,0,0
133242,-76.9230769230769,4,2,1,70,0,0
134978,-142.857142857143,4,2,1,70,0,0
138926,-250.000000000001,4,1,1,60,0,0
141452,-100,4,1,1,60,0,0
141610,-125,4,1,1,60,0,0
141768,-111.111111111111,4,1,1,60,0,0
141926,-125,4,1,1,60,0,0
142084,-111.111111111111,4,1,1,60,0,0
142399,-100,4,1,1,60,0,0
142557,-111.111111111111,4,1,1,60,0,0
142715,-100,4,1,1,60,0,0
142873,-111.111111111111,4,1,1,60,0,0
143031,-125,4,1,1,60,0,0
143189,-111.111111111111,4,1,1,60,0,0
143347,-100,4,1,1,60,0,0
143505,-90.9090909090909,4,1,1,60,0,0
143663,-83.3333333333333,4,1,1,60,0,0
143820,-90.9090909090909,4,1,1,60,0,0
143978,-125,4,1,1,60,0,0
144136,-250,4,1,1,60,0,0
149031,-71.4285714285714,4,1,1,60,0,0
150452,-55.5555555555556,4,1,1,60,0,0
150610,-71.4285714285714,4,1,1,60,0,0
150768,-55.5555555555556,4,1,1,60,0,0
150926,-71.4285714285714,4,1,1,60,0,0
151084,-62.5,4,1,1,60,0,0
151242,-55.5555555555556,4,1,1,60,0,0
151399,-50,4,1,1,60,0,0
152820,-500,4,1,1,60,0,0
153452,-100,4,1,1,60,0,0
154084,-100,4,1,1,60,0,0
154715,-66.6666666666667,4,1,1,60,0,0
155347,-71.4285714285714,4,1,1,60,0,0
156294,-66.6666666666667,4,1,1,60,0,0
156610,-62.5,4,1,1,60,0,0
157873,-55.5555555555556,4,1,1,60,0,0
158663,-50,4,1,1,60,0,0
159136,-1000,4,2,2,60,0,0
164189,-125,4,1,1,60,0,0
168294,-166.666666666667,4,1,1,60,0,0
168373,-166.666666666667,4,1,1,5,0,0
168452,-166.666666666667,4,1,1,60,0,0
168531,-166.666666666667,4,1,1,5,0,0
168610,-166.666666666667,4,1,1,60,0,0
168689,-166.666666666667,4,1,1,5,0,0
168768,-166.666666666667,4,1,1,60,0,0
168847,-166.666666666667,4,1,1,5,0,0
168926,-166.666666666667,4,1,1,60,0,0
169005,-166.666666666667,4,1,1,5,0,0
169084,-166.666666666667,4,1,1,60,0,0
169163,-166.666666666667,4,1,1,5,0,0
169242,-166.666666666667,4,1,1,60,0,0
169478,-166.666666666667,4,1,1,5,0,0
169557,-90.9090909090909,4,1,1,70,0,0
173584,-62.5,4,1,0,70,0,0
173820,-90.9090909090909,4,1,1,70,0,0
174294,-66.6666666666667,4,1,1,70,0,0
174452,-58.8235294117647,4,1,1,70,0,0
174768,-66.6666666666667,4,1,1,70,0,0
174926,-58.8235294117647,4,1,1,70,0,0
175399,-66.6666666666667,4,1,1,70,0,0
176820,-66.6666666666667,4,1,1,66,0,0
176899,-66.6666666666667,4,1,1,5,0,0
176978,-58.8235294117647,4,1,1,68,0,0
177057,-58.8235294117647,4,1,1,5,0,0
177136,-52.6315789473684,4,1,1,70,0,0
177215,-52.6315789473684,4,1,1,5,0,0
177294,-47.6190476190476,4,1,1,72,0,0
177373,-47.6190476190476,4,1,1,5,0,0
177452,-43.4782608695652,4,1,1,74,0,0
177531,-43.4782608695652,4,1,1,5,0,0
177610,-40,4,1,1,76,0,0
177689,-40,4,1,1,5,0,0
177768,-37.037037037037,4,1,1,78,0,0
177847,-37.037037037037,4,1,1,5,0,0
177926,-34.4827586206897,4,1,1,80,0,0
178005,-34.4827586206897,4,1,1,5,0,0
178084,-50,4,1,1,70,0,0
178399,-62.5,4,1,1,60,0,0
179663,-83.3333333333333,4,1,1,60,0,0
187084,-58.8235294117647,4,1,1,60,0,0
187557,-50,4,1,1,60,0,0
189452,-66.6666666666667,4,1,1,60,0,0
190557,-80,4,1,1,60,0,0
190715,-62.5,4,1,1,60,0,0
191189,-50,4,1,1,60,0,0
192610,-58.8235294117647,4,1,1,60,0,0
193242,-50,4,1,1,60,0,0
194505,-50,4,1,1,70,0,0

[Colours]
Combo1 : 241,214,129
Combo2 : 152,208,121
Combo3 : 193,102,162
Combo4 : 117,150,238

[HitObjects]
256,192,1242,12,0,4873,0:0:0:0:
112,300,5031,6,0,P|104:248|92:184,1,89.9999972534181,12|0,0:0|0:0,0:0:0:0:
185,194,5347,2,0,P|193:250|205:310,1,89.9999972534181,8|0,0:2|0:0,0:0:0:0:
97,211,5663,2,0,P|152:200|213:191,1,89.9999972534181,8|0,0:2|0:0,0:0:0:0:
199,282,5978,2,0,P|144:293|83:302,1,89.9999972534181,8|0,0:2|0:0,0:0:0:0:
44,348,6294,5,8,0:2:0:0:
176,368,6452,1,0,0:0:0:0:
252,344,6610,1,8,0:2:0:0:
116,324,6768,1,0,0:0:0:0:
72,264,6926,5,8,0:2:0:0:
208,284,7084,1,0,0:0:0:0:
276,214,7242,5,8,0:2:0:0:
116,192,7399,1,0,0:0:0:0:
276,214,7557,6,0,P|212:202|176:198,1,89.9999972534181,8|0,0:2|0:0,0:0:0:0:
176,288,7873,2,0,P|240:300|276:304,1,89.9999972534181,8|0,0:2|0:0,0:0:0:0:
264,302,8189,1,8,0:2:0:0:
176,288,8347,1,0,0:0:0:0:
276,214,8505,1,8,0:2:0:0:
187,199,8663,1,0,0:0:0:0:
103,229,8820,6,0,P|71:225|39:217,2,59.9999981689454,8|4|4,3:0|3:0|3:0,0:0:0:0:
176,288,9136,1,8,0:0:0:0:
280,168,9294,5,2,0:3:0:0:
280,168,9373,1,2,0:3:0:0:
280,168,9452,2,2,P|272:212|276:248,2,59.9999981689454,2|2|2,0:3|0:3|0:3,0:3:0:0:
216,96,9768,5,8,0:0:0:0:
192,228,9926,1,8,0:0:0:0:
360,196,10084,5,4,0:0:0:0:
382,193,10163,1,0,0:0:0:0:
404,197,10242,1,0,0:0:0:0:
424,204,10320,1,0,0:0:0:0:
440,219,10399,5,8,0:2:0:0:
437,197,10478,1,0,0:0:0:0:
441,175,10557,1,0,0:0:0:0:
448,155,10636,1,0,0:0:0:0:
466,141,10715,5,8,0:2:0:0:
444,144,10794,1,0,0:0:0:0:
422,140,10873,1,0,0:0:0:0:
402,133,10952,1,0,0:0:0:0:
386,118,11031,5,8,0:2:0:0:
389,140,11110,1,0,0:0:0:0:
385,162,11189,1,0,0:0:0:0:
378,182,11268,1,0,0:0:0:0:
334,219,11347,5,8,0:2:0:0:
293,238,11426,1,0,0:0:0:0:
248,234,11505,1,0,0:0:0:0:
208,211,11584,1,0,0:0:0:0:
166,194,11663,1,8,0:2:0:0:
121,197,11742,1,0,0:0:0:0:
80,215,11820,1,0,0:0:0:0:
58,254,11899,1,0,0:0:0:0:
81,292,11978,5,8,0:2:0:0:
112,259,12057,1,0,0:0:0:0:
124,215,12136,1,0,0:0:0:0:
116,170,12215,1,0,0:0:0:0:
96,129,12294,5,8,0:2:0:0:
114,141,12373,1,0,0:0:0:0:
135,146,12452,1,0,0:0:0:0:
157,145,12531,1,0,0:0:0:0:
178,139,12610,6,0,P|210:150|227:161,1,44.999998626709,2|0,0:0|0:0,0:0:0:0:
208,111,12768,2,0,P|234:100|268:92,1,44.999998626709
268,137,12926,2,0,P|308:170|318:185,1,44.999998626709,2|0,0:0|0:0,0:0:0:0:
347,152,13084,2,0,P|334:176|326:205,1,44.999998626709
340,236,13242,5,2,0:0:0:0:
331,256,13320,1,0,0:0:0:0:
309,250,13399,1,0,0:0:0:0:
295,268,13478,1,0,0:0:0:0:
272,270,13557,1,2,0:0:0:0:
262,290,13636,1,0,0:0:0:0:
239,293,13715,1,0,0:0:0:0:
228,312,13794,1,0,0:0:0:0:
184,296,13873,6,0,P|155:288|120:286,1,44.999998626709,4|0,0:2|0:0,0:0:0:0:
177,207,14031,1,0,0:0:0:0:
154,202,14110,1,0,0:0:0:0:
131,198,14189,2,0,P|99:189|73:188,1,44.999998626709,4|0,0:2|0:0,0:0:0:0:
176,113,14347,1,0,0:0:0:0:
141,104,14426,1,0,0:0:0:0:
106,95,14505,2,0,P|70:86|38:83,1,44.999998626709,12|8,0:2|0:2,0:0:0:0:
21,108,14663,2,0,P|57:117|89:120,1,44.999998626709,8|8,0:0|0:0,0:0:0:0:
253,70,14820,5,8,0:0:0:0:
297,61,14899,1,8,0:0:0:0:
341,52,14978,1,8,0:0:0:0:
385,43,15057,1,8,0:0:0:0:
466,33,15136,6,0,P|452:82|440:134,1,89.9999972534181,4|0,1:0|0:0,0:0:0:0:
476,344,15452,2,0,P|490:295|502:243,1,89.9999972534181,8|0,0:0|0:0,0:0:0:0:
499,257,15768,1,0,0:0:0:0:
316,176,15926,5,0,0:0:0:0:
352,275,16084,1,8,0:0:0:0:
423,202,16242,1,0,0:0:0:0:
220,260,16399,5,0,0:0:0:0:
136,288,16557,1,0,0:0:0:0:
52,312,16715,5,8,0:0:0:0:
220,260,16873,1,0,0:0:0:0:
388,212,17031,1,0,0:0:0:0:
308,236,17189,5,0,0:0:0:0:
468,184,17347,1,8,0:0:0:0:
308,236,17505,1,0,0:0:0:0:
468,184,17663,6,0,L|488:88,1,89.9999972534181
400,120,17978,2,0,L|312:144,1,89.9999972534181,8|0,0:0|0:0,0:0:0:0:
228,164,18294,5,0,0:0:0:0:
140,184,18452,1,0,0:0:0:0:
120,96,18610,1,8,0:0:0:0:
208,76,18768,1,0,0:0:0:0:
228,164,18926,5,0,0:0:0:0:
260,332,19084,1,0,0:0:0:0:
92,368,19242,1,8,0:0:0:0:
56,200,19400,1,2,0:2:0:0:
144,256,19557,5,0,0:0:0:0:
164,252,19636,1,0,0:0:0:0:
184,248,19715,1,2,0:2:0:0:
188,268,19794,1,0,0:0:0:0:
192,288,19873,1,10,0:0:0:0:
172,292,19952,1,0,0:0:0:0:
152,296,20031,1,0,0:0:0:0:
148,276,20110,1,0,0:2:0:0:
144,256,20189,2,0,P|92:268|48:276,1,89.9999972534181,4|0,0:2|0:0,0:0:0:0:
92,176,20505,2,0,P|168:160|232:148,1,134.999995880127,8|0,0:0|0:0,0:0:0:0:
264,140,20820,5,0,0:0:0:0:
384,200,20978,1,0,0:0:0:0:
312,248,21136,5,8,0:0:0:0:
408,216,21294,1,0,0:0:0:0:
504,184,21452,1,0,0:0:0:0:
408,308,21610,5,0,0:0:0:0:
428,232,21768,1,8,0:0:0:0:
452,156,21926,1,0,0:0:0:0:
256,272,22084,6,0,L|292:168,1,89.9999972534181
120,256,22399,2,0,L|156:152,1,89.9999972534181,8|0,0:0|0:0,0:0:0:0:
104,100,22715,5,0,0:0:0:0:
40,160,22873,1,0,0:0:0:0:
216,96,23031,5,8,0:0:0:0:
288,36,23189,2,0,L|400:64,1,89.9999972534181
375,57,23505,1,0,0:0:0:0:
144,52,23663,5,8,0:0:0:0:
216,204,23820,1,0,0:0:0:0:
112,344,23978,6,0,L|92:268,2,59.9999981689454,8|4|4,0:3|0:3|0:3,0:0:0:0:
208,308,24294,2,0,L|272:320,2,59.9999981689454,8|8|8,0:0|0:0|0:0,0:0:0:0:
172,224,24610,5,8,0:3:0:0:
136,148,24715,5,8,0:3:0:0:
208,100,24820,5,8,0:3:0:0:
300,120,24926,5,4,0:3:0:0:
336,196,25031,5,4,0:3:0:0:
264,244,25136,5,4,0:3:0:0:
236,172,25242,5,4,0:0:0:0:
172,224,25715,5,0,2:0:0:0:
236,172,25873,2,0,L|396:136,1,150,8|0,1:2|2:0,0:0:0:0:
488,104,26505,2,0,B|476:80|476:80|452:88,1,50,0|0,2:0|2:0,0:0:0:0:
384,56,26820,2,0,B|364:40|364:40|340:52,1,50,0|0,1:0|2:0,0:0:0:0:
424,228,27136,5,8,1:0:0:0:
384,140,27294,1,2,3:0:0:0:
384,236,27452,1,2,3:0:0:0:
424,324,27610,1,2,3:0:0:0:
344,308,27768,5,0,1:0:0:0:
424,324,27926,2,0,L|264:360,1,150,8|8,3:0|1:0,0:0:0:0:
240,288,28557,2,0,L|136:312,1,100,4|4,3:0|3:0,0:0:0:0:
96,248,29031,2,0,L|40:260,1,50,2|0,0:1|0:0,0:0:0:0:
47,258,29347,2,0,P|32:212|24:148,1,100,0|8,1:0|1:0,0:0:0:0:
24,161,29820,5,2,0:1:0:0:
92,112,29978,1,2,0:1:0:0:
172,92,30136,1,2,0:1:0:0:
256,96,30294,2,0,P|296:104|360:136,1,100,0|0,1:0|0:0,0:0:0:0:
432,104,30768,2,0,P|452:128|468:160,1,50,0|8,0:0|1:0,0:0:0:0:
480,220,31084,1,0,0:0:0:0:
488,36,31242,5,0,0:0:0:0:
356,48,31399,1,0,0:0:0:0:
240,164,31557,5,2,0:2:0:0:
324,148,31715,1,2,0:0:0:0:
296,228,31873,1,0,1:0:0:0:
240,164,32031,1,2,0:0:0:0:
120,144,32189,6,0,P|88:139|64:128,1,50,8|0,1:0|0:0,0:0:0:0:
8,88,32505,2,0,P|24:136|16:188,1,100,0|2,0:0|3:0,0:0:0:0:
108,56,32978,5,0,0:0:0:0:
184,96,33136,2,0,P|224:104|256:100,1,50,0|0,1:0|0:0,0:0:0:0:
320,100,33452,1,8,1:0:0:0:
380,36,33610,1,0,0:0:0:0:
404,120,33768,1,8,3:0:0:0:
320,100,33926,1,4,3:0:0:0:
360,228,34084,6,0,L|388:328,2,100,8|8|8,0:0|0:0|1:0,0:0:0:0:
332,132,34873,1,0,1:0:0:0:
280,264,35031,1,4,0:0:0:0:
260,188,35189,1,0,0:0:0:0:
204,344,35347,5,4,1:2:0:0:
168,200,35505,2,0,L|188:292,1,69.9999978637696,8|0,0:0|1:0,0:0:0:0:
64,192,35820,1,0,1:0:0:0:
84,268,35978,2,0,L|104:360,1,69.9999978637696,8|0,1:0|0:0,0:0:0:0:
152,131,36294,2,0,L|171:215,1,69.9999978637696
352,156,36610,5,0,0:0:0:0:
280,108,36768,2,0,L|256:208,1,69.9999978637696,0|0,0:0|1:0,0:0:0:0:
196,120,37084,1,0,1:0:0:0:
432,160,37242,1,8,1:0:0:0:
368,96,37399,2,0,L|332:240,1,139.999995727539,0|0,1:0|0:0,0:0:0:0:
312,308,37873,5,0,1:0:0:0:
312,308,38031,1,0,1:0:0:0:
152,264,38189,1,2,1:3:0:0:
96,116,38347,1,0,1:0:0:0:
164,60,38505,5,8,1:0:0:0:
192,144,38663,1,0,0:0:0:0:
124,196,38820,1,2,3:0:0:0:
96,116,38978,1,0,0:0:0:0:
292,76,39136,6,0,B|304:92|304:92|320:88,1,34.9999989318848,2|0,0:0|0:0,0:0:0:0:
292,116,39294,2,0,P|348:104|456:100,1,160,2|0,0:0|1:0,0:0:0:0:
480,112,39689,1,0,1:0:0:0:
508,128,39768,1,8,1:0:0:0:
468,28,39926,1,0,1:0:0:0:
352,180,40084,2,0,P|300:168|244:168,1,89.9999972534181,8|0,1:2|0:0,0:0:0:0:
196,120,40399,5,4,1:0:0:0:
68,68,40557,1,0,0:0:0:0:
160,196,40715,1,0,1:0:0:0:
244,252,40873,1,0,1:0:0:0:
340,232,41031,1,8,1:0:0:0:
312,324,41189,1,0,0:0:0:0:
244,252,41347,1,0,0:0:0:0:
424,256,41505,6,0,L|416:204,1,34.9999989318848,2|0,0:0|0:0,0:0:0:0:
440,328,41663,1,2,0:0:0:0:
400,184,41820,6,0,L|406:148,1,34.9999989318848,2|2,0:0|0:0,0:0:0:0:
392,272,41978,1,2,1:2:0:0:
496,224,42136,1,0,1:0:0:0:
156,64,42294,5,8,1:0:0:0:
328,48,42452,2,0,P|336:116|316:204,1,139.999995727539,0|0,1:0|0:0,0:0:0:0:
260,112,42926,6,0,P|224:116|176:136,1,69.9999978637696,0|0,1:0|1:0,0:0:0:0:
156,280,43242,2,0,P|192:276|240:256,1,69.9999978637696,0|0,1:0|1:0,0:0:0:0:
172,196,43557,2,0,P|104:204|48:240,1,104.999996795654,8|0,1:0|0:0,0:0:0:0:
72,220,43873,2,0,L|104:152,1,69.9999978637696,2|0,0:0|0:0,0:0:0:0:
284,212,44189,5,0,0:0:0:0:
352,256,44347,2,0,P|360:296|356:340,1,69.9999978637696,0|0,1:0|0:0,0:0:0:0:
196,232,44663,1,0,1:0:0:0:
188,200,44742,1,0,1:0:0:0:
192,164,44820,1,8,1:0:0:0:
256,96,44978,1,0,1:0:0:0:
256,336,45136,2,0,P|204:316|152:328,1,104.999996795654,8|0,1:0|0:0,0:0:0:0:
144,348,45452,6,2,L|120:264,1,75,2|0,1:1|2:0,0:1:0:0:
112,272,45768,6,0,L|140:256,1,25,2|0,0:0|2:0,0:0:0:0:
156,188,45926,6,0,L|192:184,1,25,2|0,0:0|2:0,0:0:0:0:
248,152,46084,6,0,L|272:168,1,24.9990005892709,2|0,0:0|2:0,0:0:0:0:
340,188,46399,6,0,L|352:216,1,24.9999008182646,2|0,0:0|0:0,0:0:0:0:
412,252,46715,6,0,L|400:292,1,25,4|0,0:0|0:0,0:0:0:0:
380,356,46873,5,0,0:0:0:0:
300,324,47031,1,8,0:0:0:0:
220,292,47189,1,0,0:0:0:0:
76,48,47347,5,0,0:0:0:0:
156,80,47505,1,0,0:0:0:0:
404,275,47663,5,8,0:0:0:0:
324,243,47821,1,0,0:0:0:0:
84,144,47978,5,0,0:0:0:0:
164,176,48136,1,0,0:0:0:0:
92,232,48294,1,8,0:0:0:0:
156,80,48452,1,0,0:0:0:0:
224,292,48610,1,0,0:0:0:0:
12,248,48768,5,0,0:0:0:0:
252,216,48926,1,8,0:0:0:0:
492,184,49084,1,0,0:0:0:0:
408,336,49242,5,0,0:0:0:0:
344,240,49399,1,0,0:0:0:0:
120,52,49557,1,8,0:0:0:0:
184,148,49714,1,0,0:0:0:0:
320,336,49873,5,0,0:0:0:0:
156,232,50031,1,0,0:0:0:0:
400,192,50189,1,8,0:0:0:0:
236,88,50347,1,0,0:0:0:0:
324,64,50505,5,0,0:0:0:0:
312,148,50663,1,0,0:0:0:0:
244,184,50820,5,8,0:0:0:0:
404,56,50978,1,0,0:0:0:0:
484,48,51136,5,0,0:0:0:0:
176,224,51294,1,0,0:0:0:0:
176,140,51452,5,8,0:0:0:0:
392,252,51610,1,0,0:0:0:0:
192,368,51768,5,2,0:0:0:0:
256,264,51926,5,2,0:0:0:0:
324,164,52084,5,8,0:0:0:0:
400,72,52242,5,2,0:0:0:0:
284,104,52399,5,2,0:0:0:0:
168,140,52557,5,0,0:0:0:0:
52,172,52715,5,10,0:0:0:0:
164,216,52873,5,2,0:0:0:0:
280,248,53031,5,0,0:0:0:0:
396,284,53189,5,2,0:0:0:0:
324,188,53347,5,10,0:0:0:0:
252,92,53505,5,0,0:0:0:0:
172,4,53663,5,2,0:0:0:0:
184,124,53820,5,2,0:0:0:0:
196,244,53978,5,8,0:0:0:0:
212,364,54136,5,8,0:0:0:0:
280,192,54294,6,0,B|328:136|402:143|402:143|372:164|372:208,1,200,4|8,0:0|0:0,0:0:0:0:
244,272,54768,2,0,B|172:296|136:348|136:348|104:320|60:320,1,200
116,240,55242,1,8,0:0:0:0:
32,228,55399,1,0,0:0:0:0:
92,160,55557,5,8,1:3:0:0:
96,164,55663,2,0,L|120:96,1,66.6666666666667,4|0,1:3|0:0,0:0:0:0:
184,160,55873,1,8,1:3:0:0:
184,160,55978,2,0,L|272:140,1,66.6666666666667,4|0,1:3|0:0,0:0:0:0:
384,68,56189,5,0,0:0:0:0:
316,104,56294,1,8,0:0:0:0:
380,144,56399,1,8,0:0:0:0:
312,180,56505,5,8,0:2:0:0:
376,220,56610,1,8,0:2:0:0:
448,188,56715,1,8,0:2:0:0:
456,112,56820,6,2,B|480:176|448:240|448:240|472:256|480:292,1,179.999994506836,6|0,0:0|2:0,0:1:0:0:
400,300,57136,2,0,P|360:284|328:284,1,59.9999981689454,8|0,0:0|2:0,0:0:0:0:
204,260,57294,2,0,P|244:276|276:276,1,59.9999981689454,2|0,0:0|2:0,0:0:0:0:
284,116,57452,6,2,P|188:104|128:168,1,179.999994506836,2|0,0:0|2:0,0:1:0:0:
72,112,57768,2,0,P|39:90|-4:86,1,59.9999981689454,8|0,0:0|2:0,0:0:0:0:
64,196,57926,2,0,L|-8:224,1,59.9999981689454,2|0,0:0|2:0,0:0:0:0:
84,312,58084,6,2,B|144:280|204:296|204:296|224:328|264:344,1,179.999994506836,2|0,0:0|2:0,0:1:0:0:
316,368,58399,2,0,P|348:364|376:344,1,59.9999981689454,8|0,0:0|2:0,0:0:0:0:
328,204,58557,2,0,L|308:276,1,59.9999981689454,2|0,0:0|2:0,0:0:0:0:
308,280,58715,5,2,0:2:0:0:
408,200,58873,1,2,0:2:0:0:
252,160,59031,1,8,0:0:0:0:
364,64,59189,1,2,0:2:0:0:
296,104,59347,6,0,B|256:128|212:128|212:128|192:116|160:112,1,119.999996337891,2|2,0:0|0:0,0:0:0:0:
112,128,59584,1,0,0:0:0:0:
64,72,59663,2,0,B|72:56|92:52|92:52|104:60|124:52,1,59.9999981689454,8|0,0:0|2:0,0:0:0:0:
152,192,59820,2,0,B|144:208|124:212|124:212|112:204|92:212,1,59.9999981689454,2|0,0:0|2:0,0:0:0:0:
252,356,59978,6,0,L|276:220,1,119.999996337891,2|2,0:0|0:0,0:0:0:0:
284,164,60215,1,0,0:0:0:0:
224,112,60294,2,0,B|205:138|205:138|206:165,1,59.9999981689454,8|0,0:0|2:0,0:0:0:0:
389,218,60452,2,0,B|389:249|389:249|371:272,1,59.9999981689454,2|0,0:0|2:0,0:0:0:0:
352,288,60610,6,0,P|300:256|228:268,1,119.999996337891,2|2,0:0|0:0,0:1:0:0:
172,280,60847,1,0,0:0:0:0:
112,320,60926,2,0,P|76:316|44:280,1,59.9999981689454,8|0,0:0|0:0,0:0:0:0:
60,164,61084,2,0,L|44:100,1,59.9999981689454,2|0,0:0|0:0,0:0:0:0:
8,236,61242,1,0,0:0:0:0:
136,128,61399,5,2,0:0:0:0:
208,156,61557,1,8,0:0:0:0:
148,204,61715,1,2,0:0:0:0:
432,52,61873,6,0,P|452:80|452:136,1,89.9999972534181,2|0,0:1|2:0,0:0:0:0:
440,288,62031,6,2,B|424:304|424:304|368:264|380:180,1,150,2|0,0:0|2:0,0:1:0:0:
328,48,62347,6,0,B|352:80|352:80|344:124,1,80,2|0,0:0|2:0,0:0:0:0:
304,316,62505,6,2,B|280:308|280:308|273:243|256:184|256:184|280:164,1,179.999994506836,2|0,0:0|2:0,0:1:0:0:
224,48,62820,6,0,B|236:88|236:88|212:72,1,69.9999978637696,2|0,0:0|2:0,0:0:0:0:
196,344,62978,6,2,B|192:328|204:316|204:316|192:248|152:200|152:200|176:184|176:148,1,209.999993591309,2|0,0:1|1:0,0:1:0:0:
104,40,63294,6,0,B|108:72|108:72|96:88|84:84,1,59.9999981689454,2|2,0:0|0:0,0:0:0:0:
32,312,63452,6,0,B|-8:284|-4:240|-4:240|32:216|72:236,1,160,8|0,0:0|0:0,0:0:0:0:
132,264,63689,1,8,0:0:0:0:
176,320,63768,1,8,0:0:0:0:
336,64,63926,1,0,0:0:0:0:
272,240,64084,5,8,0:0:0:0:
240,148,64242,1,0,0:0:0:0:
368,344,64399,6,0,L|404:336,1,29.9999990844727,2|0,0:0|2:0,0:0:0:0:
476,328,64557,1,2,0:2:0:0:
476,328,64715,1,10,0:2:0:0:
256,360,64873,6,0,L|248:324,1,29.9999990844727,2|0,0:0|2:0,0:0:0:0:
224,128,65031,1,2,0:2:0:0:
224,128,65189,1,2,0:2:0:0:
240,240,65347,6,2,B|244:232|256:228|256:228|172:200|100:240|100:240|84:224|92:180,1,239.999992675781,10|8,0:1|0:3,0:1:0:0:
164,60,65820,5,0,0:0:0:0:
384,92,65978,1,0,0:0:0:0:
356,312,66136,1,8,0:3:0:0:
216,140,66294,5,4,0:3:0:0:
316,160,66452,1,8,0:3:0:0:
296,260,66610,1,8,0:0:0:0:
196,240,66768,1,12,0:3:0:0:
408,180,66926,6,0,B|448:216|496:224|496:224|448:232|412:264,1,189.999994926453,6|2,0:0|0:0,0:0:0:0:
415,261,67163,1,0,0:0:0:0:
415,261,67242,1,8,0:0:0:0:
496,316,67399,1,0,0:0:0:0:
408,180,67557,6,0,B|388:136|388:136|440:144,1,94.9999974632264,2|0,0:0|2:0,0:0:0:0:
296,300,67715,2,0,B|300:272|312:256|312:256|292:264|264:268,1,94.9999974632264,2|0,0:0|2:0,0:0:0:0:
264,160,67873,2,0,B|252:132|260:112|260:112|292:120|300:144,1,94.9999974632264,10|0,0:0|2:0,0:0:0:0:
176,256,68031,6,0,B|152:264|136:284|136:284|116:288|88:272,1,94.9999974632264,2|2,0:0|1:2,0:0:0:0:
32,192,68189,5,0,0:0:0:0:
216,192,68347,1,0,0:0:0:0:
124,192,68505,1,8,0:0:0:0:
300,192,68663,1,0,0:0:0:0:
216,192,68820,1,8,0:2:0:0:
384,192,68978,1,0,0:0:0:0:
300,192,69136,1,8,0:0:0:0:
464,192,69294,1,0,0:0:0:0:
153,73,69452,6,2,L|134:44,1,33.3333333333333,2|0,0:0|2:0,0:1:0:0:
153,73,69768,6,2,P|235:91|315:31,1,179.999994506836,10|0,0:0|2:0,0:1:0:0:
311,40,70084,6,0,B|288:80|288:104|288:104|296:136|300:160,1,94.9999974632264,2|0,0:0|2:0,0:0:0:0:
428,208,70242,2,0,B|456:176|444:140|444:140|432:160,1,94.9999974632264,2|0,0:0|2:0,0:0:0:0:
320,224,70399,2,0,B|280:248|256:244|256:244|248:228|208:224,1,94.9999974632264,10|0,0:0|2:0,0:0:0:0:
192,136,70557,2,0,B|159:98|159:98|165:117|162:149,1,94.9999974632264,2|0,0:0|2:0,0:0:0:0:
160,248,70715,5,8,0:0:0:0:
136,324,70873,5,8,0:0:0:0:
56,332,71031,5,10,0:0:0:0:
124,182,71189,5,10,0:0:0:0:
316,104,71347,5,10,0:0:0:0:
488,128,71505,5,10,0:0:0:0:
464,204,71663,5,10,0:0:0:0:
388,224,71820,5,8,0:0:0:0:
196,36,71978,6,0,B|232:72|232:128|232:128|260:156,1,139.999995727539,4|0,0:0|0:0,0:0:0:0:
73,264,72294,2,0,B|117:264|145:240|145:240|150:216,2,94.9999974632264,8|0|0,0:0|2:0|0:0,0:0:0:0:
296,232,72610,5,0,0:0:0:0:
428,272,72768,1,0,0:0:0:0:
304,208,72926,5,8,0:0:0:0:
436,248,73084,1,0,0:0:0:0:
304,128,73242,5,0,0:0:0:0:
436,84,73399,1,0,0:0:0:0:
276,100,73557,5,8,0:0:0:0:
396,28,73715,1,0,0:0:0:0:
204,196,73873,5,8,0:0:0:0:
168,32,74031,1,0,0:0:0:0:
132,224,74189,5,8,0:0:0:0:
48,80,74347,1,0,0:0:0:0:
148,336,74505,6,0,P|112:360|72:360,1,80,2|0,0:0|2:0,0:0:0:0:
28,304,74663,1,0,0:0:0:0:
224,296,74820,6,0,B|324:320|324:320|344:304|396:308,1,160,8|0,0:0|0:0,0:0:0:0:
264,208,75136,2,0,B|252:116|252:116|264:152|300:168,2,160,0|0|8,0:0|0:0|0:0,0:0:0:0:
392,152,75610,1,0,0:0:0:0:
104,48,75768,5,0,0:0:0:0:
68,96,75873,1,0,0:0:0:0:
84,148,75978,1,0,0:0:0:0:
156,108,76084,2,0,B|188:148|188:188|188:188|168:240,1,129.999994049073
332,104,76399,5,2,0:2:0:0:
340,128,76505,1,2,0:2:0:0:
348,152,76610,1,2,0:2:0:0:
408,84,76715,5,10,0:0:0:0:
380,228,76873,1,0,0:0:0:0:
500,328,77031,5,4,0:0:0:0:
420,356,77189,1,0,0:0:0:0:
340,324,77347,1,8,0:0:0:0:
160,360,77505,1,0,0:0:0:0:
240,324,77663,1,0,0:0:0:0:
36,240,77820,5,0,0:0:0:0:
116,276,77978,1,8,0:0:0:0:
204,244,78136,2,0,L|308:232,1,80,2|0,3:3|2:0,0:0:0:0:
360,224,78294,1,0,0:0:0:0:
488,228,78452,5,0,0:0:0:0:
452,32,78610,1,8,0:0:0:0:
408,112,78768,1,0,0:0:0:0:
496,152,78926,5,0,0:0:0:0:
364,36,79084,1,0,0:0:0:0:
344,204,79242,1,8,0:0:0:0:
216,64,79399,1,0,0:0:0:0:
300,104,79557,1,0,0:0:0:0:
204,240,79715,5,0,0:0:0:0:
232,156,79873,1,8,0:0:0:0:
144,124,80031,2,0,P|104:124|68:148,1,80,2|0,3:0|2:0,0:0:0:0:
24,200,80189,1,0,0:0:0:0:
100,360,80347,5,0,0:0:0:0:
120,224,80505,1,8,0:0:0:0:
192,348,80663,1,0,0:0:0:0:
428,276,80820,5,0,0:0:0:0:
348,232,80978,1,0,0:0:0:0:
436,76,81136,1,8,0:0:0:0:
392,156,81294,1,0,0:0:0:0:
232,72,81452,1,0,0:0:0:0:
312,116,81610,1,0,0:0:0:0:
224,272,81768,1,8,0:0:0:0:
268,192,81926,1,0,0:0:0:0:
356,40,82084,5,4,0:0:0:0:
232,72,82242,2,0,P|164:80|112:84,1,100,0|8,0:0|0:0,0:0:0:0:
32,48,82557,1,0,0:0:0:0:
32,48,82715,1,0,0:0:0:0:
96,148,82873,1,0,0:0:0:0:
120,264,83031,1,8,0:0:0:0:
60,368,83189,1,0,0:0:0:0:
60,368,83347,1,0,0:0:0:0:
172,332,83505,1,0,0:0:0:0:
288,324,83663,1,8,0:0:0:0:
408,348,83820,1,0,0:0:0:0:
408,348,83978,1,0,0:0:0:0:
328,248,84136,5,0,0:0:0:0:
472,272,84294,1,8,0:0:0:0:
472,272,84373,1,0,0:0:0:0:
472,272,84452,1,0,0:0:0:0:
352,168,84610,1,0,0:0:0:0:
408,32,84768,1,0,0:0:0:0:
280,116,84926,5,0,0:0:0:0:
196,180,85084,1,8,0:3:0:0:
288,232,85242,1,4,0:3:0:0:
208,108,85399,5,4,0:3:0:0:
328,172,85557,1,8,0:3:0:0:
220,248,85715,1,4,0:3:0:0:
288,232,85873,5,4,0:3:0:0:
196,180,86031,1,8,0:3:0:0:
280,116,86189,1,4,0:3:0:0:
180,80,86347,1,8,0:3:0:0:
92,84,86505,5,4,0:3:0:0:
80,232,86663,1,4,0:3:0:0:
184,340,86820,1,8,0:0:0:0:
332,332,86978,1,8,0:0:0:0:
416,324,87136,5,4,0:0:0:0:
488,272,87294,1,2,0:0:0:0:
484,180,87452,1,2,0:0:0:0:
484,180,87768,5,0,0:0:0:0:
436,192,87847,1,0,0:0:0:0:
388,184,87926,1,2,0:2:0:0:
348,156,88005,1,0,0:0:0:0:
320,116,88084,1,2,0:2:0:0:
320,116,88399,5,2,0:2:0:0:
280,144,88478,1,0,0:0:0:0:
232,156,88557,1,2,0:2:0:0:
184,148,88636,1,0,0:0:0:0:
140,124,88715,1,2,0:2:0:0:
60,164,88873,1,2,0:2:0:0:
128,312,89031,5,2,0:0:0:0:
176,164,89189,1,0,0:0:0:0:
116,228,89347,5,2,0:0:0:0:
208,304,89505,1,0,0:0:0:0:
292,272,89663,5,2,0:2:0:0:
336,248,89742,1,0,0:0:0:0:
384,240,89820,1,2,0:2:0:0:
436,240,89899,1,0,0:0:0:0:
484,248,89978,1,2,0:2:0:0:
484,248,90294,5,2,0:2:0:0:
440,272,90373,1,0,0:0:0:0:
388,272,90452,1,2,0:2:0:0:
340,256,90531,1,0,0:0:0:0:
308,220,90610,1,2,0:2:0:0:
276,132,90768,1,0,0:0:0:0:
252,320,90926,5,4,0:2:0:0:
248,312,91005,1,0,0:0:0:0:
244,304,91084,1,0,0:0:0:0:
148,176,91242,6,0,L|216:213,2,69.9999978637696,0|0|0,0:2|0:0|0:0,0:0:0:0:
148,176,91557,6,0,L|124:300,1,110.000003356934,4|0,0:2|2:0,0:0:0:0:
127,283,91873,6,0,L|220:200,1,110.000003356934,4|0,0:2|2:0,0:0:0:0:
209,209,92189,6,0,L|148:176,1,69.9999978637696,6|0,0:2|0:0,0:0:0:0:
244,136,92347,2,0,P|296:152|332:144,1,69.9999978637696,2|0,0:2|0:0,0:0:0:0:
369,95,92505,1,2,0:0:0:0:
369,95,92820,6,2,B|357:71|357:71|381:15,1,69.9999978637696,2|2,0:2|0:0,0:0:0:0:
440,208,92978,2,0,P|408:228|376:228,1,69.9999978637696,2|0,0:2|0:0,0:0:0:0:
316,280,93136,1,2,0:0:0:0:
316,280,93452,6,0,L|236:260,1,69.9999978637696,2|0,0:2|0:0,0:0:0:0:
172,288,93610,2,0,L|92:268,1,69.9999978637696,2|0,0:1|0:0,0:0:0:0:
44,76,93768,5,0,0:1:0:0:
80,180,93926,1,2,0:1:0:0:
300,132,94084,5,8,0:0:0:0:
212,152,94242,1,2,0:0:0:0:
416,56,94399,5,8,0:0:0:0:
368,320,94557,1,2,0:0:0:0:
480,212,94715,6,0,P|440:208|408:228,1,80,2|0,0:0|0:0,0:0:0:0:
336,248,94873,2,0,P|296:244|264:264,1,80,2|0,0:0|0:0,0:0:0:0:
192,292,95031,1,2,0:0:0:0:
64,168,95347,6,0,L|148:208,1,80,2|0,0:0|0:0,0:0:0:0:
23,247,95505,2,0,L|107:287,1,80,2|0,0:0|0:0,0:0:0:0:
24,344,95663,1,2,0:0:0:0:
200,280,95978,6,2,B|352:224|304:332|480:252,2,240,2|2|2,1:0|0:1|0:1,0:1:0:0:
40,100,96610,6,0,L|180:76,1,139.999995727539,8|0,0:0|0:0,0:0:0:0:
248,108,96847,1,0,0:0:0:0:
320,132,96926,2,0,L|460:108,1,139.999995727539,8|0,0:0|0:0,0:0:0:0:
457,108,97242,5,12,0:0:0:0:
320,232,97399,1,8,0:3:0:0:
412,196,97557,5,4,0:3:0:0:
272,240,97715,1,8,0:0:0:0:
132,280,97873,1,8,0:3:0:0:
476,268,98031,5,4,0:3:0:0:
256,200,98189,1,8,0:0:0:0:
36,132,98347,1,4,0:3:0:0:
332,328,98505,5,4,0:0:0:0:
352,104,98663,1,0,0:0:0:0:
352,104,98742,1,0,0:0:0:0:
352,104,98820,1,8,0:0:0:0:
424,348,98978,1,0,0:0:0:0:
484,40,99136,5,0,0:0:0:0:
388,272,99294,1,0,0:0:0:0:
388,272,99373,1,0,0:0:0:0:
388,272,99452,1,8,0:0:0:0:
332,28,99610,1,0,0:0:0:0:
128,344,99768,5,0,0:0:0:0:
208,68,99926,1,0,0:0:0:0:
208,68,100005,1,0,0:0:0:0:
208,68,100084,1,8,0:0:0:0:
240,332,100242,1,0,0:0:0:0:
112,24,100399,5,0,0:0:0:0:
176,280,100557,1,0,0:0:0:0:
176,280,100636,1,0,0:0:0:0:
176,280,100715,1,8,0:0:0:0:
300,36,100873,1,0,0:0:0:0:
476,80,101031,5,0,0:0:0:0:
208,120,101189,1,0,0:0:0:0:
208,120,101268,1,0,0:0:0:0:
208,120,101347,1,8,0:0:0:0:
444,160,101505,1,0,0:0:0:0:
468,240,101663,5,0,0:0:0:0:
288,96,101820,1,0,0:0:0:0:
288,96,101899,1,0,0:0:0:0:
288,96,101978,1,8,0:0:0:0:
392,276,102136,1,0,0:0:0:0:
340,344,102294,5,0,0:0:0:0:
372,72,102452,1,0,0:0:0:0:
372,72,102531,1,0,0:0:0:0:
372,72,102610,1,8,0:0:0:0:
264,304,102768,1,0,0:0:0:0:
184,320,102926,5,0,0:0:0:0:
452,52,103084,1,0,0:0:0:0:
452,52,103163,1,0,0:0:0:0:
452,52,103242,1,8,0:0:0:0:
136,248,103399,1,0,0:0:0:0:
364,160,103557,6,0,L|452:144,1,69.9999978637696,2|0,0:0|2:0,0:0:0:0:
292,168,103715,2,0,L|234:99,1,69.9999978637696,2|0,0:2|2:0,0:0:0:0:
332,228,103873,2,0,L|301:312,1,69.9999978637696,8|0,0:0|2:0,0:0:0:0:
92,100,104031,6,0,L|34:31,1,69.9999978637696,2|0,0:0|2:0,0:0:0:0:
104,124,104189,2,0,L|73:208,1,69.9999978637696,2|0,0:2|2:0,0:0:0:0:
120,100,104347,2,0,L|208:84,1,69.9999978637696,2|0,0:2|2:0,0:0:0:0:
512,84,104505,6,0,L|444:97,1,69.9999978637696,10|0,0:0|2:0,0:0:0:0:
328,52,104663,2,0,L|374:106,1,69.9999978637696,2|0,0:1|2:0,0:0:0:0:
388,228,104821,2,0,L|413:163,1,69.9999978637696,2|0,0:2|2:0,0:0:0:0:
191,313,104978,6,0,L|216:248,1,69.9999978637696,2|0,0:0|2:0,0:0:0:0:
295,209,105136,2,0,L|227:222,1,69.9999978637696,10|0,0:0|2:0,0:0:0:0:
152,172,105294,2,0,L|198:226,1,69.9999978637696,2|0,0:2|2:0,0:0:0:0:
420,360,105452,6,0,P|472:356|504:348,1,69.9999978637696,2|0,0:0|2:0,0:0:0:0:
480,280,105610,2,0,P|428:284|396:292,1,69.9999978637696,2|0,0:0|2:0,0:0:0:0:
129,368,105768,6,0,P|94:374|52:376,1,69.9999978637696,8|0,0:0|2:0,0:0:0:0:
50,303,105926,2,0,P|85:297|128:296,1,69.9999978637696,8|8,0:0|2:0,0:0:0:0:
292,364,106084,5,4,0:2:0:0:
220,344,106242,1,0,0:0:0:0:
296,292,106399,1,8,0:0:0:0:
240,240,106557,1,4,0:2:0:0:
276,172,106715,1,0,0:0:0:0:
256,96,106873,1,0,0:0:0:0:
308,28,107031,1,12,0:0:0:0:
160,108,107189,1,4,0:3:0:0:
324,176,107347,6,0,L|424:164,2,93.3333304850261,8|4|4,0:3|0:3|0:3,0:0:0:0:
308,264,107663,2,0,P|360:260|416:252,2,93.3333304850261,4|4|4,0:3|0:3|0:3,0:0:0:0:
244,184,107978,5,8,0:3:0:0:
236,92,108084,1,8,0:3:0:0:
160,148,108189,1,8,0:3:0:0:
256,268,108294,5,8,0:0:0:0:
244,184,108399,1,8,0:0:0:0:
168,240,108505,1,8,0:0:0:0:
336,216,108610,6,0,L|396:204,1,55.0000016784668,4|0,0:0|2:0,0:0:0:0:
460,264,108768,1,0,0:0:0:0:
460,264,108847,1,0,0:0:0:0:
460,264,108926,2,0,P|472:208|452:144,1,110.000003356934,8|0,0:0|0:0,0:0:0:0:
408,104,109163,1,0,0:0:0:0:
332,88,109242,2,0,L|216:112,1,110.000003356934
152,128,109478,1,0,0:0:0:0:
80,148,109557,1,8,0:0:0:0:
220,284,109715,1,0,0:0:0:0:
248,188,109873,5,0,0:0:0:0:
296,336,110031,1,0,0:0:0:0:
136,300,110189,1,8,0:0:0:0:
292,256,110347,1,0,0:0:0:0:
204,368,110505,5,0,0:0:0:0:
156,220,110663,1,0,0:0:0:0:
268,112,110820,1,8,0:0:0:0:
412,172,110978,1,0,0:0:0:0:
456,248,111136,6,0,P|396:264|336:260,1,110.000003356934
284,232,111373,2,0,L|160:256,1,110.000003356934,8|0,0:2|0:0,0:0:0:0:
104,288,111610,2,0,P|96:260|100:228,1,55.0000016784668,8|0,0:2|2:0,0:0:0:0:
216,72,111768,5,8,0:0:0:0:
156,88,111847,2,0,L|48:116,1,110.000003356934,8|8,0:2|2:0,0:0:0:0:
216,72,112084,2,0,L|172:192,1,110.000003356934,8|8,0:2|0:0,0:0:0:0:
156,244,112320,1,8,0:0:0:0:
188,308,112399,1,2,0:2:0:0:
240,244,112557,5,2,0:2:0:0:
368,184,112715,1,8,0:0:0:0:
296,64,112873,1,0,0:0:0:0:
344,352,113031,5,0,0:0:0:0:
324,272,113189,1,0,0:0:0:0:
404,252,113347,1,8,0:0:0:0:
428,332,113505,1,0,0:0:0:0:
200,216,113663,6,0,B|168:248|168:248|128:240,1,85.0000016212464,2|0,0:2|2:0,0:0:0:0:
96,272,113820,2,2,B|148:220|252:228|164:364|324:328,1,255.000004863739,2|0,0:1|2:0,0:1:0:0:
376,360,114136,2,0,P|380:320|356:276,1,85.0000016212464,2|0,0:0|2:0,0:0:0:0:
260,120,114294,5,2,0:0:0:0:
176,136,114452,1,2,0:0:0:0:
132,68,114610,1,8,0:0:0:0:
364,180,114768,6,2,B|448:216|500:124|396:96|332:132|312:204,1,255.000004863739,2|0,0:1|2:0,0:1:0:0:
300,288,115084,2,0,B|300:280|300:280|288:248|262:238|240:244,1,85.0000016212464,2|0,0:0|2:0,0:0:0:0:
140,192,115242,2,0,B|100:200|72:216|72:216|68:232,1,85.0000016212464,8|0,0:0|2:0,0:0:0:0:
60,304,115399,1,0,0:0:0:0:
180,336,115557,5,2,0:0:0:0:
216,200,115715,1,2,0:0:0:0:
248,60,115873,1,8,0:0:0:0:
248,60,116189,5,6,0:0:0:0:
460,152,116347,1,2,0:2:0:0:
400,96,116505,1,8,0:0:0:0:
380,172,116663,1,2,0:0:0:0:
340,372,116820,5,2,0:2:0:0:
428,332,116978,1,0,0:2:0:0:
192,240,117136,1,8,0:0:0:0:
144,332,117294,1,2,0:2:0:0:
336,248,117452,1,8,0:2:0:0:
256,64,117610,6,0,L|200:24,1,64.9999970245363,8|0,0:0|2:0,0:0:0:0:
256,64,117768,6,0,L|184:72,1,64.9999970245363,8|0,0:3|2:0,0:0:0:0:
256,64,117926,6,0,L|208:116,1,64.9999970245363,4|0,0:3|2:0,0:0:0:0:
256,64,118084,6,0,B|268:92|268:92|248:108|248:108|244:140,1,75.0000028610231,8|0,0:3|2:0,0:0:0:0:
224,200,118242,2,0,B|244:236|244:236|264:216|288:216,1,75.0000028610231,4|0,0:3|2:0,0:0:0:0:
108,212,118399,2,0,B|120:188|138:168|138:168|139:152|132:136,1,75.0000028610231,4|0,0:3|2:0,0:0:0:0:
196,320,118557,2,0,B|172:301|172:301|168:280|168:280|160:284|160:284|144:280,1,75.0000028610231,4|0,0:3|2:0,0:0:0:0:
304,328,118715,6,0,B|384:336|432:292|432:292|404:268|388:232,2,189.999994926453,4|0|8,0:0|0:0|0:0,0:0:0:0:
196,216,119189,1,0,0:0:0:0:
363,85,119347,6,0,B|420:109|420:109|434:80,1,94.9999974632264,0|0,0:0|2:0,0:0:0:0:
247,44,119505,2,0,B|204:73|200:109|200:109|223:93,1,94.9999974632264,0|0,0:0|2:0,0:0:0:0:
320,217,119663,2,0,B|353:203|320:138|287:164,1,94.9999974632264,8|0,0:0|2:0,0:0:0:0:
227,323,119820,2,0,B|221:333|221:333|217:329|217:329|191:368|191:368|142:371,1,94.9999974632264,0|0,0:0|2:0,0:0:0:0:
76,308,119978,6,0,B|55:288|55:288|76:213,1,94.9999974632264,0|0,0:0|2:0,0:0:0:0:
112,31,120136,2,0,B|124:39|124:39|133:70|125:108|125:108|117:103|117:103|116:95,1,94.9999974632264,0|0,0:0|2:0,0:0:0:0:
164,214,120294,2,0,B|186:206|186:206|200:157|200:157|191:135,1,94.9999974632264,8|0,0:0|2:0,0:0:0:0:
272,68,120452,2,0,B|261:96|278:111|278:111|296:100|296:100|322:107,1,94.9999974632264,0|0,0:0|2:0,0:0:0:0:
278,237,120610,6,0,B|283:275|266:301|266:301|287:313|317:292,2,94.9999974632264,0|0|0,0:0|2:0|0:0,0:0:0:0:
324,180,120847,1,0,0:0:0:0:
272,128,120926,2,0,B|254:111|227:109|275:87|264:29,1,94.9999974632264,8|0,0:0|2:0,0:0:0:0:
432,85,121084,2,0,B|422:113|430:132|430:132|446:151|471:150,1,94.9999974632264,0|0,0:0|2:0,0:0:0:0:
195,189,121242,6,0,P|149:200|101:205,1,94.9999974632264,4|0,0:2|2:0,0:0:0:0:
23,52,121399,2,0,B|34:85|34:85|42:98|29:123|29:123|21:160,1,94.9999974632264,0|0,0:0|2:0,0:0:0:0:
46,343,121557,2,0,B|15:322|15:322|38:299|79:289,1,94.9999974632264,8|0,0:0|2:0,0:0:0:0:
200,322,121715,2,0,B|222:341|222:341|274:326|274:326|267:340,1,94.9999974632264,0|0,0:0|2:0,0:0:0:0:
327,83,121873,6,0,B|310:115|312:154|312:154|294:139,1,94.9999974632264,0|0,0:0|2:0,0:0:0:0:
178,78,122031,2,0,B|214:76|246:55|246:55|242:78,1,94.9999974632264,0|0,0:0|2:0,0:0:0:0:
252,210,122189,2,0,B|232:179|198:161|198:161|220:153,1,94.9999974632264,8|0,0:0|2:0,0:0:0:0:
224,160,122347,5,0,0:0:0:0:
224,160,122426,1,0,0:0:0:0:
224,160,122505,2,0,B|224:192|208:212|208:212|180:216|156:192,1,104.999996795654,0|0,0:0|2:0,0:0:0:0:
336,224,122663,2,0,B|308:208|298:184|298:184|309:157|342:149,1,104.999996795654,8|0,0:0|2:0,0:0:0:0:
220,292,122820,2,0,B|247:276|273:279|273:279|290:302|281:334,1,104.999996795654,10|0,0:0|2:0,0:0:0:0:
452,288,122978,5,8,0:0:0:0:
452,288,123057,1,8,0:0:0:0:
452,288,123136,2,0,B|416:304|392:328|392:328|364:304,1,104.999996795654,10|0,0:0|2:0,0:0:0:0:
448,160,123294,2,0,B|479:183|512:191|512:191|505:228,1,104.999996795654,10|0,0:0|2:0,0:0:0:0:
336,224,123452,2,0,B|340:184|331:152|331:152|366:139,1,104.999996795654,10|0,0:0|2:0,0:0:0:0:
256,192,123610,5,8,0:0:0:0:
256,192,123689,1,8,0:0:0:0:
256,192,123768,2,0,B|248:232|196:248|176:220,1,89.9999972534181,4|0,0:2|2:0,0:0:0:0:
120,188,123926,1,0,0:0:0:0:
176,60,124084,1,8,0:0:0:0:
116,112,124242,2,0,P|160:136|208:132,1,89.9999972534181
44,156,124399,5,0,0:0:0:0:
44,156,124557,1,0,0:0:0:0:
148,356,124715,1,8,0:0:0:0:
148,356,124873,1,0,0:0:0:0:
40,240,125031,5,0,0:0:0:0:
40,240,125189,1,0,0:0:0:0:
248,360,125347,1,8,0:0:0:0:
248,360,125505,1,0,0:0:0:0:
72,320,125663,5,0,0:0:0:0:
72,320,125820,1,0,0:0:0:0:
328,320,125978,1,8,0:0:0:0:
328,320,126136,1,0,0:0:0:0:
148,356,126294,5,0,0:0:0:0:
384,248,126452,1,0,0:0:0:0:
248,360,126610,5,8,0:0:0:0:
404,160,126768,1,0,0:0:0:0:
328,320,126926,5,8,0:0:0:0:
368,80,127084,1,0,0:0:0:0:
384,248,127242,5,8,0:0:0:0:
288,40,127399,1,0,0:0:0:0:
368,80,127557,5,8,0:0:0:0:
200,40,127715,1,0,0:0:0:0:
288,40,127873,5,8,0:0:0:0:
128,96,128031,1,0,0:0:0:0:
200,40,128189,5,8,0:0:0:0:
100,180,128347,1,0,0:0:0:0:
128,96,128505,5,8,0:0:0:0:
116,268,128663,1,8,0:0:0:0:
152,340,128820,6,0,P|236:344|308:336,1,139.999995727539,4|0,0:0|0:0,0:0:0:0:
416,176,129452,2,0,P|332:172|260:180,1,139.999995727539,2|0,0:0|0:0,0:0:0:0:
204,208,129926,1,2,0:0:0:0:
52,140,130242,1,2,0:0:0:0:
196,40,130557,1,2,0:0:0:0:
148,128,130715,5,8,3:0:0:0:
8,60,130952,1,4,3:0:0:0:
140,136,131189,1,4,3:0:0:0:
116,232,131347,6,0,L|140:312,1,69.9999978637696,8|0,3:0|0:0,0:0:0:0:
144,332,131584,2,0,P|200:356|244:344,1,104.999996795654,4|0,3:0|0:0,0:0:0:0:
296,284,131978,5,0,1:0:0:0:
412,200,132215,1,8,3:0:0:0:
248,116,132452,1,4,3:0:0:0:
328,92,132610,6,0,L|472:60,1,139.999995727539,2|0,0:0|0:0,0:0:0:0:
412,120,133084,1,2,0:0:0:0:
232,48,133242,6,0,P|184:60|132:128,1,129.999994049073,4|0,1:2|0:0,0:0:0:0:
104,80,133478,6,0,P|76:152|104:212,1,129.999994049073,4|0,1:2|0:0,0:0:0:0:
128,264,133715,6,0,B|136:300|136:300|116:320,1,64.9999970245363,4|0,1:2|0:0,0:0:0:0:
8,352,133873,5,2,0:0:0:0:
216,280,134189,1,2,0:0:0:0:
432,352,134505,1,2,0:0:0:0:
360,296,134663,1,2,0:0:0:0:
388,216,134820,1,2,0:0:0:0:
460,272,134978,2,0,P|432:208|460:120,1,139.999995727539,0|2,1:0|0:0,0:0:0:0:
304,72,135452,2,0,L|376:44,1,69.9999978637696,0|2,0:0|0:0,0:0:0:0:
256,96,135768,2,0,P|172:72|108:76,1,139.999995727539,2|2,0:0|0:0,0:0:0:0:
88,300,136399,5,8,0:0:0:0:
164,312,136505,1,4,3:3:0:0:
232,272,136610,1,12,3:3:0:0:
300,312,136715,5,8,0:0:0:0:
332,240,136820,1,0,1:0:0:0:
332,160,136926,1,0,1:0:0:0:
216,60,137031,5,8,0:0:0:0:
200,112,137136,1,4,3:3:0:0:
208,160,137242,1,8,3:3:0:0:
404,120,137347,5,8,3:3:0:0:
408,84,137452,1,4,3:3:0:0:
404,48,137557,1,4,3:3:0:0:
296,96,137663,5,12,0:2:0:0:
496,116,137820,1,8,0:2:0:0:
392,316,138136,5,8,3:3:0:0:
336,244,138293,1,8,0:3:0:0:
336,244,138452,1,0,1:0:0:0:
200,116,138610,5,0,1:0:0:0:
188,328,138768,1,0,1:0:0:0:
140,252,138926,6,0,P|128:232|112:216,1,40,4|0,0:0|0:0,0:0:0:0:
128,144,139242,2,0,P|112:132|88:124,1,40,8|0,0:0|0:0,0:0:0:0:
56,56,139557,5,0,0:0:0:0:
268,96,139715,1,0,0:0:0:0:
340,48,139873,1,8,0:0:0:0:
388,68,139952,1,0,0:0:0:0:
436,84,140031,2,0,L|480:72,1,40
340,152,140347,5,0,0:0:0:0:
392,224,140505,1,8,0:0:0:0:
344,296,140663,2,0,L|396:316,1,40
284,220,140978,1,0,0:0:0:0:
252,256,141057,1,0,0:0:0:0:
220,296,141136,2,0,L|236:340,1,40,8|0,0:0|0:0,0:0:0:0:
216,128,141452,6,0,L|160:128,1,50,0|0,0:0|2:0,0:0:0:0:
312,40,141610,2,0,L|256:40,1,40,0|0,0:0|2:0,0:0:0:0:
248,228,141768,2,0,L|180:228,1,44.999998626709,8|0,0:0|2:0,0:0:0:0:
128,44,141926,2,0,L|64:44,1,40,0|0,0:0|2:0,0:0:0:0:
108,344,142084,2,0,L|48:344,1,44.999998626709,0|0,0:0|2:0,0:0:0:0:
64,240,142242,2,0,L|0:240,1,44.999998626709,0|0,0:0|2:0,0:0:0:0:
268,324,142399,2,0,L|208:324,1,50,8|0,0:0|2:0,0:0:0:0:
88,136,142557,2,0,L|24:136,1,44.999998626709,0|0,0:0|2:0,0:0:0:0:
308,152,142715,6,0,L|364:152,1,50,0|0,0:0|2:0,0:0:0:0:
456,248,142873,2,0,L|512:248,1,44.999998626709,0|0,0:0|2:0,0:0:0:0:
472,140,143031,2,0,L|536:140,1,40,8|0,0:0|2:0,0:0:0:0:
328,252,143189,2,0,L|380:252,1,44.999998626709,0|0,0:0|2:0,0:0:0:0:
308,352,143347,2,0,L|368:352,1,50,0|0,0:0|2:0,0:0:0:0:
440,52,143505,2,0,L|500:52,1,55.0000016784668,0|0,0:0|2:0,0:0:0:0:
448,336,143663,2,0,L|520:336,1,59.9999981689454,8|0,0:0|2:0,0:0:0:0:
304,48,143820,2,0,L|376:48,1,55.0000016784668,0|0,0:0|2:0,0:0:0:0:
224,164,143978,6,0,P|204:168|184:176,1,40,4|0,0:0|0:0,0:0:0:0:
76,236,144136,1,0,0:0:0:0:
108,272,144215,1,0,0:0:0:0:
96,324,144294,2,0,P|76:332|44:336,1,40,8|0,0:0|2:0,0:0:0:0:
224,164,144610,5,0,0:0:0:0:
192,264,144768,1,0,0:0:0:0:
304,180,144926,5,8,0:0:0:0:
340,80,145084,1,0,0:0:0:0:
256,80,145242,5,0,0:0:0:0:
428,120,145399,1,0,0:0:0:0:
408,204,145557,5,8,0:0:0:0:
232,168,145715,1,0,0:0:0:0:
232,168,145794,1,0,0:0:0:0:
232,168,145873,1,0,0:0:0:0:
208,252,146031,5,0,0:0:0:0:
392,292,146189,2,0,L|444:308,1,40,8|0,0:0|0:0,0:0:0:0:
120,244,146505,6,0,P|80:248|44:268,1,80,0|8,0:0|0:0,0:0:0:0:
4,332,146978,1,0,0:0:0:0:
96,328,147136,5,0,0:0:0:0:
140,100,147294,1,0,0:0:0:0:
92,32,147452,1,8,0:0:0:0:
56,124,147610,1,0,0:0:0:0:
188,224,147768,5,4,0:3:0:0:
248,264,147873,1,8,0:3:0:0:
320,272,147978,1,8,0:3:0:0:
388,252,148084,1,8,0:0:0:0:
416,188,148189,1,8,0:3:0:0:
416,116,148294,1,8,0:3:0:0:
352,148,148399,5,8,0:0:0:0:
284,172,148505,1,8,0:3:0:0:
220,136,148610,1,4,0:3:0:0:
188,72,148715,1,8,0:0:0:0:
188,144,148820,1,8,0:3:0:0:
168,216,148926,1,4,0:3:0:0:
108,252,149031,6,0,P|72:248|40:240,1,69.9999978637696,6|0,0:0|0:0,0:0:0:0:
132,156,149189,1,0,0:0:0:0:
132,156,149268,2,0,P|96:152|64:144,1,69.9999978637696,2|8,0:0|0:0,0:0:0:0:
168,64,149426,1,0,0:0:0:0:
168,64,149505,2,0,P|132:60|100:52,1,69.9999978637696,2|0,0:0|0:0,0:0:0:0:
252,104,149663,6,0,L|336:88,1,69.9999978637696
400,128,149820,6,0,L|416:212,1,69.9999978637696,2|0,0:0|2:0,0:0:0:0:
376,272,149978,6,0,L|292:288,1,69.9999978637696,8|0,0:0|2:0,0:0:0:0:
228,248,150136,6,0,L|212:164,1,69.9999978637696,2|0,0:0|2:1,0:0:0:0:
152,68,150294,6,0,L|132:148,1,69.9999978637696,2|0,0:0|2:0,0:0:0:0:
72,52,150452,2,0,L|44:160,1,89.9999972534181,2|0,0:0|2:0,0:0:0:0:
100,224,150610,6,0,L|120:304,1,69.9999978637696,8|0,0:0|2:0,0:0:0:0:
180,200,150768,2,0,L|208:312,1,89.9999972534181,2|0,0:0|0:0,0:0:0:0:
360,156,150926,6,0,L|344:240,1,69.9999978637696,2|0,0:2|2:0,0:0:0:0:
372,240,151084,6,0,L|332:160,1,80,2|0,0:2|2:0,0:0:0:0:
311,206,151242,6,0,L|396:236,1,89.9999972534181,10|0,0:0|2:0,0:0:0:0:
408,208,151399,6,0,L|312:236,1,100,2|0,0:2|1:1,0:0:0:0:
300,284,151557,5,2,0:2:0:0:
192,300,151715,5,2,0:2:0:0:
72,248,151873,5,10,0:0:0:0:
46,337,152031,5,2,0:2:0:0:
210,201,152189,5,2,0:2:0:0:
408,208,152347,5,2,0:2:0:0:
508,280,152505,5,10,0:0:0:0:
424,340,152663,5,2,0:2:0:0:
448,212,152820,6,0,L|436:216,1,10,2|0,0:0|2:0,0:0:0:0:
344,288,152978,6,0,L|332:284,1,10,2|0,0:0|2:0,0:0:0:0:
208,264,153136,6,0,L|200:252,1,10,10|0,0:0|2:0,0:0:0:0:
120,176,153294,6,0,L|116:164,1,10,2|0,0:0|2:0,0:0:0:0:
204,52,153452,5,0,0:0:0:0:
204,52,153531,2,0,L|172:103,2,50,8|0|0,0:2|0:0|0:0,0:0:0:0:
223,174,153768,1,8,0:0:0:0:
223,174,153847,2,0,L|184:235,2,50,8|0|8,0:2|0:0|0:2,0:0:0:0:
106,103,154084,6,0,P|79:109|59:117,1,50,4|0,0:0|0:0,0:0:0:0:
146,172,154242,1,0,0:0:0:0:
125,183,154320,2,0,B|88:193|85:223|58:200,1,50,8|8,0:2|0:0,0:0:0:0:
199,240,154478,1,0,0:0:0:0:
189,277,154557,2,0,B|177:311|177:311|155:309,1,50,8|0,0:2|0:0,0:0:0:0:
106,103,154715,6,0,B|111:135|110:155|110:155|121:158|121:158|140:197,1,75.0000028610231,8|8,0:2|0:2,0:0:0:0:
227,209,154873,1,0,0:0:0:0:
199,240,154952,2,0,B|220:261|220:261|225:284|252:311,1,75.0000028610231,8|8,0:2|0:0,0:0:0:0:
354,148,155110,1,0,0:0:0:0:
365,192,155189,2,0,B|382:214|382:214|405:220|418:231|418:231|426:245,1,75.0000028610231,8|8,0:2|0:2,0:0:0:0:
344,53,155347,5,4,0:0:0:0:
344,53,155426,1,8,0:2:0:0:
344,53,155505,2,0,P|295:38|256:46,1,69.9999978637696,8|0,0:2|0:0,0:0:0:0:
203,67,155663,2,0,P|154:52|115:60,1,69.9999978637696,8|8,0:0|0:2,0:0:0:0:
370,174,155820,5,8,0:2:0:0:
354,148,155899,1,0,0:0:0:0:
331,131,155978,2,0,P|282:116|243:124,1,69.9999978637696,8|0,0:0|0:0,0:0:0:0:
190,145,156136,2,0,P|141:130|102:138,1,69.9999978637696,8|8,0:2|0:2,0:0:0:0:
298,244,156294,6,0,B|232:210,1,75.0000028610231,8|0,0:0|0:0,0:0:0:0:
96,241,156452,2,0,B|177:280,1,75.0000028610231,8|8,0:2|0:2,0:0:0:0:
391,205,156610,6,0,B|435:169|435:169|406:165,1,80,12|0,0:2|0:0,0:0:0:0:
272,83,156768,5,8,0:2:0:0:
272,83,156847,1,8,0:2:0:0:
272,83,156926,2,0,B|215:86|215:86|236:106,1,80,8|0,0:0|2:0,0:0:0:0:
290,248,157084,6,0,B|337:278|337:278|332:249,1,80,8|0,0:2|2:0,0:0:0:0:
379,90,157242,5,0,0:0:0:0:
379,90,157320,1,8,0:2:0:0:
379,90,157399,2,0,B|358:37|358:37|345:63,1,80,8|0,0:2|2:0,0:0:0:0:
213,176,157558,6,0,B|198:230|198:230|224:217,1,80,8|0,0:0|2:0,0:0:0:0:
391,205,157715,5,8,0:2:0:0:
391,205,157794,1,8,0:2:0:0:
391,205,157873,2,0,B|428:168|428:168|389:164,1,89.9999972534181,12|8,0:2|0:2,0:0:0:0:
256,39,158031,5,0,0:0:0:0:
251,61,158110,1,8,0:2:0:0:
245,80,158189,2,0,B|237:127|237:127|200:84,1,89.9999972534181,8|0,0:0|2:0,0:0:0:0:
244,312,158347,2,0,B|254:268|254:268|276:308,1,89.9999972534181,8|0,0:0|2:0,0:0:0:0:
51,320,158505,5,8,0:2:0:0:
92,312,158584,1,8,0:2:0:0:
136,304,158663,2,0,B|167:254|167:254|143:254|135:278,1,100,8|0,0:2|1:0,0:0:0:0:
48,32,158820,2,0,B|43:54|28:66|28:66|16:92|40:132,1,100,8|0,0:0|2:0,0:0:0:0:
248,120,158978,2,0,B|216:104|216:104|152:144,1,100,8|8,0:2|1:2,0:0:0:0:
24,216,159136,6,0,P|20:232|32:220,1,40,4|0,2:2|2:0,0:0:0:0:
81,91,164189,6,0,P|124:88|168:81,1,80,4|0,0:2|0:0,0:0:0:0:
85,164,164505,2,0,P|128:161|172:154,1,80
90,236,164820,2,0,P|133:233|177:226,1,80,8|0,0:2|0:0,0:0:0:0:
250,184,165136,1,0,2:0:0:0:
335,218,165294,2,0,P|426:192|498:210,2,160
271,261,166084,2,0,P|316:291|356:294,1,80,8|0,0:2|0:0,0:0:0:0:
270,181,166399,2,0,P|211:203|196:298,1,160
192,290,167031,5,0,0:0:0:0:
148,68,167347,1,8,0:2:0:0:
100,276,167663,1,0,0:0:0:0:
44,208,167820,5,0,0:0:0:0:
84,196,167899,1,8,0:2:0:0:
124,184,167978,2,0,L|208:208,1,80,8|0,0:0|0:0,0:0:0:0:
280,224,168294,6,0,P|300:220|312:208,1,29.9999990844727,0|0,0:0|2:0,0:0:0:0:
304,140,168452,6,0,P|320:116|320:96,1,29.9999990844727,2|0,0:2|2:0,0:0:0:0:
280,56,168610,6,0,P|280:36|268:20,1,29.9999990844727,2|0,0:2|2:0,0:0:0:0:
304,140,168768,6,0,P|288:132|268:132,1,29.9999990844727,0|0,0:0|2:0,0:0:0:0:
280,224,168926,6,0,P|268:240|264:256,1,29.9999990844727,8|0,0:3|2:0,0:0:0:0:
248,352,169084,6,0,P|260:336|264:320,1,29.9999990844727,4|0,0:3|2:0,0:0:0:0:
172,300,169242,6,0,P|128:304|84:264,1,104.999996795654,0|0,0:0|2:0,0:0:0:0:
72,248,169557,6,0,P|84:208|92:136,1,110.000003356934,4|0,0:0|0:2,0:0:0:0:
160,96,169794,1,8,0:2:0:0:
244,52,169873,2,0,P|232:100|228:160,1,110.000003356934,8|0,0:2|0:0,0:0:0:0:
396,328,170189,1,8,0:0:0:0:
412,216,170347,1,8,0:2:0:0:
168,344,170505,6,0,P|224:340|292:296,1,110.000003356934,2|0,0:0|0:0,0:0:0:0:
312,256,170742,1,2,0:0:0:0:
312,184,170820,1,8,0:0:0:0:
260,132,170899,1,0,0:0:0:0:
188,120,170978,1,2,0:0:0:0:
136,168,171057,1,0,0:0:0:0:
204,208,171136,6,0,P|156:240|88:236,1,110.000003356934,4|8,0:2|0:2,0:0:0:0:
36,211,171373,1,8,0:2:0:0:
0,148,171452,1,8,0:0:0:0:
23,82,171531,2,0,P|79:118|143:126,1,110.000003356934,8|8,0:2|0:2,0:0:0:0:
192,92,171768,5,2,0:1:0:0:
284,44,171926,1,0,0:0:0:0:
320,64,172005,1,2,0:0:0:0:
356,88,172084,2,0,L|316:204,1,110.000003356934,8|2,0:0|0:0,0:0:0:0:
352,232,172320,1,8,0:2:0:0:
380,272,172399,2,0,P|316:292|304:296,1,55.0000016784668,10|0,0:2|2:0,0:0:0:0:
284,316,172557,5,0,0:0:0:0:
228,368,172636,1,2,0:0:0:0:
152,360,172715,2,0,P|132:328|128:248,1,110.000003356934,8|2,0:0|0:0,0:0:0:0:
196,40,173031,5,2,0:0:0:0:
244,64,173110,2,0,L|112:100,1,110.000003356934,8|10,0:2|0:2,0:0:0:0:
288,112,173347,2,0,L|144:80,1,110.000003356934,8|8,0:0|0:2,0:0:0:0:
80,44,173584,2,0,P|64:76|72:128,1,80,2|4,0:0|0:2,0:0:0:0:
296,196,173820,5,8,0:2:0:0:
368,188,173899,1,0,0:2:0:0:
428,224,173978,1,8,0:0:0:0:
448,292,174057,1,8,0:0:0:0:
408,352,174136,1,8,0:0:0:0:
336,364,174215,1,8,0:0:0:0:
272,328,174294,6,0,P|236:328|196:348,1,75.0000028610231,12|0,0:0|2:0,0:0:0:0:
344,280,174452,6,2,B|276:224|192:212|192:212|160:264|84:272,1,255.000004863739,2|0,0:0|0:0,0:1:0:0:
272,328,174768,6,0,P|232:316|188:316,1,75.0000028610231,2|0,0:1|2:0,0:0:0:0:
336,116,174926,6,0,B|324:92|292:80|292:80|248:128|176:128,1,170.000003242493,2|2,0:0|0:0,0:0:0:0:
124,116,175163,1,8,0:2:0:0:
64,76,175242,1,8,0:0:0:0:
240,204,175399,6,0,B|248:240|248:240|224:272,1,75.0000028610231,10|8,0:2|0:2,0:0:0:0:
168,224,175557,1,8,0:2:0:0:
400,52,175715,5,2,0:1:0:0:
496,204,175873,1,10,0:0:0:0:
392,348,176031,1,0,0:0:0:0:
336,96,176189,5,4,0:2:0:0:
424,200,176347,1,8,0:2:0:0:
332,300,176505,1,8,0:0:0:0:
208,232,176663,1,8,0:2:0:0:
348,188,176820,6,0,P|315:211|276:228,1,75.0000028610231,0|0,0:0|2:0,0:0:0:0:
284,235,176978,6,0,P|333:216|361:188,1,85.0000016212464,8|0,0:2|2:0,0:0:0:0:
365,198,177136,6,0,P|329:234|273:250,1,94.9999974632264,8|0,0:0|2:0,0:0:0:0:
294,260,177294,6,0,P|346:240|378:200,1,104.999996795654,8|0,0:2|2:0,0:0:0:0:
389,211,177452,6,0,P|355:250|289:271,1,115.000002193451,8|0,0:2|2:0,0:0:0:0:
302,284,177610,6,0,P|356:266|398:212,1,125,8|0,0:2|2:0,0:0:0:0:
410,223,177768,6,0,P|372:272|298:295,1,135.000000514984,8|0,0:0|2:0,0:0:0:0:
313,310,177926,6,0,P|377:289|421:225,1,145.000004425049,8|0,0:2|2:0,0:0:0:0:
432,128,178084,6,0,L|496:176,1,66.6666666666667,8|4,0:3|2:3,0:0:0:0:
480,96,178189,2,0,L|489:16,1,66.6666666666667,4|8,0:3|2:3,0:0:0:0:
424,80,178294,2,0,L|350:111,1,66.6666666666667,8|4,0:3|2:3,0:0:0:0:
360,28,178399,6,0,L|256:68,2,106.666666666667,8|4|4,0:0|0:3|0:3,0:0:0:0:
64,72,178715,2,0,L|172:32,2,106.666666666667,4|8|4,0:3|0:3|0:3,0:0:0:0:
312,264,179031,5,8,0:0:0:0:
196,216,179136,1,8,0:3:0:0:
288,132,179242,1,8,0:3:0:0:
248,320,179347,6,0,P|160:336|80:336,1,160,4|0,0:0|0:0,0:0:0:0:
380,356,179663,2,0,P|248:324|136:320,1,239.999992675781,0|8,0:0|0:0,0:0:0:0:
76,288,180136,1,0,0:0:0:0:
0,308,180294,1,0,0:0:0:0:
328,80,180610,6,0,P|208:60|56:60,2,239.999992675781,0|0|8,0:0|0:0|0:0,0:0:0:0:
416,56,181399,1,0,2:0:0:0:
368,176,181557,2,0,P|296:164|228:144,1,119.999996337891
488,192,181873,6,0,P|360:196|248:244,2,239.999992675781,4|0|8,0:0|0:0|0:0,0:0:0:0:
64,156,182820,1,0,0:0:0:0:
196,344,183136,6,0,P|180:296|188:228,1,119.999996337891
324,280,183452,2,0,P|340:232|332:164,1,119.999996337891
312,360,183768,2,0,P|372:360|424:328,1,119.999996337891,8|0,0:0|2:0,0:0:0:0:
204,148,184084,2,0,P|144:148|92:180,1,119.999996337891
256,252,184399,6,0,L|288:136,1,119.999996337891,4|0,0:0|0:0,0:0:0:0:
220,324,184715,2,0,B|296:252|380:240|380:240|396:216|412:152,1,239.999992675781,0|8,0:0|0:0,0:0:0:0:
192,44,185347,1,0,0:0:0:0:
484,88,185663,6,0,B|384:68|292:136|292:136|316:136|340:152,2,239.999992675781,0|0|8,0:0|0:0|0:0,0:0:0:0:
116,172,186610,2,0,P|240:188|364:248,1,239.999992675781,0|4,0:0|0:0,0:0:0:0:
376,308,187084,6,0,B|380:332|380:332|416:328|416:328|412:304,1,85.0000016212464,2|0,0:0|2:0,0:0:0:0:
444,224,187242,6,0,B|457:244|457:244|488:225|488:225|477:202,1,85.0000016212464,2|0,0:0|2:0,0:0:0:0:
448,132,187399,5,2,0:0:0:0:
152,208,187557,6,0,B|136:232|112:240|112:240|136:240|152:264,1,100,4|0,0:2|2:0,0:0:0:0:
228,259,187715,6,0,B|244:235|268:227|268:227|244:227|228:203,1,100,2|0,0:0|2:0,0:0:0:0:
108,224,187873,6,0,B|156:236|156:236|112:264,1,100,2|0,0:0|2:0,0:0:0:0:
279,243,188031,6,0,B|231:231|231:231|275:203,1,100,2|0,0:0|2:0,0:0:0:0:
72,64,188189,5,8,0:2:0:0:
128,68,188268,1,0,0:0:0:0:
184,88,188347,1,8,0:0:0:0:
236,64,188426,1,8,0:0:0:0:
292,48,188505,1,12,0:2:0:0:
72,64,188663,5,8,0:2:0:0:
136,88,188742,1,8,0:2:0:0:
188,132,188820,1,8,0:0:0:0:
232,80,188899,1,0,0:0:0:0:
292,48,188978,1,8,0:2:0:0:
72,64,189136,5,8,0:3:0:0:
128,60,189215,1,8,0:3:0:0:
184,56,189294,1,4,0:3:0:0:
240,52,189373,1,4,0:3:0:0:
292,48,189452,2,0,P|336:40|384:44,1,75.0000028610231,4|0,0:0|2:0,0:0:0:0:
464,192,189610,2,0,P|420:200|372:196,1,75.0000028610231,0|0,0:0|2:0,0:0:0:0:
416,116,189768,6,0,B|336:112|264:148|264:148|300:176|288:224,1,225.000008583069,8|0,0:0|2:0,0:0:0:0:
248,280,190084,6,0,P|220:312|184:328,1,75.0000028610231,0|0,0:0|2:0,0:0:0:0:
184,208,190242,2,0,P|144:224|108:224,1,75.0000028610231,0|0,0:0|2:0,0:0:0:0:
148,120,190399,2,0,P|108:124|64:108,1,75.0000028610231,8|0,0:0|2:0,0:0:0:0:
48,112,190557,6,0,L|126:83,1,62.5,2|0,0:0|2:0,0:0:0:0:
224,56,190715,6,0,P|264:68|300:96,1,80,2|0,0:0|2:0,0:0:0:0:
280,184,190873,2,0,P|316:208|348:260,1,80,0|0,0:0|2:0,0:0:0:0:
248,280,191031,2,0,P|264:324|260:376,1,80,10|0,0:0|2:0,0:0:0:0:
184,220,191189,6,0,L|224:120,1,100,2|8,0:2|1:2,0:0:0:0:
436,48,191347,5,8,0:2:0:0:
452,100,191426,1,8,0:2:0:0:
456,156,191505,1,8,0:2:0:0:
452,212,191584,1,8,0:2:0:0:
444,268,191663,1,8,0:0:0:0:
472,344,191820,1,8,0:0:0:0:
360,272,191978,6,0,B|344:268|324:256|324:256|280:280|272:308,1,100,4|0,0:0|2:0,0:0:0:0:
124,352,192136,2,0,B|140:356|160:368|160:368|204:344|212:316,1,100,0|0,0:0|2:0,0:0:0:0:
52,236,192294,5,8,0:0:0:0:
196,252,192452,1,0,0:0:0:0:
88,144,192610,6,0,B|60:132|52:96|72:72,1,85.0000016212464,0|0,0:0|2:0,0:0:0:0:
172,32,192768,2,0,B|192:54|184:90|156:104,1,85.0000016212464,0|0,0:0|2:0,0:0:0:0:
256,184,192926,2,0,B|235:161|243:125|271:111,1,85.0000016212464,8|8,0:0|0:2,0:0:0:0:
352,60,193084,5,8,0:2:0:0:
408,92,193163,1,8,0:2:0:0:
472,100,193242,1,4,0:2:0:0:
380,208,193399,1,4,0:2:0:0:
128,316,193557,6,0,L|224:232,1,100,10|0,0:0|0:0,0:0:0:0:
289,23,193715,6,0,L|260:147,1,100,2|0,0:0|0:0,0:0:0:0:
330,354,193873,6,0,L|279:236,1,100,12|0,0:2|0:0,0:0:0:0:
102,111,194031,6,0,L|211:176,1,100,2|0,0:0|0:0,0:0:0:0:
430,174,194189,6,0,L|302:185,1,100,10|0,0:1|0:0,0:0:0:0:
256,192,194347,5,0,0:0:0:0:
260,204,194426,1,0,0:0:0:0:
264,216,194505,2,0,B|260:180|280:140|280:140|276:60|196:32,1,200,4|0,0:0|0:0,0:0:0:0:
48,252,194820,2,0,B|96:308|176:296|176:296|144:328|120:328,1,200,8|0,0:0|0:0,0:0:0:0:
136,136,195136,6,0,B|184:120|244:104|244:104|296:112|296:184,2,200,8|0|8,0:2|0:0|0:0,0:0:0:0:
72,88,195610,1,0,0:0:0:0:
304,316,195768,2,0,B|368:312|416:256|416:256|416:220|432:168,1,200,8|0,0:2|0:0,0:0:0:0:
256,44,196084,2,0,B|240:136|240:136|272:176|264:248,1,200,8|0,0:0|0:0,0:0:0:0:
220,316,196399,5,8,0:2:0:0:
76,252,196557,1,0,0:0:0:0:
52,204,196636,1,8,0:2:0:0:
56,152,196715,1,8,0:2:0:0:
52,340,196873,1,8,0:0:0:0:
144,40,197031,5,8,0:2:0:0:
236,240,197189,1,0,0:0:0:0:
156,248,197347,5,8,0:0:0:0:
228,36,197505,1,0,0:0:0:0:
320,228,197663,5,8,0:2:0:0:
388,28,197820,1,0,0:0:0:0:
308,32,197978,5,8,0:0:0:0:
404,220,198136,1,0,0:0:0:0:
204,336,198294,5,2,0:0:0:0:
156,320,198399,1,0,0:0:0:0:
108,296,198505,1,2,0:0:0:0:
308,336,198610,5,10,0:0:0:0:
356,320,198715,1,0,0:0:0:0:
404,296,198821,1,2,0:0:0:0:
208,248,198926,5,10,0:0:0:0:
300,204,199031,1,8,0:2:0:0:
216,176,199136,1,4,0:3:0:0:
272,132,199242,1,8,0:0:0:0:
232,80,199347,1,8,0:2:0:0:
264,44,199452,1,4,0:3:0:0:
256,184,199557,5,4,0:2:0:0:
