osu file format v14

[General]
AudioFilename: audio.mp3
AudioLeadIn: 0
PreviewTime: 54528
Countdown: 0
SampleSet: Soft
StackLeniency: 0.7
Mode: 0
LetterboxInBreaks: 0
WidescreenStoryboard: 1

[Editor]
DistanceSpacing: 1
BeatDivisor: 4
GridSize: 32
TimelineZoom: 1.600001

[Metadata]
Title:REAL EXISTENCE
TitleUnicode:REAL EXISTENCE
Artist:BAND-MAID
ArtistUnicode:BAND-MAID
Creator:Lasse
Version:NORMAL
Source:
Tags:new beginning japanese english rock bandmaid
BeatmapID:2494390
BeatmapSetID:1197228

[Difficulty]
HPDrainRate:4
CircleSize:3.4
OverallDifficulty:5
ApproachRate:6
SliderMultiplier:0.999999999999999
SliderTickRate:1

[Events]
//Background and Video events
0,0,"1.jpg",0,0
//Break Periods
2,183811,187625
//Storyboard Layer 0 (Background)
//Storyboard Layer 1 (Fail)
//Storyboard Layer 2 (Pass)
//Storyboard Layer 3 (Foreground)
//Storyboard Layer 4 (Overlay)
//Storyboard Sound Samples

[TimingPoints]
2839,324.324324324324,4,2,2,65,1,0
2839,-100,4,2,2,65,0,0
8028,-100,4,2,2,67,0,0
13217,-100,4,2,1,72,0,0
14514,-100,4,2,2,72,0,0
18406,-100,4,2,2,72,0,0
22298,-100,4,2,2,70,0,0
23433,-100,4,2,2,64,0,0
23514,-100,4,2,2,62,0,0
23595,-111.111111111111,4,2,2,60,0,0
23920,-111.111111111111,4,2,2,55,0,0
32838,-111.111111111111,4,2,2,60,0,0
33325,-111.111111111111,4,2,2,65,0,0
33811,-100,4,2,2,64,0,0
34055,-100,4,2,2,38,0,0
34136,-100,4,2,2,64,0,0
43055,-100,4,2,2,67,0,0
43866,-100,4,2,2,60,0,0
44190,-100,4,2,2,50,0,0
44352,-100,4,2,1,65,0,0
45001,-100,4,2,2,65,0,0
45649,-100,4,2,2,65,0,0
46947,-100,4,2,1,65,0,0
47595,-100,4,2,2,65,0,0
48244,-100,4,2,2,65,0,0
49541,-100,4,2,2,70,0,0
51811,-100,4,2,2,64,0,0
51893,-100,4,2,2,62,0,0
51974,-100,4,2,2,60,0,0
52136,-100,4,2,2,40,0,0
52460,-100,4,2,2,50,0,0
52622,-100,4,2,2,60,0,0
53433,-100,4,2,2,65,0,0
54082,-100,4,2,2,70,0,0
54568,-90.9090909090909,4,2,1,75,0,1
55055,-90.9090909090909,4,2,2,75,0,1
57163,-90.9090909090909,4,2,2,75,0,1
57649,-90.9090909090909,4,2,2,75,0,1
58784,-90.9090909090909,4,2,2,75,0,1
59757,-90.9090909090909,4,2,1,75,0,1
60244,-90.9090909090909,4,2,2,75,0,1
62352,-90.9090909090909,4,2,2,75,0,1
62595,-90.9090909090909,4,2,2,50,0,1
62676,-90.9090909090909,4,2,2,75,0,1
62838,-90.9090909090909,4,2,2,75,0,1
64622,-90.9090909090909,4,2,2,75,0,1
65109,-90.9090909090909,4,2,2,75,0,1
69974,-90.9090909090909,4,2,2,75,0,1
70217,-90.9090909090909,4,2,2,50,0,1
70298,-100,4,2,2,70,0,0
72406,-100,4,2,1,40,0,0
72568,-100,4,2,1,46,0,0
72893,-100,4,2,2,70,0,0
74676,-100,4,2,2,40,0,0
75163,-100,4,2,2,50,0,0
75487,-100,4,2,2,53,0,0
75568,-100,4,2,2,54,0,0
75649,-100,4,2,2,55,0,0
75730,-100,4,2,2,56,0,0
75811,-100,4,2,2,57,0,0
75893,-100,4,2,2,58,0,0
75974,-100,4,2,2,59,0,0
76055,-100,4,2,2,60,0,0
76136,-100,4,2,2,61,0,0
76217,-100,4,2,2,62,0,0
76298,-100,4,2,2,63,0,0
76379,-100,4,2,2,64,0,0
76460,-100,4,2,2,65,0,0
76541,-100,4,2,2,66,0,0
76622,-100,4,2,2,67,0,0
76703,-100,4,2,2,68,0,0
76784,-100,4,2,2,68,0,0
81649,-100,4,2,2,68,0,0
81811,-100,4,2,2,60,0,0
81974,-100,4,2,2,70,0,0
84568,-100,4,2,4,72,0,0
84730,-100,4,2,2,72,0,0
85055,-100,4,2,4,73,0,0
85217,-100,4,2,2,73,0,0
85541,-100,4,2,4,74,0,0
85703,-100,4,2,2,74,0,0
86028,-100,4,2,4,75,0,0
86190,-100,4,2,2,75,0,0
86514,-100,4,2,4,75,0,0
86676,-100,4,2,2,74,0,0
86838,-100,4,2,4,70,0,0
88460,-111.111111111111,4,2,3,56,0,0
95757,-111.111111111111,4,2,3,60,0,0
96082,-111.111111111111,4,2,3,64,0,0
97379,-100,4,2,3,70,0,0
98028,-100,4,2,2,70,0,0
98676,-100,4,2,2,67,0,0
107920,-100,4,2,2,68,0,0
108893,-100,4,2,2,65,0,0
109217,-100,4,2,2,65,0,0
109703,-100,4,2,2,65,0,0
110514,-100,4,2,2,65,0,0
111811,-100,4,2,2,65,0,0
112298,-100,4,2,2,65,0,0
113109,-100,4,2,2,65,0,0
114406,-100,4,2,2,70,0,0
116676,-100,4,2,2,64,0,0
116757,-100,4,2,2,62,0,0
116838,-100,4,2,2,60,0,0
117001,-100,4,2,2,40,0,0
117325,-100,4,2,2,50,0,0
117487,-100,4,2,2,60,0,0
118298,-100,4,2,2,65,0,0
118784,-100,4,2,2,68,0,0
119271,-100,4,2,2,72,0,0
120730,-90.9090909090909,4,2,1,75,0,1
121217,-90.9090909090909,4,2,2,75,0,1
123325,-90.9090909090909,4,2,2,75,0,1
123811,-90.9090909090909,4,2,2,75,0,1
125920,-90.9090909090909,4,2,1,75,0,1
126406,-90.9090909090909,4,2,2,75,0,1
128514,-90.9090909090909,4,2,2,75,0,1
128757,-90.9090909090909,4,2,2,50,0,1
128838,-90.9090909090909,4,2,2,75,0,1
129001,-90.9090909090909,4,2,2,75,0,1
130784,-90.9090909090909,4,2,2,75,0,1
131271,-90.9090909090909,4,2,2,75,0,1
136136,-90.9090909090909,4,2,2,75,0,1
136379,-90.9090909090909,4,2,2,50,0,1
136460,-100,4,2,2,70,0,0
136947,-100,4,2,2,70,0,0
137757,-100,4,2,2,70,0,0
139055,-100,4,2,2,70,0,0
139541,-100,4,2,2,70,0,0
140838,-100,4,2,2,40,0,0
141325,-100,4,2,2,50,0,0
141649,-100,4,2,2,70,0,0
141811,-100,4,2,2,55,0,0
141974,-100,4,2,2,60,0,0
142947,-111.111111111111,4,2,2,60,0,0
146838,-111.111111111111,4,2,2,60,0,0
148136,-100,4,2,2,63,0,0
153001,-100,4,2,2,63,0,0
153244,-100,4,2,2,35,0,0
153325,-100,4,2,2,65,0,0
157217,-100,4,2,2,67,0,0
157866,-100,4,2,2,68,0,0
159811,-90.9090909090909,4,2,1,70,0,1
159893,-90.9090909090909,4,2,23,70,0,1
165001,-100,4,2,1,68,0,0
165325,-100,4,2,2,68,0,0
167595,-100,4,2,1,68,0,0
167920,-100,4,2,2,68,0,0
170190,-90.9090909090909,4,2,5,70,0,1
170271,-90.9090909090909,4,2,23,70,0,1
170676,-90.9090909090909,4,2,4,70,0,1
170757,-90.9090909090909,4,2,23,70,0,1
171163,-90.9090909090909,4,2,5,70,0,1
171244,-90.9090909090909,4,2,23,70,0,1
171649,-90.9090909090909,4,2,4,70,0,1
171730,-90.9090909090909,4,2,23,70,0,1
172136,-90.9090909090909,4,2,5,70,0,1
172217,-90.9090909090909,4,2,23,70,0,1
172622,-90.9090909090909,4,2,4,70,0,1
172703,-90.9090909090909,4,2,23,70,0,1
173028,-90.9090909090909,4,2,4,70,0,1
173109,-90.9090909090909,4,2,5,70,0,1
173271,-90.9090909090909,4,2,4,70,0,1
173433,-90.9090909090909,4,2,5,70,0,1
173595,-90.9090909090909,4,2,4,70,0,1
173757,-90.9090909090909,4,2,5,70,0,1
173920,-90.9090909090909,4,2,4,70,0,1
174082,-90.9090909090909,4,2,5,70,0,1
174244,-90.9090909090909,4,2,4,70,0,1
174406,-90.9090909090909,4,2,5,70,0,1
174568,-90.9090909090909,4,2,4,70,0,1
174649,-90.9090909090909,4,2,2,70,0,1
174893,-90.9090909090909,4,2,4,70,0,1
175055,-90.9090909090909,4,2,1,70,0,1
175217,-90.9090909090909,4,2,4,70,0,1
175379,-90.9090909090909,4,2,5,74,0,1
175420,-90.9090909090909,4,2,23,67,0,1
177811,-90.9090909090909,4,2,23,68,0,1
177974,-90.9090909090909,4,2,5,68,0,1
178014,-90.9090909090909,4,2,23,68,0,1
178298,-90.9090909090909,4,2,4,74,0,1
178338,-90.9090909090909,4,2,2,74,0,1
178622,-90.9090909090909,4,2,4,74,0,1
178784,-90.9090909090909,4,2,5,74,0,1
178947,-90.9090909090909,4,2,4,74,0,1
179271,-90.9090909090909,4,2,2,74,0,1
179595,-90.9090909090909,4,2,5,74,0,1
179757,-90.9090909090909,4,2,2,74,0,1
180406,-90.9090909090909,4,2,2,70,0,0
180893,324.324324324324,3,2,2,72,1,0
180893,-90.9090909090909,3,2,2,72,0,1
181379,-90.9090909090909,3,2,2,72,0,0
181865,-90.9090909090909,3,2,2,75,0,1
182352,-90.9090909090909,3,2,2,75,0,0
183811,324.324324324324,4,2,2,70,1,0
183811,-111.111111111111,4,2,2,70,0,0
188675,-100,4,2,2,60,0,0
189000,-100,4,2,2,60,0,0
189324,-100,4,2,2,60,0,0
190946,-100,4,2,2,65,0,0
191270,-100,4,2,2,64,0,0
191351,-100,4,2,2,62,0,0
191432,-100,4,2,2,60,0,0
191594,-100,4,2,2,40,0,0
191919,-100,4,2,2,50,0,0
192081,-100,4,2,2,60,0,0
192892,-100,4,2,2,65,0,0
193378,-100,4,2,2,68,0,0
193865,-100,4,2,2,72,0,0
194838,-100,4,2,2,70,0,0
195324,-100,4,2,1,74,0,1
195405,-100,4,2,2,40,0,0
196621,-100,4,2,2,50,0,0
196783,-100,4,2,2,74,0,1
196865,-100,4,2,2,74,0,0
197108,-100,4,2,2,70,0,0
197432,-100,4,2,2,60,0,0
197594,-100,4,2,2,64,0,0
197756,-100,4,2,2,66,0,0
197919,-100,4,2,4,68,0,0
198081,-100,4,2,1,74,0,1
198162,-100,4,2,2,40,0,0
199216,-100,4,2,2,50,0,0
199378,-100,4,2,2,74,0,1
199459,-100,4,2,2,40,0,0
200027,-100,4,2,2,60,0,0
200189,-100,4,2,2,65,0,0
200675,-100,4,2,1,66,0,0
200919,-100,4,2,1,5,0,0
201000,-100,4,2,2,66,0,0
201243,-100,4,2,1,5,0,0
201324,-100,4,2,2,66,0,0
201567,-100,4,2,1,5,0,0
201648,-100,4,2,2,66,0,0
201892,-100,4,2,1,5,0,0
201973,-100,4,2,2,68,0,0
202216,-100,4,2,1,5,0,0
202297,-100,4,2,2,68,0,0
202540,-100,4,2,1,5,0,0
202621,-100,4,2,2,68,0,0
202865,-100,4,2,1,5,0,0
202946,-100,4,2,2,68,0,0
203189,-100,4,2,1,5,0,0
203270,-100,4,2,2,70,0,0
203513,-100,4,2,1,5,0,0
203594,-100,4,2,2,72,0,0
203838,-100,4,2,1,5,0,0
203919,-100,4,2,2,74,0,0
204162,-100,4,2,1,5,0,0
204243,-100,4,2,2,75,0,0
205702,-90.9090909090909,4,2,1,78,0,1
206189,-90.9090909090909,4,2,2,78,0,1
208297,-90.9090909090909,4,2,2,78,0,1
208783,-90.9090909090909,4,2,2,78,0,1
210892,-90.9090909090909,4,2,1,78,0,1
211378,-90.9090909090909,4,2,2,78,0,1
213486,-90.9090909090909,4,2,2,75,0,1
213729,-90.9090909090909,4,2,2,50,0,1
213810,-90.9090909090909,4,2,2,78,0,1
213973,-90.9090909090909,4,2,2,78,0,1
215756,-90.9090909090909,4,2,2,78,0,1
216243,-90.9090909090909,4,2,2,78,0,1
221108,-90.9090909090909,4,2,2,78,0,1
221351,-90.9090909090909,4,2,2,50,0,1
221432,-100,4,2,2,70,0,0
223540,-100,4,2,1,40,0,0
223702,-100,4,2,1,46,0,0
224027,-100,4,2,2,70,0,0
225810,-100,4,2,2,40,0,0
226297,-100,4,2,2,50,0,0
226621,-100,4,2,2,53,0,0
226702,-100,4,2,2,54,0,0
226783,-100,4,2,2,55,0,0
226865,-100,4,2,2,56,0,0
226946,-100,4,2,2,57,0,0
227027,-100,4,2,2,58,0,0
227108,-100,4,2,2,59,0,0
227189,-100,4,2,2,60,0,0
227270,-100,4,2,2,61,0,0
227351,-100,4,2,2,62,0,0
227432,-100,4,2,2,63,0,0
227513,-100,4,2,2,64,0,0
227594,-100,4,2,2,65,0,0
227675,-100,4,2,2,66,0,0
227756,-100,4,2,2,67,0,0
227838,-100,4,2,2,68,0,0
231648,-100,4,2,2,68,0,0
232783,-100,4,2,2,68,0,0
233108,-100,4,2,1,70,0,0
233270,-100,4,2,2,70,0,0
233756,-100,4,2,1,70,0,0
234081,-100,4,2,2,70,0,0
235378,-100,4,2,1,70,0,0
235702,-100,4,2,2,70,0,0
236351,-100,4,2,1,70,0,0
236675,-100,4,2,2,70,0,0
238297,-100,4,2,1,72,0,0
238459,-100,4,2,2,72,0,0
243486,-100,4,2,2,74,0,0
244621,-100,4,2,2,76,0,0
244946,-100,4,2,99,76,0,0

[Colours]
Combo1 : 255,150,150
Combo2 : 150,180,240
Combo3 : 255,185,130
Combo4 : 140,200,180

[HitObjects]
159,49,2839,5,14,0:1:0:0:
159,49,3001,1,14,0:1:0:0:
406,156,3974,5,14,0:1:0:0:
392,56,4298,1,14,0:1:0:0:
154,204,5433,5,14,0:1:0:0:
154,204,5595,1,14,0:1:0:0:
434,309,6568,6,2,P|445:263|441:190,2,99.9999999999999,14|10|10,0:1|0:1|0:1,0:1:0:0:
394,340,7379,2,0,P|325:319|285:322,1,99.9999999999999,10|8,0:0|0:0,0:0:0:0:
201,346,8028,5,14,0:1:0:0:
201,346,8190,2,2,B|148:361|148:361|86:344|72:280,1,150,10|12,0:0|0:0,0:1:0:0:
40,209,9001,1,14,0:1:0:0:
40,209,9163,2,2,B|63:165|47:113|47:113|88:60,1,150,8|8,0:0|0:0,0:1:0:0:
169,30,9974,1,8,0:1:0:0:
252,85,10298,1,14,0:0:0:0:
346,45,10622,5,14,0:1:0:0:
346,45,10784,2,2,B|399:30|399:30|461:47|471:113,1,150,8|8,0:0|0:0,0:1:0:0:
487,189,11595,1,4,0:3:0:0:
487,189,11757,1,10,0:0:0:0:
289,367,12893,6,0,B|288:351|288:351|282:345|283:338|283:338|279:330|280:325|280:325|277:302,1,50,8|8,2:0|2:0,0:0:0:0:
245,291,13217,6,0,P|178:304|147:288,1,99.9999999999999,14|8,0:1|0:0,0:0:0:0:
84,224,13866,1,10,0:1:0:0:
84,224,14028,2,0,L|74:163,1,50,10|8,0:1|0:0,0:0:0:0:
84,74,14514,2,0,P|117:42|176:35,1,99.9999999999999,14|8,0:1|0:0,0:0:0:0:
218,40,15001,1,2,0:0:0:0:
314,80,15325,1,10,0:1:0:0:
314,80,15487,1,10,0:0:0:0:
256,168,15811,6,0,B|234:207|234:207|253:262,1,99.9999999999999,14|8,0:1|0:0,0:0:0:0:
317,348,16460,1,10,0:1:0:0:
317,348,16622,2,0,P|359:339|383:339,1,50,10|8,0:1|0:0,0:0:0:0:
459,359,17109,2,0,B|491:338|491:338|486:269,1,99.9999999999999,14|8,0:1|0:0,0:0:0:0:
479,226,17595,1,2,0:0:0:0:
465,131,17920,1,10,0:1:0:0:
465,131,18082,1,10,0:0:0:0:
366,173,18406,6,0,B|316:181|316:181|258:156,1,99.9999999999999,14|8,0:1|0:0,0:0:0:0:
189,112,19055,1,10,0:1:0:0:
189,112,19217,2,0,L|169:48,1,50,10|8,0:1|0:0,0:0:0:0:
81,26,19703,2,0,P|46:60|42:109,1,99.9999999999999,14|8,0:1|0:0,0:0:0:0:
66,152,20190,1,2,0:0:0:0:
139,227,20514,1,10,0:1:0:0:
139,227,20676,1,10,0:0:0:0:
235,178,21001,6,0,P|284:161|346:170,1,99.9999999999999,14|8,0:1|0:0,0:0:0:0:
402,242,21649,1,10,0:1:0:0:
402,242,21811,2,0,L|396:295,1,50,10|12,0:1|0:0,0:0:0:0:
339,371,22298,2,0,B|329:365|316:366|316:366|302:358|290:362|290:362|283:355|271:358|271:358|261:350|255:355|255:355|238:346,1,99.9999999999999,8|8,0:0|0:0,0:0:0:0:
196,341,22784,1,8,0:3:0:0:
100,370,23109,1,4,0:3:0:0:
100,370,23271,1,8,0:0:0:0:
12,314,23595,6,0,P|8:256|26:209,1,89.999997253418,14|8,0:1|0:1,0:0:0:0:
73,156,24244,1,8,0:1:0:0:
162,159,24568,1,8,0:1:0:0:
213,233,24893,2,0,P|255:252|312:239,1,89.999997253418,10|8,0:1|0:1,0:0:0:0:
396,71,26028,5,12,0:0:0:0:
396,71,26190,2,0,P|354:51|299:53,1,89.999997253418,10|8,0:1|0:1,0:0:0:0:
223,70,26838,1,8,0:1:0:0:
141,32,27163,1,8,0:1:0:0:
59,70,27487,2,0,P|43:101|40:176,1,89.999997253418,10|8,0:1|0:1,0:0:0:0:
126,342,28622,5,12,0:0:0:0:
126,342,28784,2,0,L|228:337,1,89.999997253418,10|0,0:1|0:0,0:0:0:0:
297,375,29433,1,8,0:1:0:0:
380,341,29757,1,8,0:1:0:0:
464,371,30082,2,0,P|472:329|464:270,1,89.999997253418,10|8,0:1|0:1,0:0:0:0:
383,175,30893,6,0,L|286:163,1,89.999997253418,2|10,0:0|0:0,0:0:0:0:
260,193,31379,1,10,0:1:0:0:
218,274,31703,1,8,0:1:0:0:
218,274,31866,2,0,L|114:261,1,89.999997253418,2|2,0:0|0:0,0:0:0:0:
39,251,32514,1,2,0:0:0:0:
6,161,32838,6,0,B|-7:119|-7:119|17:71,1,89.999997253418,10|8,0:0|0:1,0:0:0:0:
44,45,33325,1,10,0:0:0:0:
44,45,33487,1,10,0:0:0:0:
157,86,33811,6,0,P|201:89|263:69,1,99.9999999999999,14|10,0:1|0:1,0:1:0:0:
362,85,34460,1,2,0:0:0:0:
362,85,34622,2,0,P|409:71|459:76,1,99.9999999999999,10|10,0:1|0:1,0:0:0:0:
497,107,35109,1,10,0:0:0:0:
497,107,35271,2,0,L|488:220,1,99.9999999999999,10|10,0:1|0:0,0:0:0:0:
486,310,35920,1,8,0:1:0:0:
486,310,36082,1,8,0:0:0:0:
397,355,36406,6,0,B|367:345|367:345|339:355|339:355|291:340,1,99.9999999999999,14|2,0:0|0:0,0:0:0:0:
257,319,36893,1,10,0:0:0:0:
225,224,37217,1,10,0:1:0:0:
274,137,37541,1,10,0:1:0:0:
220,52,37866,2,0,P|163:33|110:40,1,99.9999999999999,10|10,0:1|0:0,0:0:0:0:
34,79,38514,1,8,0:1:0:0:
34,79,38676,1,10,0:0:0:0:
17,177,39001,6,0,L|33:283,1,99.9999999999999,14|2,0:0|0:0,0:0:0:0:
57,318,39487,1,10,0:0:0:0:
148,358,39811,2,0,L|255:352,1,99.9999999999999,10|10,0:1|0:1,0:0:0:0:
297,357,40298,1,10,0:0:0:0:
297,357,40460,2,0,L|304:241,1,99.9999999999999,10|10,0:1|0:0,0:0:0:0:
270,110,41271,2,0,L|209:100,2,50,10|10|10,0:0|0:1|0:0,0:0:0:0:
314,88,41757,6,0,P|362:68|424:73,1,99.9999999999999,10|8,0:1|0:0,0:0:0:0:
451,95,42244,2,0,P|468:138|466:196,1,99.9999999999999,2|0,0:0|0:0,0:0:0:0:
457,240,42730,1,10,0:0:0:0:
391,316,43055,5,12,0:1:0:0:
297,281,43379,1,8,0:0:0:0:
212,333,43703,1,8,0:0:0:0:
212,333,43866,2,0,B|164:346|164:346|108:319,1,99.9999999999999,8|0,0:0|0:0,0:0:0:0:
75,298,44352,6,2,L|71:184,1,99.9999999999999,14|0,0:1|0:1,0:1:0:0:
171,202,45001,2,2,L|167:88,1,99.9999999999999,14|8,0:2|0:1,0:1:0:0:
248,41,45649,1,10,0:1:0:0:
248,41,45811,2,2,B|298:23|298:23|356:37,1,99.9999999999999,10|8,0:0|0:1,0:1:0:0:
390,51,46298,1,10,0:0:0:0:
481,91,46622,1,14,0:0:0:0:
503,196,46947,6,2,L|496:310,1,99.9999999999999,14|0,0:1|0:0,0:1:0:0:
402,327,47595,2,2,L|395:227,1,99.9999999999999,14|8,0:2|0:1,0:1:0:0:
345,140,48244,1,10,0:1:0:0:
345,140,48406,2,2,B|300:123|300:123|237:136,1,99.9999999999999,10|8,0:0|0:1,0:1:0:0:
207,161,48893,1,8,0:0:0:0:
225,259,49217,1,8,0:0:0:0:
172,344,49541,6,0,P|126:363|68:347,1,99.9999999999999,14|8,0:1|0:1,0:0:0:0:
7,289,50190,1,12,0:1:0:0:
7,289,50352,1,8,0:0:0:0:
23,190,50676,2,0,L|52:85,1,99.9999999999999,10|8,0:0|0:0,0:0:0:0:
69,47,51163,1,10,0:1:0:0:
162,81,51487,1,12,0:1:0:0:
261,73,51811,2,0,B|270:54|270:54|270:47|270:47|280:24,1,50,8|12,0:0|0:1,0:0:0:0:
456,119,52622,6,0,B|465:138|465:138|465:145|465:145|475:168,1,50,8|8,0:1|0:0,0:0:0:0:
509,258,53109,1,12,0:0:0:0:
438,328,53433,2,0,B|427:326|414:332|414:332|399:326|387:327|387:327|377:323|366:326|366:326|355:319|341:317,1,99.9999999999999,8|12,0:0|0:0,0:0:0:0:
245,347,54082,1,10,0:1:0:0:
245,347,54244,1,10,0:2:0:0:
143,291,54568,6,0,P|132:243|153:165,1,110.000003356934,14|8,0:1|0:1,0:0:0:0:
169,135,55055,1,10,0:0:0:0:
256,201,55379,1,10,0:0:0:0:
345,137,55703,1,10,0:0:0:0:
421,216,56028,1,10,0:0:0:0:
421,216,56190,1,10,0:1:0:0:
489,130,56514,2,0,B|506:82|485:29|485:29|406:16,1,165.0000050354,10|8,0:1|0:0,0:0:0:0:
373,40,57163,6,0,P|321:58|267:50,1,110.000003356934,14|8,0:1|0:1,0:0:0:0:
215,33,57649,1,10,0:0:0:0:
145,118,57974,1,10,0:0:0:0:
211,205,58298,1,10,0:0:0:0:
183,314,58622,1,10,0:0:0:0:
183,314,58784,1,10,0:1:0:0:
84,362,59109,2,0,B|45:350|37:332|37:332|27:282|62:228,1,165.0000050354,10|8,0:1|0:0,0:0:0:0:
109,204,59757,6,0,L|237:193,1,110.000003356934,14|8,0:1|0:1,0:0:0:0:
270,214,60244,1,10,0:0:0:0:
302,109,60568,1,10,0:0:0:0:
410,88,60893,1,10,0:0:0:0:
496,164,61217,1,10,0:0:0:0:
496,164,61379,1,10,0:1:0:0:
485,273,61703,2,0,B|465:328|465:328|400:359|347:310,1,165.0000050354,10|8,0:1|0:0,0:0:0:0:
322,286,62352,6,0,L|309:170,1,110.000003356934,14|10,0:1|0:1,0:0:0:0:
293,124,62838,1,10,0:0:0:0:
236,29,63163,1,10,0:0:0:0:
126,28,63487,1,10,0:0:0:0:
60,116,63811,1,10,0:0:0:0:
60,116,63974,1,10,0:1:0:0:
97,219,64298,2,0,B|171:254|171:254|254:206,1,165.0000050354,10|8,0:1|0:0,0:0:0:0:
330,145,65109,6,0,P|327:89|366:28,1,110.000003356934,14|10,0:1|0:0,0:0:0:0:
404,22,65595,1,10,0:1:0:0:
404,22,65757,2,0,P|453:47|487:111,1,110.000003356934,10|10,0:2|0:2,0:0:0:0:
479,147,66244,2,0,L|469:270,1,110.000003356934,10|8,0:1|0:1,0:0:0:0:
459,310,66730,1,10,0:2:0:0:
373,379,67055,1,10,0:2:0:0:
282,316,67379,1,10,0:2:0:0:
181,361,67703,6,0,P|131:371|74:349,1,110.000003356934,14|10,0:2|0:2,0:0:0:0:
34,315,68190,2,0,L|20:200,1,110.000003356934,10|8,0:1|0:1,0:0:0:0:
32,152,68676,1,10,0:2:0:0:
32,152,68838,2,0,B|97:130|97:130|110:192|164:212,1,165.0000050354,10|10,0:1|0:2,0:0:0:0:
202,226,69487,1,10,0:1:0:0:
288,158,69811,2,0,L|293:85,1,55.0000016784668,10|12,0:1|0:0,0:0:0:0:
355,26,70298,5,10,1:1:0:0:
355,26,70460,1,10,1:1:0:0:
440,78,70784,2,0,L|445:145,1,50,10|10,1:1|1:1,0:0:0:0:
503,200,71271,2,0,L|498:267,1,50,10|10,1:1|1:1,0:0:0:0:
441,331,71757,2,0,L|378:326,1,50,10|14,1:2|1:1,0:0:0:0:
138,372,72893,5,10,1:1:0:0:
138,372,73055,1,10,1:1:0:0:
50,324,73379,2,0,L|42:254,1,50,10|10,1:1|1:1,0:0:0:0:
0,184,73866,2,0,L|8:114,1,50,10|10,1:1|1:1,0:0:0:0:
75,63,74352,1,10,1:2:0:0:
75,63,74514,2,0,B|89:118|147:120|147:120|177:71|248:56,1,200,14|0,1:1|0:0,0:0:0:0:
329,45,75487,5,0,1:2:0:0:
388,125,75811,1,0,1:2:0:0:
333,209,76136,1,0,1:2:0:0:
396,286,76460,1,8,1:3:0:0:
337,380,76784,5,14,0:1:0:0:
337,380,76947,1,14,0:1:0:0:
118,200,77920,5,14,0:1:0:0:
132,298,78244,1,14,0:1:0:0:
432,175,79379,5,14,0:1:0:0:
432,175,79541,1,14,0:1:0:0:
210,40,80514,6,2,L|91:32,2,99.9999999999999,14|10|8,0:1|0:1|0:1,0:1:0:0:
255,60,81325,2,0,B|279:108|279:108|262:160,1,99.9999999999999,8|14,0:0|0:0,0:0:0:0:
173,207,81974,6,0,P|127:191|64:201,1,99.9999999999999,14|8,0:1|0:1,0:0:0:0:
35,224,82460,2,0,P|19:270|29:333,1,99.9999999999999,14|8,0:0|0:1,0:0:0:0:
60,354,82947,2,0,P|106:370|156:365,1,99.9999999999999,14|8,0:2|0:1,0:0:0:0:
205,354,83433,2,0,P|251:338|301:343,1,99.9999999999999,14|8,0:0|0:1,0:0:0:0:
344,369,83920,1,14,0:0:0:0:
438,336,84244,1,14,0:0:0:0:
427,229,84568,6,0,B|419:194|419:194|424:172|424:172|412:122,1,99.9999999999999,14|2,0:1|0:0,0:0:0:0:
378,96,85055,2,0,B|342:92|342:92|322:81|322:81|271:77,1,99.9999999999999,14|10,0:1|0:1,0:0:0:0:
244,111,85541,2,0,B|229:144|229:144|212:158|212:158|193:206,1,99.9999999999999,14|10,0:1|0:1,0:0:0:0:
200,247,86028,2,0,B|205:249|227:270|227:270|235:291|235:291|267:318,1,99.9999999999999,14|10,0:1|0:1,0:0:0:0:
303,352,86514,1,14,0:1:0:0:
400,330,86838,2,0,B|405:310|405:310|404:303|404:303|411:273,1,50,10|8,0:1|0:1,0:0:0:0:
467,169,88460,6,0,P|474:114|459:68,1,89.999997253418,10|10,0:1|0:1,0:0:0:0:
398,20,89109,1,8,0:1:0:0:
315,54,89433,1,10,0:1:0:0:
314,143,89757,2,0,L|330:240,1,89.999997253418,10|10,0:1|0:1,0:0:0:0:
142,359,90893,6,0,P|95:364|47:339,1,89.999997253418,10|10,0:0|0:0,0:0:0:0:
21,319,91379,1,10,0:1:0:0:
7,230,91703,1,8,0:1:0:0:
71,166,92028,1,10,0:1:0:0:
71,166,92190,2,0,L|170:159,1,89.999997253418,10|10,0:0|0:0,0:0:0:0:
186,196,92676,2,0,L|279:206,1,89.999997253418,8|10,0:1|0:1,0:0:0:0:
448,155,93649,6,0,P|458:97|445:52,1,89.999997253418,10|14,0:1|0:3,0:0:0:0:
378,14,94298,1,12,0:3:0:0:
310,73,94622,1,10,0:1:0:0:
225,42,94947,1,10,0:1:0:0:
161,105,95271,1,14,0:3:0:0:
215,228,95757,6,0,L|313:209,1,89.999997253418,10|10,0:2|0:1,0:0:0:0:
498,191,97379,5,14,0:1:0:0:
471,287,97703,1,14,0:1:0:0:
446,384,98028,1,10,0:0:0:0:
446,384,98190,1,14,0:1:0:0:
303,339,98676,6,0,P|262:325|193:332,1,99.9999999999999,14|8,0:1|0:1,0:0:0:0:
159,346,99163,1,10,0:0:0:0:
66,308,99487,2,0,P|54:263|73:193,1,99.9999999999999,10|10,0:1|0:0,0:0:0:0:
99,176,99974,1,10,0:0:0:0:
99,176,100136,2,0,L|210:161,1,99.9999999999999,10|10,0:1|0:0,0:0:0:0:
276,225,100784,1,8,0:1:0:0:
276,225,100947,1,8,0:0:0:0:
362,158,101271,6,0,B|379:113|379:113|359:56,1,99.9999999999999,14|2,0:0|0:0,0:0:0:0:
332,23,101757,1,10,0:0:0:0:
236,52,102082,1,10,0:1:0:0:
142,15,102406,1,10,0:1:0:0:
59,70,102730,2,0,B|37:117|37:117|50:163,1,99.9999999999999,10|10,0:1|0:0,0:0:0:0:
79,264,103379,1,10,0:1:0:0:
79,264,103541,1,10,0:0:0:0:
151,343,103866,6,0,P|192:352|254:329,1,99.9999999999999,14|2,0:0|0:0,0:0:0:0:
272,292,104352,2,0,L|277:177,1,99.9999999999999,10|10,0:0|0:1,0:0:0:0:
223,106,105001,1,10,0:1:0:0:
271,18,105325,1,10,0:1:0:0:
370,16,105649,1,10,0:0:0:0:
458,137,106136,2,0,L|511:155,2,50,10|10|10,0:0|0:0|0:1,0:0:0:0:
423,173,106622,6,0,P|383:186|320:163,1,99.9999999999999,10|8,0:1|0:0,0:0:0:0:
287,141,107109,2,0,P|288:97|266:42,1,99.9999999999999,2|0,0:0|0:0,0:0:0:0:
223,23,107595,1,10,0:0:0:0:
118,19,107920,5,12,0:1:0:0:
137,116,108244,1,8,0:0:0:0:
108,216,108568,1,8,0:3:0:0:
108,216,108730,2,0,P|94:264|105:317,1,99.9999999999999,8|4,0:3|0:3,0:0:0:0:
133,350,109217,6,2,B|180:334|180:334|232:340,1,99.9999999999999,14|0,0:1|0:1,0:1:0:0:
326,367,109866,2,2,B|376:372|376:372|423:356,1,99.9999999999999,14|8,0:2|0:1,0:1:0:0:
505,299,110514,1,10,0:1:0:0:
505,299,110676,2,2,B|492:185,1,99.9999999999999,10|8,0:0|0:1,0:1:0:0:
492,149,111163,1,10,0:0:0:0:
423,76,111487,1,14,0:0:0:0:
345,140,111811,6,2,L|338:254,1,99.9999999999999,14|0,0:1|0:0,0:1:0:0:
277,318,112460,2,2,L|166:308,1,99.9999999999999,14|8,0:2|0:1,0:1:0:0:
92,266,113109,1,14,0:1:0:0:
92,266,113271,2,2,B|81:221|81:221|97:166,1,99.9999999999999,10|8,0:0|0:1,0:1:0:0:
113,122,113757,1,8,0:0:0:0:
196,67,114082,1,8,0:0:0:0:
272,140,114406,6,0,L|283:242,1,99.9999999999999,14|8,0:1|0:1,0:0:0:0:
340,328,115055,1,12,0:1:0:0:
340,328,115217,1,8,0:0:0:0:
433,293,115541,2,0,P|453:245|443:190,1,99.9999999999999,10|8,0:0|0:0,0:0:0:0:
434,149,116028,1,10,0:1:0:0:
380,64,116352,1,12,0:1:0:0:
280,69,116676,2,0,B|259:65|259:65|252:67|252:67|227:65,1,50,8|12,0:0|0:1,0:0:0:0:
38,9,117487,6,0,B|38:30|38:30|41:36|41:36|43:61,1,50,8|8,0:1|0:0,0:0:0:0:
14,154,117974,1,8,0:0:0:0:
103,195,118298,6,0,P|147:175|197:178,1,99.9999999999999,14|8,0:0|0:1,0:0:0:0:
233,212,118784,2,0,B|215:249|215:249|240:320,1,99.9999999999999,14|8,0:0|0:1,0:0:0:0:
259,354,119271,1,14,0:0:0:0:
259,354,119433,1,14,0:1:0:0:
504,292,120244,5,10,0:0:0:0:
504,292,120406,1,8,0:1:0:0:
452,188,120730,6,0,B|437:153|437:153|442:128|442:128|423:76,1,110.000003356934,14|8,0:1|0:1,0:0:0:0:
401,34,121217,1,10,0:0:0:0:
292,14,121541,1,10,0:0:0:0:
188,54,121866,1,10,0:0:0:0:
81,24,122190,1,10,0:0:0:0:
81,24,122352,1,10,0:1:0:0:
27,120,122676,2,0,B|8:186|32:244|32:244|78:273,1,165.0000050354,10|8,0:1|0:0,0:0:0:0:
109,297,123325,6,0,P|156:279|215:287,1,110.000003356934,14|8,0:1|0:1,0:0:0:0:
261,314,123811,1,10,0:0:0:0:
352,375,124136,1,10,0:0:0:0:
454,335,124460,1,10,0:0:0:0:
455,229,124784,1,10,0:0:0:0:
455,229,124947,1,10,0:1:0:0:
357,176,125271,2,0,B|298:161|251:200|251:200|199:178,1,165.0000050354,10|8,0:1|0:0,0:0:0:0:
157,149,125920,6,0,P|144:99|172:40,1,110.000003356934,14|8,0:1|0:1,0:0:0:0:
208,12,126406,1,10,0:0:0:0:
304,64,126730,1,10,0:0:0:0:
408,29,127055,1,10,0:0:0:0:
499,98,127379,1,10,0:0:0:0:
499,98,127541,1,10,0:1:0:0:
492,207,127866,2,0,B|459:258|459:258|392:266|365:211,1,165.0000050354,10|8,0:1|0:0,0:0:0:0:
330,179,128514,6,0,P|342:129|311:66,1,110.000003356934,14|10,0:1|0:1,0:0:0:0:
290,30,129001,1,10,0:0:0:0:
197,90,129325,1,10,0:0:0:0:
107,26,129649,1,10,0:0:0:0:
38,112,129974,1,10,0:0:0:0:
38,112,130136,1,10,0:1:0:0:
96,204,130460,2,0,B|273:185,1,165.0000050354,10|8,0:1|0:0,0:0:0:0:
336,265,131271,6,0,B|330:305|347:337|347:337|390:361,1,110.000003356934,14|10,0:1|0:0,0:0:0:0:
430,370,131757,1,10,0:1:0:0:
504,289,132082,1,10,0:1:0:0:
461,187,132406,2,0,L|451:64,1,110.000003356934,10|8,0:1|0:1,0:0:0:0:
416,35,132893,1,10,0:2:0:0:
334,109,133217,1,10,0:2:0:0:
242,48,133541,1,10,0:2:0:0:
198,149,133866,6,0,B|197:184|197:184|209:206|209:206|203:270,1,110.000003356934,14|10,0:2|0:2,0:0:0:0:
141,346,134514,2,0,P|91:358|30:324,1,110.000003356934,10|10,0:2|0:2,0:0:0:0:
7,289,135001,2,0,L|24:117,1,165.0000050354,10|10,0:1|0:2,0:0:0:0:
33,70,135649,1,10,0:1:0:0:
126,12,135974,2,0,L|136:82,1,55.0000016784668,10|12,0:1|0:0,0:0:0:0:
175,162,136460,6,2,P|217:178|277:152,1,99.9999999999999,14|0,0:1|0:0,0:1:0:0:
355,114,137109,2,2,P|401:97|447:113,1,99.9999999999999,14|8,0:0|0:1,0:1:0:0:
507,206,137757,1,14,0:1:0:0:
507,206,137920,2,2,L|485:317,1,99.9999999999999,10|8,0:0|0:1,0:1:0:0:
457,343,138406,2,0,P|408:346|363:319,1,99.9999999999999,10|8,0:0|0:0,0:0:0:0:
307,229,139055,6,2,L|295:114,1,99.9999999999999,14|0,0:1|0:0,0:1:0:0:
236,49,139703,2,0,P|197:29|127:42,1,99.9999999999999,14|10,0:0|0:0,0:1:0:0:
100,62,140190,1,10,0:1:0:0:
40,142,140514,1,14,0:1:0:0:
40,142,140676,2,0,P|9:202|37:348,1,200,14|0,0:1|0:0,0:0:0:0:
130,384,141649,5,14,0:0:0:0:
202,314,141974,1,0,1:0:0:0:
144,232,142298,1,0,1:0:0:0:
200,149,142622,1,0,1:0:0:0:
301,174,142947,6,0,L|491:152,1,179.999994506836,14|0,0:1|0:0,0:0:0:0:
359,369,144568,6,0,L|341:319,1,44.999998626709,2|8,0:0|0:0,0:0:0:0:
277,265,145055,2,0,P|246:250|192:260,1,89.999997253418,10|8,0:3|0:3,0:0:0:0:
161,291,145541,2,2,P|136:341|33:308,1,179.999994506836,14|0,0:1|0:0,0:2:0:0:
5,143,146838,6,2,L|28:52,1,89.999997253418,2|0,0:0|0:0,0:1:0:0:
111,23,147487,1,8,0:0:0:0:
183,76,147811,1,8,0:0:0:0:
279,35,148136,6,0,P|322:19|395:27,1,99.9999999999999,14|0,0:1|0:0,0:0:0:0:
420,41,148622,1,8,0:1:0:0:
420,41,148784,2,0,L|438:142,1,99.9999999999999,14|10,0:0|0:1,0:0:0:0:
499,225,149433,1,14,0:1:0:0:
499,225,149595,2,0,L|487:342,1,99.9999999999999,10|8,0:0|0:1,0:0:0:0:
454,361,150082,2,0,P|415:364|350:334,1,99.9999999999999,10|10,0:0|0:0,0:0:0:0:
301,266,150730,5,14,0:1:0:0:
301,266,150893,2,0,L|291:155,1,99.9999999999999,10|8,0:0|0:1,0:0:0:0:
282,117,151379,1,14,0:0:0:0:
196,66,151703,1,10,0:1:0:0:
117,126,152028,1,14,0:1:0:0:
117,126,152190,2,0,L|107:237,1,99.9999999999999,8|8,0:0|0:1,0:0:0:0:
101,275,152676,1,10,0:0:0:0:
147,364,153001,1,10,0:3:0:0:
254,339,153325,6,0,B|291:336|291:336|314:350|314:350|369:346,1,99.9999999999999,14|0,0:1|0:0,0:0:0:0:
395,367,153811,1,8,0:1:0:0:
395,367,153974,2,0,L|405:259,1,99.9999999999999,14|10,0:0|0:1,0:0:0:0:
495,227,154622,1,14,0:1:0:0:
495,227,154784,2,0,L|485:119,1,99.9999999999999,10|8,0:0|0:1,0:0:0:0:
468,80,155271,2,0,B|425:55|425:55|375:68,1,99.9999999999999,14|10,0:0|0:0,0:0:0:0:
305,148,155920,5,14,0:1:0:0:
305,148,156082,2,0,L|294:265,1,99.9999999999999,10|8,0:2|0:1,0:0:0:0:
287,296,156568,1,10,0:0:0:0:
208,357,156893,1,10,0:0:0:0:
117,314,157217,1,14,0:1:0:0:
117,314,157379,2,0,L|109:201,1,99.9999999999999,10|8,0:0|0:1,0:0:0:0:
84,170,157866,1,10,0:0:0:0:
121,77,158190,1,10,0:0:0:0:
121,77,158352,1,10,0:1:0:0:
499,35,159811,5,14,2:1:0:0:
390,14,160136,1,10,2:1:0:0:
340,112,160460,1,10,2:1:0:0:
421,187,160784,1,10,2:1:0:0:
409,296,161109,1,10,2:1:0:0:
309,343,161433,1,10,2:1:0:0:
215,284,161757,1,10,2:1:0:0:
121,341,162082,1,10,2:1:0:0:
27,282,162406,6,0,P|22:214|38:165,1,110.000003356934,10|10,2:1|2:1,0:0:0:0:
117,103,163055,2,0,L|230:90,1,110.000003356934,10|10,2:1|2:1,0:0:0:0:
310,160,163703,1,10,2:1:0:0:
260,257,164028,1,10,2:1:0:0:
315,351,164352,2,0,L|428:364,1,110.000003356934,10|10,0:1|0:1,0:0:0:0:
499,283,165001,6,2,L|477:172,1,99.9999999999999,14|0,0:1|0:0,0:1:0:0:
456,92,165649,1,14,0:0:0:0:
456,92,165811,1,2,0:0:0:0:
367,44,166136,2,0,B|332:37|332:37|309:45|309:45|262:37,1,99.9999999999999,2|8,0:0|0:0,0:0:0:0:
224,58,166622,1,2,0:0:0:0:
135,23,166947,1,8,0:0:0:0:
135,23,167109,1,2,0:0:0:0:
40,138,167595,6,2,B|21:186|21:186|35:251,1,99.9999999999999,14|0,0:1|0:0,0:1:0:0:
65,332,168244,1,14,0:0:0:0:
65,332,168406,1,2,0:0:0:0:
160,361,168730,2,0,L|275:348,1,99.9999999999999,2|10,0:0|0:0,0:0:0:0:
306,367,169217,1,2,0:0:0:0:
399,331,169541,2,0,P|410:286|391:215,1,99.9999999999999,8|8,0:0|0:0,0:0:0:0:
326,156,170190,6,0,B|291:149|291:149|263:166|263:166|207:155,1,110.000003356934,14|10,0:1|0:1,0:0:0:0:
183,196,170676,2,0,B|168:222|168:222|178:267|178:267|161:313,1,110.000003356934,10|10,0:1|0:0,0:0:0:0:
132,342,171163,1,10,0:1:0:0:
14,226,171649,2,0,B|24:185|24:185|16:164|16:164|29:97,1,110.000003356934,10|10,0:1|0:0,0:0:0:0:
58,75,172136,2,0,B|90:66|90:66|114:78|114:78|172:69,1,110.000003356934,10|10,0:1|0:1,0:0:0:0:
213,48,172622,2,0,B|250:47|250:47|274:62|274:62|330:78,1,110.000003356934,10|10,0:1|0:0,0:0:0:0:
371,62,173109,5,10,0:1:0:0:
475,95,173433,1,10,0:1:0:0:
481,204,173757,1,10,0:1:0:0:
387,259,174082,1,10,0:1:0:0:
387,259,174244,1,10,0:1:0:0:
289,208,174568,2,0,L|268:78,1,110.000003356934,10|10,0:1|0:1,0:0:0:0:
175,38,175217,5,10,0:1:0:0:
175,38,175379,2,2,B|132:12|92:18|92:18|70:58|43:67|43:67|56:112|30:130|28:177|28:177|63:158|82:172|106:156|106:156|108:185|137:204|137:204|107:254|117:287|145:283|149:307|145:348|145:348|199:322|235:318|235:318|249:354|292:365|292:365|313:348|340:345,1,770.000023498535,14|12,0:1|0:0,0:1:0:0:
431,355,177974,6,2,B|437:327|447:314|447:314|434:294|434:294|438:280|440:243,1,110.000003356934,14|10,0:1|0:1,0:1:0:0:
442,202,178460,1,10,0:1:0:0:
442,202,178622,2,2,B|409:184|409:184|392:186|392:186|376:178|376:178|329:187,1,110.000003356934,10|10,0:1|0:1,0:1:0:0:
259,261,179271,1,12,0:1:0:0:
259,261,179433,2,0,B|213:292|213:292|155:261,1,110.000003356934,10|10,0:0|0:1,0:0:0:0:
110,258,179920,2,0,B|109:234|98:216|98:216|104:187|104:187|76:158|82:96,1,165.0000050354,10|14,0:0|0:1,0:0:0:0:
230,13,180893,6,0,L|235:72,1,55.0000016784668,10|10,0:0|0:0,0:0:0:0:
264,120,181217,2,0,L|269:179,1,55.0000016784668,10|14,0:0|0:1,0:0:0:0:
391,308,181865,6,0,L|396:249,1,55.0000016784668,10|10,0:0|0:0,0:0:0:0:
425,201,182190,2,0,L|430:142,1,55.0000016784668,10|14,0:0|0:1,0:0:0:0:
43,354,188675,6,0,B|49:331|49:331|46:325|46:325|50:291,1,50,8|8,0:0|0:0,0:0:0:0:
73,261,189000,6,0,P|113:245|178:259,1,99.9999999999999,14|10,0:1|0:1,0:0:0:0:
257,297,189648,2,0,P|305:306|352:289,1,99.9999999999999,10|8,0:1|0:1,0:0:0:0:
437,236,190297,1,10,0:1:0:0:
438,136,190621,1,10,0:1:0:0:
383,51,190946,2,0,P|336:34|287:43,1,99.9999999999999,10|8,0:1|0:0,0:0:0:0:
248,74,191432,6,0,B|235:156|235:156|248:182|248:182|232:286,1,200,12|8,0:1|0:1,0:0:0:0:
224,318,192243,1,8,0:0:0:0:
138,370,192567,1,8,0:0:0:0:
49,315,192892,6,0,P|42:261|68:208,1,99.9999999999999,14|8,0:0|0:1,0:0:0:0:
87,179,193378,2,0,B|98:147|98:147|93:124|93:124|108:77,1,99.9999999999999,14|8,0:0|0:1,0:0:0:0:
130,41,193865,1,14,0:0:0:0:
130,41,194027,1,14,0:1:0:0:
366,20,194838,5,10,0:1:0:0:
366,20,195000,1,10,0:0:0:0:
442,84,195324,6,0,B|492:175|438:300|438:300|359:339|319:275,1,350,14|0,0:1|0:0,0:2:0:0:
268,202,196783,2,0,P|282:121|229:80,1,150,14|10,0:1|0:0,0:0:0:0:
139,53,197594,2,0,L|128:4,2,50,8|4|8,0:3|0:3|0:3,0:0:0:0:
118,98,198081,6,0,P|14:188|52:347,1,300,14|0,0:1|0:0,0:0:0:0:
135,368,199378,2,0,P|227:334|336:350,1,200,14|0,0:1|0:0,0:0:0:0:
371,368,200189,2,0,B|379:369|379:369|386:369|386:369|394:372|394:372|401:368|401:368|407:368|407:368|422:366,1,50,8|12,0:1|0:0,0:0:0:0:
497,303,200675,5,14,0:1:0:0:
423,234,201000,1,10,0:1:0:0:
483,154,201324,1,10,0:1:0:0:
464,55,201648,1,10,0:1:0:0:
367,28,201973,2,0,L|264:14,1,99.9999999999999,10|10,0:1|0:1,0:0:0:0:
224,38,202459,1,2,0:0:0:0:
224,38,202621,2,0,P|199:80|211:144,1,99.9999999999999,10|10,0:1|0:1,0:0:0:0:
230,171,203108,6,0,L|340:155,1,99.9999999999999,2|2,0:0|0:0,0:0:0:0:
376,171,203594,1,14,0:1:0:0:
416,262,203919,1,14,0:1:0:0:
380,357,204243,1,14,0:0:0:0:
380,357,204405,1,14,0:1:0:0:
60,290,205702,6,0,B|68:172,1,110.000003356934,14|8,0:1|0:1,0:1:0:0:
72,125,206189,1,10,0:0:0:0:
159,58,206513,1,10,0:0:0:0:
254,112,206838,1,10,0:0:0:0:
231,222,207162,1,10,0:0:0:0:
231,222,207324,1,10,0:1:0:0:
306,302,207648,2,0,B|348:336|348:336|418:333|440:260,1,165.0000050354,10|8,0:1|0:0,0:0:0:0:
470,234,208297,6,0,L|449:108,1,110.000003356934,14|8,0:1|0:1,0:0:0:0:
439,72,208783,1,10,0:0:0:0:
347,11,209108,1,10,0:0:0:0:
264,83,209432,1,10,0:0:0:0:
172,21,209756,1,10,0:0:0:0:
172,21,209919,1,10,0:1:0:0:
76,75,210243,2,0,B|48:113|48:113|80:253,1,165.0000050354,10|8,0:1|0:0,0:0:0:0:
97,277,210892,6,0,L|224:254,1,110.000003356934,14|8,0:1|0:1,0:0:0:0:
259,265,211378,1,10,0:0:0:0:
226,159,211702,1,10,0:0:0:0:
274,60,212027,1,10,0:0:0:0:
384,37,212351,1,10,0:0:0:0:
384,37,212513,1,10,0:1:0:0:
473,101,212838,2,0,P|491:161|479:275,1,165.0000050354,10|8,0:1|0:0,0:0:0:0:
466,314,213486,6,0,L|356:300,1,110.000003356934,14|10,0:1|0:1,0:0:0:0:
308,274,213973,1,10,0:0:0:0:
252,369,214297,1,10,0:0:0:0:
166,299,214621,1,10,0:0:0:0:
82,370,214946,1,10,0:0:0:0:
82,370,215108,1,10,0:1:0:0:
15,282,215432,2,0,B|1:238|1:238|3:167|26:111,1,165.0000050354,10|8,0:1|0:0,0:0:0:0:
99,39,216243,6,0,L|220:30,1,110.000003356934,14|10,0:1|0:0,0:0:0:0:
259,51,216729,1,10,0:1:0:0:
259,51,216892,2,0,L|374:61,1,110.000003356934,10|10,0:2|0:2,0:0:0:0:
415,90,217378,2,0,P|440:136|427:192,1,110.000003356934,10|8,0:1|0:1,0:0:0:0:
389,228,217865,1,10,0:2:0:0:
285,190,218189,1,10,0:2:0:0:
182,150,218513,1,10,0:2:0:0:
64,189,218838,6,0,P|45:226|58:312,1,110.000003356934,14|10,0:2|0:2,0:0:0:0:
78,339,219324,2,0,L|199:332,1,110.000003356934,10|8,0:1|0:1,0:0:0:0:
236,357,219810,1,10,0:2:0:0:
236,357,219973,2,0,B|287:344|287:344|336:366|336:366|414:349,1,165.0000050354,10|10,0:1|0:2,0:0:0:0:
446,368,220621,1,10,0:1:0:0:
502,269,220946,2,0,L|492:196,1,55.0000016784668,10|12,0:1|0:0,0:0:0:0:
428,146,221432,5,10,1:1:0:0:
428,146,221594,1,10,1:1:0:0:
359,219,221919,2,0,P|325:236|293:235,1,50,10|10,1:1|1:1,0:0:0:0:
227,287,222405,2,0,P|190:274|169:251,1,50,10|10,1:1|1:1,0:0:0:0:
85,241,222892,2,0,P|68:207|69:174,1,50,10|14,1:2|1:1,0:0:0:0:
211,15,224027,5,10,1:1:0:0:
211,15,224189,1,10,1:1:0:0:
286,80,224513,2,0,P|295:106|294:150,1,50,10|10,1:1|1:1,0:0:0:0:
252,217,225000,2,0,P|243:243|244:287,1,50,10|10,1:1|1:1,0:0:0:0:
290,351,225486,1,10,1:2:0:0:
290,351,225648,2,0,B|342:326|403:363|403:363|440:360|470:312,1,200,14|0,1:1|0:0,0:0:0:0:
500,226,226621,5,0,1:2:0:0:
418,168,226946,1,0,1:2:0:0:
465,79,227270,1,0,1:2:0:0:
385,19,227594,1,8,1:3:0:0:
315,103,227919,5,14,0:1:0:0:
315,103,228081,1,14,0:1:0:0:
49,140,229054,5,14,0:1:0:0:
70,42,229378,1,14,0:1:0:0:
287,258,230513,5,14,0:1:0:0:
287,258,230675,1,14,0:1:0:0:
33,341,231648,6,2,L|24:234,2,99.9999999999999,14|10|8,0:1|0:1|0:1,0:1:0:0:
68,376,232459,2,0,P|123:383|167:344,1,99.9999999999999,8|14,0:0|0:0,0:0:0:0:
233,267,233108,5,14,0:1:0:0:
141,225,233432,1,2,0:0:0:0:
125,126,233756,1,14,0:0:0:0:
194,53,234081,1,10,0:1:0:0:
290,76,234405,2,0,L|401:58,1,99.9999999999999,14|2,0:1|0:0,0:0:0:0:
464,125,235054,2,0,P|478:174|462:236,1,99.9999999999999,8|14,0:0|0:0,0:0:0:0:
418,315,235702,5,14,0:1:0:0:
320,291,236027,1,2,0:0:0:0:
244,356,236351,1,14,0:0:0:0:
145,337,236675,1,10,0:1:0:0:
91,252,237000,2,0,P|82:209|96:144,1,99.9999999999999,14|2,0:1|0:0,0:0:0:0:
163,85,237648,2,0,L|271:69,1,99.9999999999999,8|8,0:0|0:0,0:0:0:0:
364,26,238297,5,14,0:1:0:0:
458,57,238621,1,8,0:1:0:0:
486,153,238946,1,8,0:1:0:0:
453,247,239270,1,14,0:1:0:0:
357,275,239594,1,8,0:1:0:0:
272,220,239919,2,0,L|264:107,2,99.9999999999999,8|8|8,0:1|0:1|0:1,0:0:0:0:
240,318,240892,5,14,0:1:0:0:
152,365,241216,1,8,0:1:0:0:
54,341,241540,1,8,0:1:0:0:
5,253,241865,1,14,0:1:0:0:
32,156,242189,1,8,0:1:0:0:
122,111,242513,2,0,L|236:97,2,99.9999999999999,8|8|8,0:1|0:1|0:1,0:0:0:0:
38,55,243486,5,14,0:1:0:0:
38,55,243648,1,14,0:1:0:0:
267,211,244621,5,14,0:1:0:0:
289,113,244946,1,14,0:1:0:0:
