osu file format v14

[General]
AudioFilename: audio.mp3
AudioLeadIn: 0
PreviewTime: 54528
Countdown: 0
SampleSet: Soft
StackLeniency: 0.7
Mode: 0
LetterboxInBreaks: 0
WidescreenStoryboard: 1

[Editor]
DistanceSpacing: 1.2
BeatDivisor: 4
GridSize: 32
TimelineZoom: 1.400001

[Metadata]
Title:REAL EXISTENCE
TitleUnicode:REAL EXISTENCE
Artist:BAND-MAID
ArtistUnicode:BAND-MAID
Creator:Lasse
Version:EASY
Source:
Tags:new beginning japanese english rock bandmaid
BeatmapID:2499318
BeatmapSetID:1197228

[Difficulty]
HPDrainRate:3
CircleSize:3
OverallDifficulty:4
ApproachRate:5
SliderMultiplier:0.799999999999999
SliderTickRate:1

[Events]
//Background and Video events
0,0,"1.jpg",0,0
//Break Periods
2,183811,187800
//Storyboard Layer 0 (Background)
//Storyboard Layer 1 (Fail)
//Storyboard Layer 2 (Pass)
//Storyboard Layer 3 (Foreground)
//Storyboard Layer 4 (Overlay)
//Storyboard Sound Samples

[TimingPoints]
2839,324.324324324324,4,2,2,65,1,0
2839,-100,4,2,2,65,0,0
8028,-100,4,2,2,67,0,0
13217,-100,4,2,1,72,0,0
14514,-100,4,2,2,72,0,0
18406,-100,4,2,2,72,0,0
22298,-100,4,2,2,70,0,0
23433,-100,4,2,2,64,0,0
23514,-100,4,2,2,62,0,0
23595,-111.111111111111,4,2,2,60,0,0
23920,-111.111111111111,4,2,2,55,0,0
32838,-111.111111111111,4,2,2,60,0,0
33325,-111.111111111111,4,2,2,65,0,0
33811,-100,4,2,2,64,0,0
34055,-100,4,2,2,38,0,0
34136,-100,4,2,2,64,0,0
43055,-100,4,2,2,67,0,0
43866,-100,4,2,2,60,0,0
44190,-100,4,2,2,50,0,0
44352,-100,4,2,1,65,0,0
45001,-100,4,2,2,65,0,0
45649,-100,4,2,2,65,0,0
46947,-100,4,2,1,65,0,0
47595,-100,4,2,2,65,0,0
48244,-100,4,2,2,65,0,0
49541,-100,4,2,2,70,0,0
51811,-100,4,2,2,64,0,0
51893,-100,4,2,2,62,0,0
51974,-100,4,2,2,60,0,0
52136,-100,4,2,2,40,0,0
52460,-100,4,2,2,50,0,0
52622,-100,4,2,2,60,0,0
53433,-100,4,2,2,65,0,0
54082,-100,4,2,2,70,0,0
54568,-90.9090909090909,4,2,1,75,0,1
55055,-90.9090909090909,4,2,2,75,0,1
57163,-90.9090909090909,4,2,2,75,0,1
57649,-90.9090909090909,4,2,2,75,0,1
58784,-90.9090909090909,4,2,2,75,0,1
59757,-90.9090909090909,4,2,1,75,0,1
60244,-90.9090909090909,4,2,2,75,0,1
62352,-90.9090909090909,4,2,2,75,0,1
62595,-90.9090909090909,4,2,2,50,0,1
62676,-90.9090909090909,4,2,2,75,0,1
62838,-90.9090909090909,4,2,2,75,0,1
64622,-90.9090909090909,4,2,2,75,0,1
65109,-90.9090909090909,4,2,2,75,0,1
69974,-90.9090909090909,4,2,2,75,0,1
70217,-90.9090909090909,4,2,2,50,0,1
70298,-100,4,2,2,70,0,0
72406,-100,4,2,1,40,0,0
72568,-100,4,2,1,46,0,0
72893,-100,4,2,2,70,0,0
74676,-100,4,2,2,40,0,0
75163,-100,4,2,2,40,0,0
75325,-100,4,2,2,50,0,0
75487,-100,4,2,2,53,0,0
75568,-100,4,2,2,54,0,0
75649,-100,4,2,2,55,0,0
75730,-100,4,2,2,56,0,0
75811,-100,4,2,2,57,0,0
75893,-100,4,2,2,58,0,0
75974,-100,4,2,2,59,0,0
76055,-100,4,2,2,60,0,0
76136,-100,4,2,2,61,0,0
76217,-100,4,2,2,62,0,0
76298,-100,4,2,2,63,0,0
76379,-100,4,2,2,64,0,0
76460,-100,4,2,2,65,0,0
76541,-100,4,2,2,66,0,0
76622,-100,4,2,2,67,0,0
76703,-100,4,2,2,68,0,0
76784,-100,4,2,2,68,0,0
81649,-100,4,2,2,68,0,0
81811,-100,4,2,2,60,0,0
81974,-100,4,2,2,70,0,0
84568,-100,4,2,4,72,0,0
84730,-100,4,2,2,72,0,0
85055,-100,4,2,4,73,0,0
85217,-100,4,2,2,73,0,0
85541,-100,4,2,4,74,0,0
85703,-100,4,2,2,74,0,0
86028,-100,4,2,4,75,0,0
86190,-100,4,2,2,75,0,0
86514,-100,4,2,4,75,0,0
86676,-100,4,2,2,74,0,0
86838,-100,4,2,4,70,0,0
88460,-111.111111111111,4,2,3,56,0,0
95757,-111.111111111111,4,2,3,60,0,0
96082,-111.111111111111,4,2,3,64,0,0
97379,-100,4,2,3,70,0,0
98028,-100,4,2,2,70,0,0
98676,-100,4,2,2,67,0,0
107920,-100,4,2,2,68,0,0
108893,-100,4,2,2,65,0,0
109217,-100,4,2,2,65,0,0
109703,-100,4,2,2,65,0,0
110514,-100,4,2,2,65,0,0
111811,-100,4,2,2,65,0,0
112298,-100,4,2,2,65,0,0
113109,-100,4,2,2,65,0,0
114406,-100,4,2,2,70,0,0
116676,-100,4,2,2,64,0,0
116757,-100,4,2,2,62,0,0
116838,-100,4,2,2,60,0,0
117001,-100,4,2,2,40,0,0
117325,-100,4,2,2,50,0,0
117487,-100,4,2,2,60,0,0
118298,-100,4,2,2,65,0,0
118784,-100,4,2,2,68,0,0
119271,-100,4,2,2,72,0,0
120730,-90.9090909090909,4,2,1,75,0,1
121217,-90.9090909090909,4,2,2,75,0,1
123325,-90.9090909090909,4,2,2,75,0,1
123811,-90.9090909090909,4,2,2,75,0,1
125920,-90.9090909090909,4,2,1,75,0,1
126406,-90.9090909090909,4,2,2,75,0,1
128514,-90.9090909090909,4,2,2,75,0,1
128757,-90.9090909090909,4,2,2,50,0,1
128838,-90.9090909090909,4,2,2,75,0,1
129001,-90.9090909090909,4,2,2,75,0,1
130784,-90.9090909090909,4,2,2,75,0,1
131271,-90.9090909090909,4,2,2,75,0,1
136136,-90.9090909090909,4,2,2,75,0,1
136379,-90.9090909090909,4,2,2,50,0,1
136460,-100,4,2,2,70,0,0
136947,-100,4,2,2,70,0,0
137757,-100,4,2,2,70,0,0
139055,-100,4,2,2,70,0,0
139541,-100,4,2,2,70,0,0
140838,-100,4,2,2,40,0,0
141325,-100,4,2,2,40,0,0
141487,-100,4,2,2,50,0,0
141649,-100,4,2,2,70,0,0
141811,-100,4,2,2,55,0,0
141974,-100,4,2,2,60,0,0
142947,-111.111111111111,4,2,2,60,0,0
146838,-111.111111111111,4,2,2,60,0,0
148136,-100,4,2,2,63,0,0
153001,-100,4,2,2,63,0,0
153244,-100,4,2,2,35,0,0
153325,-100,4,2,2,65,0,0
157217,-100,4,2,2,67,0,0
157866,-100,4,2,2,68,0,0
159811,-90.9090909090909,4,2,1,70,0,1
159893,-90.9090909090909,4,2,23,70,0,1
165001,-100,4,2,1,68,0,0
165325,-100,4,2,2,68,0,0
167595,-100,4,2,1,68,0,0
167920,-100,4,2,2,68,0,0
170190,-90.9090909090909,4,2,5,70,0,1
170271,-90.9090909090909,4,2,23,70,0,1
170676,-90.9090909090909,4,2,4,70,0,1
170757,-90.9090909090909,4,2,23,70,0,1
171163,-90.9090909090909,4,2,5,70,0,1
171244,-90.9090909090909,4,2,23,70,0,1
171649,-90.9090909090909,4,2,4,70,0,1
171730,-90.9090909090909,4,2,23,70,0,1
172136,-90.9090909090909,4,2,5,70,0,1
172217,-90.9090909090909,4,2,23,70,0,1
172622,-90.9090909090909,4,2,4,70,0,1
172703,-90.9090909090909,4,2,23,70,0,1
173028,-90.9090909090909,4,2,4,70,0,1
173109,-90.9090909090909,4,2,5,70,0,1
173271,-90.9090909090909,4,2,4,70,0,1
173433,-90.9090909090909,4,2,5,70,0,1
173595,-90.9090909090909,4,2,4,70,0,1
173757,-90.9090909090909,4,2,5,70,0,1
173920,-90.9090909090909,4,2,4,70,0,1
174082,-90.9090909090909,4,2,5,70,0,1
174244,-90.9090909090909,4,2,4,70,0,1
174406,-90.9090909090909,4,2,5,70,0,1
174568,-90.9090909090909,4,2,4,70,0,1
174649,-90.9090909090909,4,2,2,70,0,1
174893,-90.9090909090909,4,2,4,70,0,1
175055,-90.9090909090909,4,2,1,70,0,1
175217,-90.9090909090909,4,2,4,70,0,1
175379,-90.9090909090909,4,2,5,74,0,1
175420,-90.9090909090909,4,2,23,67,0,1
177811,-90.9090909090909,4,2,23,68,0,1
177974,-90.9090909090909,4,2,5,68,0,1
178014,-90.9090909090909,4,2,23,68,0,1
178298,-90.9090909090909,4,2,4,74,0,1
178338,-90.9090909090909,4,2,2,74,0,1
178622,-90.9090909090909,4,2,4,74,0,1
178784,-90.9090909090909,4,2,5,74,0,1
178947,-90.9090909090909,4,2,4,74,0,1
179271,-90.9090909090909,4,2,2,74,0,1
179595,-90.9090909090909,4,2,5,74,0,1
179757,-90.9090909090909,4,2,2,74,0,1
180406,-90.9090909090909,4,2,2,70,0,0
180893,324.324324324324,3,2,2,72,1,0
180893,-90.9090909090909,3,2,2,72,0,1
181379,-90.9090909090909,3,2,2,72,0,0
181865,-90.9090909090909,3,2,2,75,0,1
182352,-90.9090909090909,3,2,2,75,0,0
183811,324.324324324324,4,2,2,70,1,0
183811,-111.111111111111,4,2,2,70,0,0
188675,-100,4,2,2,60,0,0
189000,-100,4,2,2,60,0,0
189324,-100,4,2,2,60,0,0
190946,-100,4,2,2,65,0,0
191270,-100,4,2,2,64,0,0
191351,-100,4,2,2,62,0,0
191432,-100,4,2,2,60,0,0
191594,-100,4,2,2,40,0,0
191919,-100,4,2,2,50,0,0
192081,-100,4,2,2,60,0,0
192892,-100,4,2,2,65,0,0
193378,-100,4,2,2,68,0,0
193865,-100,4,2,2,72,0,0
194838,-100,4,2,2,70,0,0
195324,-100,4,2,1,74,0,1
195405,-100,4,2,2,40,0,0
196135,-100,4,2,2,50,0,0
196783,-100,4,2,2,74,0,1
196865,-100,4,2,2,74,0,0
197108,-100,4,2,2,70,0,0
197432,-100,4,2,2,60,0,0
197594,-100,4,2,2,64,0,0
197756,-100,4,2,2,66,0,0
197919,-100,4,2,4,68,0,0
198081,-100,4,2,1,74,0,1
198162,-100,4,2,2,40,0,0
198729,-100,4,2,2,50,0,0
199378,-100,4,2,2,74,0,1
199459,-100,4,2,2,40,0,0
200027,-100,4,2,2,60,0,0
200189,-100,4,2,2,65,0,0
200675,-100,4,2,1,66,0,0
200919,-100,4,2,1,5,0,0
201000,-100,4,2,2,66,0,0
201243,-100,4,2,1,5,0,0
201324,-100,4,2,2,66,0,0
201567,-100,4,2,1,5,0,0
201648,-100,4,2,2,66,0,0
201892,-100,4,2,1,5,0,0
201973,-100,4,2,2,68,0,0
202216,-100,4,2,1,5,0,0
202297,-100,4,2,2,68,0,0
202540,-100,4,2,1,5,0,0
202621,-100,4,2,2,68,0,0
202865,-100,4,2,1,5,0,0
202946,-100,4,2,2,68,0,0
203189,-100,4,2,1,5,0,0
203270,-100,4,2,2,70,0,0
203513,-100,4,2,1,5,0,0
203594,-100,4,2,2,72,0,0
203838,-100,4,2,1,5,0,0
203919,-100,4,2,2,74,0,0
204162,-100,4,2,1,5,0,0
204243,-100,4,2,2,75,0,0
205702,-90.9090909090909,4,2,1,78,0,1
206189,-90.9090909090909,4,2,2,78,0,1
208297,-90.9090909090909,4,2,2,78,0,1
208783,-90.9090909090909,4,2,2,78,0,1
210892,-90.9090909090909,4,2,1,78,0,1
211378,-90.9090909090909,4,2,2,78,0,1
213486,-90.9090909090909,4,2,2,75,0,1
213729,-90.9090909090909,4,2,2,50,0,1
213810,-90.9090909090909,4,2,2,78,0,1
213973,-90.9090909090909,4,2,2,78,0,1
215756,-90.9090909090909,4,2,2,78,0,1
216243,-90.9090909090909,4,2,2,78,0,1
221108,-90.9090909090909,4,2,2,78,0,1
221351,-90.9090909090909,4,2,2,50,0,1
221432,-100,4,2,2,70,0,0
223540,-100,4,2,1,40,0,0
223702,-100,4,2,1,46,0,0
224027,-100,4,2,2,70,0,0
225810,-100,4,2,2,40,0,0
226297,-100,4,2,2,40,0,0
226459,-100,4,2,2,50,0,0
226621,-100,4,2,2,53,0,0
226702,-100,4,2,2,54,0,0
226783,-100,4,2,2,55,0,0
226865,-100,4,2,2,56,0,0
226946,-100,4,2,2,57,0,0
227027,-100,4,2,2,58,0,0
227108,-100,4,2,2,59,0,0
227189,-100,4,2,2,60,0,0
227270,-100,4,2,2,61,0,0
227351,-100,4,2,2,62,0,0
227432,-100,4,2,2,63,0,0
227513,-100,4,2,2,64,0,0
227594,-100,4,2,2,65,0,0
227675,-100,4,2,2,66,0,0
227756,-100,4,2,2,67,0,0
227838,-100,4,2,2,68,0,0
231648,-100,4,2,2,68,0,0
232783,-100,4,2,2,68,0,0
233108,-100,4,2,1,70,0,0
233270,-100,4,2,2,70,0,0
233756,-100,4,2,1,70,0,0
234081,-100,4,2,2,70,0,0
235378,-100,4,2,1,70,0,0
235702,-100,4,2,2,70,0,0
236351,-100,4,2,1,70,0,0
236675,-100,4,2,2,70,0,0
238297,-100,4,2,1,72,0,0
238459,-100,4,2,2,72,0,0
243486,-100,4,2,2,74,0,0
244621,-100,4,2,2,76,0,0
244946,-100,4,2,99,76,0,0

[Colours]
Combo1 : 255,150,150
Combo2 : 150,180,240
Combo3 : 255,185,130
Combo4 : 140,200,180

[HitObjects]
104,300,2839,5,14,0:1:0:0:
322,349,3974,2,0,L|339:261,1,79.9999999999999,14|14,0:1|0:1,0:0:0:0:
405,57,5433,1,14,0:1:0:0:
231,172,6568,2,2,P|194:171|150:148,1,79.9999999999999,14|10,0:1|0:1,0:1:0:0:
73,65,7379,1,10,0:0:0:0:
73,65,7703,1,8,0:0:0:0:
40,144,8028,6,0,P|31:184|52:316,1,160,14|12,0:1|0:0,0:0:0:0:
119,348,9001,2,0,P|166:328|285:331,1,160,14|8,0:1|0:0,0:0:0:0:
359,364,9974,1,8,0:1:0:0:
359,364,10298,1,14,0:0:0:0:
433,316,10622,6,0,P|455:255|438:152,1,160,14|8,0:1|0:0,0:0:0:0:
397,87,11595,1,4,0:3:0:0:
103,37,13217,6,0,L|184:25,1,79.9999999999999,14|8,0:1|0:0,0:0:0:0:
240,91,13866,2,0,P|291:102|312:137,1,79.9999999999999,10|8,0:1|0:0,0:0:0:0:
355,195,14514,1,14,0:1:0:0:
330,324,15001,1,2,0:0:0:0:
460,346,15487,1,10,0:0:0:0:
486,262,15811,6,0,P|491:226|477:168,1,79.9999999999999,14|8,0:1|0:0,0:0:0:0:
421,121,16460,2,0,L|325:113,1,79.9999999999999,10|8,0:1|0:0,0:0:0:0:
266,161,17109,1,14,0:1:0:0:
233,32,17595,1,2,0:0:0:0:
103,59,18082,1,10,0:0:0:0:
52,131,18406,6,0,P|45:180|54:214,1,79.9999999999999,14|8,0:1|0:0,0:0:0:0:
101,282,19055,2,0,L|198:269,1,79.9999999999999,10|8,0:1|0:0,0:0:0:0:
262,241,19703,1,14,0:1:0:0:
254,109,20190,1,2,0:0:0:0:
366,39,20676,1,10,0:0:0:0:
444,77,21001,6,0,P|461:120|460:168,1,79.9999999999999,14|8,0:1|0:0,0:0:0:0:
453,241,21649,2,0,P|446:279|421:325,1,79.9999999999999,10|12,0:1|0:0,0:0:0:0:
356,367,22298,2,0,L|266:348,1,79.9999999999999,8|8,0:0|0:0,0:0:0:0:
198,376,22947,1,8,0:0:0:0:
198,376,23271,1,8,0:0:0:0:
135,311,23595,6,0,P|120:267|150:30,1,287.999991210937,14|10,0:1|0:1,0:0:0:0:
376,18,26028,2,0,B|457:126|440:251|440:251|409:293|384:312,1,323.999990112305,12|10,0:0|0:1,0:0:0:0:
198,370,28622,6,0,B|199:302|262:259|262:259|286:142|250:67,1,323.999990112305,12|10,0:0|0:1,0:0:0:0:
18,35,31379,2,0,B|42:322,1,287.999991210937,10|8,0:1|0:1,0:0:0:0:
291,362,33811,6,0,L|374:349,1,79.9999999999999,14|10,0:1|0:1,0:1:0:0:
454,374,34460,2,0,L|463:247,1,120,2|10,0:0|0:1,0:0:0:0:
469,170,35271,1,10,0:1:0:0:
469,170,35595,1,10,0:0:0:0:
308,19,36406,6,0,P|290:72|295:138,1,120,14|10,0:0|0:0,0:0:0:0:
332,220,37217,1,10,0:1:0:0:
332,220,37541,1,10,0:1:0:0:
295,300,37866,2,0,P|265:323|216:323,1,79.9999999999999,10|10,0:1|0:0,0:0:0:0:
20,239,39001,6,0,L|32:102,1,120,14|10,0:0|0:0,0:0:0:0:
82,50,39811,1,10,0:1:0:0:
82,50,40136,1,10,0:1:0:0:
157,95,40460,2,0,P|196:103|233:87,1,79.9999999999999,10|10,0:1|0:0,0:0:0:0:
344,19,41271,5,10,0:0:0:0:
447,100,41757,2,0,P|472:144|471:217,2,120,10|2|10,0:1|0:0|0:0,0:0:0:0:
102,30,44352,6,2,P|32:60|28:136,1,160,14|14,0:1|0:2,0:1:0:0:
91,301,45649,2,0,P|127:286|176:286,1,79.9999999999999,10|2,0:1|0:0,0:0:0:0:
250,327,46298,1,10,0:0:0:0:
250,327,46622,1,14,0:0:0:0:
329,288,46947,6,2,P|321:197|337:119,1,160,14|14,0:1|0:2,0:1:0:0:
474,18,48244,2,0,P|484:55|476:114,1,79.9999999999999,10|2,0:1|0:0,0:0:0:0:
427,165,48893,1,8,0:0:0:0:
427,165,49217,1,8,0:0:0:0:
337,181,49541,6,0,L|252:163,1,79.9999999999999,14|8,0:1|0:1,0:0:0:0:
207,92,50190,1,12,0:1:0:0:
94,160,50676,2,0,P|69:208|76:276,1,120,10|8,0:0|0:1,0:0:0:0:
127,342,51487,2,0,B|182:323|182:323|243:341,1,120,12|12,0:1|0:1,0:0:0:0:
495,378,53433,6,0,L|482:294,1,79.9999999999999,8|12,0:0|0:0,0:0:0:0:
460,213,54082,1,10,0:1:0:0:
378,92,54568,6,0,B|341:81|341:81|310:103|310:103|249:88,1,132.00000402832,14|10,0:1|0:0,0:0:0:0:
184,24,55379,1,10,0:0:0:0:
184,24,55703,1,8,0:0:0:0:
105,80,56028,2,0,P|88:105|94:211,1,132.00000402832,10|10,0:0|0:1,0:0:0:0:
214,350,57163,6,0,L|230:219,1,132.00000402832,14|10,0:1|0:0,0:0:0:0:
218,122,57974,1,8,0:0:0:0:
218,122,58298,1,8,0:0:0:0:
278,46,58622,1,10,0:0:0:0:
422,12,59109,1,10,0:1:0:0:
499,194,59757,6,0,L|487:335,1,132.00000402832,14|10,0:1|0:0,0:0:0:0:
405,376,60568,1,8,0:0:0:0:
405,376,60893,1,8,0:0:0:0:
329,315,61217,2,0,P|283:282|197:290,1,132.00000402832,10|10,0:0|0:1,0:0:0:0:
20,323,62352,6,0,P|9:275|35:183,1,132.00000402832,14|10,0:1|0:0,0:0:0:0:
87,119,63163,1,8,0:0:0:0:
87,119,63487,1,8,0:0:0:0:
171,166,63811,1,10,0:0:0:0:
201,313,64298,1,10,0:1:0:0:
440,378,65109,6,0,L|448:283,1,88.0000026855468,14|10,0:1|0:0,0:0:0:0:
482,200,65757,2,0,L|472:50,1,132.00000402832,10|10,0:2|0:1,0:0:0:0:
340,9,66730,1,10,0:2:0:0:
326,105,67055,2,0,L|305:287,1,176.000005371094,10|14,0:2|0:2,0:0:0:0:
237,349,68028,6,0,B|128:364|128:364|27:314,1,220.000006713867,10|10,0:2|0:1,0:0:0:0:
5,171,69325,2,0,B|46:127|30:58|30:58|96:26,1,176.000005371094,10|12,0:2|0:0,0:0:0:0:
167,24,70298,5,10,1:1:0:0:
172,143,70784,1,10,1:1:0:0:
286,175,71271,1,10,1:1:0:0:
351,76,71757,1,10,1:2:0:0:
512,303,72893,5,10,1:1:0:0:
397,266,73379,1,10,1:1:0:0:
309,348,73866,1,10,1:1:0:0:
211,278,74352,2,0,P|184:200|211:86,1,200,10|0,1:2|0:0,0:0:0:0:
284,41,75487,6,0,B|348:51|348:51|388:23|388:23|460:18|460:18|480:84,1,240,0|8,1:2|1:3,0:0:0:0:
494,156,76784,5,14,0:1:0:0:
374,378,77920,2,0,L|361:282,1,79.9999999999999,14|14,0:1|0:1,0:0:0:0:
298,55,79379,1,14,0:1:0:0:
163,268,80514,2,2,P|112:275|77:248,1,79.9999999999999,14|10,0:1|0:1,0:1:0:0:
9,176,81325,2,0,L|24:88,1,79.9999999999999,8|14,0:0|0:0,0:0:0:0:
91,40,81974,6,0,P|149:27|207:38,1,120,14|14,0:1|0:0,0:0:0:0:
316,113,82947,1,14,0:2:0:0:
273,237,83433,1,14,0:0:0:0:
355,347,83920,1,14,0:0:0:0:
355,347,84244,1,14,0:0:0:0:
438,320,84568,6,0,P|454:267|440:201,1,120,14|14,0:1|0:1,0:0:0:0:
359,101,85541,1,14,0:1:0:0:
270,198,86028,1,14,0:1:0:0:
185,96,86514,1,14,0:1:0:0:
185,96,86838,1,10,0:1:0:0:
467,12,88460,6,0,P|474:67|471:95,1,71.9999978027344,10|10,0:1|0:1,0:0:0:0:
456,167,89109,1,8,0:1:0:0:
456,167,89433,1,10,0:1:0:0:
374,182,89757,2,0,L|291:169,1,71.9999978027344,10|10,0:1|0:1,0:0:0:0:
98,213,90893,6,0,P|75:273|85:325,1,107.999996704102,10|10,0:0|0:1,0:0:0:0:
141,371,91703,1,8,0:1:0:0:
220,348,92028,2,0,P|245:302|231:206,1,143.999995605469,10|8,0:1|0:1,0:0:0:0:
29,191,93487,6,0,L|25:83,1,107.999996704102,8|14,0:2|0:3,0:0:0:0:
85,25,94298,1,12,0:3:0:0:
85,25,94622,1,10,0:1:0:0:
149,77,94947,2,0,P|179:89|231:83,1,71.9999978027344,10|14,0:1|0:3,0:0:0:0:
337,52,95757,2,0,P|374:35|421:34,1,71.9999978027344,10|10,0:2|0:1,0:0:0:0:
512,281,97379,5,14,0:1:0:0:
468,348,97703,1,14,0:1:0:0:
402,301,98028,2,0,L|396:251,1,40,10|14,0:0|0:1,0:0:0:0:
328,148,98676,6,0,P|336:93|303:26,1,120,14|10,0:1|0:0,0:0:0:0:
224,19,99487,1,10,0:1:0:0:
224,19,99811,1,10,0:0:0:0:
153,71,100136,2,0,P|140:114|145:161,1,79.9999999999999,10|10,0:1|0:0,0:0:0:0:
339,245,101271,6,0,P|406:225|465:240,1,120,14|10,0:0|0:0,0:0:0:0:
512,306,102082,1,10,0:1:0:0:
512,306,102406,1,10,0:1:0:0:
446,365,102730,2,0,P|406:372|366:360,1,79.9999999999999,10|10,0:1|0:0,0:0:0:0:
244,179,103866,6,0,P|267:127|242:58,1,120,14|10,0:0|0:0,0:0:0:0:
182,22,104676,1,10,0:1:0:0:
182,22,105001,1,10,0:1:0:0:
108,69,105325,2,0,P|99:111|104:152,1,79.9999999999999,10|10,0:1|0:0,0:0:0:0:
183,252,106136,5,10,0:0:0:0:
310,283,106622,2,0,L|439:265,2,120,10|2|10,0:1|0:0|0:0,0:0:0:0:
19,360,109217,6,2,P|1:277|35:197,1,160,14|14,0:1|0:2,0:1:0:0:
118,58,110514,2,0,L|203:43,1,79.9999999999999,10|2,0:1|0:0,0:0:0:0:
284,37,111163,1,10,0:0:0:0:
284,37,111487,1,14,0:0:0:0:
293,124,111811,6,2,B|295:155|287:181|287:181|310:214|310:214|302:240|301:293,1,160,14|14,0:1|0:2,0:1:0:0:
445,380,113109,2,0,P|458:340|462:293,1,79.9999999999999,14|2,0:1|0:0,0:0:0:0:
438,222,113757,1,8,0:0:0:0:
438,222,114082,1,8,0:0:0:0:
354,249,114406,6,0,L|264:239,1,79.9999999999999,14|8,0:1|0:1,0:0:0:0:
206,296,115055,1,12,0:1:0:0:
109,206,115541,2,0,P|102:146|124:86,1,120,10|8,0:0|0:1,0:0:0:0:
192,39,116352,2,0,B|316:25,1,120,12|12,0:1|0:1,0:0:0:0:
497,320,118298,5,14,0:0:0:0:
383,253,118784,1,14,0:0:0:0:
308,362,119271,1,14,0:0:0:0:
45,338,120244,5,10,0:0:0:0:
9,197,120730,6,0,P|5:121|37:56,1,132.00000402832,14|10,0:1|0:0,0:0:0:0:
111,24,121541,1,10,0:0:0:0:
111,24,121866,1,8,0:0:0:0:
199,64,122190,2,0,B|233:86|265:84|265:84|292:58|329:56,1,132.00000402832,10|10,0:0|0:1,0:0:0:0:
472,175,123325,6,0,P|489:234|466:307,1,132.00000402832,14|10,0:1|0:0,0:0:0:0:
399,366,124136,1,8,0:0:0:0:
399,366,124460,1,8,0:0:0:0:
311,324,124784,1,10,0:0:0:0:
357,186,125271,1,10,0:1:0:0:
206,64,125920,6,0,P|150:36|79:52,1,132.00000402832,14|10,0:1|0:0,0:0:0:0:
6,107,126730,1,8,0:0:0:0:
6,107,127055,1,8,0:0:0:0:
58,188,127379,2,0,B|69:219|69:219|57:262|57:262|80:332,1,132.00000402832,10|10,0:0|0:1,0:0:0:0:
258,372,128514,6,0,L|401:358,1,132.00000402832,14|10,0:1|0:0,0:0:0:0:
486,352,129325,1,8,0:0:0:0:
486,352,129649,1,8,0:0:0:0:
493,255,129974,1,10,0:0:0:0:
414,132,130460,1,10,0:1:0:0:
214,269,131271,6,0,P|154:300|28:226,1,220.000006713867,14|10,0:1|0:1,0:0:0:0:
17,136,132406,1,10,0:1:0:0:
122,36,132893,1,10,0:2:0:0:
122,36,133217,2,0,L|310:24,1,176.000005371094,10|14,0:2|0:2,0:0:0:0:
393,37,134190,6,0,P|423:65|460:237,1,220.000006713867,10|10,0:2|0:1,0:0:0:0:
386,342,135487,2,0,B|323:328|323:328|285:354|285:354|215:340,1,176.000005371094,10|12,0:2|0:0,0:0:0:0:
135,368,136460,6,2,P|124:302|170:218,1,160,14|14,0:1|0:0,0:1:0:0:
285,116,137757,1,14,0:1:0:0:
387,238,138406,1,8,0:0:0:0:
492,117,139055,6,2,B|507:69|453:19|453:19|396:41,1,160,14|14,0:1|0:0,0:1:0:0:
288,92,140190,1,10,0:1:0:0:
304,178,140514,2,0,P|303:269|209:296,1,200,14|0,0:1|0:0,0:0:0:0:
126,273,141649,6,0,B|109:249|93:242|93:242|133:176|109:108|109:108|133:30|214:24,1,320,14|14,0:0|0:1,0:0:0:0:
473,172,144568,6,0,L|487:55,2,107.999996704102,2|10|14,0:0|0:3|0:1,0:0:0:0:
269,367,146838,6,2,L|263:288,1,71.9999978027344,2|0,0:0|0:0,0:1:0:0:
253,215,147487,1,8,0:0:0:0:
253,215,147811,1,8,0:0:0:0:
254,126,148136,6,0,B|213:29|213:29|131:12|87:66,1,240,14|10,0:1|0:1,0:0:0:0:
43,137,149433,2,0,L|69:298,1,160,14|10,0:1|0:0,0:0:0:0:
116,369,150406,1,10,0:0:0:0:
196,333,150730,2,0,B|211:278|211:278|200:240|200:240|217:176,1,160,14|14,0:1|0:0,0:0:0:0:
332,47,152028,2,0,P|401:21|484:67,1,160,14|10,0:1|0:0,0:0:0:0:
512,135,153001,1,10,0:3:0:0:
463,212,153325,6,0,B|387:238|387:238|313:194,1,160,14|14,0:1|0:0,0:0:0:0:
206,72,154622,2,0,B|137:31|137:31|61:57,1,160,14|14,0:1|0:0,0:0:0:0:
8,127,155595,1,10,0:0:0:0:
44,207,155920,2,0,B|94:226|94:226|139:182|190:195,1,160,14|10,0:1|0:0,0:0:0:0:
312,322,157217,2,0,B|350:363|407:355|407:355|445:302,1,160,14|10,0:1|0:0,0:0:0:0:
492,239,158190,2,0,L|487:187,1,40,10|10,0:0|0:1,0:0:0:0:
498,35,159811,6,0,B|396:9|432:99|292:75|292:75|343:205|446:204|446:204|443:324|336:338,1,616.000018798828,14|10,2:1|2:1,0:0:0:0:
255,301,162406,6,0,B|204:272|115:286|167:347|103:380|30:366|30:366|1:289|60:229|60:229|20:99|109:28,1,616.000018798828,10|10,2:1|0:1,0:0:0:0:
187,16,165001,6,2,L|199:111,1,79.9999999999999,14|0,0:1|0:0,0:1:0:0:
212,181,165649,1,14,0:0:0:0:
294,284,166136,2,0,P|351:302|417:277,1,120,2|2,0:0|0:0,0:0:0:0:
472,225,166947,1,8,0:0:0:0:
437,52,167595,6,2,L|342:41,1,79.9999999999999,14|0,0:1|0:0,0:1:0:0:
299,109,168244,1,14,0:0:0:0:
181,49,168730,2,0,P|138:29|58:51,1,120,2|2,0:0|0:0,0:0:0:0:
21,117,169541,2,0,L|33:198,1,79.9999999999999,8|8,0:0|0:0,0:0:0:0:
66,287,170190,6,0,P|106:269|206:276,1,132.00000402832,14|10,0:1|0:1,0:0:0:0:
297,371,171163,1,10,0:1:0:0:
439,342,171649,1,10,0:1:0:0:
473,200,172136,2,0,B|479:156|479:109|479:109|435:76,1,132.00000402832,10|10,0:1|0:1,0:0:0:0:
314,22,173109,6,0,L|218:31,1,88.0000026855468,10|10,0:1|0:1,0:0:0:0:
182,116,173757,1,10,0:1:0:0:
235,196,174082,1,10,0:1:0:0:
174,328,174568,2,0,P|141:345|85:341,1,88.0000026855468,10|10,0:1|0:1,0:0:0:0:
15,217,175379,6,2,B|22:182|9:149|9:149|68:79|101:152|167:123|167:123|201:29|334:20|334:20|304:122|385:161,1,616.000018798828,14|12,0:1|0:0,0:1:0:0:
460,222,177974,6,2,P|469:273|447:320,1,88.0000026855468,14|10,0:1|0:1,0:1:0:0:
385,370,178622,1,10,0:1:0:0:
385,370,178947,1,10,0:1:0:0:
307,311,179271,2,0,L|293:214,1,88.0000026855468,12|8,0:1|0:1,0:0:0:0:
254,141,179920,1,10,0:0:0:0:
254,141,180244,1,10,0:0:0:0:
77,35,180893,6,0,P|36:64|35:147,1,132.00000402832,10|14,0:0|0:1,0:0:0:0:
146,229,181865,2,0,P|187:258|188:341,1,132.00000402832,10|14,0:0|0:1,0:0:0:0:
0,292,189000,6,0,L|92:285,1,79.9999999999999,14|10,0:1|0:1,0:0:0:0:
154,332,189648,2,0,L|246:325,1,79.9999999999999,10|8,0:1|0:1,0:0:0:0:
317,367,190297,1,10,0:1:0:0:
317,367,190621,1,10,0:1:0:0:
401,342,190946,1,10,0:1:0:0:
484,239,191432,6,0,L|478:108,1,120,12|0,0:1|0:0,0:0:0:0:
430,45,192243,1,8,0:0:0:0:
430,45,192567,1,8,0:0:0:0:
356,94,192892,5,14,0:0:0:0:
251,13,193378,1,14,0:0:0:0:
125,54,193865,1,14,0:0:0:0:
11,292,194838,5,10,0:1:0:0:
119,366,195324,6,0,L|327:346,1,200,14|0,0:1|0:0,0:2:0:0:
474,265,196783,2,0,P|482:219|452:140,2,120,14|10|4,0:1|0:0|0:3,0:0:0:0:
411,327,198081,6,0,L|244:306,1,160,14|0,0:1|0:0,0:0:0:0:
84,360,199378,2,0,B|32:277|79:189|79:189|89:183|89:183|92:149|108:121,1,240,14|12,0:1|0:0,0:0:0:0:
133,54,200675,5,14,0:1:0:0:
185,205,201324,1,10,0:1:0:0:
284,79,201973,1,10,0:1:0:0:
341,228,202621,1,10,0:1:0:0:
447,187,203108,6,0,P|456:144|445:64,1,120,2|14,0:0|0:1,0:0:0:0:
377,29,203919,1,14,0:1:0:0:
311,75,204243,1,14,0:0:0:0:
41,103,205702,6,0,P|22:165|33:246,1,132.00000402832,14|10,0:1|0:0,0:1:0:0:
61,322,206513,1,10,0:0:0:0:
61,322,206838,1,8,0:0:0:0:
149,362,207162,2,0,B|285:348,1,132.00000402832,10|10,0:0|0:1,0:0:0:0:
468,302,208297,6,0,B|486:244|486:244|462:170,1,132.00000402832,14|10,0:1|0:0,0:0:0:0:
400,103,209108,1,8,0:0:0:0:
400,103,209432,1,8,0:0:0:0:
307,132,209756,1,10,0:0:0:0:
273,276,210243,1,10,0:1:0:0:
92,197,210892,6,0,P|76:139|109:67,1,132.00000402832,14|10,0:1|0:0,0:0:0:0:
181,29,211702,1,8,0:0:0:0:
181,29,212027,1,8,0:0:0:0:
262,81,212351,2,0,L|408:67,1,132.00000402832,10|10,0:0|0:1,0:0:0:0:
487,237,213486,6,0,B|500:289|468:324|468:324|417:306,1,132.00000402832,14|10,0:1|0:0,0:0:0:0:
336,288,214297,1,8,0:0:0:0:
336,288,214621,1,8,0:0:0:0:
259,346,214946,1,10,0:0:0:0:
114,333,215432,1,10,0:1:0:0:
8,115,216243,6,0,L|102:100,1,88.0000026855468,14|10,0:1|0:0,0:0:0:0:
143,184,216892,2,0,L|279:207,1,132.00000402832,10|10,0:2|0:1,0:0:0:0:
374,310,217865,1,10,0:2:0:0:
449,247,218189,2,0,P|471:163|447:80,1,176.000005371094,10|14,0:2|0:2,0:0:0:0:
360,37,219162,6,0,L|125:21,1,220.000006713867,10|10,0:2|0:1,0:0:0:0:
34,121,220459,2,0,B|6:167|18:244|18:244|59:278,1,176.000005371094,10|12,0:2|0:0,0:0:0:0:
137,310,221432,5,10,1:1:0:0:
206,213,221919,1,10,1:1:0:0:
320,248,222405,1,10,1:1:0:0:
320,367,222892,1,10,1:2:0:0:
512,218,224027,5,10,1:1:0:0:
393,236,224513,1,10,1:1:0:0:
274,254,225000,1,10,1:1:0:0:
155,272,225486,2,0,P|128:194|160:81,1,200,10|0,1:2|0:0,0:0:0:0:
238,47,226621,6,0,B|279:46|299:55|299:55|335:24|335:24|375:30|423:20|423:20|459:65,1,240,0|8,1:2|1:3,0:0:0:0:
493,130,227919,5,14,0:1:0:0:
352,339,229054,2,0,L|261:329,1,79.9999999999999,14|14,0:1|0:1,0:0:0:0:
24,372,230513,1,14,0:1:0:0:
103,132,231648,2,2,L|130:38,1,79.9999999999999,14|10,0:1|0:1,0:1:0:0:
239,19,232459,2,0,L|322:31,1,79.9999999999999,8|14,0:0|0:0,0:0:0:0:
406,33,233108,6,0,B|486:25|486:25|490:117,1,160,14|14,0:1|0:0,0:0:0:0:
502,191,234081,1,10,0:1:0:0:
429,240,234405,2,0,L|337:223,1,79.9999999999999,14|2,0:1|0:0,0:0:0:0:
278,274,235054,1,8,0:0:0:0:
278,274,235378,1,14,0:0:0:0:
211,208,235702,6,0,B|199:157|199:157|215:102|215:102|196:41,1,160,14|14,0:1|0:0,0:0:0:0:
118,19,236675,1,10,0:1:0:0:
47,71,237000,2,0,P|38:114|44:159,1,79.9999999999999,14|2,0:1|0:0,0:0:0:0:
74,236,237648,1,8,0:0:0:0:
210,347,238297,6,0,L|379:339,1,160,14|8,0:1|0:1,0:0:0:0:
453,367,239270,1,14,0:1:0:0:
501,294,239594,2,0,L|496:210,1,79.9999999999999,10|8,0:1|0:1,0:0:0:0:
442,151,240243,1,8,0:1:0:0:
442,151,240567,1,8,0:1:0:0:
383,217,240892,6,0,B|297:228|330:166|219:196,1,160,14|8,0:1|0:1,0:0:0:0:
157,243,241865,1,14,0:1:0:0:
76,206,242189,2,0,P|61:169|63:121,1,79.9999999999999,10|8,0:1|0:1,0:0:0:0:
99,49,242838,1,10,0:1:0:0:
99,49,243162,1,10,0:1:0:0:
185,66,243486,6,0,L|238:78,1,40,14|14,0:1|0:1,0:0:0:0:
480,136,244621,1,14,0:1:0:0:
459,50,244946,1,14,0:1:0:0:
