osu file format v14

[General]
AudioFilename: audio.mp3
AudioLeadIn: 0
PreviewTime: 54528
Countdown: 0
SampleSet: Soft
StackLeniency: 0.7
Mode: 0
LetterboxInBreaks: 0
WidescreenStoryboard: 1

[Editor]
Bookmarks: 2839,13217,23595,33811,44352,49541,51974,54568,65109,70298,76784,81974,88460,98676,109217,116676,118298,120730,131271,136460,142947,148136,153325,159811,165001,170190,175217,175298,175379,180893,183811,189000,192892,195324,200675,205702,216243,221432,227919,233108,243486,244621,244946
DistanceSpacing: 1.7
BeatDivisor: 4
GridSize: 32
TimelineZoom: 3.199999

[Metadata]
Title:REAL EXISTENCE
TitleUnicode:REAL EXISTENCE
Artist:BAND-MAID
ArtistUnicode:BAND-MAID
Creator:Lasse
Version:DEVOTION
Source:
Tags:new beginning japanese english rock bandmaid
BeatmapID:2493815
BeatmapSetID:1197228

[Difficulty]
HPDrainRate:5.2
CircleSize:4
OverallDifficulty:9
ApproachRate:9.3
SliderMultiplier:1.76
SliderTickRate:1

[Events]
//Background and Video events
0,0,"1.jpg",0,0
//Break Periods
2,183811,188121
//Storyboard Layer 0 (Background)
//Storyboard Layer 1 (Fail)
//Storyboard Layer 2 (Pass)
//Storyboard Layer 3 (Foreground)
//Storyboard Layer 4 (Overlay)
//Storyboard Sound Samples

[TimingPoints]
2839,324.324324324324,4,2,2,65,1,0
2839,-133.333333333333,4,2,2,65,0,0
8028,-133.333333333333,4,2,2,67,0,0
13217,-100,4,2,1,72,0,0
14514,-100,4,2,2,72,0,0
18406,-100,4,2,2,72,0,0
22298,-100,4,2,2,70,0,0
23433,-100,4,2,2,64,0,0
23514,-100,4,2,2,62,0,0
23595,-133.333333333333,4,2,2,60,0,0
23920,-133.333333333333,4,2,2,55,0,0
32838,-133.333333333333,4,2,2,60,0,0
33325,-133.333333333333,4,2,2,65,0,0
33811,-100,4,2,2,64,0,0
34055,-100,4,2,2,38,0,0
34136,-100,4,2,2,64,0,0
43055,-100,4,2,2,67,0,0
43866,-133.333333333333,4,2,2,60,0,0
44190,-133.333333333333,4,2,2,50,0,0
44352,-100,4,2,1,65,0,0
45001,-133.333333333333,4,2,2,65,0,0
45649,-200,4,2,2,65,0,0
46947,-100,4,2,1,65,0,0
47595,-133.333333333333,4,2,2,65,0,0
48244,-200,4,2,2,65,0,0
49541,-100,4,2,2,70,0,0
51811,-100,4,2,2,64,0,0
51893,-100,4,2,2,62,0,0
51974,-166.666666666667,4,2,2,60,0,0
52136,-166.666666666667,4,2,2,40,0,0
52460,-166.666666666667,4,2,2,50,0,0
52622,-166.666666666667,4,2,2,60,0,0
53433,-166.666666666667,4,2,2,65,0,0
54082,-166.666666666667,4,2,2,70,0,0
54568,-66.6666666666667,4,2,1,75,0,1
55055,-83.3333333333333,4,2,2,75,0,1
57163,-66.6666666666667,4,2,2,75,0,1
57649,-83.3333333333333,4,2,2,75,0,1
58784,-83.3333333333333,4,2,2,75,0,1
59757,-66.6666666666667,4,2,1,75,0,1
60244,-83.3333333333333,4,2,2,75,0,1
62352,-66.6666666666667,4,2,2,75,0,1
62595,-66.6666666666667,4,2,2,50,0,1
62676,-66.6666666666667,4,2,2,75,0,1
62838,-83.3333333333333,4,2,2,75,0,1
64622,-133.333333333333,4,2,2,75,0,1
65109,-79.9999999999999,4,2,2,75,0,1
65271,-79.9999999999999,4,2,2,75,0,1
69974,-95.2380952380952,4,2,2,75,0,1
70217,-95.2380952380952,4,2,2,50,0,1
70298,-100,4,2,2,70,0,0
72406,-200,4,2,1,40,0,0
72568,-200,4,2,1,46,0,0
72893,-142.857142857143,4,2,2,70,0,0
74676,-142.857142857143,4,2,2,40,0,0
75325,-142.857142857143,4,2,2,50,0,0
75487,-142.857142857143,4,2,2,53,0,0
75568,-142.857142857143,4,2,2,54,0,0
75649,-142.857142857143,4,2,2,55,0,0
75730,-142.857142857143,4,2,2,56,0,0
75811,-142.857142857143,4,2,2,57,0,0
75893,-142.857142857143,4,2,2,58,0,0
75974,-142.857142857143,4,2,2,59,0,0
76055,-142.857142857143,4,2,2,60,0,0
76136,-142.857142857143,4,2,2,61,0,0
76217,-142.857142857143,4,2,2,62,0,0
76298,-142.857142857143,4,2,2,63,0,0
76379,-142.857142857143,4,2,2,64,0,0
76460,-142.857142857143,4,2,2,65,0,0
76541,-142.857142857143,4,2,2,66,0,0
76622,-142.857142857143,4,2,2,67,0,0
76703,-142.857142857143,4,2,2,68,0,0
76784,-133.333333333333,4,2,2,68,0,0
81649,-200,4,2,2,68,0,0
81811,-200,4,2,2,60,0,0
81974,-100,4,2,2,70,0,0
84568,-100,4,2,4,72,0,0
84730,-100,4,2,2,72,0,0
85055,-100,4,2,4,73,0,0
85217,-100,4,2,2,73,0,0
85541,-100,4,2,4,74,0,0
85703,-100,4,2,2,74,0,0
86028,-100,4,2,4,75,0,0
86190,-100,4,2,2,75,0,0
86514,-100,4,2,4,75,0,0
86676,-100,4,2,2,74,0,0
86838,-100,4,2,4,70,0,0
88460,-133.333333333333,4,2,3,56,0,0
95757,-133.333333333333,4,2,3,60,0,0
96082,-133.333333333333,4,2,3,64,0,0
97379,-133.333333333333,4,2,3,70,0,0
98028,-133.333333333333,4,2,2,70,0,0
98676,-90.9090909090909,4,2,2,67,0,0
107920,-90.9090909090909,4,2,2,68,0,0
108893,-133.333333333333,4,2,2,65,0,0
109217,-100,4,2,2,65,0,0
109703,-133.333333333333,4,2,2,65,0,0
110514,-200,4,2,2,65,0,0
111811,-100,4,2,2,65,0,0
112298,-133.333333333333,4,2,2,65,0,0
113109,-200,4,2,2,65,0,0
114406,-100,4,2,2,70,0,0
116676,-166.666666666667,4,2,2,64,0,0
116757,-166.666666666667,4,2,2,62,0,0
116838,-166.666666666667,4,2,2,60,0,0
117001,-166.666666666667,4,2,2,40,0,0
117325,-166.666666666667,4,2,2,50,0,0
117487,-166.666666666667,4,2,2,60,0,0
118298,-166.666666666667,4,2,2,65,0,0
118784,-166.666666666667,4,2,2,68,0,0
119271,-166.666666666667,4,2,2,72,0,0
120730,-66.6666666666667,4,2,1,75,0,1
121217,-83.3333333333333,4,2,2,75,0,1
123325,-66.6666666666667,4,2,2,75,0,1
123811,-83.3333333333333,4,2,2,75,0,1
125920,-66.6666666666667,4,2,1,75,0,1
126406,-83.3333333333333,4,2,2,75,0,1
128514,-66.6666666666667,4,2,2,75,0,1
128757,-66.6666666666667,4,2,2,50,0,1
128838,-66.6666666666667,4,2,2,75,0,1
129001,-83.3333333333333,4,2,2,75,0,1
130784,-133.333333333333,4,2,2,75,0,1
131271,-79.9999999999999,4,2,2,75,0,1
136136,-95.2380952380952,4,2,2,75,0,1
136379,-95.2380952380952,4,2,2,50,0,1
136460,-100,4,2,2,70,0,0
136947,-133.333333333333,4,2,2,70,0,0
137757,-200,4,2,2,70,0,0
139055,-100,4,2,2,70,0,0
139541,-133.333333333333,4,2,2,70,0,0
140838,-133.333333333333,4,2,2,40,0,0
141487,-133.333333333333,4,2,2,50,0,0
141649,-114.942528735632,4,2,2,70,0,0
141811,-114.942528735632,4,2,2,55,0,0
141974,-133.333333333333,4,2,2,60,0,0
142947,-133.333333333333,4,2,2,60,0,0
146838,-166.666666666667,4,2,2,60,0,0
148136,-111.111111111111,4,2,2,63,0,0
153001,-133.333333333333,4,2,2,63,0,0
153244,-133.333333333333,4,2,2,35,0,0
153325,-100,4,2,2,65,0,0
157217,-100,4,2,2,67,0,0
157866,-100,4,2,2,68,0,0
159811,-76.9230769230769,4,2,1,70,0,1
159893,-76.9230769230769,4,2,23,70,0,1
165001,-100,4,2,1,68,0,0
165325,-100,4,2,2,68,0,0
167595,-100,4,2,1,68,0,0
167920,-100,4,2,2,68,0,0
170190,-73.5294117647059,4,2,5,70,0,1
170271,-73.5294117647059,4,2,23,70,0,1
170676,-73.5294117647059,4,2,4,70,0,1
170757,-73.5294117647059,4,2,23,70,0,1
171163,-73.5294117647059,4,2,5,70,0,1
171244,-73.5294117647059,4,2,23,70,0,1
171649,-73.5294117647059,4,2,4,70,0,1
171730,-73.5294117647059,4,2,23,70,0,1
172136,-73.5294117647059,4,2,5,70,0,1
172217,-73.5294117647059,4,2,23,70,0,1
172622,-73.5294117647059,4,2,4,70,0,1
172703,-73.5294117647059,4,2,23,70,0,1
173028,-73.5294117647059,4,2,4,70,0,1
173109,-73.5294117647059,4,2,5,70,0,1
173271,-73.5294117647059,4,2,4,70,0,1
173433,-73.5294117647059,4,2,5,70,0,1
173595,-73.5294117647059,4,2,4,70,0,1
173757,-73.5294117647059,4,2,5,70,0,1
173920,-73.5294117647059,4,2,4,70,0,1
174082,-73.5294117647059,4,2,5,70,0,1
174244,-73.5294117647059,4,2,4,70,0,1
174406,-73.5294117647059,4,2,5,70,0,1
174568,-73.5294117647059,4,2,4,70,0,1
174649,-73.5294117647059,4,2,2,70,0,1
174893,-73.5294117647059,4,2,4,70,0,1
175055,-73.5294117647059,4,2,1,70,0,1
175217,-66.6666666666667,4,2,4,70,0,1
175379,-66.6666666666667,4,2,5,74,0,1
175420,-66.6666666666667,4,2,23,67,0,1
177811,-66.6666666666667,4,2,23,68,0,1
177974,-66.6666666666667,4,2,5,68,0,1
178014,-66.6666666666667,4,2,23,68,0,1
178298,-66.6666666666667,4,2,4,74,0,1
178338,-66.6666666666667,4,2,2,74,0,1
178622,-66.6666666666667,4,2,4,74,0,1
178784,-66.6666666666667,4,2,5,74,0,1
178947,-66.6666666666667,4,2,4,74,0,1
179271,-66.6666666666667,4,2,2,74,0,1
179595,-66.6666666666667,4,2,5,74,0,1
179757,-66.6666666666667,4,2,2,74,0,1
180406,-100,4,2,2,70,0,0
180893,324.324324324324,3,2,2,72,1,0
180893,-100,3,2,2,72,0,1
181379,-100,3,2,2,72,0,0
181865,-100,3,2,2,75,0,1
182352,-100,3,2,2,75,0,0
183811,324.324324324324,4,2,2,70,1,0
183811,-133.333333333333,4,2,2,70,0,0
188675,-133.333333333333,4,2,2,60,0,0
189000,-119.047619047619,4,2,2,60,0,0
189324,-106.382978723404,4,2,2,60,0,0
190946,-106.382978723404,4,2,2,65,0,0
191270,-133.333333333333,4,2,2,64,0,0
191351,-133.333333333333,4,2,2,62,0,0
191432,-133.333333333333,4,2,2,60,0,0
191594,-133.333333333333,4,2,2,40,0,0
191919,-133.333333333333,4,2,2,50,0,0
192081,-133.333333333333,4,2,2,60,0,0
192892,-133.333333333333,4,2,2,65,0,0
193378,-133.333333333333,4,2,2,68,0,0
193865,-133.333333333333,4,2,2,72,0,0
194838,-133.333333333333,4,2,2,70,0,0
195324,-100,4,2,1,74,0,1
195405,-100,4,2,2,40,0,0
196621,-100,4,2,2,50,0,0
196783,-100,4,2,2,74,0,1
196865,-100,4,2,2,74,0,0
197108,-100,4,2,2,70,0,0
197432,-100,4,2,2,60,0,0
197594,-100,4,2,2,64,0,0
197756,-100,4,2,2,66,0,0
197919,-100,4,2,4,68,0,0
198081,-100,4,2,1,74,0,1
198162,-100,4,2,2,40,0,0
199216,-100,4,2,2,50,0,0
199378,-100,4,2,2,74,0,1
199459,-117.647058823529,4,2,2,40,0,0
200027,-117.647058823529,4,2,2,60,0,0
200189,-117.647058823529,4,2,2,65,0,0
200675,-117.647058823529,4,2,1,66,0,0
200919,-117.647058823529,4,2,1,5,0,0
201000,-117.647058823529,4,2,2,66,0,0
201243,-117.647058823529,4,2,1,5,0,0
201324,-117.647058823529,4,2,2,66,0,0
201567,-117.647058823529,4,2,1,5,0,0
201648,-117.647058823529,4,2,2,66,0,0
201892,-117.647058823529,4,2,1,5,0,0
201973,-111.111111111111,4,2,2,68,0,0
202216,-111.111111111111,4,2,1,5,0,0
202297,-111.111111111111,4,2,2,68,0,0
202540,-111.111111111111,4,2,1,5,0,0
202621,-111.111111111111,4,2,2,68,0,0
202865,-111.111111111111,4,2,1,5,0,0
202946,-111.111111111111,4,2,2,68,0,0
203189,-111.111111111111,4,2,1,5,0,0
203270,-100,4,2,2,70,0,0
203513,-100,4,2,1,5,0,0
203594,-90.9090909090909,4,2,2,72,0,0
203838,-90.9090909090909,4,2,1,5,0,0
203919,-83.3333333333333,4,2,2,74,0,0
204162,-83.3333333333333,4,2,1,5,0,0
204243,-83.3333333333333,4,2,2,75,0,0
205702,-60.6060606060606,4,2,1,78,0,1
206189,-76.9230769230769,4,2,2,78,0,1
208297,-60.6060606060606,4,2,2,78,0,1
208783,-76.9230769230769,4,2,2,78,0,1
210892,-60.6060606060606,4,2,1,78,0,1
211378,-76.9230769230769,4,2,2,78,0,1
213486,-60.6060606060606,4,2,2,75,0,1
213729,-60.6060606060606,4,2,2,50,0,1
213810,-60.6060606060606,4,2,2,78,0,1
213973,-76.9230769230769,4,2,2,78,0,1
215756,-133.333333333333,4,2,2,78,0,1
216243,-73.5294117647059,4,2,2,78,0,1
221108,-95.2380952380952,4,2,2,78,0,1
221351,-95.2380952380952,4,2,2,50,0,1
221432,-100,4,2,2,70,0,0
223540,-200,4,2,1,40,0,0
223702,-200,4,2,1,46,0,0
224027,-142.857142857143,4,2,2,70,0,0
225810,-142.857142857143,4,2,2,40,0,0
226459,-142.857142857143,4,2,2,50,0,0
226621,-142.857142857143,4,2,2,53,0,0
226702,-142.857142857143,4,2,2,54,0,0
226783,-142.857142857143,4,2,2,55,0,0
226865,-142.857142857143,4,2,2,56,0,0
226946,-142.857142857143,4,2,2,57,0,0
227027,-142.857142857143,4,2,2,58,0,0
227108,-142.857142857143,4,2,2,59,0,0
227189,-142.857142857143,4,2,2,60,0,0
227270,-142.857142857143,4,2,2,61,0,0
227351,-142.857142857143,4,2,2,62,0,0
227432,-142.857142857143,4,2,2,63,0,0
227513,-142.857142857143,4,2,2,64,0,0
227594,-142.857142857143,4,2,2,65,0,0
227675,-142.857142857143,4,2,2,66,0,0
227756,-142.857142857143,4,2,2,67,0,0
227838,-142.857142857143,4,2,2,68,0,0
227919,-142.857142857143,4,2,2,68,0,0
231648,-125,4,2,2,68,0,0
232783,-200,4,2,2,68,0,0
233108,-90.9090909090909,4,2,1,70,0,0
233270,-90.9090909090909,4,2,2,70,0,0
233756,-90.9090909090909,4,2,1,70,0,0
234081,-90.9090909090909,4,2,2,70,0,0
235378,-90.9090909090909,4,2,1,70,0,0
235702,-90.9090909090909,4,2,2,70,0,0
236351,-90.9090909090909,4,2,1,70,0,0
236675,-90.9090909090909,4,2,2,70,0,0
238297,-90.9090909090909,4,2,1,72,0,0
238459,-90.9090909090909,4,2,2,72,0,0
243486,-90.9090909090909,4,2,2,74,0,0
244621,-62.5,4,2,2,76,0,0
244946,-250,4,2,99,76,0,0

[Colours]
Combo1 : 255,150,150
Combo2 : 150,180,240
Combo3 : 255,185,130
Combo4 : 140,200,180

[HitObjects]
160,43,2839,5,14,0:1:0:0:
129,257,3001,1,14,0:1:0:0:
129,257,3974,5,14,0:1:0:0:
350,86,4298,1,14,0:1:0:0:
350,86,5433,5,14,0:1:0:0:
382,309,5595,1,14,0:1:0:0:
382,309,6568,6,2,L|288:295,1,66.0000025177003,14|0,0:1|0:0,0:1:0:0:
196,355,6893,2,2,L|290:369,1,66.0000025177003,10|8,0:1|0:2,0:1:0:0:
167,230,7217,5,10,0:1:0:0:
71,289,7379,1,10,0:0:0:0:
67,177,7541,1,8,0:1:0:0:
67,177,7622,1,8,0:1:0:0:
67,177,7703,1,8,0:0:0:0:
250,10,8028,5,14,0:1:0:0:
179,144,8190,2,2,P|170:112|173:63,1,66.0000025177003,10|0,0:0|0:0,0:1:0:0:
321,117,8514,1,8,0:1:0:0:
321,117,8595,1,8,0:1:0:0:
321,117,8676,2,0,P|320:149|311:181,1,66.0000025177003,12|0,0:0|0:0,0:0:0:0:
230,336,9001,5,14,0:1:0:0:
331,372,9163,2,2,P|362:365|409:362,1,66.0000025177003,8|0,0:0|0:0,0:1:0:0:
447,245,9487,1,8,0:1:0:0:
447,245,9568,1,8,0:1:0:0:
447,245,9649,2,0,P|490:253|520:255,1,66.0000025177003,8|0,0:0|0:0,0:0:0:0:
419,78,9974,5,8,0:1:0:0:
328,124,10136,1,8,0:1:0:0:
328,124,10217,1,8,0:1:0:0:
328,124,10298,1,14,0:0:0:0:
126,27,10622,5,14,0:1:0:0:
39,128,10784,2,2,L|33:53,1,66.0000025177003,8|0,0:0|0:0,0:1:0:0:
186,156,11109,1,8,0:1:0:0:
186,156,11190,1,8,0:1:0:0:
186,156,11271,1,8,0:0:0:0:
148,254,11433,1,8,0:3:0:0:
39,128,11595,5,4,0:3:0:0:
287,276,11757,1,10,0:0:0:0:
479,40,12893,1,8,2:0:0:0:
479,40,12974,1,8,2:0:0:0:
479,40,13055,1,8,2:0:0:0:
479,40,13136,1,8,2:0:0:0:
479,40,13217,1,14,0:1:0:0:
472,128,13379,5,2,0:1:0:0:
351,99,13541,1,8,0:0:0:0:
322,220,13703,1,2,0:1:0:0:
443,249,13866,1,8,0:1:0:0:
278,142,14028,1,10,0:1:0:0:
278,142,14109,1,8,0:1:0:0:
278,142,14190,1,8,0:0:0:0:
0,346,14514,5,14,0:1:0:0:
99,281,14676,1,8,0:1:0:0:
213,316,14838,1,8,0:0:0:0:
120,384,15001,1,2,0:0:0:0:
120,384,15082,1,2,0:0:0:0:
120,384,15163,1,8,0:1:0:0:
0,252,15325,1,8,0:1:0:0:
174,220,15487,1,10,0:0:0:0:
382,29,15811,5,14,0:1:0:0:
291,144,15974,1,10,0:1:0:0:
382,29,16136,1,8,0:0:0:0:
380,210,16298,1,2,0:0:0:0:
382,29,16460,1,8,0:1:0:0:
499,231,16622,1,10,0:1:0:0:
499,231,16703,1,8,0:1:0:0:
499,231,16784,1,8,0:0:0:0:
154,4,17109,5,14,0:1:0:0:
64,131,17271,1,8,0:1:0:0:
141,202,17433,1,8,0:0:0:0:
231,75,17595,1,2,0:0:0:0:
231,75,17676,1,2,0:0:0:0:
231,75,17757,1,8,0:1:0:0:
308,146,17920,1,8,0:1:0:0:
218,273,18082,1,10,0:0:0:0:
504,378,18406,5,14,0:1:0:0:
338,346,18568,1,10,0:1:0:0:
512,258,18730,1,8,0:0:0:0:
360,232,18893,1,2,0:0:0:0:
512,125,19055,1,8,0:1:0:0:
381,106,19217,1,10,0:1:0:0:
381,106,19298,1,8,0:1:0:0:
381,106,19379,1,8,0:0:0:0:
168,0,19703,5,14,0:1:0:0:
150,171,19866,1,8,0:1:0:0:
252,43,20028,1,8,0:0:0:0:
64,126,20190,1,2,0:0:0:0:
64,126,20271,1,2,0:0:0:0:
64,126,20352,1,8,0:1:0:0:
255,155,20514,1,8,0:1:0:0:
61,14,20676,1,10,0:0:0:0:
0,324,21001,5,14,0:1:0:0:
154,360,21163,1,10,0:1:0:0:
179,276,21325,1,8,0:0:0:0:
333,312,21487,1,2,0:0:0:0:
358,228,21649,1,8,0:1:0:0:
405,96,21811,1,8,0:1:0:0:
405,96,21893,1,8,0:1:0:0:
405,96,21974,1,12,0:0:0:0:
186,3,22298,5,8,0:0:0:0:
187,24,22379,1,8,0:0:0:0:
188,46,22460,1,8,0:0:0:0:
190,68,22541,1,8,0:0:0:0:
191,90,22622,1,8,0:0:0:0:
137,159,22784,5,8,0:3:0:0:
262,188,22947,1,8,0:0:0:0:
75,223,23109,1,4,0:3:0:0:
289,99,23271,1,8,0:0:0:0:
313,338,23433,5,8,0:0:0:0:
313,338,23514,1,8,0:0:0:0:
313,338,23595,2,0,P|367:356|444:298,1,132.000005035401,14|8,0:1|0:1,0:0:0:0:
431,344,24244,2,0,P|375:375|313:358,1,132.000005035401,8|8,0:1|0:1,0:0:0:0:
116,249,24893,2,0,P|170:267|247:209,1,132.000005035401,10|8,0:1|0:1,0:0:0:0:
234,255,25541,2,0,P|178:286|116:269,1,132.000005035401,8|8,0:1|0:1,0:0:0:0:
25,176,26028,5,12,0:0:0:0:
106,158,26190,2,0,L|125:15,1,132.000005035401,10|8,0:1|0:1,0:0:0:0:
145,27,26838,2,0,L|127:157,1,132.000005035401,8|8,0:1|0:1,0:0:0:0:
309,172,27487,2,0,L|328:29,1,132.000005035401,10|8,0:1|0:1,0:0:0:0:
348,41,28136,2,0,L|330:171,1,132.000005035401,8|8,0:1|0:1,0:0:0:0:
426,263,28622,5,12,0:0:0:0:
351,307,28784,2,0,B|282:290|298:348|223:326,1,132.000005035401,10|0,0:1|0:0,0:0:0:0:
230,342,29433,2,0,B|301:363|285:305|354:322,1,132.000005035401,8|8,0:1|0:1,0:0:0:0:
208,200,30082,2,0,B|139:183|155:241|80:219,2,132.000005035401,10|8|8,0:1|0:1|0:1,0:0:0:0:
295,258,30893,5,2,0:0:0:0:
337,178,31055,1,10,0:1:0:0:
284,251,31217,1,10,0:0:0:0:
346,186,31379,2,0,P|369:106|351:37,1,132.000005035401,10|8,0:1|0:1,0:0:0:0:
268,0,31866,6,0,L|257:72,1,66.0000025177003,2|8,0:0|0:1,0:0:0:0:
110,87,32190,2,0,L|175:96,1,66.0000025177003,2|8,0:0|0:1,0:0:0:0:
197,245,32514,2,0,L|206:179,1,66.0000025177003,2|8,0:0|0:1,0:0:0:0:
42,256,32838,5,10,0:0:0:0:
194,342,33001,1,8,0:0:0:0:
43,353,33163,1,8,0:1:0:0:
43,353,33244,1,8,0:1:0:0:
43,353,33325,1,10,0:0:0:0:
197,245,33487,1,10,0:0:0:0:
474,369,33811,6,0,P|475:299|432:214,1,132,14|0,0:1|0:0,0:1:0:0:
453,241,34136,2,0,L|349:228,1,88,10|8,0:1|0:0,0:0:0:0:
251,132,34460,5,2,0:0:0:0:
345,107,34622,1,10,0:1:0:0:
278,34,34784,1,2,0:0:0:0:
183,21,34947,5,10,0:1:0:0:
176,190,35109,1,10,0:0:0:0:
345,197,35271,1,10,0:1:0:0:
345,197,35433,1,2,0:0:0:0:
221,290,35595,2,0,P|159:269|33:261,1,176,10|8,0:0|0:1,0:0:0:0:
297,335,36082,2,0,P|325:347|392:355,1,88,8|8,0:0|0:1,0:0:0:0:
512,239,36406,5,14,0:0:0:0:
412,250,36568,1,8,0:1:0:0:
401,150,36730,1,2,0:0:0:0:
213,177,36893,1,10,0:0:0:0:
313,188,37055,1,2,0:0:0:0:
324,88,37217,1,10,0:1:0:0:
224,77,37379,1,2,0:0:0:0:
64,55,37541,1,10,0:1:0:0:
42,215,37703,1,10,0:0:0:0:
29,308,37866,5,10,0:1:0:0:
148,277,38028,1,2,0:0:0:0:
248,348,38190,2,0,P|322:369|442:352,1,176,10|8,0:0|0:1,0:0:0:0:
356,222,38676,2,0,P|372:188|374:126,1,88,10|8,0:0|0:1,0:0:0:0:
296,35,39001,5,14,0:0:0:0:
143,113,39163,1,8,0:1:0:0:
174,5,39325,1,2,0:0:0:0:
265,141,39487,1,10,0:0:0:0:
265,141,39649,1,2,0:0:0:0:
339,241,39811,5,10,0:1:0:0:
507,191,39974,1,2,0:0:0:0:
376,138,40136,1,10,0:1:0:0:
461,291,40298,1,10,0:0:0:0:
357,368,40460,5,10,0:1:0:0:
212,303,40622,1,2,0:0:0:0:
63,356,40784,2,0,P|56:293|144:244,1,176,10|8,0:0|0:1,0:0:0:0:
251,130,41271,5,10,0:0:0:0:
96,148,41433,1,10,0:1:0:0:
142,4,41595,1,10,0:0:0:0:
333,93,41757,2,0,P|352:177|338:265,1,176,10|8,0:1|0:0,0:0:0:0:
101,320,42244,2,0,P|83:234|96:148,1,176,2|0,0:0|0:0,0:0:0:0:
267,353,42730,2,0,L|376:369,1,88,10|0,0:0|0:0,0:0:0:0:
512,195,43055,5,12,0:1:0:0:
312,257,43217,1,8,0:0:0:0:
250,57,43379,1,8,0:0:0:0:
336,14,43541,1,8,0:1:0:0:
336,14,43622,1,8,0:1:0:0:
336,14,43703,1,8,0:0:0:0:
218,276,43866,2,0,L|236:141,1,132.000005035401,8|0,0:0|0:0,0:0:0:0:
511,17,44352,6,2,P|509:66|379:75,1,176,14|0,0:1|0:1,0:1:0:0:
122,197,44838,1,8,0:1:0:0:
122,197,44920,1,8,0:1:0:0:
122,197,45001,2,2,B|153:194|185:216|170:232|178:262|225:279,1,132.000005035401,14|8,0:2|0:1,0:1:0:0:
456,300,45649,5,10,0:1:0:0:
500,373,45811,2,2,L|494:316,1,44,10|0,0:0|0:0,0:1:0:0:
302,319,46136,1,8,0:1:0:0:
302,319,46217,1,8,0:1:0:0:
302,319,46298,2,2,L|308:262,1,44,10|0,0:0|0:0,0:1:0:0:
95,378,46622,2,2,L|89:321,1,44,14|0,0:0|0:0,0:1:0:0:
0,152,46947,6,2,B|89:181|89:181|144:162|150:94,1,176,14|0,0:1|0:0,0:1:0:0:
466,46,47433,1,8,0:1:0:0:
466,46,47514,1,8,0:1:0:0:
466,46,47595,2,2,B|448:82|448:82|401:96|367:46,1,132.000005035401,14|8,0:2|0:1,0:1:0:0:
109,306,48244,5,10,0:1:0:0:
37,274,48406,2,2,L|98:266,1,44,10|0,0:0|0:0,0:1:0:0:
349,353,48730,1,8,0:1:0:0:
325,363,48811,1,8,0:1:0:0:
305,372,48893,1,8,0:0:0:0:
355,237,49055,1,8,0:0:0:0:
273,119,49217,1,8,0:0:0:0:
255,152,49298,1,8,0:0:0:0:
221,169,49379,1,8,0:0:0:0:
184,162,49460,1,8,0:0:0:0:
158,135,49541,2,0,L|168:48,1,88,14|8,0:1|0:0,0:0:0:0:
327,17,49866,5,8,0:1:0:0:
327,17,49947,1,8,0:1:0:0:
327,17,50028,1,8,0:0:0:0:
511,151,50190,1,12,0:1:0:0:
342,162,50352,1,8,0:0:0:0:
487,11,50514,1,8,0:1:0:0:
487,11,50595,1,8,0:1:0:0:
487,11,50676,1,8,0:0:0:0:
325,185,50838,5,12,0:1:0:0:
509,283,51001,1,8,0:0:0:0:
325,379,51163,1,8,0:1:0:0:
325,379,51244,1,8,0:1:0:0:
325,379,51325,1,8,0:0:0:0:
141,281,51487,1,12,0:1:0:0:
325,185,51649,1,8,0:0:0:0:
263,101,51811,5,8,0:0:0:0:
256,110,51893,1,8,0:0:0:0:
247,119,51974,2,0,B|165:100|219:33|125:26,1,158.399995166016,12|0,0:1|0:0,0:1:0:0:
72,75,52622,5,8,0:1:0:0:
318,5,52784,1,8,0:0:0:0:
213,369,53109,5,12,0:0:0:0:
0,212,53433,5,8,0:0:0:0:
39,190,53514,5,8,0:3:0:0:
88,202,53595,5,4,0:3:0:0:
149,166,53676,5,4,0:3:0:0:
222,195,53757,5,12,0:0:0:0:
443,41,54082,5,10,0:1:0:0:
380,376,54244,1,10,0:2:0:0:
512,253,54568,6,0,B|488:279|448:276|415:247|415:247|405:152|322:118,1,264.000010070801,14|8,0:1|0:1,0:0:0:0:
105,67,55055,1,10,0:0:0:0:
282,13,55217,1,8,0:1:0:0:
119,269,55379,1,10,0:0:0:0:
307,322,55541,1,8,0:1:0:0:
307,322,55622,1,8,0:1:0:0:
307,322,55703,1,8,0:0:0:0:
165,178,55866,5,14,0:1:0:0:
226,379,56028,1,10,0:0:0:0:
382,249,56190,2,0,L|373:127,1,105.599996777344,10|8,0:1|0:0,0:0:0:0:
207,0,56514,5,10,0:1:0:0:
200,14,56595,1,8,0:1:0:0:
194,28,56676,1,8,0:0:0:0:
17,176,56838,5,8,0:1:0:0:
8,162,56920,1,8,0:1:0:0:
0,148,57001,1,8,0:0:0:0:
172,286,57163,6,0,B|342:258|248:351|409:389,1,264.000010070801,14|8,0:1|0:1,0:0:0:0:
295,197,57649,1,10,0:0:0:0:
323,50,57811,1,8,0:1:0:0:
323,50,57893,1,8,0:1:0:0:
323,50,57974,1,8,0:0:0:0:
477,0,58136,1,8,0:1:0:0:
477,0,58217,1,8,0:1:0:0:
477,0,58298,1,8,0:0:0:0:
512,105,58460,5,14,0:1:0:0:
245,71,58622,1,10,0:0:0:0:
4,37,58784,1,10,0:1:0:0:
13,109,58947,1,8,0:0:0:0:
141,239,59109,5,10,0:1:0:0:
153,215,59190,1,8,0:1:0:0:
153,187,59271,1,8,0:0:0:0:
312,10,59433,5,8,0:1:0:0:
326,31,59514,1,8,0:1:0:0:
346,47,59595,1,8,0:0:0:0:
512,251,59757,6,0,B|449:240|392:294|392:294|361:231|293:210,1,264.000010070801,14|8,0:1|0:1,0:0:0:0:
24,268,60244,1,10,0:0:0:0:
148,382,60406,1,8,0:1:0:0:
148,382,60487,1,8,0:1:0:0:
148,382,60568,1,8,0:0:0:0:
294,314,60730,1,8,0:1:0:0:
294,314,60811,1,8,0:1:0:0:
294,314,60893,1,8,0:0:0:0:
418,365,61055,5,14,0:1:0:0:
160,248,61217,1,10,0:0:0:0:
351,99,61379,2,0,P|376:54|362:2,1,105.599996777344,10|8,0:1|0:0,0:0:0:0:
165,46,61703,5,10,0:1:0:0:
160,25,61784,1,8,0:1:0:0:
148,6,61866,1,8,0:0:0:0:
3,175,62028,5,8,0:1:0:0:
5,154,62109,1,8,0:1:0:0:
17,134,62190,1,8,0:0:0:0:
206,249,62352,6,0,B|290:227|290:227|370:257|367:337,1,198.000007553101,14|0,0:1|0:0,0:0:0:0:
366,384,62676,1,10,0:1:0:0:
474,168,62838,1,10,0:0:0:0:
510,292,63001,1,8,0:1:0:0:
510,292,63082,1,8,0:1:0:0:
510,292,63163,1,8,0:0:0:0:
293,344,63325,1,8,0:1:0:0:
293,344,63406,1,8,0:1:0:0:
293,344,63487,1,8,0:0:0:0:
262,258,63649,5,14,0:1:0:0:
368,84,63811,1,10,0:0:0:0:
166,0,63974,2,0,L|178:133,1,105.599996777344,10|8,0:1|0:0,0:0:0:0:
37,268,64298,5,10,0:1:0:0:
28,248,64379,1,8,0:1:0:0:
21,227,64460,1,8,0:0:0:0:
172,384,64622,5,8,0:1:0:0:
178,351,64703,1,8,0:1:0:0:
191,323,64784,2,8,B|234:315|234:315|261:335|261:335|338:349,1,132.000005035401,8|14,0:0|0:1,0:0:0:0:
411,380,65271,5,8,0:1:0:0:
411,380,65352,1,8,0:1:0:0:
411,380,65433,1,10,0:0:0:0:
314,232,65595,1,8,0:1:0:0:
314,232,65676,1,8,0:1:0:0:
314,232,65757,1,10,0:2:0:0:
420,79,65920,1,8,0:1:0:0:
420,79,66001,1,8,0:1:0:0:
420,79,66082,1,10,0:2:0:0:
283,0,66244,5,8,0:1:0:0:
283,0,66325,1,8,0:1:0:0:
283,0,66406,1,14,0:2:0:0:
319,236,66568,1,8,0:1:0:0:
319,236,66649,1,8,0:1:0:0:
319,236,66730,1,10,0:2:0:0:
337,133,66893,5,8,0:1:0:0:
337,133,66974,1,8,0:1:0:0:
337,133,67055,1,10,0:2:0:0:
303,335,67217,1,8,0:1:0:0:
303,335,67298,1,8,0:1:0:0:
303,335,67379,1,10,0:2:0:0:
119,293,67541,1,8,0:1:0:0:
119,293,67622,1,8,0:1:0:0:
119,293,67703,1,14,0:2:0:0:
62,367,67866,5,8,0:1:0:0:
62,367,67947,1,8,0:1:0:0:
62,367,68028,1,10,0:2:0:0:
0,195,68190,1,8,0:1:0:0:
0,195,68271,1,8,0:1:0:0:
0,195,68352,1,10,0:2:0:0:
91,27,68514,1,8,0:1:0:0:
91,27,68595,1,8,0:1:0:0:
91,27,68676,1,10,0:2:0:0:
141,107,68838,5,8,0:1:0:0:
141,107,68920,1,8,0:1:0:0:
141,107,69001,1,14,0:2:0:0:
281,260,69163,1,8,0:1:0:0:
281,260,69244,1,8,0:1:0:0:
281,260,69325,1,10,0:2:0:0:
452,157,69487,1,8,0:1:0:0:
452,157,69568,1,8,0:1:0:0:
452,157,69649,1,10,0:2:0:0:
297,28,69811,1,8,0:1:0:0:
297,28,69893,1,8,0:1:0:0:
297,28,69974,2,0,L|286:166,1,138.599995770264,12|0,0:0|0:0,0:0:0:0:
281,260,70298,5,10,1:1:0:0:
0,175,70460,1,10,1:1:0:0:
9,272,70784,5,10,1:1:0:0:
286,166,70947,1,10,1:1:0:0:
307,78,71271,5,10,1:1:0:0:
439,335,71433,1,10,1:1:0:0:
352,374,71757,5,10,1:2:0:0:
382,32,71920,1,14,1:1:0:0:
504,245,72406,6,0,L|512:280,2,22,2|2|2,0:3|0:3|0:3,0:3:0:0:
382,32,72893,5,10,1:1:0:0:
295,315,73055,1,10,1:1:0:0:
398,350,73379,5,10,1:1:0:0:
288,64,73541,1,10,1:1:0:0:
198,18,73866,5,10,1:1:0:0:
82,313,74028,1,10,1:1:0:0:
192,362,74352,5,10,1:2:0:0:
69,19,74514,2,0,B|3:95|22:192|90:239|169:169|137:117,1,307.999990600586,14|0,1:1|0:0,0:0:0:0:
29,212,75487,5,0,1:2:0:0:
22,226,75568,1,0,1:0:0:0:
20,244,75649,1,0,1:0:0:0:
24,266,75730,1,0,1:0:0:0:
40,285,75811,1,0,1:2:0:0:
65,297,75893,1,0,1:0:0:0:
96,295,75974,1,0,1:0:0:0:
125,276,76055,1,0,1:0:0:0:
161,265,76136,1,0,1:2:0:0:
198,271,76217,1,0,1:0:0:0:
225,302,76298,1,0,1:0:0:0:
234,345,76379,1,0,1:0:0:0:
275,367,76460,1,8,1:3:0:0:
324,357,76541,1,8,1:3:0:0:
355,313,76622,1,4,1:3:0:0:
342,257,76703,1,4,1:3:0:0:
286,232,76784,5,14,0:1:0:0:
67,384,76947,1,14,0:1:0:0:
67,384,77920,5,14,0:1:0:0:
116,51,78244,1,14,0:1:0:0:
116,51,79379,5,14,0:1:0:0:
223,255,79541,1,14,0:1:0:0:
223,255,80514,6,2,L|149:249,1,66.0000025177003,14|0,0:1|0:0,0:1:0:0:
292,166,80838,2,2,L|218:160,1,66.0000025177003,10|8,0:1|0:0,0:1:0:0:
338,277,81163,5,8,0:1:0:0:
411,187,81325,1,8,0:0:0:0:
457,336,81487,1,8,0:1:0:0:
457,336,81568,1,8,0:1:0:0:
457,336,81649,2,2,L|462:274,1,44,14|0,0:0|0:0,0:1:0:0:
411,46,81974,5,14,0:1:0:0:
384,175,82136,1,8,0:1:0:0:
357,304,82298,1,8,0:1:0:0:
285,87,82460,1,14,0:0:0:0:
258,216,82622,1,8,0:1:0:0:
231,345,82784,1,8,0:1:0:0:
159,128,82947,5,14,0:2:0:0:
258,216,83109,1,8,0:1:0:0:
357,304,83271,1,8,0:1:0:0:
384,175,83433,5,14,0:0:0:0:
258,216,83595,1,8,0:1:0:0:
132,257,83757,1,8,0:1:0:0:
60,40,83920,5,14,0:0:0:0:
159,128,84082,1,8,0:1:0:0:
357,304,84244,5,14,0:0:0:0:
258,216,84406,1,8,0:1:0:0:
211,31,84568,5,14,0:1:0:0:
132,125,84730,1,2,0:0:0:0:
152,247,84893,1,2,0:0:0:0:
344,335,85055,5,14,0:1:0:0:
428,234,85217,1,10,0:1:0:0:
400,104,85379,1,10,0:1:0:0:
218,6,85541,5,14,0:1:0:0:
113,100,85703,1,10,0:1:0:0:
133,239,85866,1,10,0:1:0:0:
342,362,86028,5,14,0:1:0:0:
447,256,86190,1,10,0:1:0:0:
428,107,86352,1,10,0:1:0:0:
245,0,86514,5,14,0:1:0:0:
245,0,86676,1,10,0:1:0:0:
168,162,86838,5,10,0:1:0:0:
207,126,86920,1,8,0:1:0:0:
259,120,87001,1,8,0:1:0:0:
307,139,87082,1,8,0:1:0:0:
433,354,88460,6,0,P|461:372|506:384,1,66.0000025177003,10|8,0:1|0:2,0:0:0:0:
361,316,88784,2,0,P|290:283|217:274,1,132.000005035401,10|8,0:1|0:1,0:0:0:0:
0,328,89352,1,8,0:0:0:0:
0,328,89433,2,0,P|34:307|74:295,1,66.0000025177003,10|8,0:1|0:2,0:0:0:0:
237,274,89757,5,10,0:1:0:0:
171,217,89920,1,2,0:0:0:0:
166,131,90082,1,10,0:1:0:0:
290,0,90406,5,8,0:1:0:0:
312,147,90649,1,8,0:2:0:0:
312,147,90730,1,8,0:1:0:0:
376,85,90893,6,0,P|388:50|396:5,1,66.0000025177003,10|8,0:0|0:1,0:0:0:0:
312,147,91217,1,10,0:0:0:0:
264,215,91379,2,0,P|241:281|236:353,1,132.000005035401,10|8,0:1|0:1,0:0:0:0:
191,177,91947,1,8,0:2:0:0:
191,177,92028,1,10,0:1:0:0:
157,98,92190,6,0,P|142:63|115:28,1,66.0000025177003,10|8,0:0|0:1,0:0:0:0:
191,177,92514,1,10,0:0:0:0:
272,203,92676,1,8,0:1:0:0:
349,167,92838,1,2,0:0:0:0:
353,80,93001,1,10,0:1:0:0:
276,206,93244,1,8,0:0:0:0:
276,206,93325,2,8,P|265:243|258:290,1,66.0000025177003,8|8,0:1|0:2,0:1:0:0:
157,98,93649,6,0,P|142:63|115:28,1,66.0000025177003,10|8,0:1|0:0,0:0:0:0:
65,172,93974,2,0,P|27:236|32:298,1,132.000005035401,14|12,0:3|0:3,0:0:0:0:
234,384,94541,1,8,0:2:0:0:
234,384,94622,1,10,0:1:0:0:
202,303,94784,1,8,0:0:0:0:
319,248,94947,5,10,0:1:0:0:
351,329,95109,1,8,0:2:0:0:
431,298,95271,2,0,P|448:230|426:164,1,132.000005035401,14|12,0:3|0:3,0:3:0:0:
356,74,95757,5,10,0:2:0:0:
349,99,95838,1,10,0:2:0:0:
340,124,95920,1,10,0:2:0:0:
279,2,96082,1,10,0:1:0:0:
459,92,97379,5,14,0:1:0:0:
70,150,97703,1,14,0:1:0:0:
459,92,98028,5,10,0:0:0:0:
70,150,98190,1,14,0:1:0:0:
459,92,98676,6,0,P|395:65|253:58,1,193.600005908203,14|8,0:1|0:1,0:0:0:0:
404,197,99163,1,10,0:0:0:0:
263,159,99325,1,2,0:0:0:0:
225,300,99487,1,10,0:1:0:0:
366,338,99649,1,2,0:0:0:0:
454,358,99811,5,10,0:0:0:0:
404,197,99974,1,10,0:0:0:0:
354,36,100136,1,10,0:1:0:0:
354,36,100298,1,2,0:0:0:0:
243,181,100460,6,0,P|189:250|82:330,1,193.600005908203,10|8,0:0|0:1,0:0:0:0:
291,107,100947,2,0,P|317:66|353:35,1,96.8000029541017,8|8,0:0|0:1,0:0:0:0:
447,2,101271,5,14,0:0:0:0:
458,162,101433,1,8,0:1:0:0:
466,254,101595,1,2,0:0:0:0:
374,263,101757,1,10,0:0:0:0:
213,274,101920,1,2,0:0:0:0:
205,182,102082,1,10,0:1:0:0:
205,182,102244,1,2,0:0:0:0:
196,90,102406,5,10,0:1:0:0:
213,274,102568,1,10,0:0:0:0:
374,263,102730,1,10,0:1:0:0:
466,254,102893,1,2,0:0:0:0:
458,162,103055,2,0,P|457:114|447:54,1,96.8000029541017,10|2,0:0|0:0,0:0:0:0:
449,65,103298,1,2,0:0:0:0:
449,65,103379,1,10,0:1:0:0:
286,0,103541,2,0,P|293:47|294:96,1,96.8000029541017,10|8,0:0|0:1,0:0:0:0:
213,274,103866,5,14,0:0:0:0:
146,156,104028,1,8,0:1:0:0:
69,267,104190,1,2,0:0:0:0:
168,369,104352,5,10,0:0:0:0:
316,324,104514,1,2,0:0:0:0:
274,175,104676,1,10,0:1:0:0:
274,175,104838,1,2,0:0:0:0:
405,90,105001,5,10,0:1:0:0:
336,242,105163,1,10,0:0:0:0:
184,173,105325,1,10,0:1:0:0:
252,21,105487,1,2,0:0:0:0:
127,76,105649,2,0,L|332:62,1,193.600005908203,10|8,0:0|0:1,0:0:0:0:
512,160,106136,5,10,0:0:0:0:
312,216,106298,1,10,0:0:0:0:
512,314,106460,1,10,0:1:0:0:
399,384,106622,2,0,L|414:183,1,193.600005908203,10|8,0:1|0:0,0:0:0:0:
244,361,107109,1,2,0:0:0:0:
244,361,107190,1,2,0:0:0:0:
244,361,107271,2,0,L|226:249,1,96.8000029541017,10|0,0:1|0:0,0:0:0:0:
32,194,107595,2,0,L|144:176,1,96.8000029541017,10|0,0:0|0:0,0:0:0:0:
208,18,107920,5,12,0:1:0:0:
387,281,108163,1,8,0:0:0:0:
387,281,108244,1,8,0:0:0:0:
428,166,108406,1,8,0:0:0:0:
308,187,108568,1,8,0:3:0:0:
507,259,108730,1,8,0:3:0:0:
404,81,108893,6,4,P|388:74|359:73,1,33.0000012588501,4|4,0:3|0:3,0:3:0:0:
308,187,109055,2,0,P|292:194|263:192,1,33.0000012588501,4|4,0:3|0:3,0:3:0:0:
140,107,109217,6,2,P|129:24|47:22,1,176,14|0,0:1|0:1,0:1:0:0:
0,283,109703,1,8,0:1:0:0:
0,283,109784,1,8,0:1:0:0:
0,283,109866,2,2,B|38:268|38:268|54:234|54:234|115:202,1,132.000005035401,14|8,0:2|0:1,0:1:0:0:
417,374,110514,5,10,0:1:0:0:
492,345,110676,2,2,L|441:336,1,44,10|0,0:0|0:0,0:1:0:0:
264,251,111001,1,8,0:1:0:0:
264,251,111082,1,8,0:1:0:0:
264,251,111163,2,2,L|315:242,1,44,10|0,0:0|0:0,0:1:0:0:
512,185,111487,2,2,L|461:176,1,44,14|0,0:0|0:0,0:1:0:0:
319,9,111811,6,2,B|288:65|323:107|366:114|366:114|392:71,1,176,14|0,0:1|0:0,0:1:0:0:
269,258,112298,1,8,0:1:0:0:
269,258,112379,1,8,0:1:0:0:
269,258,112460,2,2,B|248:279|238:304|238:304|241:331|273:402,1,132.000005035401,14|8,0:2|0:1,0:1:0:0:
64,173,113109,5,14,0:1:0:0:
0,215,113271,2,2,L|61:207,1,44,10|0,0:0|0:0,0:1:0:0:
184,51,113595,1,8,0:1:0:0:
162,45,113676,1,8,0:1:0:0:
140,39,113757,1,8,0:0:0:0:
261,186,113920,1,8,0:0:0:0:
314,65,114082,2,0,L|321:36,2,22,8|8|8,0:0|0:0|0:0,0:0:0:0:
443,141,114406,5,14,0:1:0:0:
261,186,114568,1,8,0:0:0:0:
382,261,114730,1,8,0:1:0:0:
382,261,114811,1,8,0:1:0:0:
382,261,114893,1,8,0:0:0:0:
197,310,115055,1,12,0:1:0:0:
326,384,115217,1,8,0:0:0:0:
269,193,115379,1,8,0:1:0:0:
269,193,115460,1,8,0:1:0:0:
269,193,115541,1,8,0:0:0:0:
108,321,115703,5,12,0:1:0:0:
11,125,115866,1,8,0:0:0:0:
205,29,116028,1,8,0:1:0:0:
205,29,116109,1,8,0:1:0:0:
205,29,116190,1,8,0:0:0:0:
301,224,116352,1,12,0:1:0:0:
301,224,116433,1,8,0:1:0:0:
301,224,116514,1,8,0:0:0:0:
381,128,116676,5,8,0:0:0:0:
388,137,116757,1,8,0:0:0:0:
397,146,116838,2,0,B|424:165|455:158|455:158|481:131|448:56,1,158.399995166016,12|0,0:1|0:0,0:1:0:0:
396,0,117487,5,8,0:1:0:0:
301,224,117649,1,8,0:0:0:0:
198,0,117974,5,8,0:0:0:0:
450,260,118298,5,14,0:0:0:0:
305,227,118460,1,8,0:1:0:0:
305,227,118622,1,8,0:1:0:0:
450,260,118784,5,14,0:0:0:0:
161,194,118947,1,8,0:1:0:0:
161,194,119109,1,8,0:1:0:0:
450,260,119271,5,14,0:0:0:0:
17,157,119433,1,14,0:1:0:0:
407,150,120244,5,10,0:0:0:0:
48,276,120406,1,8,0:1:0:0:
119,28,120730,6,0,B|64:75|80:170|148:198|148:198|209:164,1,264.000010070801,14|8,0:1|0:1,0:0:0:0:
411,34,121217,1,10,0:0:0:0:
254,6,121379,1,8,0:1:0:0:
201,294,121541,1,10,0:0:0:0:
359,322,121703,1,8,0:1:0:0:
359,322,121784,1,8,0:1:0:0:
359,322,121866,1,8,0:0:0:0:
270,205,122028,5,14,0:1:0:0:
114,380,122190,1,10,0:0:0:0:
8,161,122352,2,0,P|9:101|33:49,1,105.599996777344,10|8,0:1|0:0,0:0:0:0:
311,10,122676,5,10,0:1:0:0:
295,6,122757,1,8,0:1:0:0:
280,0,122838,1,8,0:0:0:0:
183,169,123001,5,8,0:1:0:0:
167,165,123082,1,8,0:1:0:0:
151,160,123163,1,8,0:0:0:0:
295,321,123325,6,0,B|336:392|456:363|456:363|459:313|423:283,1,264.000010070801,14|8,0:1|0:1,0:0:0:0:
146,332,123811,1,10,0:0:0:0:
46,207,123974,1,8,0:1:0:0:
46,207,124055,1,8,0:1:0:0:
46,207,124136,1,8,0:0:0:0:
106,54,124298,1,8,0:1:0:0:
106,54,124379,1,8,0:1:0:0:
106,54,124460,1,8,0:0:0:0:
282,3,124622,5,14,0:1:0:0:
202,222,124784,1,10,0:0:0:0:
377,377,124947,1,10,0:1:0:0:
397,301,125109,1,8,0:0:0:0:
315,113,125271,5,10,0:1:0:0:
309,133,125352,1,8,0:1:0:0:
303,153,125433,1,8,0:0:0:0:
222,384,125595,5,8,0:1:0:0:
217,363,125676,1,8,0:1:0:0:
211,342,125757,1,8,0:0:0:0:
0,207,125920,6,0,B|40:268|113:236|113:236|113:154|194:125,1,264.000010070801,14|8,0:1|0:1,0:0:0:0:
462,45,126406,1,10,0:0:0:0:
420,213,126568,1,8,0:1:0:0:
420,213,126649,1,8,0:1:0:0:
420,213,126730,1,8,0:0:0:0:
266,164,126893,1,8,0:1:0:0:
266,164,126974,1,8,0:1:0:0:
266,164,127055,1,8,0:0:0:0:
260,65,127217,5,14,0:1:0:0:
352,277,127379,1,10,0:0:0:0:
140,369,127541,2,0,L|22:355,1,105.599996777344,10|8,0:1|0:0,0:0:0:0:
127,126,127866,5,10,0:1:0:0:
132,105,127947,1,8,0:1:0:0:
144,86,128028,1,8,0:0:0:0:
420,166,128190,5,8,0:1:0:0:
418,144,128271,1,8,0:1:0:0:
410,124,128352,1,8,0:0:0:0:
133,59,128514,6,0,P|106:154|118:252,1,198.000007553101,14|0,0:1|0:0,0:0:0:0:
150,325,128838,1,10,0:1:0:0:
326,127,129001,1,10,0:0:0:0:
396,375,129163,1,8,0:1:0:0:
396,375,129244,1,8,0:1:0:0:
396,375,129325,1,8,0:0:0:0:
157,332,129487,1,8,0:1:0:0:
157,332,129568,1,8,0:1:0:0:
157,332,129649,1,8,0:0:0:0:
111,237,129811,5,14,0:1:0:0:
457,184,129974,1,10,0:0:0:0:
81,148,130136,2,0,B|119:143|119:143|136:126|136:126|187:121,1,105.599996777344,10|8,0:1|0:0,0:0:0:0:
448,65,130460,5,10,0:1:0:0:
455,45,130541,1,8,0:1:0:0:
449,24,130622,1,8,0:0:0:0:
253,218,130784,5,8,0:1:0:0:
245,250,130866,1,8,0:1:0:0:
261,278,130947,2,8,B|310:291|310:291|340:268|340:268|408:252,1,132.000005035401,8|14,0:0|0:1,0:0:0:0:
478,303,131433,5,8,0:1:0:0:
478,303,131514,1,8,0:1:0:0:
478,303,131595,1,10,0:0:0:0:
360,151,131757,1,8,0:1:0:0:
360,151,131838,1,8,0:1:0:0:
360,151,131920,1,10,0:2:0:0:
479,27,132082,1,8,0:1:0:0:
479,27,132163,1,8,0:1:0:0:
479,27,132244,1,10,0:2:0:0:
304,8,132406,5,8,0:1:0:0:
304,8,132487,1,8,0:1:0:0:
304,8,132568,1,14,0:2:0:0:
279,272,132730,1,8,0:1:0:0:
279,272,132811,1,8,0:1:0:0:
279,272,132893,1,10,0:2:0:0:
365,169,133055,5,8,0:1:0:0:
365,169,133136,1,8,0:1:0:0:
365,169,133217,1,10,0:2:0:0:
210,194,133379,1,8,0:1:0:0:
210,194,133460,1,8,0:1:0:0:
210,194,133541,1,10,0:2:0:0:
132,88,133703,1,8,0:1:0:0:
132,88,133784,1,8,0:1:0:0:
132,88,133866,1,14,0:2:0:0:
67,1,134028,5,8,0:1:0:0:
67,1,134109,1,8,0:1:0:0:
67,1,134190,1,10,0:2:0:0:
0,187,134352,1,8,0:1:0:0:
0,187,134433,1,8,0:1:0:0:
0,187,134514,1,10,0:2:0:0:
55,358,134676,1,8,0:1:0:0:
55,358,134757,1,8,0:1:0:0:
55,358,134838,1,10,0:2:0:0:
160,384,135001,5,8,0:1:0:0:
160,384,135082,1,8,0:1:0:0:
160,384,135163,1,14,0:2:0:0:
91,179,135325,1,8,0:1:0:0:
91,179,135406,1,8,0:1:0:0:
91,179,135487,1,10,0:2:0:0:
210,28,135649,1,8,0:1:0:0:
210,28,135730,1,8,0:1:0:0:
210,28,135811,1,10,0:2:0:0:
314,13,135974,5,8,0:1:0:0:
314,13,136055,1,8,0:1:0:0:
314,13,136136,2,0,L|303:151,1,138.599995770264,12|0,0:0|0:0,0:0:0:0:
340,229,136460,6,2,P|402:260|465:165,1,176,14|0,0:1|0:0,0:1:0:0:
234,57,136947,1,8,0:1:0:0:
234,57,137028,1,8,0:1:0:0:
234,57,137109,2,2,P|170:32|108:36,1,132.000005035401,14|8,0:0|0:1,0:1:0:0:
34,356,137757,5,14,0:1:0:0:
0,287,137920,2,2,L|8:240,1,44,10|0,0:0|0:0,0:1:0:0:
154,163,138244,1,8,0:1:0:0:
154,163,138325,1,8,0:1:0:0:
154,163,138406,1,8,0:0:0:0:
278,244,138568,1,8,0:1:0:0:
278,244,138649,1,8,0:1:0:0:
278,244,138730,2,2,L|270:197,1,44,8|0,0:0|0:0,0:1:0:0:
374,18,139055,6,2,P|374:78|485:72,1,176,14|0,0:1|0:0,0:1:0:0:
379,312,139541,1,8,0:1:0:0:
379,312,139622,1,8,0:1:0:0:
379,312,139703,2,0,L|457:296,1,66.0000025177003,14|0,0:0|0:0,0:1:0:0:
270,200,140028,5,10,0:0:0:0:
215,384,140190,1,10,0:1:0:0:
215,384,140514,5,14,0:1:0:0:
144,135,140676,2,0,P|155:273|271:199,1,330.000012588501,14|0,0:1|0:0,0:0:0:0:
281,120,141649,6,0,L|264:40,1,76.5600006425171,14|0,0:0|0:0,0:0:0:0:
110,12,141974,5,0,1:0:0:0:
99,29,142055,1,0,1:0:0:0:
89,50,142136,1,0,1:0:0:0:
86,78,142217,1,0,1:0:0:0:
90,110,142298,1,0,1:0:0:0:
113,137,142379,1,0,1:0:0:0:
147,157,142460,1,0,1:0:0:0:
191,160,142541,1,0,1:0:0:0:
228,128,142622,1,0,1:0:0:0:
281,120,142703,1,0,1:0:0:0:
333,138,142784,1,0,1:0:0:0:
355,192,142866,1,0,1:0:0:0:
350,252,142947,6,0,P|341:307|501:318,2,264.000010070801,14|0|0,0:1|0:0|0:0,0:0:0:0:
312,121,144568,5,2,0:0:0:0:
386,156,144730,2,0,P|418:155|473:138,1,66.0000025177003,8|0,0:0|0:0,0:0:0:0:
249,67,145055,2,0,P|241:20|224:-15,1,66.0000025177003,10|0,0:3|0:0,0:0:0:0:
81,121,145379,5,8,0:3:0:0:
81,121,145460,1,8,0:3:0:0:
81,121,145541,2,2,B|47:138|28:167|28:167|20:271|77:366,1,264.000010070801,14|0,0:1|0:0,0:2:0:0:
69,352,146838,6,2,B|121:341|121:341|161:360|161:360|221:349,1,158.399995166016,2|0,0:0|0:0,0:1:0:0:
349,384,147487,5,8,0:0:0:0:
512,218,147811,5,8,0:0:0:0:
478,260,147893,1,8,0:0:0:0:
425,273,147974,1,8,0:0:0:0:
375,251,148055,1,8,0:0:0:0:
349,203,148136,2,0,B|369:153|352:101|352:101|379:27,1,158.399995166016,14|0,0:1|0:0,0:0:0:0:
177,0,148622,5,8,0:1:0:0:
177,0,148703,1,8,0:1:0:0:
177,0,148784,2,0,L|189:102,1,79.1999975830079,14|0,0:0|0:0,0:0:0:0:
58,248,149109,2,0,L|48:169,1,79.1999975830079,10|0,0:1|0:0,0:0:0:0:
303,320,149433,5,14,0:1:0:0:
207,379,149595,2,0,P|179:387|114:369,1,79.1999975830079,10|0,0:0|0:0,0:0:0:0:
239,229,149920,1,8,0:1:0:0:
239,229,150001,1,8,0:1:0:0:
239,229,150082,2,0,P|230:190|238:152,1,79.1999975830079,10|0,0:0|0:0,0:0:0:0:
362,27,150406,5,10,0:0:0:0:
469,290,150568,1,10,0:0:0:0:
505,138,150730,5,14,0:1:0:0:
413,196,150893,2,0,P|373:189|323:186,1,79.1999975830079,10|0,0:0|0:0,0:0:0:0:
179,52,151217,1,8,0:1:0:0:
179,52,151298,1,8,0:1:0:0:
179,52,151379,2,0,P|218:49|257:42,1,79.1999975830079,14|0,0:0|0:0,0:0:0:0:
80,230,151703,2,0,P|75:193|87:134,1,79.1999975830079,10|0,0:1|0:0,0:0:0:0:
329,275,152028,5,14,0:1:0:0:
166,384,152190,1,8,0:0:0:0:
238,232,152352,1,2,0:0:0:0:
390,378,152514,1,8,0:1:0:0:
390,378,152595,1,8,0:1:0:0:
390,378,152676,1,10,0:0:0:0:
243,324,152838,1,2,0:0:0:0:
317,183,153001,2,2,P|331:135|314:77,1,99.0000037765504,10|0,0:3|0:0,0:2:0:0:
262,35,153325,6,0,B|208:26|208:26|161:65|161:65|75:51,1,176,14|0,0:1|0:0,0:0:0:0:
18,250,153811,1,8,0:1:0:0:
18,250,153893,1,8,0:1:0:0:
18,250,153974,2,0,P|12:193|25:159,1,88,14|0,0:0|0:0,0:0:0:0:
293,289,154298,2,0,P|299:346|286:380,1,88,10|0,0:1|0:0,0:0:0:0:
121,213,154622,5,14,0:1:0:0:
100,110,154784,2,0,P|99:66|118:26,1,88,10|0,0:0|0:0,0:0:0:0:
311,205,155109,1,8,0:1:0:0:
311,205,155190,1,8,0:1:0:0:
311,205,155271,2,0,P|311:248|292:288,1,88,14|0,0:0|0:0,0:0:0:0:
100,110,155595,5,10,0:0:0:0:
320,28,155757,1,10,0:0:0:0:
473,205,155920,5,14,0:1:0:0:
405,357,156082,2,0,L|394:254,1,88,10|0,0:2|0:0,0:0:0:0:
179,384,156406,1,8,0:1:0:0:
179,384,156487,1,8,0:1:0:0:
179,384,156568,2,0,L|190:281,1,88,10|0,0:0|0:0,0:0:0:0:
426,359,156893,2,0,L|415:256,1,88,10|0,0:0|0:0,0:0:0:0:
181,116,157217,5,14,0:1:0:0:
93,195,157379,1,10,0:0:0:0:
156,0,157541,1,2,0:0:0:0:
293,152,157703,1,8,0:1:0:0:
293,152,157784,1,8,0:1:0:0:
293,152,157866,1,10,0:0:0:0:
42,71,158028,1,2,0:0:0:0:
289,18,158190,1,10,0:0:0:0:
211,259,158352,1,10,0:1:0:0:
32,57,159811,5,14,2:1:0:0:
76,38,159893,1,2,2:2:0:0:
123,44,159974,1,10,2:2:0:0:
150,69,160055,1,2,2:2:0:0:
147,91,160136,1,10,2:1:0:0:
120,67,160217,1,10,2:1:0:0:
147,32,160298,1,2,2:2:0:0:
199,34,160379,1,2,2:2:0:0:
226,77,160460,1,10,2:1:0:0:
194,77,160541,1,2,2:2:0:0:
157,106,160622,1,10,2:2:0:0:
152,157,160703,1,2,2:2:0:0:
191,193,160784,1,10,2:1:0:0:
163,202,160866,1,10,2:1:0:0:
144,231,160947,1,10,2:2:0:0:
142,262,161028,1,2,2:2:0:0:
183,295,161109,1,10,2:1:0:0:
220,268,161190,1,2,2:2:0:0:
268,272,161271,1,10,2:2:0:0:
295,300,161352,1,2,2:2:0:0:
296,348,161433,1,10,2:1:0:0:
277,331,161514,1,10,2:1:0:0:
279,282,161595,1,10,2:2:0:0:
326,255,161676,1,2,2:2:0:0:
380,266,161757,1,10,2:1:0:0:
388,305,161838,1,2,2:2:0:0:
434,329,161920,1,10,2:2:0:0:
472,323,162001,1,2,2:2:0:0:
495,276,162082,1,10,2:1:0:0:
456,273,162163,1,10,2:1:0:0:
431,250,162244,1,10,2:2:0:0:
417,206,162325,1,2,2:2:0:0:
427,173,162406,5,10,2:1:0:0:
458,169,162487,1,2,2:2:0:0:
476,133,162568,1,10,2:2:0:0:
467,91,162649,1,2,2:2:0:0:
427,67,162730,1,10,2:1:0:0:
417,103,162811,1,10,2:1:0:0:
374,118,162893,1,10,2:2:0:0:
328,98,162974,1,2,2:2:0:0:
316,54,163055,1,10,2:1:0:0:
339,85,163136,1,2,2:2:0:0:
340,140,163217,1,10,2:2:0:0:
302,168,163298,1,2,2:2:0:0:
253,165,163379,1,10,2:1:0:0:
279,189,163460,1,10,2:1:0:0:
287,216,163541,1,10,2:2:0:0:
281,255,163622,1,2,2:2:0:0:
245,287,163703,1,10,2:1:0:0:
230,258,163784,1,2,2:2:0:0:
194,230,163866,1,10,2:2:0:0:
144,238,163947,1,2,2:2:0:0:
115,272,164028,1,10,2:1:0:0:
135,228,164109,1,10,2:1:0:0:
116,178,164190,1,10,2:2:0:0:
66,155,164271,1,2,2:2:0:0:
18,176,164352,6,0,L|-6:247,2,57.1999973815919,10|2|8,0:1|0:0|0:0,0:0:0:0:
156,98,164595,1,2,0:0:0:0:
156,98,164676,2,0,L|180:27,1,57.1999973815919,10|8,0:1|0:1,0:0:0:0:
202,276,164838,2,0,L|178:347,1,57.1999973815919,10|0,0:0|0:0,0:0:0:0:
344,190,165001,6,2,B|405:179|405:179|445:201|445:201|541:190,1,176,14|0,0:1|0:0,0:1:0:0:
300,67,165487,1,8,0:1:0:0:
300,67,165568,1,8,0:1:0:0:
300,67,165649,1,14,0:0:0:0:
426,35,165811,2,2,L|536:12,1,88,2|0,0:0|0:0,0:1:0:0:
344,190,166136,5,2,0:0:0:0:
300,67,166298,1,14,0:1:0:0:
222,246,166460,1,8,0:0:0:0:
266,369,166622,1,2,0:0:0:0:
101,232,166784,1,8,0:1:0:0:
101,232,166866,1,8,0:1:0:0:
101,232,166947,1,8,0:0:0:0:
154,57,167109,1,2,0:0:0:0:
254,156,167271,2,2,L|151:147,1,88,8|0,0:1|0:0,0:1:0:0:
267,276,167595,6,2,B|254:349|322:377|322:377|377:346,1,176,14|0,0:1|0:0,0:1:0:0:
512,273,168082,1,8,0:1:0:0:
512,273,168163,1,8,0:1:0:0:
512,273,168244,1,14,0:0:0:0:
413,102,168406,2,2,L|428:-6,1,88,2|8,0:0|0:1,0:1:0:0:
318,187,168730,5,2,0:0:0:0:
193,9,168893,1,14,0:1:0:0:
227,154,169055,1,10,0:0:0:0:
173,293,169217,1,2,0:0:0:0:
35,321,169379,5,8,0:1:0:0:
35,321,169460,1,8,0:1:0:0:
35,321,169541,1,8,0:0:0:0:
141,128,169703,1,8,0:0:0:0:
269,307,169866,2,8,L|326:330,3,44
378,378,170190,5,14,0:1:0:0:
345,335,170271,1,2,0:0:0:0:
353,288,170352,1,10,0:0:0:0:
382,261,170433,1,2,0:0:0:0:
417,261,170514,1,10,0:1:0:0:
441,280,170595,1,10,0:1:0:0:
442,298,170676,5,10,0:1:0:0:
424,294,170757,1,2,0:0:0:0:
398,278,170838,1,10,0:1:0:0:
376,239,170920,1,2,0:0:0:0:
396,190,171001,1,10,0:0:0:0:
440,175,171082,1,2,0:0:0:0:
488,199,171163,5,10,0:1:0:0:
445,203,171244,1,10,0:1:0:0:
424,181,171325,1,10,0:0:0:0:
420,150,171406,1,2,0:0:0:0:
429,128,171487,1,10,0:1:0:0:
445,121,171568,1,2,0:0:0:0:
462,119,171649,5,10,0:1:0:0:
446,141,171730,1,2,0:0:0:0:
411,150,171811,1,10,0:1:0:0:
369,143,171893,1,10,0:1:0:0:
339,106,171974,1,10,0:0:0:0:
348,58,172055,1,2,0:0:0:0:
386,43,172136,5,10,0:1:0:0:
342,24,172217,1,2,0:0:0:0:
305,47,172298,1,10,0:0:0:0:
296,93,172379,1,2,0:0:0:0:
312,128,172460,1,10,0:1:0:0:
342,139,172541,1,10,0:1:0:0:
369,143,172622,5,10,0:1:0:0:
328,158,172703,1,2,0:0:0:0:
301,201,172784,1,10,0:1:0:0:
305,245,172866,1,2,0:0:0:0:
348,283,172947,1,10,0:0:0:0:
404,296,173028,6,2,P|436:288|468:285,1,59.8400003652344,2|8,0:1|0:1,0:1:0:0:
379,127,173190,2,2,P|371:95|368:63,1,59.8400003652344,10|8,0:1|0:1,0:1:0:0:
210,152,173352,1,2,0:1:0:0:
210,152,173433,2,2,P|178:160|146:163,1,59.8400003652344,10|0,0:1|0:0,0:1:0:0:
235,321,173595,2,2,P|243:353|246:385,1,59.8400003652344,10|0,0:1|0:0,0:1:0:0:
51,244,173757,6,2,B|33:261|33:261|74:253,1,59.8400003652344,10|8,0:1|0:1,0:1:0:0:
319,225,173920,2,2,B|343:219|343:219|305:201,1,59.8400003652344,10|0,0:1|0:1,0:1:0:0:
90,81,174082,2,2,B|66:69|66:69|86:106,1,59.8400003652344,10|0,0:1|0:1,0:1:0:0:
191,331,174244,2,2,B|203:352|203:352|207:311,1,59.8400003652344,10|0,0:1|0:1,0:1:0:0:
257,69,174406,2,2,B|259:43|259:43|231:73,1,59.8400003652344,10|8,0:1|0:1,0:1:0:0:
332,311,174568,5,10,0:1:0:0:
365,335,174649,1,2,0:2:0:0:
406,337,174730,1,10,0:1:0:0:
445,324,174811,1,2,0:2:0:0:
467,288,174893,2,10,P|474:231|453:170,1,119.680000730469,10|8,0:1|0:1,0:1:0:0:
148,22,175217,5,10,0:1:0:0:
148,22,175298,1,2,0:1:0:0:
148,22,175379,2,2,L|130:-5,1,33.0000012588501,14|2,0:1|0:0,0:1:0:0:
137,53,175460,2,2,L|116:22,1,33.0000012588501,2|2,0:0|0:0,0:1:0:0:
131,86,175541,2,2,L|105:53,1,33.0000012588501,2|2,0:0|0:0,0:1:0:0:
130,119,175622,2,2,L|98:92,1,33.0000012588501,2|2,0:0|0:0,0:1:0:0:
132,153,175703,2,2,L|99:129,1,33.0000012588501,2|2,0:0|0:0,0:1:0:0:
139,186,175784,2,2,L|100:165,1,33.0000012588501,2|2,0:0|0:0,0:1:0:0:
150,217,175866,2,2,L|112:201,1,33.0000012588501,10|2,0:1|0:0,0:1:0:0:
165,247,175947,2,2,L|123:237,1,33.0000012588501,10|2,0:1|0:0,0:1:0:0:
183,274,176028,2,2,L|141:270,1,33.0000012588501,14|2,0:0|0:0,0:1:0:0:
207,298,176109,2,2,L|165:301,1,33.0000012588501,2|2,0:0|0:0,0:1:0:0:
231,319,176190,2,2,L|194:328,1,33.0000012588501,2|2,0:0|0:0,0:1:0:0:
258,338,176271,2,2,L|220:351,1,33.0000012588501,2|2,0:0|0:0,0:1:0:0:
288,351,176352,2,2,L|252:370,1,33.0000012588501,10|2,0:1|0:0,0:1:0:0:
321,357,176433,2,2,L|287:384,1,33.0000012588501,2|2,0:0|0:0,0:1:0:0:
353,356,176514,2,2,L|325:391,1,33.0000012588501,2|2,0:0|0:0,0:1:0:0:
385,351,176595,2,2,L|365:388,1,33.0000012588501,2|2,0:0|0:0,0:1:0:0:
415,337,176676,2,2,L|401:380,1,33.0000012588501,10|2,0:1|0:0,0:1:0:0:
441,318,176757,2,2,L|434:361,1,33.0000012588501,2|2,0:0|0:0,0:1:0:0:
463,293,176838,2,2,L|469:340,1,33.0000012588501,10|2,0:0|0:0,0:1:0:0:
480,265,176920,2,2,L|495:307,1,33.0000012588501,2|2,0:0|0:0,0:1:0:0:
485,233,177001,2,2,L|511:273,1,33.0000012588501,2|2,0:0|0:0,0:1:0:0:
481,200,177082,2,2,L|518:229,1,33.0000012588501,2|2,0:0|0:0,0:1:0:0:
465,171,177163,2,2,L|512:184,1,33.0000012588501,10|2,0:1|0:0,0:1:0:0:
440,148,177244,2,2,L|488:148,1,33.0000012588501,10|2,0:1|0:0,0:1:0:0:
407,139,177325,2,2,L|456:120,1,33.0000012588501,10|2,0:0|0:0,0:1:0:0:
375,147,177406,2,2,L|410:109,1,33.0000012588501,2|2,0:0|0:0,0:1:0:0:
354,172,177487,2,2,L|360:119,1,33.0000012588501,10|2,0:1|0:0,0:1:0:0:
355,204,177568,2,2,L|327:154,1,33.0000012588501,10|2,0:1|0:0,0:1:0:0:
374,226,177649,1,12,0:0:0:0:
266,38,177811,5,2,0:1:0:0:
266,38,177893,1,2,0:1:0:0:
266,38,177974,2,2,L|245:93,1,33.0000012588501,14|2,0:1|0:0,0:1:0:0:
254,68,178055,2,2,L|221:79,1,33.0000012588501,2|2,0:1|0:0,0:1:0:0:
222,78,178136,2,2,L|185:74,1,33.0000012588501,2|2,0:1|0:0,0:1:0:0:
189,74,178217,2,2,L|156:53,1,33.0000012588501,2|2,0:1|0:0,0:1:0:0:
161,56,178298,6,2,P|89:66|69:122,1,132.000005035401,10|10,0:1|0:1,0:1:0:0:
49,149,178541,1,10,0:1:0:0:
35,186,178622,2,2,L|60:270,1,66.0000025177003,10|0,0:1|0:0,0:1:0:0:
159,384,178784,2,0,L|183:303,1,66.0000025177003,10|0,0:1|0:0,0:0:0:0:
367,270,178947,2,2,B|396:325|479:325|479:325|515:267|476:198,1,264.000010070801,10|12,0:1|0:1,0:1:0:0:
294,11,179433,5,10,0:0:0:0:
286,43,179514,1,10,0:0:0:0:
276,74,179595,2,2,B|246:114|246:114|187:108|180:44,1,132.000005035401,8|10,0:1|0:1,0:1:0:0:
184,67,179838,1,10,0:1:0:0:
184,67,179920,1,10,0:0:0:0:
82,201,180082,1,10,0:1:0:0:
37,18,180244,5,10,0:0:0:0:
126,383,180406,1,14,0:1:0:0:
191,51,180893,5,10,0:0:0:0:
381,299,181055,1,10,0:0:0:0:
373,35,181217,1,10,0:0:0:0:
208,314,181379,1,14,0:1:0:0:
174,36,181865,5,10,0:0:0:0:
393,317,182028,1,10,0:0:0:0:
382,15,182190,1,10,0:0:0:0:
196,332,182352,1,14,0:1:0:0:
133,383,188675,5,8,0:0:0:0:
128,346,188756,1,8,0:0:0:0:
124,309,188838,1,8,0:0:0:0:
121,273,188919,1,8,0:0:0:0:
116,237,189000,2,0,L|14:217,1,73.9199977441407,14|0,0:1|0:0,0:0:0:0:
187,125,189324,6,0,P|183:85|201:41,1,82.719998737793,10|0,0:1|0:0,0:0:0:0:
356,0,189648,1,10,0:1:0:0:
409,57,189811,2,0,P|423:95|420:136,1,82.719998737793,2|8,0:0|0:1,0:0:0:0:
290,249,190135,2,0,P|251:232|202:226,1,82.719998737793,2|8,0:0|0:1,0:0:0:0:
338,357,190459,1,2,0:0:0:0:
414,376,190621,2,0,P|454:369|492:352,1,82.719998737793,10|0,0:1|0:0,0:0:0:0:
334,169,190946,5,10,0:1:0:0:
255,331,191108,1,8,0:0:0:0:
182,155,191270,5,8,0:0:0:0:
182,155,191351,1,8,0:0:0:0:
182,155,191432,2,0,B|131:198|131:198|46:167|57:85,1,198.000007553101,12|0,0:1|0:0,0:0:0:0:
85,25,192081,5,8,0:1:0:0:
25,240,192243,1,8,0:0:0:0:
233,380,192567,5,8,0:0:0:0:
289,10,192892,5,14,0:0:0:0:
334,173,193054,1,8,0:1:0:0:
379,336,193216,1,8,0:1:0:0:
279,26,193378,5,14,0:0:0:0:
324,189,193540,1,8,0:1:0:0:
369,352,193702,1,8,0:1:0:0:
269,42,193865,5,14,0:0:0:0:
359,368,194027,1,14,0:1:0:0:
383,32,194838,5,10,0:1:0:0:
247,367,195000,1,10,0:0:0:0:
29,202,195324,6,0,B|146:135|335:158|160:408|420:414|608:318|476:81|348:149,1,704,14|0,0:1|0:0,0:2:0:0:
292,61,196783,6,0,P|230:93|162:22,1,176,14|0,0:1|0:0,0:0:0:0:
48,152,197270,2,0,L|66:50,1,88,10|0,0:0|0:0,0:0:0:0:
163,27,197594,5,8,0:3:0:0:
232,118,197756,5,4,0:3:0:0:
392,51,197919,5,8,0:3:0:0:
392,51,198000,1,8,0:3:0:0:
392,51,198081,2,0,B|418:26|402:-48|327:-10|301:96|371:141|494:10|631:207|493:469|288:379|262:236|356:193,1,616,14|0,0:1|0:0,0:0:0:0:
355,194,199378,6,0,P|442:296|298:290,1,352,14|0,0:1|0:0,0:0:0:0:
263,139,200189,5,8,0:1:0:0:
274,119,200270,1,8,0:1:0:0:
276,97,200351,1,12,0:0:0:0:
157,267,200675,6,0,L|21:256,1,112.200002140045,14|0,0:1|0:0,0:0:0:0:
173,349,201000,2,0,L|40:338,1,112.200002140045,10|0,0:1|0:0,0:0:0:0:
269,276,201324,2,0,L|133:265,1,112.200002140045,10|0,0:1|0:0,0:0:0:0:
285,358,201648,2,0,L|152:347,1,112.200002140045,10|0,0:1|0:0,0:0:0:0:
269,186,201973,6,0,L|422:198,1,118.799996374512,10|0,0:1|0:0,0:0:0:0:
257,106,202297,2,0,L|410:118,1,118.799996374512,10|0,0:1|0:0,0:0:0:0:
151,177,202621,2,0,L|304:189,1,118.799996374512,10|0,0:1|0:0,0:0:0:0:
139,97,202946,2,0,L|292:109,1,118.799996374512,10|0,0:1|0:0,0:0:0:0:
93,241,203270,6,0,L|116:408,1,132,14|0,0:1|0:0,0:0:0:0:
252,343,203594,6,0,L|408:321,1,145.200004431152,14|0,0:1|0:0,0:0:0:0:
371,212,203919,6,0,L|342:12,1,158.399995166016,14|0,0:1|0:0,0:0:0:0:
220,0,204243,5,14,0:0:0:0:
111,371,204405,1,14,0:1:0:0:
0,156,205702,6,0,B|43:209|109:194|109:194|148:86|242:90,1,290.40000276947,14|8,0:1|0:1,0:1:0:0:
479,221,206189,1,10,0:0:0:0:
365,0,206351,1,8,0:1:0:0:
365,0,206432,1,8,0:1:0:0:
365,0,206513,1,10,0:0:0:0:
326,297,206675,1,8,0:1:0:0:
326,297,206756,1,8,0:1:0:0:
326,297,206838,1,8,0:0:0:0:
399,372,207000,5,14,0:1:0:0:
341,129,207162,1,10,0:0:0:0:
98,187,207324,2,0,L|123:350,1,114.399994763184,10|8,0:1|0:0,0:0:0:0:
29,384,207648,5,10,0:1:0:0:
22,368,207729,1,8,0:1:0:0:
20,350,207810,1,8,0:0:0:0:
193,247,207973,5,8,0:1:0:0:
193,224,208054,1,8,0:1:0:0:
209,208,208135,1,8,0:0:0:0:
406,358,208297,6,0,B|458:378|458:378|518:287|518:287|471:149,1,290.40000276947,14|8,0:1|0:1,0:0:0:0:
316,0,208783,1,10,0:0:0:0:
360,175,208946,1,8,0:1:0:0:
360,175,209027,1,8,0:1:0:0:
360,175,209108,1,8,0:0:0:0:
302,340,209270,1,8,0:1:0:0:
302,340,209351,1,8,0:1:0:0:
302,340,209432,1,8,0:0:0:0:
189,379,209594,5,14,0:1:0:0:
261,67,209756,1,10,0:0:0:0:
495,285,209919,1,10,0:1:0:0:
465,356,210081,1,8,0:0:0:0:
342,189,210243,5,10,0:1:0:0:
362,177,210324,1,8,0:1:0:0:
378,161,210405,1,8,0:0:0:0:
174,54,210567,5,8,0:1:0:0:
167,28,210648,1,8,0:1:0:0:
147,10,210729,1,8,0:0:0:0:
41,202,210892,6,0,B|-9:290|34:376|108:382|108:382|172:348,1,290.40000276947,14|8,0:1|0:1,0:0:0:0:
302,74,211378,1,10,0:0:0:0:
371,314,211540,1,8,0:1:0:0:
371,314,211621,1,8,0:1:0:0:
371,314,211702,1,8,0:0:0:0:
135,140,211865,1,8,0:1:0:0:
135,140,211946,1,8,0:1:0:0:
135,140,212027,1,8,0:0:0:0:
226,15,212189,5,14,0:1:0:0:
226,300,212351,1,10,0:0:0:0:
501,374,212513,2,0,P|515:319|503:261,1,114.399994763184,10|8,0:1|0:0,0:0:0:0:
359,66,212838,5,10,0:1:0:0:
356,82,212919,1,8,0:1:0:0:
353,98,213000,1,8,0:0:0:0:
226,300,213162,5,8,0:1:0:0:
219,277,213243,1,8,0:1:0:0:
213,254,213324,1,8,0:0:0:0:
120,51,213486,6,0,P|20:69|12:170,1,217.800002077103,14|0,0:1|0:0,0:0:0:0:
45,244,213810,1,10,0:1:0:0:
263,112,213973,1,10,0:0:0:0:
210,5,214135,1,8,0:1:0:0:
210,5,214216,1,8,0:1:0:0:
210,5,214297,1,8,0:0:0:0:
120,326,214459,1,8,0:1:0:0:
120,326,214540,1,8,0:1:0:0:
120,326,214621,1,8,0:0:0:0:
219,376,214783,5,14,0:1:0:0:
349,83,214946,1,10,0:0:0:0:
501,323,215108,2,0,B|355:304,1,114.399994763184,10|8,0:1|0:0,0:0:0:0:
244,92,215432,5,10,0:1:0:0:
240,69,215513,1,8,0:1:0:0:
247,47,215594,1,8,0:0:0:0:
387,275,215756,5,8,0:1:0:0:
387,308,215838,1,8,0:1:0:0:
369,335,215919,2,8,B|317:345|317:345|289:321|289:321|222:309,1,132.000005035401,8|14,0:0|0:1,0:0:0:0:
163,384,216405,5,8,0:1:0:0:
163,384,216486,1,8,0:1:0:0:
163,384,216567,1,10,0:0:0:0:
130,192,216729,1,8,0:1:0:0:
130,192,216810,1,8,0:1:0:0:
130,192,216892,1,10,0:2:0:0:
107,0,217054,1,8,0:1:0:0:
107,0,217135,1,8,0:1:0:0:
107,0,217216,1,10,0:2:0:0:
21,69,217378,5,8,0:1:0:0:
21,69,217459,1,8,0:1:0:0:
21,69,217540,1,14,0:2:0:0:
220,168,217702,1,8,0:1:0:0:
220,168,217783,1,8,0:1:0:0:
220,168,217865,1,10,0:2:0:0:
348,30,218027,1,8,0:1:0:0:
348,30,218108,1,8,0:1:0:0:
348,30,218189,1,10,0:2:0:0:
450,19,218351,5,8,0:1:0:0:
450,19,218432,1,8,0:1:0:0:
450,19,218513,1,10,0:2:0:0:
368,246,218675,1,8,0:1:0:0:
368,246,218756,1,8,0:1:0:0:
368,246,218838,1,14,0:2:0:0:
474,231,219000,5,8,0:1:0:0:
474,231,219081,1,8,0:1:0:0:
474,231,219162,1,10,0:2:0:0:
272,94,219324,1,8,0:1:0:0:
272,94,219405,1,8,0:1:0:0:
272,94,219486,1,10,0:2:0:0:
121,268,219648,1,8,0:1:0:0:
121,268,219729,1,8,0:1:0:0:
121,268,219810,1,10,0:2:0:0:
135,374,219973,5,8,0:1:0:0:
135,374,220054,1,8,0:1:0:0:
135,374,220135,1,14,0:2:0:0:
174,105,220297,1,8,0:1:0:0:
174,105,220378,1,8,0:1:0:0:
174,105,220459,1,10,0:2:0:0:
443,128,220621,1,8,0:1:0:0:
443,128,220702,1,8,0:1:0:0:
443,128,220783,1,10,0:2:0:0:
362,298,220946,5,8,0:1:0:0:
362,298,221027,1,8,0:1:0:0:
362,298,221108,2,0,L|335:145,1,138.599995770264,12|0,0:0|0:0,0:0:0:0:
316,78,221432,5,10,1:1:0:0:
120,322,221594,1,10,1:1:0:0:
28,150,221919,5,10,1:1:0:0:
337,161,222081,1,10,1:1:0:0:
405,89,222405,5,10,1:1:0:0:
117,228,222567,1,10,1:1:0:0:
115,42,222892,5,10,1:2:0:0:
412,248,223054,1,14,1:1:0:0:
31,330,223540,6,0,L|2:319,2,22,2|2|2,0:3|0:3|0:3,0:3:0:0:
155,380,224027,5,10,1:1:0:0:
269,40,224189,1,10,1:1:0:0:
168,42,224513,5,10,1:1:0:0:
263,369,224675,1,10,1:1:0:0:
367,384,225000,5,10,1:1:0:0:
460,29,225162,1,10,1:1:0:0:
357,9,225486,5,10,1:2:0:0:
469,370,225648,2,0,B|530:227|451:71,1,307.999990600586,14|0,1:1|0:0,0:0:0:0:
328,15,226621,5,0,1:2:0:0:
335,29,226702,1,0,1:0:0:0:
337,47,226783,1,0,1:0:0:0:
333,69,226865,1,0,1:0:0:0:
317,88,226946,1,0,1:2:0:0:
292,100,227027,1,0,1:0:0:0:
261,98,227108,1,0,1:0:0:0:
232,79,227189,1,0,1:0:0:0:
196,68,227270,1,0,1:2:0:0:
159,74,227351,1,0,1:0:0:0:
132,105,227432,1,0,1:0:0:0:
123,148,227513,1,0,1:0:0:0:
82,170,227594,1,8,1:3:0:0:
33,160,227675,1,8,1:3:0:0:
2,116,227756,1,4,1:3:0:0:
15,60,227838,1,4,1:3:0:0:
71,35,227919,5,14,0:1:0:0:
281,261,228081,1,14,0:1:0:0:
281,261,229054,5,14,0:1:0:0:
0,317,229378,1,14,0:1:0:0:
0,317,230513,5,14,0:1:0:0:
196,28,230675,1,14,0:1:0:0:
196,28,231648,6,2,L|111:18,1,70.4,14|0,0:1|0:0,0:1:0:0:
228,150,231973,1,10,0:1:0:0:
318,20,232135,1,8,0:0:0:0:
408,115,232297,1,8,0:1:0:0:
318,245,232459,1,8,0:0:0:0:
428,334,232621,1,8,0:1:0:0:
428,334,232702,1,8,0:1:0:0:
428,334,232783,2,2,L|489:329,1,44,14|0,0:0|0:0,0:1:0:0:
318,245,233108,5,14,0:1:0:0:
244,358,233270,1,8,0:1:0:0:
131,284,233432,1,2,0:0:0:0:
205,171,233594,1,8,0:1:0:0:
205,171,233675,1,8,0:1:0:0:
205,171,233756,1,14,0:0:0:0:
56,19,234081,5,10,0:1:0:0:
92,178,234243,1,2,0:0:0:0:
92,178,234324,1,2,0:0:0:0:
92,178,234405,1,14,0:1:0:0:
182,82,234567,1,8,0:0:0:0:
214,262,234729,1,2,0:0:0:0:
327,70,234892,1,8,0:1:0:0:
327,70,234973,1,8,0:1:0:0:
327,70,235054,1,8,0:0:0:0:
362,308,235216,1,8,0:1:0:0:
362,308,235297,1,8,0:1:0:0:
362,308,235378,1,14,0:0:0:0:
512,151,235702,5,14,0:1:0:0:
393,196,235865,1,2,0:0:0:0:
273,158,236027,1,2,0:0:0:0:
167,220,236189,1,8,0:1:0:0:
167,220,236270,1,8,0:1:0:0:
167,220,236351,1,14,0:0:0:0:
0,78,236675,5,10,0:1:0:0:
179,31,236838,1,2,0:0:0:0:
179,31,236919,1,2,0:0:0:0:
179,31,237000,1,14,0:1:0:0:
83,152,237162,1,8,0:0:0:0:
120,301,237324,1,2,0:0:0:0:
270,367,237486,1,8,0:1:0:0:
270,367,237567,1,8,0:1:0:0:
270,367,237648,1,8,0:0:0:0:
211,223,237810,1,8,0:0:0:0:
291,88,237973,1,8,0:0:0:0:
297,77,238054,1,8,0:0:0:0:
304,68,238135,1,8,0:0:0:0:
311,58,238216,1,8,0:0:0:0:
319,48,238297,1,14,0:1:0:0:
407,9,238459,5,8,0:0:0:0:
487,209,238621,1,8,0:1:0:0:
487,209,238702,1,8,0:1:0:0:
487,209,238783,1,8,0:0:0:0:
319,48,238946,1,8,0:1:0:0:
380,247,239108,1,8,0:0:0:0:
182,46,239270,5,14,0:1:0:0:
182,46,239351,1,8,0:1:0:0:
182,46,239432,1,8,0:0:0:0:
18,256,239594,1,8,0:1:0:0:
58,31,239756,1,8,0:0:0:0:
146,282,239919,1,8,0:1:0:0:
146,282,240000,1,8,0:1:0:0:
146,282,240081,1,8,0:0:0:0:
254,244,240243,5,8,0:1:0:0:
344,375,240405,1,8,0:0:0:0:
449,264,240567,1,8,0:1:0:0:
449,264,240648,1,8,0:1:0:0:
449,264,240729,1,8,0:0:0:0:
510,359,240892,5,14,0:1:0:0:
426,123,241054,1,8,0:0:0:0:
352,383,241216,1,8,0:1:0:0:
352,383,241297,1,8,0:1:0:0:
352,383,241378,1,8,0:0:0:0:
283,133,241540,1,8,0:1:0:0:
193,384,241702,1,8,0:0:0:0:
86,289,241865,5,14,0:1:0:0:
86,289,241946,1,8,0:1:0:0:
86,289,242027,1,8,0:0:0:0:
383,235,242189,1,8,0:1:0:0:
49,114,242351,1,8,0:0:0:0:
338,56,242513,1,8,0:1:0:0:
338,56,242594,1,8,0:1:0:0:
338,56,242675,1,8,0:0:0:0:
209,0,242838,5,10,0:1:0:0:
175,210,243000,1,10,0:0:0:0:
323,376,243162,1,10,0:1:0:0:
323,376,243243,1,8,0:1:0:0:
323,376,243324,1,8,0:0:0:0:
484,134,243486,5,14,0:1:0:0:
35,251,243648,1,14,0:1:0:0:
15,89,244621,5,14,0:1:0:0:
512,302,244946,1,14,0:1:0:0:
