osu file format v14

[General]
AudioFilename: audio.mp3
AudioLeadIn: 0
PreviewTime: 55276
Countdown: 0
SampleSet: Soft
StackLeniency: 0.7
Mode: 0
LetterboxInBreaks: 0
WidescreenStoryboard: 1

[Editor]
DistanceSpacing: 1
BeatDivisor: 4
GridSize: 32
TimelineZoom: 2.2

[Metadata]
Title:DICE
TitleUnicode:DICE
Artist:BAND-MAID
ArtistUnicode:BAND-MAID
Creator:Lasse
Version:NORMAL.
Source:
Tags:bandmaid world domination japanese rock english
BeatmapID:2594992
BeatmapSetID:1248526

[Difficulty]
HPDrainRate:3
CircleSize:3.4
OverallDifficulty:5
ApproachRate:6
SliderMultiplier:0.999999999999999
SliderTickRate:1

[Events]
//Background and Video events
0,0,"e.jpg",0,0
//Break Periods
2,23560,30310
2,90892,97642
2,170891,174975
//Storyboard Layer 0 (Background)
//Storyboard Layer 1 (Fail)
//Storyboard Layer 2 (Pass)
//Storyboard Layer 3 (Foreground)
//Storyboard Layer 4 (Overlay)
//Storyboard Sound Samples

[TimingPoints]
2027,333.333333333333,4,2,2,60,1,0
2027,-100,4,2,2,60,0,0
7360,-100,4,2,2,65,0,0
11693,-100,4,2,1,65,0,0
12193,-100,4,2,2,70,0,0
12610,-100,4,2,2,30,0,0
12693,-100,4,2,1,75,0,0
17360,-100,4,2,2,75,0,0
18026,-100,4,2,1,75,0,0
22693,-100,4,2,2,70,0,0
23360,-111.111111111111,4,2,2,65,0,0
28526,-111.111111111111,4,2,1,65,0,0
31360,-100,4,2,2,70,0,0
34026,-100,4,2,1,68,0,0
35276,-100,4,2,1,20,0,0
35526,-100,4,2,1,68,0,0
35610,-100,4,2,1,20,0,0
35860,-100,4,2,1,68,0,0
35943,-100,4,2,1,20,0,0
36026,-100,4,2,1,68,0,0
37943,-100,4,2,1,20,0,0
38193,-100,4,2,1,68,0,0
38276,-100,4,2,1,20,0,0
38526,-100,4,2,1,68,0,0
38610,-100,4,2,1,20,0,0
38693,-100,4,2,1,68,0,0
41860,-100,4,2,1,70,0,0
42693,-100,4,2,1,72,0,0
43526,-100,4,2,1,74,0,0
44360,-100,4,2,1,72,0,0
44693,-111.111111111111,4,2,2,70,0,0
50026,-111.111111111111,4,2,2,72,0,0
53693,-111.111111111111,4,2,2,75,0,0
54026,-99.9999999999999,4,2,2,75,0,0
54693,-99.9999999999999,4,2,2,78,0,0
55526,-99.9999999999999,4,2,2,80,0,0
56026,333.333333333333,4,2,1,85,1,0
56026,-90.9090909090909,4,2,1,85,0,1
61359,-90.9090909090909,4,2,2,85,0,1
63692,-90.9090909090909,4,2,1,85,0,1
64025,-90.9090909090909,4,2,1,86,0,1
64692,-90.9090909090909,4,2,1,88,0,1
65359,-90.9090909090909,4,2,1,90,0,1
66025,-90.9090909090909,4,2,1,85,0,1
71359,-90.9090909090909,4,2,2,85,0,1
77359,-90.9090909090909,4,2,1,85,0,1
78025,-90.9090909090909,4,2,2,85,0,1
78692,-100,4,2,1,90,0,0
79692,-100,4,2,1,60,0,0
79942,-100,4,2,1,30,0,0
80025,-100,4,2,1,75,0,0
84692,-100,4,2,2,75,0,0
85359,-100,4,2,1,75,0,0
90025,-100,4,2,2,75,0,0
90692,-100,4,2,2,70,0,0
98692,-100,4,2,2,74,0,0
101359,-111.111111111111,4,2,2,70,0,0
106692,-111.111111111111,4,2,2,72,0,0
109359,-100,4,2,2,76,0,0
110692,-100,4,2,2,78,0,0
112025,-100,4,2,2,80,0,0
113359,-90.9090909090909,4,2,1,85,0,1
118692,-90.9090909090909,4,2,2,85,0,1
121359,-90.9090909090909,4,2,2,86,0,1
122025,-90.9090909090909,4,2,2,88,0,1
122692,-90.9090909090909,4,2,2,90,0,1
123359,-90.9090909090909,4,2,2,85,0,1
124025,-90.9090909090909,4,2,1,85,0,1
124359,-90.9090909090909,4,2,2,85,0,1
134692,-90.9090909090909,4,2,1,85,0,1
135359,-90.9090909090909,4,2,2,85,0,1
136025,-100,4,2,2,85,0,1
137025,-100,4,2,2,80,0,1
137359,-111.111111111111,4,2,1,75,0,0
140025,-111.111111111111,4,2,2,75,0,0
142859,-111.111111111111,4,2,1,68,0,0
144525,-111.111111111111,4,2,2,68,0,0
145525,-111.111111111111,4,2,2,70,0,0
147525,-111.111111111111,4,2,2,70,0,0
147609,-111.111111111111,4,2,2,30,0,0
147692,-111.111111111111,4,2,2,72,0,0
147775,-111.111111111111,4,2,2,30,0,0
147859,-111.111111111111,4,2,2,74,0,0
147942,-111.111111111111,4,2,2,30,0,0
148025,-90.9090909090909,4,2,1,80,0,1
153359,-90.9090909090909,4,2,1,82,0,1
154192,-90.9090909090909,4,2,1,78,0,1
154692,-90.9090909090909,4,2,1,82,0,1
156025,-90.9090909090909,4,2,1,78,0,1
156359,-90.9090909090909,4,2,1,80,0,1
156692,-90.9090909090909,4,2,1,82,0,1
157025,-90.9090909090909,4,2,1,84,0,1
157359,-90.9090909090909,4,2,1,85,0,1
158609,-90.9090909090909,4,2,1,82,0,1
158692,-111.111111111111,4,2,2,78,0,0
158859,-111.111111111111,4,2,2,72,0,0
166692,-100,4,2,2,75,0,0
167025,-100,4,2,2,80,0,0
168025,-100,4,2,2,82,0,0
169192,-100,4,2,1,72,0,0
169359,-111.111111111111,4,2,1,72,0,0
169859,-111.111111111111,4,2,1,70,0,0
170275,-111.111111111111,4,2,1,68,0,0
170525,-111.111111111111,4,2,1,64,0,0
170692,-111.111111111111,4,2,99,62,0,0
176025,-111.111111111111,4,2,2,65,0,0
180859,-111.111111111111,4,2,1,68,0,0
181025,-111.111111111111,4,2,1,70,0,0
181359,-105.263157894737,4,2,1,72,0,0
182692,-105.263157894737,4,2,2,72,0,0
184025,-105.263157894737,4,2,1,75,0,0
185359,-105.263157894737,4,2,2,75,0,0
186692,-105.263157894737,4,2,1,78,0,0
188025,-105.263157894737,4,2,2,78,0,0
189025,-105.263157894737,4,2,1,78,0,0
189692,-105.263157894737,4,2,1,74,0,0
190692,-100,4,2,1,84,0,0
191359,-100,4,2,1,80,0,0
191442,-100,4,2,1,81,0,0
191525,-100,4,2,1,82,0,0
191609,-100,4,2,1,83,0,0
191692,-100,4,2,1,84,0,0
191775,-100,4,2,1,85,0,0
191859,-100,4,2,1,86,0,0
191942,-100,4,2,1,88,0,0
192025,-86.9565217391304,4,2,1,90,0,1
200025,-86.9565217391304,4,2,2,91,0,1
200692,-86.9565217391304,4,2,2,93,0,1
201359,-86.9565217391304,4,2,2,95,0,1
202025,-86.9565217391304,4,2,2,90,0,1
202692,-86.9565217391304,4,2,1,90,0,1
206692,-86.9565217391304,4,2,2,90,0,1
207025,-86.9565217391304,4,2,1,90,0,1
207359,-86.9565217391304,4,2,2,90,0,1
213359,-86.9565217391304,4,2,1,90,0,1
214025,-86.9565217391304,4,2,2,90,0,1
214692,-100,4,2,1,78,0,0
215609,-100,4,2,1,50,0,0
215692,-100,4,2,1,60,0,0
215942,-100,4,2,1,30,0,0
216025,-100,4,2,1,76,0,0
218859,-100,4,2,2,76,0,0
221359,-100,4,2,1,76,0,0
224192,-100,4,2,2,76,0,0
226692,-95.2380952380952,4,2,1,78,0,0
229359,-95.2380952380952,4,2,2,78,0,0
232025,-95.2380952380952,4,2,1,78,0,0
235525,-95.2380952380952,4,2,2,78,0,0
237359,-95.2380952380952,4,2,99,78,0,0
239359,-95.2380952380952,4,2,1,84,0,0
239525,-95.2380952380952,4,2,2,84,0,0

[Colours]
Combo1 : 255,140,140
Combo2 : 145,185,220
Combo3 : 255,180,110
Combo4 : 175,215,150

[HitObjects]
204,278,693,6,0,P|156:283|51:260,2,150,10|8|10,2:2|2:2|2:2,0:0:0:0:
284,218,2026,6,0,B|270:191|270:191|294:104,1,99.9999999999999,12|8,0:1|0:0,0:0:0:0:
346,41,2693,1,8,0:3:0:0:
444,54,3026,1,8,0:0:0:0:
487,144,3360,2,0,B|482:175|482:175|495:203|495:203|486:251,1,99.9999999999999,8|8,0:1|0:0,0:0:0:0:
474,339,4026,1,8,0:3:0:0:
380,375,4360,1,8,0:0:0:0:
308,304,4693,6,0,P|292:260|304:194,1,99.9999999999999,8|8,0:1|0:0,0:0:0:0:
381,153,5360,2,0,P|387:103|370:56,1,99.9999999999999,8|8,0:3|0:0,0:0:0:0:
280,15,6026,1,8,0:1:0:0:
218,93,6360,1,8,0:0:0:0:
138,32,6693,1,8,0:3:0:0:
45,69,7026,1,8,0:0:0:0:
7,161,7360,6,0,L|20:273,1,99.9999999999999,14|10,0:1|0:0,0:0:0:0:
36,312,7860,1,8,0:3:0:0:
36,312,8026,2,0,P|82:296|146:308,1,99.9999999999999,8|8,0:3|0:0,0:0:0:0:
205,370,8693,1,10,0:1:0:0:
291,320,9026,1,10,0:0:0:0:
276,220,9360,1,8,0:3:0:0:
176,207,9693,1,10,0:0:0:0:
95,147,10026,6,0,P|80:106|95:52,1,99.9999999999999,14|10,0:1|0:0,0:0:0:0:
139,32,10526,2,0,B|166:32|166:32|184:47|184:47|242:52,1,99.9999999999999,8|4,0:3|0:3,0:0:0:0:
283,57,11026,2,0,L|294:-2,2,50,8|8|8,0:0|0:0|0:1,0:0:0:0:
504,237,12693,6,0,P|516:189|502:142,1,99.9999999999999,14|8,0:1|0:0,0:0:0:0:
428,74,13360,2,0,L|324:66,1,99.9999999999999,10|8,0:1|0:0,0:0:0:0:
230,86,14026,1,2,0:0:0:0:
139,42,14360,1,10,0:0:0:0:
53,86,14693,1,10,0:1:0:0:
47,120,14860,1,10,0:1:0:0:
43,154,15026,1,14,0:0:0:0:
16,250,15360,6,0,P|63:238|119:241,1,99.9999999999999,14|10,0:1|0:0,0:0:0:0:
196,295,16026,1,10,0:1:0:0:
290,260,16360,1,10,0:0:0:0:
365,325,16693,2,0,L|368:378,2,50,2|8|12,0:0|0:1|0:0,0:0:0:0:
377,225,17360,1,14,0:1:0:0:
298,163,17693,1,10,0:1:0:0:
238,242,18026,6,0,P|179:257|125:240,1,99.9999999999999,12|8,0:1|0:0,0:0:0:0:
58,192,18693,2,0,L|68:85,1,99.9999999999999,10|8,0:1|0:0,0:0:0:0:
135,19,19360,1,2,0:0:0:0:
227,57,19693,1,10,0:0:0:0:
208,155,20026,1,10,0:1:0:0:
219,188,20193,1,10,0:1:0:0:
231,220,20360,1,14,0:0:0:0:
297,295,20693,6,0,B|334:292|334:292|355:301|355:301|395:310,1,99.9999999999999,14|8,0:1|0:0,0:0:0:0:
477,365,21360,1,10,0:1:0:0:
509,270,21693,1,10,0:0:0:0:
485,172,22026,2,0,L|488:119,2,50,0|8|8,0:0|0:1|0:0,0:0:0:0:
402,229,22693,1,14,0:1:0:0:
319,173,23026,1,10,0:0:0:0:
236,232,23360,1,12,0:1:0:0:
191,351,31360,6,0,L|78:337,1,99.9999999999999,14|8,0:1|0:1,0:0:0:0:
0,377,32026,2,0,P|-5:328|12:278,1,99.9999999999999,10|8,0:1|0:1,0:0:0:0:
77,204,32693,1,10,0:1:0:0:
167,246,33026,1,8,0:0:0:0:
251,191,33360,2,0,B|266:153|266:153|261:132|261:132|279:79,1,99.9999999999999,10|10,0:1|0:0,0:0:0:0:
361,26,34026,5,14,0:1:0:0:
361,26,34193,1,8,0:1:0:0:
431,97,34526,2,0,P|444:129|437:208,1,99.9999999999999,8|8,0:0|0:1,0:0:0:0:
412,289,35193,1,10,0:0:0:0:
316,317,35526,1,10,0:1:0:0:
248,242,35860,2,0,L|240:123,1,99.9999999999999,10|8,0:1|0:1,0:0:0:0:
182,49,36526,6,0,P|141:33|70:52,1,99.9999999999999,8|8,0:0|0:1,0:0:0:0:
18,115,37193,2,0,L|29:226,1,99.9999999999999,8|8,0:0|0:1,0:0:0:0:
4,311,37860,1,10,0:0:0:0:
79,376,38193,1,10,0:1:0:0:
171,339,38526,2,0,P|227:320|278:327,1,99.9999999999999,10|8,0:1|0:1,0:0:0:0:
364,363,39193,5,8,0:0:0:0:
364,363,39360,2,0,P|399:371|422:365,1,50,10|8,0:1|0:1,0:0:0:0:
487,302,39860,2,0,L|480:197,1,99.9999999999999,10|8,0:0|0:1,0:0:0:0:
405,136,40526,2,0,P|366:127|310:151,1,99.9999999999999,10|8,0:0|0:1,0:0:0:0:
250,228,41193,1,10,0:1:0:0:
151,247,41526,1,10,0:1:0:0:
63,196,41860,5,10,0:1:0:0:
63,196,42026,2,0,L|55:86,1,99.9999999999999,10|10,0:1|0:1,0:0:0:0:
128,27,42693,1,10,0:1:0:0:
210,83,43026,1,2,0:0:0:0:
210,83,43193,2,0,L|218:193,1,99.9999999999999,14|10,0:0|0:1,0:0:0:0:
222,232,43693,1,10,0:0:0:0:
276,315,44026,1,14,0:0:0:0:
365,359,44360,1,8,0:3:0:0:
453,311,44693,6,0,P|468:249|450:130,1,179.999994506836,14|10,0:1|0:0,0:0:0:0:
383,77,45693,2,0,L|273:64,2,89.999997253418,10|2|10,0:1|0:0|0:0,0:0:0:0:
465,40,46693,1,10,0:1:0:0:
503,121,47026,1,10,0:0:0:0:
452,206,47360,6,0,B|426:245|426:245|287:213,1,179.999994506836,14|10,0:1|0:0,0:0:0:0:
233,150,48360,2,0,L|230:48,2,89.999997253418,10|2|10,0:1|0:0|0:0,0:0:0:0:
196,232,49360,1,10,0:1:0:0:
114,269,49693,1,14,0:2:0:0:
28,220,50026,6,0,B|-9:164|5:96|5:96|33:65|61:58,1,179.999994506836,14|10,0:1|0:0,0:0:0:0:
131,41,51026,2,0,B|155:37|155:37|177:45|177:45|234:34,2,89.999997253418,10|2|10,0:1|0:0|0:0,0:0:0:0:
68,105,52026,1,10,0:1:0:0:
87,192,52360,1,10,0:0:0:0:
173,241,52693,6,0,B|224:239|224:239|257:272|257:272|348:303,1,179.999994506836,12|10,0:1|0:0,0:0:0:0:
407,363,53693,1,10,0:0:0:0:
480,303,54026,2,0,P|489:269|467:192,1,99.9999999999999,14|8,0:1|0:2,0:0:0:0:
417,125,54693,1,10,0:1:0:0:
330,174,55026,1,10,0:2:0:0:
259,102,55360,2,0,B|234:62|234:62|124:95,1,150,10|8,0:3|0:0,0:0:0:0:
93,126,56026,6,0,B|84:176|116:206|116:206|91:239,1,110.000003356934,12|10,0:1|0:0,0:0:0:0:
45,319,56692,1,10,0:1:0:0:
45,319,56859,1,2,0:1:0:0:
144,365,57192,2,0,L|255:352,1,110.000003356934,2|10,0:0|0:1,0:0:0:0:
305,369,57692,1,10,0:0:0:0:
344,266,58026,2,0,B|354:227|354:227|347:206|347:206|360:149,1,110.000003356934,10|8,0:1|0:0,0:0:0:0:
441,78,58692,5,10,0:1:0:0:
358,7,59026,1,10,0:0:0:0:
259,56,59359,1,10,0:1:0:0:
155,17,59692,1,8,0:0:0:0:
122,37,59859,1,2,0:0:0:0:
84,30,60025,2,0,P|44:67|46:126,1,110.000003356934,10|10,0:1|0:0,0:0:0:0:
105,210,60692,2,0,P|155:189|223:197,1,110.000003356934,10|10,0:1|0:0,0:0:0:0:
259,226,61192,5,8,0:0:0:0:
259,226,61359,2,0,B|241:285|241:285|266:339,1,110.000003356934,14|10,0:1|0:0,0:0:0:0:
365,377,62025,1,10,0:1:0:0:
365,377,62192,1,10,0:1:0:0:
460,322,62525,2,0,L|467:204,1,110.000003356934,2|10,0:0|0:1,0:0:0:0:
471,157,63025,1,10,0:0:0:0:
422,63,63359,1,10,0:1:0:0:
422,63,63525,1,10,0:1:0:0:
258,0,64025,5,10,0:1:0:0:
292,104,64359,1,10,0:0:0:0:
204,187,64692,5,10,0:1:0:0:
129,106,65025,1,10,0:0:0:0:
13,145,65359,5,10,0:1:0:0:
3,254,65692,1,10,0:0:0:0:
90,339,66025,5,10,0:1:0:0:
193,299,66359,1,14,0:0:0:0:
300,352,66692,6,0,P|342:369|418:354,1,110.000003356934,14|8,0:1|0:0,0:0:0:0:
454,336,67192,2,0,L|463:216,1,110.000003356934,2|10,0:0|0:1,0:0:0:0:
471,116,67859,1,2,0:0:0:0:
471,116,68025,2,0,P|432:138|366:121,1,110.000003356934,10|8,0:1|0:0,0:0:0:0:
320,101,68525,1,2,0:0:0:0:
298,209,68859,1,10,0:1:0:0:
154,303,69359,6,0,B|101:317|101:317|41:278,1,110.000003356934,10|10,0:1|0:0,0:0:0:0:
12,251,69859,2,0,L|12:137,1,110.000003356934,2|10,0:0|0:1,0:0:0:0:
35,91,70359,1,8,0:0:0:0:
130,16,70692,5,10,0:1:0:0:
203,97,71025,1,10,0:0:0:0:
301,46,71359,1,10,0:1:0:0:
466,120,71859,5,2,0:0:0:0:
466,120,72025,2,0,P|481:160|469:238,1,110.000003356934,14|8,0:1|0:0,0:0:0:0:
455,277,72525,1,2,0:0:0:0:
364,335,72859,1,10,0:1:0:0:
297,254,73192,1,2,0:0:0:0:
297,254,73359,2,0,L|280:125,1,110.000003356934,8|8,0:1|0:0,0:0:0:0:
270,91,73859,1,2,0:1:0:0:
178,29,74192,1,10,0:1:0:0:
25,114,74692,6,0,P|9:146|22:233,1,110.000003356934,10|10,0:1|0:0,0:0:0:0:
33,270,75192,1,2,0:0:0:0:
111,347,75525,2,0,P|161:326|232:332,1,110.000003356934,8|2,0:1|0:0,0:0:0:0:
263,355,76025,5,10,0:1:0:0:
361,304,76359,1,10,0:0:0:0:
453,363,76692,1,10,0:0:0:0:
389,162,77359,5,14,0:1:0:0:
303,231,77692,1,10,0:1:0:0:
212,171,78025,1,10,0:3:0:0:
238,63,78359,1,6,0:3:0:0:
337,52,78692,1,14,0:0:0:0:
457,230,80025,6,0,B|477:266|477:266|455:325,1,99.9999999999999,14|8,0:1|0:0,0:0:0:0:
364,359,80692,2,0,L|260:351,1,99.9999999999999,10|8,0:1|0:0,0:0:0:0:
173,309,81359,1,2,0:0:0:0:
89,364,81692,1,10,0:0:0:0:
8,304,82025,1,10,0:1:0:0:
15,269,82192,1,10,0:1:0:0:
23,235,82359,1,14,0:0:0:0:
121,215,82692,6,0,L|227:199,1,99.9999999999999,14|10,0:1|0:0,0:0:0:0:
306,249,83359,1,10,0:1:0:0:
376,177,83692,1,10,0:0:0:0:
458,232,84025,2,0,L|458:297,2,50,2|8|12,0:0|0:1|0:0,0:0:0:0:
508,145,84692,1,14,0:1:0:0:
475,50,85025,1,10,0:1:0:0:
367,29,85359,6,0,B|329:30|329:30|305:44|305:44|251:43,1,99.9999999999999,12|8,0:1|0:0,0:0:0:0:
175,73,86025,2,0,B|131:47|131:47|78:65,1,99.9999999999999,10|8,0:1|0:0,0:0:0:0:
1,117,86692,1,2,0:0:0:0:
1,217,87025,1,10,0:0:0:0:
92,256,87359,1,10,0:1:0:0:
126,250,87525,1,10,0:1:0:0:
160,245,87692,1,14,0:0:0:0:
236,171,88025,6,0,P|228:138|247:67,1,99.9999999999999,14|8,0:1|0:0,0:0:0:0:
325,19,88692,1,10,0:1:0:0:
375,105,89025,1,10,0:0:0:0:
468,70,89359,2,0,L|481:18,2,50,2|8|12,0:0|0:1|0:0,0:0:0:0:
507,162,90025,1,14,0:1:0:0:
418,207,90359,1,10,0:0:0:0:
452,300,90692,1,12,0:1:0:0:
173,361,98692,6,0,L|162:248,1,99.9999999999999,12|8,0:1|0:0,0:0:0:0:
66,286,99359,2,0,L|55:173,1,99.9999999999999,10|8,0:0|0:0,0:0:0:0:
18,153,99859,1,14,0:1:0:0:
56,63,100192,1,10,0:1:0:0:
56,63,100359,1,10,0:0:0:0:
144,108,100692,2,0,P|203:117|247:86,1,99.9999999999999,8|8,0:0|0:0,0:0:0:0:
324,55,101359,6,0,B|431:30|431:30|460:116,1,179.999994506836,14|14,0:1|0:0,0:0:0:0:
398,167,102359,2,0,L|288:154,2,89.999997253418,10|10|14,0:1|0:0|0:0,0:0:0:0:
468,223,103359,1,10,0:1:0:0:
449,310,103692,1,14,0:0:0:0:
362,356,104025,6,0,B|298:340|298:340|248:358|248:358|184:347,1,179.999994506836,14|12,0:1|0:0,0:0:0:0:
103,317,105025,2,0,L|9:334,2,89.999997253418,10|10|10,0:1|0:1|0:0,0:0:0:0:
178,266,106025,1,10,0:1:0:0:
260,301,106359,1,10,0:0:0:0:
352,271,106692,6,0,B|390:241|390:241|409:171|342:122,1,179.999994506836,14|14,0:1|0:0,0:0:0:0:
264,89,107692,2,0,B|260:67|260:67|265:39|265:39|256:-4,2,89.999997253418,10|2|10,0:1|0:0|0:0,0:0:0:0:
201,153,108692,1,10,0:1:0:0:
134,92,109025,1,14,0:0:0:0:
43,140,109359,6,0,P|17:174|29:338,1,200,14|10,0:1|0:0,0:0:0:0:
106,374,110359,1,10,0:0:0:0:
191,322,110692,2,0,L|199:210,1,99.9999999999999,10|12,0:0|0:0,0:0:0:0:
231,127,111359,1,8,0:0:0:0:
323,88,111692,1,12,0:0:0:0:
421,135,112025,6,0,P|457:182|443:270,1,150,10|8,0:0|0:3,0:0:0:0:
418,310,112692,2,0,L|308:304,1,99.9999999999999,8|10,0:1|0:0,0:0:0:0:
247,211,113359,6,0,B|277:193|270:131|270:131|256:112,1,110.000003356934,12|10,0:1|0:0,0:0:0:0:
178,35,114025,1,10,0:1:0:0:
178,35,114192,1,10,0:1:0:0:
90,101,114525,2,0,B|57:134|67:181|67:181|80:199,1,110.000003356934,2|2,0:0|0:0,0:0:0:0:
94,252,115025,1,10,0:0:0:0:
174,326,115359,2,0,B|296:317,1,110.000003356934,10|8,0:1|0:0,0:0:0:0:
338,327,115859,6,0,P|347:279|327:216,1,110.000003356934,2|2,0:0|0:0,0:0:0:0:
283,192,116359,1,10,0:0:0:0:
228,96,116692,1,10,0:1:0:0:
302,15,117025,1,10,0:0:0:0:
411,18,117359,2,8,B|456:45|456:45|440:114,1,110.000003356934,10|10,0:1|0:0,0:1:0:0:
420,208,118025,2,0,B|410:243|410:243|422:277|422:277|411:324,1,110.000003356934,10|10,0:1|0:0,0:0:0:0:
372,350,118525,5,8,0:0:0:0:
372,350,118692,2,0,P|326:328|253:334,1,110.000003356934,12|10,0:1|0:0,0:0:0:0:
164,365,119359,1,10,0:1:0:0:
164,365,119525,1,10,0:1:0:0:
64,318,119859,2,0,L|50:198,1,110.000003356934,2|10,0:0|0:1,0:0:0:0:
44,154,120359,1,10,0:0:0:0:
83,53,120692,1,10,0:1:0:0:
83,53,120859,1,10,0:1:0:0:
258,0,121359,5,2,0:0:0:0:
288,105,121692,1,10,0:2:0:0:
175,157,122025,5,10,0:1:0:0:
145,262,122359,1,10,0:0:0:0:
197,359,122692,5,10,0:1:0:0:
301,325,123025,1,10,0:0:0:0:
415,368,123359,5,10,2:1:0:0:
486,283,123692,1,14,2:0:0:0:
439,167,124025,6,0,L|415:42,1,110.000003356934,14|8,0:1|0:0,0:0:0:0:
367,38,124525,2,0,P|320:64|266:57,1,110.000003356934,2|10,0:0|0:1,0:0:0:0:
170,28,125192,1,2,0:0:0:0:
170,28,125359,2,0,P|116:20|68:46,1,110.000003356934,10|8,0:1|0:0,0:0:0:0:
32,87,125859,1,2,0:0:0:0:
5,194,126192,1,10,0:1:0:0:
74,355,126692,6,0,B|128:369|128:369|189:347,1,110.000003356934,10|10,0:1|0:0,0:0:0:0:
219,313,127192,2,0,L|207:198,1,110.000003356934,2|10,0:0|0:1,0:0:0:0:
154,113,127859,1,2,0:0:0:0:
154,113,128025,1,10,0:1:0:0:
214,21,128359,1,10,0:0:0:0:
324,15,128692,1,10,0:1:0:0:
482,113,129192,5,2,0:0:0:0:
482,113,129359,2,0,B|502:148|502:148|485:231,1,110.000003356934,14|8,0:1|0:0,0:0:0:0:
476,270,129859,1,2,0:0:0:0:
410,358,130192,1,10,0:1:0:0:
336,276,130525,2,0,L|319:152,1,110.000003356934,2|2,0:0|0:0,0:0:0:0:
295,59,131192,1,2,0:0:0:0:
192,19,131525,1,10,0:1:0:0:
25,114,132025,6,0,P|9:146|22:233,1,110.000003356934,10|10,0:1|0:0,0:0:0:0:
37,268,132525,1,2,0:0:0:0:
138,223,132859,1,10,0:1:0:0:
270,338,133359,5,10,0:1:0:0:
371,381,133692,1,8,0:0:0:0:
473,341,134025,1,8,0:0:0:0:
459,116,134692,5,14,0:1:0:0:
391,202,135025,1,10,0:1:0:0:
290,246,135359,1,6,0:3:0:0:
180,238,135692,1,10,0:0:0:0:
84,183,136025,2,0,P|79:84|263:54,1,300,14|8,0:1|0:0,0:0:0:0:
294,121,137359,6,0,L|281:219,1,89.999997253418,14|8,0:1|0:0,0:0:0:0:
293,299,138025,1,8,0:3:0:0:
375,336,138359,1,8,0:0:0:0:
458,301,138692,2,0,L|471:203,1,89.999997253418,4|8,0:3|0:0,0:0:0:0:
440,126,139359,1,8,0:3:0:0:
361,170,139692,1,4,0:3:0:0:
297,105,140025,6,0,P|248:78|198:87,1,89.999997253418,14|8,0:1|0:0,0:0:0:0:
169,157,140692,2,0,L|183:251,1,89.999997253418,8|8,0:3|0:0,0:0:0:0:
171,292,141192,1,10,0:1:0:0:
171,292,141359,2,0,P|137:312|72:303,1,89.999997253418,8|8,0:0|0:0,0:0:0:0:
44,296,141859,2,0,L|33:145,1,134.999995880127,10|8,0:1|0:0,0:0:0:0:
74,80,142692,6,0,P|113:97|175:75,1,89.999997253418,14|8,0:1|0:0,0:0:0:0:
201,167,143359,2,0,P|244:157|285:174,1,89.999997253418,4|8,0:3|0:0,0:0:0:0:
329,253,144025,1,12,0:1:0:0:
411,289,144359,1,8,0:0:0:0:
469,220,144692,2,0,P|485:166|462:79,1,134.999995880127,8|14,0:3|0:1,0:0:0:0:
413,19,145525,5,10,0:1:0:0:
413,19,145692,1,8,0:0:0:0:
350,83,146025,1,8,0:0:0:0:
266,47,146359,2,0,P|243:33|209:27,1,44.999998626709,8|12,0:0|0:1,0:0:0:0:
19,245,147525,6,2,L|9:188,2,44.999998626709,2|10|2,0:0|0:3|0:0,0:1:0:0:
34,292,148025,6,2,B|69:289|69:289|80:301|80:301|145:332,1,110.000003356934,14|10,0:1|0:0,0:1:0:0:
180,353,148525,1,2,0:0:0:0:
279,302,148859,1,10,0:1:0:0:
279,302,149025,1,10,0:0:0:0:
205,220,149359,2,0,B|185:179|185:179|208:115,1,110.000003356934,10|10,0:1|0:0,0:0:0:0:
250,84,149859,2,0,L|362:73,1,110.000003356934,2|10,0:0|0:1,0:0:0:0:
406,44,150359,1,10,0:0:0:0:
473,131,150692,6,2,P|490:189|475:250,1,110.000003356934,10|10,0:1|0:0,0:1:0:0:
466,292,151192,1,2,0:0:0:0:
466,292,151359,1,10,0:1:0:0:
381,361,151692,1,8,0:0:0:0:
319,270,152025,2,2,B|313:238|313:238|319:207|319:207|300:151,1,110.000003356934,8|8,0:1|0:0,0:1:0:0:
287,116,152525,1,2,0:0:0:0:
287,116,152692,2,2,B|243:96|243:96|173:112,1,110.000003356934,10|10,0:1|0:0,0:1:0:0:
107,190,153359,6,0,L|-5:172,2,110.000003356934,14|10|8,0:1|0:0|0:1,0:0:0:0:
134,237,154192,2,0,B|109:277|109:277|127:342,1,110.000003356934,10|2,0:1|0:0,0:0:0:0:
163,378,154692,1,10,0:1:0:0:
251,312,155025,1,10,0:0:0:0:
346,367,155359,2,2,B|396:379|396:379|453:364,1,110.000003356934,10|10,0:1|0:0,0:1:0:0:
498,264,156025,5,10,0:1:0:0:
394,225,156359,1,10,0:0:0:0:
439,124,156692,1,10,0:1:0:0:
337,81,157025,1,10,0:0:0:0:
288,179,157359,5,10,0:1:0:0:
178,166,157692,1,10,0:0:0:0:
169,275,158025,1,10,0:0:0:0:
58,273,158359,1,10,0:0:0:0:
9,186,158692,6,0,B|0:111|18:63|18:63|37:45|80:40,1,179.999994506836,14|14,0:1|0:0,0:0:0:0:
158,47,159692,2,0,L|267:33,2,89.999997253418,10|2|14,0:1|0:0|0:0,0:0:0:0:
76,85,160692,1,10,0:1:0:0:
68,174,161025,1,14,0:0:0:0:
151,222,161359,6,0,B|236:241|236:241|322:203,1,179.999994506836,14|14,0:1|0:0,0:0:0:0:
392,148,162359,2,0,B|390:124|390:124|401:96|401:96|394:52,2,89.999997253418,10|10|10,0:1|0:1|0:0,0:0:0:0:
442,222,163359,1,10,0:1:0:0:
443,311,163692,1,14,0:0:0:0:
367,359,164025,6,0,B|278:322|274:382|184:357,1,179.999994506836,14|14,0:1|0:0,0:0:0:0:
110,317,165025,2,0,L|19:300,2,89.999997253418,10|2|14,0:1|0:0|0:0,0:0:0:0:
186,269,166025,1,10,0:1:0:0:
140,190,166359,1,14,0:0:0:0:
187,101,166692,6,0,P|269:74|386:84,1,200,10|10,0:0|0:0,0:0:0:0:
474,117,167692,1,10,0:2:0:0:
491,215,168025,2,0,L|474:328,1,99.9999999999999,10|12,0:1|0:0,0:0:0:0:
400,379,168692,1,8,0:0:0:0:
318,321,169025,1,12,0:0:0:0:
225,350,169359,5,8,0:1:0:0:
225,350,169525,2,0,B|181:365|181:365|133:349,1,89.999997253418,12|8,0:0|0:1,0:0:0:0:
96,327,170025,2,0,L|83:241,1,67.4999979400635,8|8,0:0|0:3,0:0:0:0:
122,194,170525,2,0,L|128:144,1,44.999998626709,4|14,0:3|0:1,0:0:0:0:
375,106,176025,5,14,0:1:0:0:
170,73,177359,5,14,0:1:0:0:
137,278,178692,5,14,0:1:0:0:
342,311,180025,6,0,L|450:301,1,89.999997253418,14|0,0:1|0:0,0:0:0:0:
502,246,180692,2,0,P|512:197|496:148,1,89.999997253418,2|8,0:0|0:0,0:0:0:0:
433,72,181359,6,0,L|325:59,1,94.9999974632263,14|8,0:1|0:1,0:0:0:0:
253,19,182025,1,10,0:1:0:0:
211,104,182359,1,8,0:1:0:0:
291,154,182692,2,0,P|305:195|296:246,1,94.9999974632263,14|8,0:1|0:1,0:0:0:0:
227,310,183359,2,0,L|124:316,1,94.9999974632263,10|8,0:1|0:1,0:0:0:0:
96,339,183859,1,8,0:1:0:0:
56,323,184025,6,0,P|39:276|54:215,1,94.9999974632263,14|8,0:1|0:1,0:0:0:0:
80,144,184692,1,10,0:1:0:0:
172,122,185025,1,8,0:1:0:0:
246,180,185359,2,0,P|298:200|350:190,1,94.9999974632263,14|8,0:1|0:1,0:0:0:0:
423,158,186025,2,0,L|436:51,1,94.9999974632263,10|8,0:1|0:3,0:0:0:0:
413,26,186525,1,8,0:3:0:0:
370,18,186692,6,0,B|334:18|334:18|317:29|317:29|269:30,1,94.9999974632263,14|8,0:1|0:1,0:0:0:0:
194,75,187359,1,10,0:1:0:0:
233,161,187692,1,8,0:1:0:0:
181,240,188025,2,0,P|166:288|188:348,1,94.9999974632263,14|8,0:1|0:1,0:0:0:0:
260,375,188692,1,10,0:1:0:0:
348,340,189025,1,10,0:0:0:0:
447,363,189359,6,0,P|456:335|441:258,1,94.9999974632263,14|8,0:1|0:1,0:0:0:0:
375,209,190025,2,0,L|263:198,1,94.9999974632263,10|10,0:1|0:0,0:0:0:0:
174,210,190692,6,0,P|157:156|199:72,1,150,10|12,0:0|0:0,0:0:0:0:
240,52,191359,2,0,B|291:45|291:45|323:60|323:60|399:51,1,150,8|8,0:0|0:0,0:0:0:0:
439,74,192025,6,0,B|458:115|434:148|434:148|451:196,1,115.000002193451,14|10,0:1|0:0,0:0:0:0:
475,293,192692,1,10,0:1:0:0:
475,293,192859,1,10,0:1:0:0:
385,365,193192,2,0,L|266:351,1,115.000002193451,2|2,0:0|0:0,0:0:0:0:
219,378,193692,1,10,0:0:0:0:
119,320,194025,2,0,B|97:305|94:286|94:286|93:255|116:216,1,115.000002193451,10|8,0:1|0:0,0:0:0:0:
200,128,194692,5,10,0:1:0:0:
259,226,195025,1,10,0:0:0:0:
372,245,195359,1,10,0:1:0:0:
441,153,195692,1,10,0:0:0:0:
454,115,195859,1,2,0:0:0:0:
465,76,196025,2,0,P|440:32|377:19,1,115.000002193451,10|10,0:1|0:0,0:0:0:0:
283,79,196692,2,0,L|270:197,1,115.000002193451,10|14,0:1|0:2,0:0:0:0:
252,250,197192,5,8,0:2:0:0:
252,250,197359,2,0,P|199:276|131:249,1,115.000002193451,12|10,0:1|0:0,0:0:0:0:
58,198,198025,1,10,0:1:0:0:
58,198,198192,1,10,0:1:0:0:
127,106,198525,2,0,P|180:80|248:107,1,115.000002193451,2|2,0:0|0:0,0:0:0:0:
277,127,199025,1,10,0:0:0:0:
382,75,199359,1,10,0:1:0:0:
382,75,199525,1,10,0:1:0:0:
500,200,200025,5,14,0:1:0:0:
477,313,200359,1,10,0:0:0:0:
372,373,200692,5,14,0:1:0:0:
260,346,201025,1,10,0:1:0:0:
219,232,201359,5,14,0:2:0:0:
260,124,201692,1,10,0:1:0:0:
191,19,202025,5,10,2:3:0:0:
76,33,202359,1,14,2:0:0:0:
12,135,202692,6,0,P|2:176|28:264,1,115.000002193451,14|8,0:1|0:0,0:0:0:0:
45,295,203192,2,0,P|99:274|168:282,1,115.000002193451,2|10,0:0|0:1,0:0:0:0:
252,348,203859,1,2,0:0:0:0:
252,348,204025,2,0,P|305:368|362:365,1,115.000002193451,10|8,0:1|0:0,0:0:0:0:
417,349,204525,1,2,0:0:0:0:
489,254,204859,2,0,L|490:189,1,57.5000010967254,10|12,0:1|0:0,0:0:0:0:
417,90,205359,6,0,B|376:79|376:79|351:88|351:88|282:74,1,115.000002193451,14|10,0:1|0:0,0:0:0:0:
250,96,205859,2,0,P|225:123|228:206,1,115.000002193451,2|10,0:0|0:1,0:0:0:0:
244,251,206359,1,10,0:0:0:0:
171,355,206692,5,14,0:1:0:0:
59,328,207025,1,14,0:0:0:0:
82,215,207359,1,10,0:1:0:0:
263,189,207859,5,2,0:0:0:0:
263,189,208025,2,0,P|308:214|381:206,1,115.000002193451,14|8,0:1|0:0,0:0:0:0:
421,185,208525,1,2,0:0:0:0:
434,70,208859,1,10,0:1:0:0:
328,38,209192,1,2,0:0:0:0:
328,38,209359,2,0,L|201:28,1,115.000002193451,10|10,0:1|0:0,0:0:0:0:
170,67,209859,1,2,0:1:0:0:
62,26,210192,1,10,0:1:0:0:
7,199,210692,6,0,L|21:317,1,115.000002193451,10|10,0:1|0:1,0:0:0:0:
46,364,211192,1,10,0:1:0:0:
151,319,211525,2,0,L|160:191,1,115.000002193451,8|10,0:1|0:1,0:0:0:0:
164,146,212025,5,14,0:1:0:0:
269,192,212359,1,14,0:0:0:0:
359,120,212692,1,14,0:0:0:0:
490,304,213359,5,14,0:1:0:0:
376,285,213692,1,10,0:1:0:0:
290,361,214025,1,6,0:3:0:0:
184,313,214359,1,6,0:3:0:0:
85,372,214692,1,14,0:1:0:0:
19,203,216025,6,0,B|5:154|5:154|24:104,1,99.9999999999999,14|8,0:1|0:0,0:0:0:0:
98,43,216692,2,0,L|203:36,1,99.9999999999999,10|8,0:1|0:0,0:0:0:0:
280,92,217359,1,2,0:0:0:0:
244,185,217692,1,10,0:0:0:0:
288,274,218025,1,10,0:1:0:0:
320,286,218192,1,10,0:1:0:0:
353,294,218359,1,14,0:0:0:0:
444,253,218692,6,0,B|463:207|463:207|445:136,1,99.9999999999999,14|10,0:1|0:0,0:0:0:0:
401,71,219359,1,10,0:1:0:0:
314,121,219692,1,10,0:0:0:0:
227,70,220025,2,0,L|220:13,2,50,2|8|14,0:1|0:1|0:0,0:0:0:0:
172,153,220692,1,14,0:1:0:0:
73,136,221025,1,10,0:1:0:0:
25,228,221359,6,0,P|18:277|38:338,1,99.9999999999999,14|8,0:1|0:0,0:0:0:0:
122,364,222025,2,0,P|180:347|230:348,1,99.9999999999999,10|8,0:1|0:0,0:0:0:0:
314,375,222692,1,2,0:0:0:0:
371,292,223025,1,10,0:0:0:0:
309,212,223359,1,10,0:1:0:0:
274,205,223525,1,10,0:1:0:0:
239,199,223692,1,14,0:0:0:0:
167,129,224025,6,0,P|168:66|203:29,1,99.9999999999999,14|8,0:1|0:0,0:0:0:0:
287,18,224692,1,10,0:1:0:0:
346,96,225025,1,10,0:0:0:0:
440,63,225359,2,0,L|451:10,2,50,8|14|0,0:1|0:1|0:0,0:0:0:0:
498,144,226025,1,10,0:0:0:0:
489,243,226359,1,10,0:0:0:0:
412,315,226692,6,0,P|361:314|311:276,1,104.999996795654,14|8,0:1|0:0,0:0:0:0:
263,194,227359,2,0,L|263:85,1,104.999996795654,10|8,0:1|0:0,0:0:0:0:
188,15,228025,1,2,0:0:0:0:
83,23,228359,1,10,0:0:0:0:
45,121,228692,1,10,0:1:0:0:
53,156,228859,1,8,0:1:0:0:
62,191,229025,1,12,0:0:0:0:
27,290,229359,6,0,B|72:271|72:271|130:281,1,104.999996795654,14|10,0:1|0:0,0:0:0:0:
221,326,230025,1,10,0:1:0:0:
297,253,230359,1,10,0:0:0:0:
237,166,230692,2,0,L|169:143,2,52.4999983978271,2|8|14,0:0|0:1|0:0,0:0:0:0:
310,90,231359,1,14,0:1:0:0:
414,80,231692,1,10,0:1:0:0:
492,158,232025,6,0,P|503:203|486:272,1,104.999996795654,14|8,0:1|0:1,0:0:0:0:
429,344,232692,2,0,L|312:332,1,104.999996795654,14|8,0:0|0:1,0:0:0:0:
230,380,233359,1,10,0:1:0:0:
130,347,233692,1,14,0:0:0:0:
101,246,234025,1,8,0:3:0:0:
109,210,234192,1,8,0:1:0:0:
120,175,234359,1,10,0:0:0:0:
179,87,234692,6,0,B|232:72|232:72|295:83,1,104.999996795654,12|8,0:1|0:1,0:0:0:0:
365,143,235359,1,10,0:1:0:0:
336,244,235692,1,10,0:1:0:0:
401,326,236025,2,0,L|469:341,2,52.4999983978271,10|8|14,0:1|0:2|0:0,0:0:0:0:
310,380,236692,1,10,0:1:0:0:
232,309,237025,1,8,0:3:0:0:
130,336,237359,1,14,0:1:0:0:
0,183,239359,6,0,L|65:177,1,52.4999983978271,12|8,0:0|2:2,0:0:0:0:
97,205,239692,2,0,L|103:270,1,52.4999983978271,8|12,2:2|2:1,0:0:0:0:
