osu file format v14

[General]
AudioFilename: audio.mp3
AudioLeadIn: 0
PreviewTime: 55276
Countdown: 0
SampleSet: Soft
StackLeniency: 0.7
Mode: 0
LetterboxInBreaks: 0
WidescreenStoryboard: 1

[Editor]
DistanceSpacing: 1.2
BeatDivisor: 4
GridSize: 32
TimelineZoom: 2.2

[Metadata]
Title:DICE
TitleUnicode:DICE
Artist:BAND-MAID
ArtistUnicode:BAND-MAID
Creator:Lasse
Version:INSANE.
Source:
Tags:bandmaid world domination japanese rock english
BeatmapID:2594991
BeatmapSetID:1248526

[Difficulty]
HPDrainRate:5
CircleSize:4
OverallDifficulty:8
ApproachRate:8.5
SliderMultiplier:1.6
SliderTickRate:1

[Events]
//Background and Video events
0,0,"e.jpg",0,0
//Break Periods
2,170892,175350
//Storyboard Layer 0 (Background)
//Storyboard Layer 1 (Fail)
//Storyboard Layer 2 (Pass)
//Storyboard Layer 3 (Foreground)
//Storyboard Layer 4 (Overlay)
//Storyboard Sound Samples

[TimingPoints]
2027,333.333333333333,4,2,2,60,1,0
2027,-100,4,2,2,60,0,0
7360,-100,4,2,2,65,0,0
11693,-100,4,2,1,65,0,0
12193,-133.333333333333,4,2,2,70,0,0
12610,-133.333333333333,4,2,2,30,0,0
12693,-90.9090909090909,4,2,1,75,0,0
17360,-90.9090909090909,4,2,2,75,0,0
18026,-90.9090909090909,4,2,1,75,0,0
22693,-90.9090909090909,4,2,2,70,0,0
23360,-133.333333333333,4,2,2,65,0,0
28526,-133.333333333333,4,2,1,65,0,0
31360,-111.111111111111,4,2,2,70,0,0
34026,-100,4,2,1,68,0,0
35276,-100,4,2,1,20,0,0
35526,-100,4,2,1,68,0,0
35610,-100,4,2,1,20,0,0
35860,-100,4,2,1,68,0,0
35943,-100,4,2,1,20,0,0
36026,-100,4,2,1,68,0,0
37943,-100,4,2,1,20,0,0
38193,-100,4,2,1,68,0,0
38276,-100,4,2,1,20,0,0
38526,-100,4,2,1,68,0,0
38610,-100,4,2,1,20,0,0
38693,-100,4,2,1,68,0,0
39193,-100,4,2,1,68,0,0
41860,-100,4,2,1,70,0,0
42693,-100,4,2,1,72,0,0
43526,-100,4,2,1,74,0,0
44360,-100,4,2,1,72,0,0
44693,-125,4,2,2,70,0,0
50026,-125,4,2,2,72,0,0
53693,-90.9090909090909,4,2,2,75,0,0
54693,-125,4,2,2,78,0,0
55526,-125,4,2,2,80,0,0
56026,333.333333333333,4,2,1,85,1,0
56026,-83.3333333333333,4,2,1,85,0,1
61359,-83.3333333333333,4,2,2,85,0,1
63692,-133.333333333333,4,2,1,85,0,1
64025,-76.9230769230769,4,2,1,86,0,1
64692,-71.4285714285714,4,2,1,88,0,1
65359,-66.6666666666667,4,2,1,90,0,1
66025,-90.9090909090909,4,2,1,85,0,1
66692,-83.3333333333333,4,2,1,85,0,1
70692,-71.4285714285714,4,2,1,85,0,1
71025,-71.4285714285714,4,2,1,85,0,1
71359,-71.4285714285714,4,2,2,85,0,1
71692,-83.3333333333333,4,2,2,85,0,1
77359,-76.9230769230769,4,2,1,85,0,1
78025,-76.9230769230769,4,2,2,85,0,1
78692,-100,4,2,1,90,0,0
79692,-133.333333333333,4,2,1,60,0,0
79942,-133.333333333333,4,2,1,30,0,0
80025,-90.9090909090909,4,2,1,75,0,0
84692,-90.9090909090909,4,2,2,75,0,0
85359,-90.9090909090909,4,2,1,75,0,0
90025,-100,4,2,2,75,0,0
90692,-111.111111111111,4,2,2,70,0,0
98692,-100,4,2,2,74,0,0
101359,-111.111111111111,4,2,2,70,0,0
106692,-111.111111111111,4,2,2,72,0,0
109359,-90.9090909090909,4,2,2,76,0,0
110692,-83.3333333333333,4,2,2,78,0,0
112025,-90.9090909090909,4,2,2,80,0,0
113025,-166.666666666667,4,2,2,80,0,0
113359,-83.3333333333333,4,2,1,85,0,1
118692,-83.3333333333333,4,2,2,85,0,1
121359,-83.3333333333333,4,2,2,86,0,1
122025,-83.3333333333333,4,2,2,88,0,1
122692,-83.3333333333333,4,2,2,90,0,1
123359,-83.3333333333333,4,2,2,85,0,1
124025,-83.3333333333333,4,2,1,85,0,1
124359,-83.3333333333333,4,2,2,85,0,1
134692,-83.3333333333333,4,2,1,85,0,1
135359,-83.3333333333333,4,2,2,85,0,1
137025,-83.3333333333333,4,2,2,80,0,1
137359,-100,4,2,1,75,0,0
140025,-100,4,2,2,75,0,0
142859,-111.111111111111,4,2,1,68,0,0
144525,-111.111111111111,4,2,2,68,0,0
145525,-111.111111111111,4,2,2,70,0,0
147609,-111.111111111111,4,2,2,30,0,0
147692,-111.111111111111,4,2,2,72,0,0
147775,-111.111111111111,4,2,2,30,0,0
147859,-111.111111111111,4,2,2,74,0,0
147942,-111.111111111111,4,2,2,30,0,0
148025,-71.4285714285714,4,2,1,80,0,1
149359,-76.9230769230769,4,2,1,80,0,1
151859,-71.4285714285714,4,2,1,80,0,1
152692,-76.9230769230769,4,2,1,80,0,1
153025,-83.3333333333333,4,2,1,80,0,1
153359,-71.4285714285714,4,2,1,82,0,1
154192,-71.4285714285714,4,2,1,78,0,1
154692,-71.4285714285714,4,2,1,82,0,1
156025,-71.4285714285714,4,2,1,78,0,1
156359,-71.4285714285714,4,2,1,80,0,1
156692,-71.4285714285714,4,2,1,82,0,1
157025,-71.4285714285714,4,2,1,84,0,1
157359,-71.4285714285714,4,2,1,85,0,1
157859,-66.6666666666667,4,2,1,85,0,1
158609,-66.6666666666667,4,2,1,82,0,1
158692,-104.166666666667,4,2,2,78,0,0
158859,-104.166666666667,4,2,2,72,0,0
166692,-104.166666666667,4,2,2,75,0,0
167025,-104.166666666667,4,2,2,80,0,0
168025,-90.0900900900901,4,2,2,82,0,0
169192,-121.951219512195,4,2,1,72,0,0
169859,-121.951219512195,4,2,1,70,0,0
170275,-121.951219512195,4,2,1,68,0,0
170525,-121.951219512195,4,2,1,64,0,0
170692,-133.333333333333,4,2,99,62,0,0
176025,-133.333333333333,4,2,2,65,0,0
180859,-133.333333333333,4,2,1,68,0,0
181025,-133.333333333333,4,2,1,70,0,0
181359,-111.111111111111,4,2,1,72,0,0
182692,-111.111111111111,4,2,2,72,0,0
184025,-100,4,2,1,75,0,0
185359,-100,4,2,2,75,0,0
186692,-90.9090909090909,4,2,1,78,0,0
188025,-90.9090909090909,4,2,2,78,0,0
189025,-133.333333333333,4,2,1,78,0,0
189359,-83.3333333333333,4,2,1,78,0,0
189692,-83.3333333333333,4,2,1,74,0,0
190692,-90.9090909090909,4,2,1,84,0,0
191359,-100,4,2,1,80,0,0
191442,-100,4,2,1,81,0,0
191525,-100,4,2,1,82,0,0
191609,-100,4,2,1,83,0,0
191692,-100,4,2,1,84,0,0
191775,-100,4,2,1,85,0,0
191859,-100,4,2,1,86,0,0
191942,-100,4,2,1,88,0,0
192025,-76.9230769230769,4,2,1,90,0,1
200025,-83.3333333333333,4,2,2,91,0,1
200692,-71.4285714285714,4,2,2,93,0,1
201359,-71.4285714285714,4,2,2,95,0,1
202025,-71.4285714285714,4,2,2,90,0,1
202692,-76.9230769230769,4,2,1,90,0,1
206692,-66.6666666666667,4,2,2,90,0,1
207025,-66.6666666666667,4,2,1,90,0,1
207359,-76.9230769230769,4,2,2,90,0,1
213359,-76.9230769230769,4,2,1,90,0,1
214025,-71.4285714285714,4,2,2,90,0,1
214692,-100,4,2,1,78,0,0
215609,-100,4,2,1,50,0,0
215692,-133.333333333333,4,2,1,60,0,0
215942,-133.333333333333,4,2,1,30,0,0
216025,-90.9090909090909,4,2,1,76,0,0
218859,-90.9090909090909,4,2,2,76,0,0
221359,-90.9090909090909,4,2,1,76,0,0
224192,-90.9090909090909,4,2,2,76,0,0
226692,-83.3333333333333,4,2,1,78,0,0
229359,-83.3333333333333,4,2,2,78,0,0
232025,-83.3333333333333,4,2,1,78,0,0
235525,-83.3333333333333,4,2,2,78,0,0
237359,-83.3333333333333,4,2,99,78,0,0
239359,-83.3333333333333,4,2,1,84,0,0
239525,-83.3333333333333,4,2,2,84,0,0

[Colours]
Combo1 : 255,140,140
Combo2 : 145,185,220
Combo3 : 255,180,110
Combo4 : 175,215,150

[HitObjects]
89,330,693,6,0,L|79:281,3,40,10|8|8|8,2:2|2:2|2:3|2:3,0:0:0:0:
156,280,1027,2,0,L|159:230,1,40,10|8,2:2|2:3,0:0:0:0:
234,249,1193,6,0,L|249:201,3,40,10|8|8|8,2:2|2:3|2:1|2:1,0:0:0:0:
317,239,1527,2,0,L|344:197,1,40,10|8,2:2|2:3,0:0:0:0:
391,270,1693,5,10,2:2:0:0:
406,282,1776,1,8,2:2:0:0:
425,289,1859,1,8,2:2:0:0:
445,290,1942,1,8,2:2:0:0:
464,285,2026,6,0,L|477:180,1,80,12|8,0:1|0:1,0:0:0:0:
451,94,2360,2,0,B|426:86|426:86|407:90|407:90|360:79,1,80,8|8,0:0|0:1,0:0:0:0:
286,25,2693,1,8,0:3:0:0:
286,25,2776,1,8,0:3:0:0:
286,25,2860,2,0,B|253:29|253:29|239:39|239:39|209:41,1,80,8|8,0:1|0:0,0:0:0:0:
91,97,3193,5,4,0:3:0:0:
91,97,3276,1,4,0:3:0:0:
91,97,3360,2,0,P|95:51|128:10,1,80,8|8,0:1|0:1,0:0:0:0:
208,122,3693,2,0,P|204:168|171:209,1,80,8|8,0:0|0:3,0:0:0:0:
172,210,3943,1,8,0:3:0:0:
154,218,4026,2,0,L|51:221,1,80,8|4,0:3|0:3,0:0:0:0:
148,318,4360,2,0,L|251:315,1,80,8|8,0:0|0:3,0:0:0:0:
343,374,4693,6,0,P|335:336|345:285,1,80,8|8,0:1|0:1,0:0:0:0:
464,334,5026,2,0,P|469:294|461:255,1,80,8|8,0:0|0:1,0:0:0:0:
373,192,5360,1,8,0:3:0:0:
373,192,5443,1,8,0:3:0:0:
373,192,5526,1,8,0:1:0:0:
432,112,5693,2,0,P|470:119|523:96,1,80,8|8,0:0|0:3,0:0:0:0:
368,24,6026,6,0,P|330:12|291:18,1,80,8|8,0:1|0:1,0:0:0:0:
218,96,6360,2,0,L|227:188,1,80,8|8,0:0|0:3,0:0:0:0:
237,191,6610,1,8,0:3:0:0:
249,206,6693,2,0,L|258:298,1,80,8|4,0:3|0:3,0:0:0:0:
181,360,7026,2,0,P|141:365|103:354,1,80,8|8,0:0|0:3,0:0:0:0:
17,250,7360,6,0,B|21:225|21:225|19:211|19:211|27:159,1,80,14|8,0:1|0:1,0:0:0:0:
95,93,7693,2,0,B|134:104|134:104|171:91,1,80,10|8,0:0|0:3,0:0:0:0:
182,107,7943,1,8,0:3:0:0:
194,122,8026,2,0,B|231:109|231:109|270:120,1,80,8|4,0:3|0:3,0:0:0:0:
330,202,8360,2,0,B|334:227|334:227|332:241|332:241|340:293,1,80,8|10,0:0|0:3,0:0:0:0:
428,368,8693,6,0,P|473:370|517:345,1,80,10|8,0:1|0:1,0:0:0:0:
449,235,9026,2,0,P|463:198|463:158,1,80,10|8,0:0|0:3,0:0:0:0:
401,58,9360,1,8,0:3:0:0:
401,58,9443,1,8,0:3:0:0:
401,58,9526,1,4,0:3:0:0:
319,126,9693,2,0,P|254:122|230:101,1,80,10|8,0:0|0:3,0:0:0:0:
139,15,10026,6,0,L|147:103,1,80,14|8,0:1|0:1,0:0:0:0:
243,141,10360,2,0,L|235:229,1,80,10|8,0:0|0:3,0:0:0:0:
241,239,10610,1,8,0:3:0:0:
247,257,10693,2,0,P|284:271|324:263,1,80,8|4,0:3|0:3,0:0:0:0:
422,200,11026,5,8,0:0:0:0:
413,176,11110,1,8,0:0:0:0:
411,151,11193,1,8,0:0:0:0:
415,126,11276,1,8,0:0:0:0:
425,103,11360,1,8,0:1:0:0:
345,8,11693,5,2,0:3:0:0:
348,20,12026,5,2,0:3:0:0:
298,78,12193,5,10,0:3:0:0:
298,78,12276,1,10,0:3:0:0:
298,78,12360,2,2,B|270:79|253:92|253:92|246:71|228:55,1,90.0000034332277,6|0,0:3|0:0,0:1:0:0:
212,60,12693,6,0,P|189:102|200:153,1,88.000002685547,14|0,0:1|0:0,0:0:0:0:
275,226,13026,2,0,P|317:218|362:216,1,88.000002685547,10|0,0:0|0:0,0:0:0:0:
257,246,13360,5,10,0:1:0:0:
337,300,13526,1,8,0:1:0:0:
244,268,13693,1,10,0:0:0:0:
291,364,13860,1,8,0:1:0:0:
172,321,14026,6,0,L|79:310,1,88.000002685547,2|8,0:0|0:1,0:0:0:0:
0,232,14360,2,0,P|3:189|17:147,1,88.000002685547,10|0,0:0|0:0,0:0:0:0:
99,63,14693,5,10,0:1:0:0:
175,160,14860,1,10,0:1:0:0:
224,47,15026,1,14,0:0:0:0:
439,176,15360,6,0,P|407:169|341:164,1,88.000002685547,14|0,0:1|0:0,0:0:0:0:
238,93,15693,2,0,P|239:55|261:2,1,88.000002685547,8|0,0:0|0:0,0:0:0:0:
339,145,16026,5,10,0:1:0:0:
256,198,16193,1,8,0:1:0:0:
354,245,16360,1,10,0:0:0:0:
327,125,16526,1,8,0:1:0:0:
237,209,16693,6,0,P|227:277|243:317,1,88.000002685547,2|8,0:0|0:1,0:0:0:0:
231,294,16943,1,8,0:1:0:0:
231,294,17026,1,12,0:0:0:0:
475,374,17360,6,0,L|465:262,1,88.000002685547,14|8,0:1|0:0,0:0:0:0:
512,163,17693,1,10,0:1:0:0:
493,174,17776,1,8,0:1:0:0:
471,179,17860,1,8,0:0:0:0:
450,176,17943,1,8,0:0:0:0:
430,167,18026,6,0,P|438:111|422:68,1,88.000002685547,12|0,0:1|0:1,0:0:0:0:
296,144,18360,2,0,P|288:200|304:243,1,88.000002685547,10|0,0:0|0:0,0:0:0:0:
383,328,18693,5,10,0:1:0:0:
320,240,18860,1,8,0:1:0:0:
365,347,19026,1,10,0:0:0:0:
302,259,19193,1,8,0:1:0:0:
201,315,19360,6,0,L|103:304,1,88.000002685547,2|8,0:0|0:1,0:0:0:0:
239,188,19693,2,0,P|242:143|256:93,1,88.000002685547,10|0,0:0|0:0,0:0:0:0:
342,29,20026,5,10,0:1:0:0:
408,132,20193,1,10,0:1:0:0:
472,26,20360,1,14,0:0:0:0:
512,245,20693,6,0,P|481:235|406:230,1,88.000002685547,14|0,0:1|0:0,0:0:0:0:
292,303,21026,2,0,P|290:259|298:215,1,88.000002685547,10|0,0:0|0:0,0:0:0:0:
364,103,21360,5,10,0:1:0:0:
418,207,21526,1,8,0:1:0:0:
374,83,21693,1,8,0:0:0:0:
310,197,21860,1,8,0:1:0:0:
226,109,22026,6,0,P|233:61|219:2,1,88.000002685547,2|8,0:0|0:1,0:0:0:0:
226,22,22276,1,8,0:1:0:0:
226,22,22360,1,10,0:0:0:0:
0,92,22693,5,14,0:1:0:0:
1,106,22776,1,8,0:1:0:0:
3,121,22860,1,8,0:1:0:0:
5,135,22943,1,8,0:1:0:0:
7,150,23026,2,0,L|16:220,3,44.0000013427735,10|8|8|8,0:0|0:0|0:0|0:0,0:0:0:0:
19,216,23360,6,0,L|92:207,1,60.0000022888184,12|2,0:1|0:0,0:0:0:0:
132,288,23693,2,0,L|205:279,1,60.0000022888184,10|0,0:1|0:0,0:0:0:0:
239,197,24026,2,0,P|217:151|240:70,1,120.000004577637,10|8,0:1|0:1,0:0:0:0:
320,6,24526,6,0,L|329:73,1,60.0000022888184,2|8,0:0|0:1,0:0:0:0:
385,127,24860,2,0,L|444:119,1,60.0000022888184,2|8,0:0|0:1,0:0:0:0:
500,182,25193,2,0,L|507:241,1,60.0000022888184,2|8,0:0|0:1,0:0:0:0:
470,317,25526,2,0,L|406:324,1,60.0000022888184,2|8,0:0|0:1,0:0:0:0:
316,376,25860,5,0,0:0:0:0:
316,376,26026,2,0,P|321:347|315:307,1,60.0000022888184,10|0,0:1|0:0,0:0:0:0:
223,337,26360,2,0,P|219:307|224:277,1,60.0000022888184,10|0,0:1|0:0,0:0:0:0:
301,220,26693,1,10,0:1:0:0:
301,220,26860,1,0,0:0:0:0:
344,304,27026,1,10,0:1:0:0:
423,174,27360,5,10,0:1:0:0:
423,174,27526,2,0,P|425:144|422:98,1,60.0000022888184,2|8,0:0|0:1,0:0:0:0:
328,97,27860,2,0,P|314:70|289:31,1,60.0000022888184,2|8,0:0|0:1,0:0:0:0:
206,76,28193,2,0,P|181:59|139:38,1,60.0000022888184,2|8,0:0|0:1,0:0:0:0:
68,88,28526,5,2,0:0:0:0:
68,88,28693,2,0,B|22:107|22:107|34:204,1,120.000004577637,8|8,0:1|0:1,0:0:0:0:
69,271,29193,5,2,0:0:0:0:
69,271,29360,2,0,L|138:261,1,60.0000022888184,10|0,0:1|0:0,0:0:0:0:
140,267,29610,2,0,L|146:228,1,30.0000011444092,2|8,0:0|0:1,0:0:0:0:
224,135,29860,5,2,0:0:0:0:
224,135,30026,2,0,L|237:208,1,60.0000022888184,10|0,0:1|0:0,0:0:0:0:
242,209,30276,2,0,L|281:215,1,30.0000011444092,2|8,0:0|0:1,0:0:0:0:
390,182,30526,5,2,0:0:0:0:
390,182,30693,2,0,P|389:151|396:120,1,60.0000022888184,10|0,0:1|0:0,0:1:0:0:
463,256,31026,2,0,P|464:287|457:318,1,60.0000022888184,10|0,0:0|0:0,0:0:0:0:
363,368,31360,6,0,L|289:357,1,71.9999978027344,14|0,0:1|0:0,0:0:0:0:
193,278,31693,2,0,L|267:267,1,71.9999978027344,8|0,0:1|0:0,0:0:0:0:
339,190,32026,5,10,0:1:0:0:
411,221,32193,1,0,0:0:0:0:
462,162,32360,1,8,0:1:0:0:
421,95,32526,1,0,0:0:0:0:
344,112,32693,6,0,L|253:90,1,71.9999978027344,10|0,0:1|0:0,0:0:0:0:
197,162,33026,2,0,L|127:145,1,71.9999978027344,8|0,0:0|0:0,0:0:0:0:
69,60,33360,5,10,0:1:0:0:
0,122,33526,1,10,0:1:0:0:
40,206,33693,1,10,0:0:0:0:
135,153,33860,5,8,0:0:0:0:
135,153,33943,1,8,0:0:0:0:
135,153,34026,1,14,0:1:0:0:
118,231,34193,1,8,0:1:0:0:
213,358,34526,5,8,0:0:0:0:
234,288,34693,1,8,2:0:0:0:
234,288,34776,1,8,2:0:0:0:
234,288,34860,1,8,0:1:0:0:
415,246,35193,6,0,L|423:355,1,80,10|0,0:0|0:0,0:0:0:0:
507,215,35526,2,0,L|515:324,1,80,10|0,0:1|0:0,0:0:0:0:
324,209,35860,2,0,L|332:318,1,80,10|8,0:1|0:0,0:0:0:0:
329,288,36110,1,8,0:0:0:0:
329,288,36193,1,8,0:1:0:0:
132,364,36526,5,8,0:0:0:0:
132,364,36610,1,8,0:0:0:0:
132,364,36693,1,8,0:1:0:0:
150,287,36860,1,8,0:1:0:0:
37,120,37193,5,8,0:0:0:0:
51,206,37360,1,8,0:0:0:0:
51,206,37443,1,8,0:0:0:0:
51,206,37526,1,8,0:1:0:0:
223,94,37860,6,0,L|230:3,1,80,10|0,0:0|0:0,0:0:0:0:
315,145,38193,2,0,L|322:54,1,80,10|0,0:1|0:0,0:0:0:0:
132,134,38526,2,0,L|139:43,1,80,10|8,0:1|0:0,0:0:0:0:
138,54,38776,1,8,0:0:0:0:
138,54,38860,1,8,0:1:0:0:
246,216,39193,5,8,0:0:0:0:
246,216,39276,1,8,0:0:0:0:
246,216,39360,2,0,P|299:203|349:216,1,80,10|8,0:1|0:1,0:0:0:0:
361,220,39610,2,0,P|400:222|438:210,1,80,2|0,0:0|0:0,0:0:0:0:
473,189,39860,5,10,0:0:0:0:
407,124,40026,1,10,0:0:0:0:
407,124,40110,1,8,0:0:0:0:
407,124,40193,2,0,P|413:83|398:20,1,80,8|0,0:1|0:0,0:0:0:0:
284,0,40526,5,10,0:0:0:0:
230,59,40693,2,0,P|224:100|239:163,1,80,2|8,0:0|0:1,0:0:0:0:
247,173,40943,2,0,P|257:211|256:251,1,80,2|0,0:0|0:0,0:0:0:0:
242,289,41193,2,0,L|144:302,1,80,10|8,0:1|0:0,0:0:0:0:
141,335,41443,1,8,0:0:0:0:
141,335,41526,2,0,L|43:348,1,80,10|8,0:1|0:0,0:0:0:0:
0,222,41860,5,10,0:1:0:0:
0,222,41943,1,10,0:1:0:0:
0,222,42026,2,0,P|4:179|10:143,1,80,10|2,0:1|0:0,0:0:0:0:
222,201,42360,2,0,P|218:158|211:122,1,80,10|10,0:1|0:0,0:0:0:0:
123,36,42693,5,10,0:1:0:0:
113,139,42860,1,10,0:1:0:0:
209,102,43026,1,2,0:0:0:0:
115,18,43193,1,14,0:0:0:0:
320,132,43526,5,10,0:1:0:0:
421,62,43693,1,10,0:0:0:0:
326,38,43860,1,10,0:1:0:0:
413,159,44026,2,0,P|428:197|431:240,1,80,14|10,0:0|0:1,0:0:0:0:
367,320,44360,1,8,0:3:0:0:
348,312,44443,1,8,0:3:0:0:
328,308,44526,1,8,0:3:0:0:
308,307,44610,1,8,0:3:0:0:
288,309,44693,6,0,P|275:350|275:380,1,64,14|8,0:1|0:1,0:0:0:0:
203,279,45026,2,0,P|216:238|216:208,1,64,2|8,0:0|0:1,0:0:0:0:
216,217,45276,1,8,0:1:0:0:
216,217,45360,1,10,0:0:0:0:
128,103,45693,5,10,0:1:0:0:
128,103,45860,1,8,0:1:0:0:
87,176,46026,1,2,0:0:0:0:
87,176,46193,1,8,0:1:0:0:
11,140,46360,1,10,0:0:0:0:
128,103,46693,5,10,0:1:0:0:
87,176,46860,1,8,0:1:0:0:
115,253,47026,1,10,0:0:0:0:
191,286,47193,1,8,0:1:0:0:
269,259,47360,6,0,L|279:182,1,64,14|8,0:1|0:1,0:0:0:0:
370,350,47693,2,0,L|380:273,1,64,2|8,0:0|0:1,0:0:0:0:
378,286,47943,1,8,0:1:0:0:
378,286,48026,1,10,0:0:0:0:
512,178,48360,5,10,0:1:0:0:
512,178,48526,1,8,0:1:0:0:
434,200,48693,1,2,0:0:0:0:
434,200,48860,1,8,0:1:0:0:
382,134,49026,1,10,0:0:0:0:
305,7,49360,5,10,0:1:0:0:
308,22,49443,1,8,0:1:0:0:
307,38,49526,1,8,0:1:0:0:
302,53,49610,1,8,0:1:0:0:
293,66,49693,1,14,0:2:0:0:
113,121,50026,6,0,P|109:88|119:49,1,64,14|8,0:1|0:1,0:0:0:0:
203,131,50360,2,0,P|207:164|197:203,1,64,2|8,0:0|0:1,0:0:0:0:
200,193,50610,1,8,0:1:0:0:
200,193,50693,1,10,0:0:0:0:
90,299,51026,5,10,0:1:0:0:
90,299,51193,1,8,0:1:0:0:
144,368,51360,1,2,0:0:0:0:
144,368,51526,1,8,0:1:0:0:
219,332,51693,1,10,0:0:0:0:
437,375,52026,6,0,L|430:290,1,64,10|8,0:1|0:1,0:0:0:0:
298,281,52360,2,0,L|305:196,1,64,10|0,0:0|0:0,0:0:0:0:
338,130,52693,5,12,0:1:0:0:
385,198,52860,1,8,0:1:0:0:
467,187,53026,1,2,0:0:0:0:
494,113,53193,1,8,0:1:0:0:
494,113,53276,1,8,0:1:0:0:
494,113,53360,2,0,L|485:23,1,64,10|8,0:0|0:1,0:0:0:0:
324,0,53693,5,10,0:0:0:0:
241,85,53860,1,8,0:0:0:0:
241,85,53943,1,8,0:0:0:0:
241,85,54026,2,0,P|231:134|235:180,1,88.000002685547,14|8,0:1|0:1,0:0:0:0:
349,304,54360,2,0,P|359:255|355:209,1,88.000002685547,8|8,0:2|0:1,0:0:0:0:
209,332,54693,5,10,0:1:0:0:
140,238,54860,1,10,0:1:0:0:
95,343,55026,1,10,0:2:0:0:
209,332,55193,1,10,0:1:0:0:
131,216,55360,5,10,0:3:0:0:
220,165,55526,1,8,0:0:0:0:
225,154,55610,1,8,0:0:0:0:
229,143,55693,1,8,0:0:0:0:
231,131,55776,1,8,0:0:0:0:
231,120,55860,1,8,0:0:0:0:
229,108,55943,1,8,0:0:0:0:
226,97,56026,6,0,B|190:87|190:87|163:96|163:96|133:90,1,95.9999970703126,12|2,0:1|0:1,0:0:0:0:
3,137,56359,2,0,P|-8:60|102:20,1,191.999994140625,10|10,0:0|0:1,0:0:0:0:
107,180,56859,2,0,P|59:182|18:158,1,95.9999970703126,2|8,0:1|0:0,0:0:0:0:
158,76,57192,5,2,0:0:0:0:
158,76,57276,1,2,0:0:0:0:
158,76,57359,1,10,0:1:0:0:
220,157,57526,1,10,0:1:0:0:
309,106,57692,1,10,0:0:0:0:
247,24,57859,1,2,0:0:0:0:
199,167,58026,2,0,P|177:245|209:365,1,191.999994140625,10|8,0:1|0:0,0:0:0:0:
392,287,58526,5,2,0:0:0:0:
436,384,58692,1,10,0:1:0:0:
436,384,58859,1,2,0:0:0:0:
294,308,59026,1,10,0:0:0:0:
294,308,59192,1,2,0:1:0:0:
434,209,59359,2,0,P|449:159|437:92,1,95.9999970703126,10|8,0:1|0:1,0:0:0:0:
350,13,59692,5,8,0:0:0:0:
296,145,59859,1,2,0:0:0:0:
231,46,60025,6,0,P|166:14|78:36,1,143.999995605469,10|0,0:1|0:0,0:0:0:0:
47,83,60359,2,0,P|51:155|114:220,1,143.999995605469,10|0,0:0|0:0,0:0:0:0:
131,278,60692,2,0,P|187:256|228:255,1,95.9999970703126,10|8,0:1|0:1,0:0:0:0:
299,166,61025,5,10,0:0:0:0:
353,314,61192,1,8,0:0:0:0:
353,314,61275,1,8,0:0:0:0:
353,314,61359,2,0,B|373:368|446:347|446:347|486:289,1,143.999995605469,14|0,0:1|0:0,0:0:0:0:
485,312,61692,2,0,L|475:215,1,95.9999970703126,10|2,0:0|0:0,0:0:0:0:
282,179,62025,1,10,0:1:0:0:
282,179,62192,2,0,L|301:67,1,95.9999970703126,10|8,0:1|0:0,0:0:0:0:
389,11,62525,5,2,0:0:0:0:
389,11,62609,1,2,0:0:0:0:
389,11,62692,1,10,0:1:0:0:
320,91,62859,1,10,0:1:0:0:
251,10,63025,1,10,0:0:0:0:
183,91,63192,1,2,0:0:0:0:
113,11,63359,1,10,0:1:0:0:
65,107,63525,1,10,0:1:0:0:
65,107,63609,1,8,0:1:0:0:
65,107,63692,1,8,0:0:0:0:
194,361,64025,6,0,P|218:314|211:247,1,103.999995239258,10|0,0:1|0:0,0:1:0:0:
113,302,64359,2,0,P|144:340|192:360,1,103.999995239258,10|0,0:0|0:0,0:1:0:0:
410,176,64692,6,0,P|378:133|310:112,1,111.999996582031,10|8,0:1|0:1,0:1:0:0:
320,233,65025,2,0,P|370:220|415:164,1,111.999996582031,10|0,0:0|0:0,0:1:0:0:
147,14,65359,6,0,P|100:36|77:111,1,120.000004577637,10|0,0:1|0:0,0:1:0:0:
192,113,65692,2,0,P|191:61|133:8,1,120.000004577637,10|0,0:0|0:0,0:1:0:0:
0,171,66025,5,10,0:1:0:0:
1,192,66109,1,8,0:1:0:0:
3,214,66192,1,8,0:1:0:0:
5,236,66275,1,8,0:1:0:0:
7,258,66359,1,14,0:0:0:0:
81,380,66525,5,8,0:0:0:0:
81,380,66609,1,8,0:0:0:0:
81,380,66692,1,14,0:1:0:0:
172,320,66859,2,0,P|166:277|185:206,1,95.9999970703126,10|8,0:1|0:0,0:0:0:0:
351,330,67192,2,0,P|313:357|267:372,1,95.9999970703126,2|8,0:0|0:1,0:0:0:0:
271,170,67525,2,0,P|315:188|350:220,1,95.9999970703126,10|8,0:1|0:0,0:0:0:0:
172,320,67859,5,2,0:0:0:0:
124,226,68025,1,10,0:1:0:0:
178,135,68192,2,0,P|190:100|176:28,1,95.9999970703126,10|8,0:1|0:0,0:0:0:0:
33,194,68525,2,0,P|25:240|38:286,1,95.9999970703126,2|8,0:0|0:1,0:0:0:0:
198,366,68859,1,10,0:1:0:0:
198,366,68942,1,8,0:1:0:0:
198,366,69025,2,0,P|270:350|315:359,1,95.9999970703126,8|0,0:0|0:0,0:0:0:0:
458,378,69359,6,0,B|487:367|500:348|500:348|507:283|466:200,1,191.999994140625,10|10,0:1|0:0,0:0:0:0:
385,122,69859,2,0,L|370:231,1,95.9999970703126,2|8,0:0|0:1,0:0:0:0:
291,352,70192,1,10,0:1:0:0:
258,202,70359,1,8,0:0:0:0:
168,287,70525,1,10,0:1:0:0:
87,172,70692,6,2,B|71:206|46:203|46:203|-6:163|35:97,1,167.999994873047,10|0,0:1|0:0,0:1:0:0:
87,54,71025,2,2,P|167:85|243:39,1,167.999994873047,10|0,0:0|0:0,0:1:0:0:
314,56,71359,2,2,P|377:37|441:167,1,223.999993164063,10|8,0:1|0:0,0:1:0:0:
343,218,71859,5,2,0:0:0:0:
495,280,72025,1,14,0:1:0:0:
408,384,72192,2,0,L|394:284,1,95.9999970703126,10|8,0:1|0:0,0:0:0:0:
237,311,72525,2,0,L|251:211,1,95.9999970703126,2|8,0:0|0:1,0:0:0:0:
495,280,72859,2,0,L|456:186,1,95.9999970703126,10|8,0:1|0:0,0:0:0:0:
311,95,73192,5,2,0:0:0:0:
238,196,73359,1,8,0:1:0:0:
145,97,73525,2,0,P|149:27|134:-1,1,95.9999970703126,10|8,0:1|0:0,0:0:0:0:
18,170,73859,2,0,P|14:240|29:268,1,95.9999970703126,2|8,0:1|0:1,0:0:0:0:
144,343,74192,2,0,B|259:307|220:388|326:366,1,191.999994140625,10|0,0:1|0:0,0:0:0:0:
390,240,74692,6,0,P|493:215|494:123,1,191.999994140625,10|10,0:1|0:0,0:0:0:0:
395,21,75192,2,0,L|381:151,1,95.9999970703126,2|8,0:0|0:1,0:0:0:0:
308,211,75525,5,8,0:1:0:0:
263,88,75692,1,10,0:0:0:0:
195,243,75859,1,2,0:0:0:0:
154,121,76025,5,10,0:1:0:0:
318,194,76192,1,8,0:1:0:0:
272,71,76359,1,10,0:0:0:0:
177,238,76525,5,8,0:1:0:0:
177,238,76609,1,8,0:1:0:0:
177,238,76692,2,0,P|167:308|194:347,1,95.9999970703126,10|8,0:0|0:1,0:0:0:0:
184,340,76942,1,8,0:1:0:0:
193,350,77025,1,8,0:0:0:0:
313,297,77192,5,8,0:0:0:0:
313,297,77275,1,8,0:0:0:0:
313,297,77359,2,0,L|319:164,1,103.999995239258,14|8,0:1|0:0,0:0:0:0:
216,108,77692,5,10,0:1:0:0:
407,94,77859,1,8,0:1:0:0:
407,94,77942,1,8,0:1:0:0:
407,94,78025,1,10,0:3:0:0:
297,4,78192,1,8,0:1:0:0:
317,193,78359,1,6,0:3:0:0:
310,103,78525,5,8,0:0:0:0:
310,103,78609,1,8,0:0:0:0:
310,103,78692,1,14,0:0:0:0:
391,359,79692,2,2,B|417:361|436:373|436:373|443:352|461:336,1,90.0000034332277,2|0,0:0|0:0,0:1:0:0:
469,340,80025,6,0,B|489:323|489:323|469:258,1,88.000002685547,14|0,0:1|0:0,0:0:0:0:
310,262,80359,2,0,B|290:245|290:245|310:180,1,88.000002685547,10|0,0:0|0:0,0:0:0:0:
382,67,80692,5,10,0:1:0:0:
414,177,80859,1,8,0:1:0:0:
357,63,81025,1,10,0:0:0:0:
308,185,81192,1,8,0:1:0:0:
207,97,81359,6,0,P|212:54|196:-7,1,88.000002685547,2|8,0:0|0:1,0:0:0:0:
62,164,81692,2,0,P|57:121|73:60,1,88.000002685547,10|0,0:0|0:0,0:0:0:0:
198,210,82025,5,10,0:1:0:0:
89,268,82192,1,10,0:1:0:0:
141,378,82359,1,14,0:0:0:0:
327,299,82692,6,0,L|318:191,1,88.000002685547,12|0,0:1|0:0,0:0:0:0:
475,371,83025,2,0,L|484:263,1,88.000002685547,8|0,0:0|0:0,0:0:0:0:
424,135,83359,5,8,0:1:0:0:
339,220,83525,1,8,0:1:0:0:
320,88,83692,1,8,0:0:0:0:
440,149,83859,1,8,0:1:0:0:
319,211,84025,6,0,L|211:195,1,88.000002685547,0|8,0:0|0:1,0:0:0:0:
231,198,84275,1,8,0:1:0:0:
231,198,84359,1,12,0:0:0:0:
44,136,84692,6,2,P|38:92|52:51,1,88.000002685547,14|10,0:1|0:0,0:0:0:0:
158,15,85025,1,10,0:1:0:0:
173,30,85109,1,8,0:1:0:0:
193,41,85192,1,8,0:0:0:0:
214,43,85275,1,8,0:0:0:0:
236,40,85359,6,0,P|275:26|334:35,1,88.000002685547,14|0,0:1|0:1,0:0:0:0:
294,172,85692,2,0,P|255:186|196:177,1,88.000002685547,10|0,0:0|0:0,0:0:0:0:
109,119,86025,5,10,0:1:0:0:
59,230,86192,1,8,0:1:0:0:
128,136,86359,1,10,0:0:0:0:
137,267,86525,1,8,0:1:0:0:
254,211,86692,6,0,P|251:160|269:111,1,88.000002685547,2|8,0:0|0:1,0:0:0:0:
384,209,87025,2,0,P|387:252|376:294,1,88.000002685547,10|0,0:0|0:0,0:0:0:0:
263,377,87359,5,10,0:1:0:0:
182,284,87525,1,10,0:1:0:0:
92,368,87692,1,14,0:0:0:0:
0,196,88025,6,0,L|14:95,1,88.000002685547,14|0,0:1|0:0,0:0:0:0:
98,257,88359,2,0,L|112:156,1,88.000002685547,10|0,0:0|0:0,0:0:0:0:
187,71,88692,5,10,0:1:0:0:
270,153,88859,1,8,0:1:0:0:
293,27,89025,1,10,0:0:0:0:
174,88,89192,1,8,0:1:0:0:
288,164,89359,6,0,P|329:153|374:152,1,88.000002685547,2|8,0:0|0:1,0:0:0:0:
374,151,89609,1,8,0:1:0:0:
374,151,89692,1,14,0:0:0:0:
471,238,90025,5,14,0:1:0:0:
470,252,90109,1,8,0:1:0:0:
468,267,90192,1,8,0:1:0:0:
466,281,90275,1,8,0:1:0:0:
464,296,90359,2,0,L|451:361,3,40,10|8|8|8,0:0|0:0|0:0|0:0,0:0:0:0:
444,356,90692,6,0,B|419:350|419:350|402:357|402:357|367:351,1,71.9999978027344,12|10,0:1|0:1,0:0:0:0:
267,381,91025,2,0,L|276:280,1,71.9999978027344,10|0,0:0|0:0,0:0:0:0:
365,226,91359,2,0,B|390:222|401:205|401:205|404:152|366:110,1,143.999995605469,10|8,0:0|0:1,0:0:0:0:
270,33,91859,6,0,P|274:73|253:126,1,71.9999978027344,10|0,0:0|0:0,0:0:0:0:
179,27,92192,2,0,P|170:61|175:97,1,71.9999978027344,10|8,0:1|0:0,0:0:0:0:
269,182,92525,6,0,P|273:222|252:275,1,71.9999978027344,2|8,0:0|0:1,0:0:0:0:
176,177,92859,2,0,P|167:211|172:247,1,71.9999978027344,8|8,0:1|0:0,0:0:0:0:
276,339,93192,5,8,0:0:0:0:
276,339,93275,1,8,0:0:0:0:
276,339,93359,2,0,L|369:324,1,71.9999978027344,14|8,0:1|0:1,0:0:0:0:
413,371,93692,1,10,0:0:0:0:
468,314,93859,1,8,0:1:0:0:
402,270,94025,1,10,0:0:0:0:
495,114,94359,5,10,0:1:0:0:
453,181,94525,1,8,0:0:0:0:
394,135,94692,1,2,0:0:0:0:
394,135,94859,2,0,L|378:48,1,71.9999978027344,8|8,0:1|0:0,0:0:0:0:
310,190,95192,2,0,L|294:103,1,71.9999978027344,2|8,0:0|0:0,0:0:0:0:
296,119,95442,1,8,0:0:0:0:
296,119,95525,1,8,0:1:0:0:
228,80,95692,5,8,0:0:0:0:
228,80,95775,1,8,0:0:0:0:
228,80,95859,1,8,0:0:0:0:
228,80,95942,1,8,0:0:0:0:
227,81,96025,2,0,B|203:107|163:104|163:104|154:64|115:52,1,143.999995605469,14|8,0:1|0:0,0:0:0:0:
7,105,96525,5,2,0:0:0:0:
59,164,96692,1,10,0:0:0:0:
11,227,96859,2,0,P|1:259|4:305,1,71.9999978027344,10|8,0:1|0:0,0:0:0:0:
85,371,97192,6,2,B|112:367|112:367|123:372|123:372|181:369,1,71.9999978027344,14|0,0:1|0:0,0:1:0:0:
249,274,97525,2,2,B|222:270|222:270|211:275|211:275|153:272,1,71.9999978027344,10|0,0:1|0:0,0:1:0:0:
109,233,97859,5,10,0:1:0:0:
93,155,98025,1,8,0:0:0:0:
129,84,98192,1,8,0:1:0:0:
206,68,98359,1,8,0:0:0:0:
207,79,98442,1,8,0:0:0:0:
208,91,98525,1,8,0:3:0:0:
209,103,98609,1,8,0:3:0:0:
210,115,98692,6,0,P|202:152|218:205,1,80,12|10,0:1|0:1,0:0:0:0:
290,298,99025,2,0,P|329:279|387:282,1,80,8|8,0:0|0:1,0:0:0:0:
503,318,99359,5,10,0:0:0:0:
387,263,99525,1,8,0:1:0:0:
512,215,99692,1,8,0:0:0:0:
421,149,99859,2,0,B|417:130|417:130|420:109|420:109|407:56,1,80,14|0,0:1|0:0,0:0:0:0:
259,12,100192,5,8,0:1:0:0:
259,12,100275,1,8,0:1:0:0:
259,12,100359,2,0,L|250:113,1,80,10|2,0:0|0:0,0:0:0:0:
168,158,100692,5,8,0:0:0:0:
152,144,100775,1,8,0:1:0:0:
135,135,100859,1,8,0:1:0:0:
115,130,100942,1,8,0:1:0:0:
95,131,101025,1,8,0:0:0:0:
25,200,101192,5,8,0:0:0:0:
25,200,101275,1,8,0:0:0:0:
25,200,101359,2,0,L|31:288,1,71.9999978027344,14|8,0:1|0:1,0:0:0:0:
106,375,101692,2,0,L|110:303,1,71.9999978027344,2|8,0:0|0:1,0:0:0:0:
110,303,101942,1,8,0:1:0:0:
110,303,102025,1,14,0:0:0:0:
267,212,102359,5,10,0:1:0:0:
286,288,102525,1,8,0:1:0:0:
358,320,102692,1,10,0:0:0:0:
438,296,102859,1,8,0:1:0:0:
438,296,102942,1,8,0:1:0:0:
438,296,103025,1,14,0:0:0:0:
506,158,103359,5,10,0:1:0:0:
502,140,103442,1,8,0:1:0:0:
499,122,103525,1,8,0:1:0:0:
496,104,103609,1,8,0:1:0:0:
493,87,103692,1,14,0:0:0:0:
406,27,103859,5,8,0:0:0:0:
406,27,103942,1,8,0:0:0:0:
406,27,104025,2,0,P|364:42|320:32,1,71.9999978027344,14|8,0:1|0:1,0:0:0:0:
254,11,104359,1,2,0:0:0:0:
225,96,104525,1,8,0:1:0:0:
225,96,104609,1,8,0:1:0:0:
225,96,104692,1,12,0:0:0:0:
55,32,105025,5,10,0:1:0:0:
55,32,105192,1,8,0:1:0:0:
11,116,105359,1,10,0:1:0:0:
11,116,105525,1,8,0:1:0:0:
61,195,105692,2,0,P|98:186|145:187,1,71.9999978027344,10|8,0:0|0:1,0:0:0:0:
213,265,106025,5,10,0:1:0:0:
208,284,106109,1,8,0:1:0:0:
208,303,106192,1,8,0:1:0:0:
212,322,106275,1,8,0:1:0:0:
220,340,106359,1,10,0:0:0:0:
481,378,106692,6,0,L|472:282,1,71.9999978027344,14|8,0:1|0:1,0:0:0:0:
343,341,107025,2,0,L|334:245,1,71.9999978027344,2|8,0:0|0:1,0:0:0:0:
336,269,107275,1,8,0:1:0:0:
336,269,107359,1,14,0:0:0:0:
374,145,107692,5,10,0:1:0:0:
441,186,107859,1,8,0:1:0:0:
443,107,108025,1,2,0:0:0:0:
381,152,108192,1,8,0:1:0:0:
381,152,108275,1,8,0:1:0:0:
381,152,108359,1,10,0:0:0:0:
232,8,108692,5,10,0:1:0:0:
237,26,108775,1,8,0:1:0:0:
239,45,108859,1,8,0:1:0:0:
237,64,108942,1,8,0:1:0:0:
230,82,109025,2,0,P|192:69|145:70,1,71.9999978027344,14|0,0:0|0:0,0:0:0:0:
28,165,109359,6,0,P|66:152|117:153,1,88.000002685547,14|0,0:1|0:0,0:0:0:0:
205,206,109692,5,10,0:0:0:0:
144,303,109859,1,8,0:1:0:0:
249,277,110025,5,10,0:0:0:0:
319,378,110192,1,8,0:1:0:0:
331,258,110359,5,10,0:0:0:0:
457,220,110525,1,8,0:1:0:0:
340,139,110692,6,0,P|351:89|345:33,1,95.9999970703126,10|8,0:0|0:1,0:0:0:0:
347,44,110942,1,8,0:1:0:0:
347,44,111025,1,12,0:0:0:0:
236,9,111192,1,8,0:1:0:0:
236,9,111275,1,8,0:1:0:0:
236,9,111359,1,8,0:0:0:0:
206,135,111525,1,8,0:1:0:0:
206,135,111609,1,8,0:1:0:0:
206,135,111692,1,12,0:0:0:0:
423,285,112025,5,10,0:0:0:0:
331,345,112192,2,8,L|325:383,3,29.3333342285157,8|8|8|8,0:3|0:3|0:3|0:3,0:3:0:0:
276,226,112525,2,0,L|282:188,3,29.3333342285157,8|8|8|8,0:3|0:3|0:3|0:1,0:0:0:0:
161,319,112859,1,8,0:1:0:0:
92,196,113025,1,10,0:0:0:0:
361,113,113359,5,12,0:1:0:0:
413,215,113525,1,10,0:1:0:0:
491,130,113692,2,0,P|500:96|477:18,1,95.9999970703126,10|0,0:0|0:0,0:0:0:0:
321,1,114025,1,10,0:1:0:0:
259,98,114192,2,0,P|250:132|273:210,1,95.9999970703126,10|8,0:1|0:0,0:0:0:0:
370,305,114525,5,2,0:0:0:0:
370,305,114609,1,2,0:0:0:0:
370,305,114692,1,10,0:1:0:0:
267,277,114859,1,2,0:0:0:0:
213,367,115025,1,10,0:0:0:0:
107,377,115192,1,2,0:0:0:0:
23,312,115359,2,0,P|7:224|42:120,1,191.999994140625,10|8,0:1|0:0,0:0:0:0:
149,33,115859,5,2,0:0:0:0:
149,33,115942,1,2,0:0:0:0:
149,33,116025,2,0,L|136:143,1,95.9999970703126,10|2,0:1|0:0,0:0:0:0:
252,235,116359,2,0,L|142:222,1,95.9999970703126,10|2,0:0|0:0,0:0:0:0:
337,165,116692,5,10,0:1:0:0:
376,273,116859,1,10,0:1:0:0:
484,234,117025,1,10,0:0:0:0:
445,126,117192,1,2,0:0:0:0:
261,144,117359,6,8,P|239:65|266:2,1,143.999995605469,10|0,0:1|0:0,0:1:0:0:
338,10,117692,2,0,P|360:89|333:152,1,143.999995605469,10|0,0:0|0:0,0:0:0:0:
264,166,118025,2,0,L|162:147,1,95.9999970703126,10|8,0:1|0:1,0:0:0:0:
84,75,118359,5,10,0:0:0:0:
16,200,118525,1,8,0:0:0:0:
16,200,118609,1,8,0:0:0:0:
16,199,118692,2,0,L|23:337,1,95.9999970703126,12|10,0:1|0:1,0:0:0:0:
161,380,119025,2,0,L|165:284,1,95.9999970703126,10|2,0:0|0:0,0:0:0:0:
306,196,119359,1,10,0:1:0:0:
306,196,119525,2,0,L|301:292,1,95.9999970703126,10|8,0:1|0:0,0:0:0:0:
462,367,119859,5,2,0:0:0:0:
462,367,119942,1,2,0:0:0:0:
462,367,120025,2,0,P|477:326|459:262,1,95.9999970703126,10|10,0:1|0:1,0:0:0:0:
306,196,120359,2,0,B|341:189|341:189|364:197|364:197|413:186,1,95.9999970703126,10|2,0:0|0:0,0:0:0:0:
290,93,120692,1,10,0:1:0:0:
211,211,120859,1,10,0:1:0:0:
211,211,120942,1,8,0:1:0:0:
211,211,121025,1,8,0:0:0:0:
23,32,121359,5,2,0:0:0:0:
23,32,121525,1,2,0:0:0:0:
0,148,121692,1,10,0:2:0:0:
0,148,121859,1,2,0:0:0:0:
119,76,122025,5,10,0:1:0:0:
119,76,122192,1,10,0:1:0:0:
130,199,122359,1,10,0:0:0:0:
130,199,122525,1,2,0:0:0:0:
262,120,122692,5,10,0:1:0:0:
262,120,122859,1,2,0:0:0:0:
228,253,123025,1,10,0:0:0:0:
228,253,123192,1,2,0:0:0:0:
346,194,123359,5,10,2:1:0:0:
364,209,123442,1,8,2:1:0:0:
386,217,123525,1,8,2:1:0:0:
410,216,123609,1,8,2:1:0:0:
432,206,123692,1,14,2:0:0:0:
496,112,123859,5,8,0:0:0:0:
496,112,123942,1,8,0:0:0:0:
496,112,124025,2,0,B|502:52|445:2|445:2|434:40|406:71,1,191.999994140625,14|8,0:1|0:0,0:0:0:0:
278,137,124525,2,0,P|275:83|301:29,1,95.9999970703126,2|8,0:0|0:1,0:0:0:0:
403,206,124859,2,0,P|406:260|380:314,1,95.9999970703126,10|8,0:1|0:0,0:0:0:0:
238,383,125192,5,2,0:0:0:0:
162,295,125359,1,10,0:1:0:0:
241,212,125525,2,0,P|256:167|252:119,1,95.9999970703126,2|8,0:0|0:0,0:0:0:0:
68,216,125859,2,0,P|53:171|57:124,1,95.9999970703126,2|8,0:0|0:1,0:0:0:0:
268,238,126192,1,10,0:1:0:0:
268,238,126275,1,8,0:1:0:0:
268,238,126359,2,8,P|283:193|266:92,1,143.999995605469,8|0,0:0|0:0,0:0:0:0:
218,41,126692,6,0,P|157:71|54:10,1,191.999994140625,10|10,0:1|0:0,0:0:0:0:
171,111,127192,2,0,P|185:156|180:203,1,95.9999970703126,2|8,0:0|0:1,0:0:0:0:
43,305,127525,1,10,0:1:0:0:
43,305,127609,1,8,0:1:0:0:
43,305,127692,2,0,P|28:259|33:212,1,95.9999970703126,8|2,0:0|0:0,0:0:0:0:
181,344,128025,5,10,0:1:0:0:
269,269,128192,1,10,0:1:0:0:
315,374,128359,1,10,0:0:0:0:
383,282,128525,1,2,0:0:0:0:
456,371,128692,2,0,B|491:366|505:341|505:341|517:265|441:194,1,191.999994140625,10|8,0:1|0:0,0:0:0:0:
347,138,129192,5,2,0:0:0:0:
286,236,129359,1,14,0:1:0:0:
189,174,129525,2,0,P|178:123|194:67,1,95.9999970703126,2|8,0:0|0:0,0:0:0:0:
309,227,129859,2,0,P|320:278|304:334,1,95.9999970703126,2|8,0:0|0:1,0:0:0:0:
186,375,130192,2,0,L|79:362,1,95.9999970703126,10|8,0:1|0:0,0:0:0:0:
0,230,130525,5,2,0:0:0:0:
0,230,130609,1,2,0:0:0:0:
0,230,130692,1,10,0:1:0:0:
100,162,130859,1,2,0:0:0:0:
75,283,131025,1,8,0:0:0:0:
166,214,131192,1,2,0:0:0:0:
163,336,131359,1,8,0:1:0:0:
252,253,131525,1,10,0:1:0:0:
252,253,131609,1,8,0:1:0:0:
252,253,131692,2,0,P|316:253|352:236,1,95.9999970703126,8|0,0:0|0:0,0:0:0:0:
212,122,132025,6,0,B|240:102|241:66|241:66|206:6|110:10,1,191.999994140625,10|10,0:1|0:0,0:0:0:0:
28,92,132525,2,0,L|38:199,1,95.9999970703126,2|8,0:0|0:1,0:0:0:0:
137,298,132859,1,10,0:1:0:0:
137,298,132942,1,8,0:1:0:0:
137,298,133025,2,0,L|151:169,1,95.9999970703126,8|0,0:0|0:0,0:0:0:0:
275,100,133359,5,10,0:1:0:0:
408,153,133525,1,8,0:1:0:0:
388,10,133692,1,8,0:0:0:0:
258,122,133859,5,8,0:1:0:0:
258,122,133942,1,8,0:1:0:0:
258,122,134025,2,0,P|248:169|273:235,1,95.9999970703126,8|8,0:0|0:1,0:0:0:0:
265,227,134275,1,8,0:1:0:0:
273,238,134359,1,8,0:0:0:0:
406,298,134525,5,8,0:0:0:0:
406,298,134609,1,8,0:0:0:0:
406,298,134692,2,0,L|412:189,1,95.9999970703126,14|8,0:1|0:0,0:0:0:0:
346,67,135025,5,10,0:1:0:0:
237,150,135192,1,8,0:3:0:0:
237,150,135275,1,8,0:3:0:0:
237,150,135359,1,6,0:3:0:0:
218,11,135525,1,4,0:3:0:0:
346,67,135692,1,10,0:0:0:0:
244,157,135859,5,8,0:0:0:0:
244,157,135942,1,8,0:0:0:0:
244,157,136025,2,0,B|205:151|205:151|186:157|186:157|128:147,1,95.9999970703126,14|8,0:1|0:0,0:0:0:0:
12,170,136359,2,0,P|9:122|31:80,1,95.9999970703126,14|10,0:1|0:3,0:0:0:0:
252,180,136692,2,0,P|254:227|233:270,1,95.9999970703126,10|6,0:0|0:3,0:0:0:0:
124,344,137025,5,8,0:0:0:0:
102,334,137109,1,8,0:0:0:0:
78,330,137192,1,8,0:0:0:0:
54,331,137275,1,8,0:0:0:0:
31,338,137359,6,0,B|18:309|18:309|37:265,1,80,14|8,0:1|0:1,0:0:0:0:
151,218,137692,2,0,B|164:189|164:189|145:145,1,80,8|0,0:0|0:0,0:0:0:0:
76,59,138025,5,8,0:3:0:0:
76,59,138109,1,8,0:3:0:0:
76,59,138192,2,0,P|30:78|-10:72,1,80,8|8,0:3|0:0,0:0:0:0:
153,152,138525,1,8,0:3:0:0:
153,152,138609,1,8,0:3:0:0:
153,152,138692,2,0,P|199:133|239:139,1,80,4|0,0:3|0:0,0:0:0:0:
312,214,139025,6,0,P|298:259|306:310,1,80,8|8,0:0|0:3,0:0:0:0:
308,305,139275,1,8,0:3:0:0:
316,318,139359,2,0,L|411:336,1,80,8|8,0:3|0:0,0:0:0:0:
492,384,139692,1,4,0:3:0:0:
492,384,139775,1,4,0:3:0:0:
492,384,139859,1,4,0:3:0:0:
512,251,140025,6,0,L|502:156,1,80,14|8,0:1|0:1,0:0:0:0:
364,242,140359,2,0,L|374:147,1,80,8|8,0:0|0:3,0:0:0:0:
431,75,140692,1,8,0:3:0:0:
431,75,140775,1,8,0:3:0:0:
431,75,140859,1,4,0:3:0:0:
332,25,141025,2,0,L|235:12,1,80,8|10,0:0|0:1,0:0:0:0:
237,20,141275,1,8,0:1:0:0:
223,28,141359,6,0,P|203:71|208:111,1,80,8|8,0:0|0:1,0:0:0:0:
266,196,141692,1,8,0:0:0:0:
204,289,141859,2,0,P|158:301|108:292,1,80,10|8,0:1|0:0,0:0:0:0:
110,296,142109,1,8,0:0:0:0:
94,292,142192,2,0,L|84:199,1,80,8|8,0:3|0:0,0:0:0:0:
3,149,142525,5,8,0:0:0:0:
3,149,142609,1,8,0:0:0:0:
3,149,142692,1,14,0:1:0:0:
62,87,142859,5,10,0:1:0:0:
119,141,143025,1,8,0:0:0:0:
201,122,143192,1,8,0:3:0:0:
201,122,143275,1,8,0:3:0:0:
201,122,143359,2,0,L|207:31,1,71.9999978027344,4|2,0:3|0:0,0:0:0:0:
329,0,143692,5,8,0:0:0:0:
397,58,143859,1,8,0:3:0:0:
397,58,143942,1,8,0:3:0:0:
397,58,144025,2,0,L|403:149,1,71.9999978027344,12|8,0:1|0:1,0:0:0:0:
456,224,144359,5,8,0:0:0:0:
390,276,144525,1,10,0:3:0:0:
370,267,144609,1,8,0:3:0:0:
349,263,144692,1,8,0:3:0:0:
327,263,144775,1,8,0:3:0:0:
306,269,144859,1,8,0:1:0:0:
238,348,145025,5,10,0:0:0:0:
212,230,145192,1,14,0:1:0:0:
55,373,145525,5,10,0:1:0:0:
93,303,145692,1,8,0:0:0:0:
33,250,145859,1,8,0:1:0:0:
73,182,146025,1,8,0:0:0:0:
28,116,146192,1,8,0:1:0:0:
91,67,146359,1,8,0:0:0:0:
91,67,146442,1,8,0:0:0:0:
91,67,146525,1,12,0:1:0:0:
393,53,147525,5,2,0:0:0:0:
395,60,147692,5,10,0:3:0:0:
396,68,147859,5,2,0:0:0:0:
512,179,148025,6,2,P|454:114|323:126,1,223.999993164063,14|10,0:1|0:0,0:1:0:0:
195,164,148525,2,2,B|179:110|179:110|217:50,1,111.999996582031,2|8,0:0|0:1,0:1:0:0:
411,203,148859,1,10,0:1:0:0:
411,203,148942,1,10,0:1:0:0:
411,203,149025,2,2,B|427:257|427:257|389:317,1,111.999996582031,10|0,0:0|0:0,0:1:0:0:
230,371,149359,5,10,0:1:0:0:
254,258,149525,1,10,0:1:0:0:
206,376,149692,1,10,0:0:0:0:
166,255,149859,1,2,0:0:0:0:
166,255,149942,1,2,0:0:0:0:
166,255,150025,1,10,0:1:0:0:
50,290,150192,1,10,0:1:0:0:
78,175,150359,1,10,0:0:0:0:
173,262,150525,5,2,0:0:0:0:
173,262,150609,1,2,0:0:0:0:
173,262,150692,2,2,B|226:280|226:280|286:256,1,103.999995239258,10|2,0:1|0:0,0:1:0:0:
381,204,151025,1,10,0:0:0:0:
279,150,151192,1,2,0:0:0:0:
279,150,151275,1,2,0:0:0:0:
279,150,151359,1,10,0:1:0:0:
291,33,151525,1,10,0:1:0:0:
291,33,151609,1,10,0:1:0:0:
291,33,151692,1,8,0:0:0:0:
175,75,151859,5,2,0:0:0:0:
175,75,151942,1,2,0:0:0:0:
175,75,152025,2,2,B|144:104|144:104|162:211,1,111.999996582031,8|2,0:1|0:0,0:1:0:0:
372,126,152359,2,2,B|403:155|403:155|385:262,1,111.999996582031,8|2,0:0|0:0,0:1:0:0:
283,331,152692,6,2,B|238:309|238:309|179:320,1,103.999995239258,10|8,0:1|0:1,0:1:0:0:
81,384,153025,2,2,B|64:357|64:357|92:298,1,95.9999970703126,10|0,0:0|0:0,0:1:0:0:
155,172,153359,5,14,0:1:0:0:
155,172,153525,1,10,0:1:0:0:
198,300,153692,1,10,0:0:0:0:
306,218,153859,2,0,B|325:166|325:166|302:100,1,111.999996582031,2|8,0:0|0:1,0:0:0:0:
203,0,154192,5,10,0:1:0:0:
135,90,154359,1,10,0:0:0:0:
52,15,154525,1,2,0:0:0:0:
145,111,154692,5,10,0:1:0:0:
29,155,154859,1,10,0:1:0:0:
118,239,155025,1,10,0:0:0:0:
234,195,155192,1,2,0:0:0:0:
234,195,155275,1,2,0:0:0:0:
234,195,155359,2,2,L|245:78,1,111.999996582031,10|8,0:1|0:1,0:1:0:0:
362,280,155692,2,2,L|372:168,1,111.999996582031,10|0,0:0|0:0,0:1:0:0:
447,60,156025,6,0,P|486:61|526:28,2,74.6666643880209,10|2|2,0:1|0:0|0:0,0:0:0:0:
312,66,156359,2,0,P|273:65|233:98,2,74.6666643880209,10|2|2,0:0|0:0|0:0,0:0:0:0:
383,147,156692,5,10,0:1:0:0:
369,181,156803,1,2,0:0:0:0:
377,217,156914,1,2,0:0:0:0:
424,242,157025,5,10,0:0:0:0:
435,285,157137,1,2,0:0:0:0:
423,328,157248,1,2,0:0:0:0:
392,360,157359,6,2,L|271:345,1,111.999996582031,10|10,0:1|0:1,0:1:0:0:
130,371,157692,1,10,0:0:0:0:
184,241,157859,1,10,0:1:0:0:
184,241,157942,1,10,0:1:0:0:
184,241,158025,1,10,0:0:0:0:
285,350,158192,1,10,0:1:0:0:
285,350,158275,1,10,0:1:0:0:
289,353,158359,1,10,0:0:0:0:
323,270,158525,5,8,0:0:0:0:
323,270,158609,1,8,0:0:0:0:
323,270,158692,2,0,L|330:174,1,76.800001875,14|8,0:1|0:1,0:0:0:0:
455,294,159025,2,0,L|448:198,1,76.800001875,2|8,0:0|0:1,0:0:0:0:
449,217,159275,1,8,0:1:0:0:
449,217,159359,1,14,0:0:0:0:
363,80,159692,5,10,0:1:0:0:
344,162,159859,1,8,0:1:0:0:
274,208,160025,1,2,0:0:0:0:
197,206,160192,1,8,0:1:0:0:
197,206,160275,1,8,0:1:0:0:
197,206,160359,1,14,0:0:0:0:
40,307,160692,5,10,0:1:0:0:
41,287,160775,1,8,0:1:0:0:
43,268,160859,1,8,0:1:0:0:
45,249,160942,1,8,0:1:0:0:
47,230,161025,1,14,0:0:0:0:
0,149,161192,5,8,0:3:0:0:
0,149,161275,1,8,0:3:0:0:
0,149,161359,2,0,P|37:151|84:134,1,76.800001875,14|8,0:1|0:1,0:0:0:0:
162,92,161692,1,2,0:0:0:0:
231,177,161859,1,8,0:1:0:0:
231,177,161942,1,8,0:1:0:0:
231,177,162025,1,14,0:0:0:0:
400,59,162359,5,10,0:1:0:0:
338,127,162525,1,8,0:1:0:0:
401,193,162692,2,0,P|416:231|409:285,1,76.800001875,10|8,0:1|0:1,0:0:0:0:
352,357,163025,5,10,0:0:0:0:
290,298,163192,1,8,0:1:0:0:
219,344,163359,1,10,0:1:0:0:
201,358,163442,1,8,0:1:0:0:
179,365,163525,1,8,0:1:0:0:
157,362,163609,1,8,0:1:0:0:
136,351,163692,1,14,0:0:0:0:
37,258,164025,6,0,L|45:155,1,76.800001875,14|8,0:1|0:1,0:0:0:0:
187,234,164359,2,0,L|179:131,1,76.800001875,2|8,0:0|0:1,0:0:0:0:
181,157,164609,1,8,0:1:0:0:
181,157,164692,1,14,0:0:0:0:
285,7,165025,5,10,0:1:0:0:
291,91,165192,1,8,0:1:0:0:
358,141,165359,1,2,0:0:0:0:
447,132,165525,1,8,0:1:0:0:
447,132,165609,1,8,0:1:0:0:
447,132,165692,1,14,0:0:0:0:
512,279,166025,5,10,0:1:0:0:
508,253,166109,1,8,0:1:0:0:
490,231,166192,1,8,0:1:0:0:
466,222,166275,1,8,0:1:0:0:
439,226,166359,1,14,0:0:0:0:
262,340,166692,5,10,0:0:0:0:
262,340,166859,1,2,0:0:0:0:
226,259,167025,5,10,0:0:0:0:
177,363,167192,1,8,0:1:0:0:
147,248,167359,5,10,0:0:0:0:
31,288,167525,1,8,0:1:0:0:
129,165,167692,5,10,0:2:0:0:
31,78,167859,1,8,0:1:0:0:
192,109,168025,6,0,P|205:55|229:25,1,88.8000021679688,10|8,0:1|0:1,0:0:0:0:
224,29,168275,1,8,0:1:0:0:
224,29,168359,1,12,0:0:0:0:
317,94,168525,1,8,0:1:0:0:
317,94,168609,1,8,0:1:0:0:
317,94,168692,1,8,0:0:0:0:
396,27,168859,1,8,0:1:0:0:
396,27,168942,1,8,0:1:0:0:
396,27,169025,1,12,0:0:0:0:
466,82,169192,6,0,P|475:115|476:151,1,65.6000010009766,6|8,0:0|0:1,0:0:0:0:
455,259,169525,5,12,0:0:0:0:
256,192,169859,5,8,0:1:0:0:
256,192,169942,1,8,0:1:0:0:
256,192,170025,1,8,0:0:0:0:
178,301,170275,5,8,0:3:0:0:
92,155,170525,5,4,0:3:0:0:
3,217,170692,5,14,0:1:0:0:
99,160,176025,6,0,B|22:214|36:306|106:346|106:346|124:272|157:295|172:223,1,360.000013732911,14|0,0:1|0:0,0:0:0:0:
170,230,177359,6,0,P|128:176|306:135,1,360.000013732911,14|0,0:1|0:0,0:0:0:0:
304,128,178692,6,0,B|221:210|226:308|304:374|409:304|357:221,1,360.000013732911,14|0,0:1|0:0,0:0:0:0:
357,221,180025,6,0,L|222:212,2,120.000004577637,14|0|0,0:1|0:0|0:0,0:0:0:0:
330,302,180859,1,2,0:3:0:0:
404,367,181025,1,8,0:0:0:0:
499,314,181192,5,8,0:3:0:0:
499,314,181275,1,8,0:3:0:0:
499,314,181359,2,0,L|503:222,1,71.9999978027344,14|0,0:1|0:0,0:0:0:0:
494,225,181609,1,2,0:0:0:0:
486,208,181692,2,0,L|490:116,1,71.9999978027344,8|2,0:1|0:0,0:0:0:0:
433,48,182025,6,0,P|407:53|349:40,1,71.9999978027344,10|0,0:1|0:0,0:0:0:0:
343,42,182275,1,2,0:0:0:0:
326,33,182359,2,0,P|292:19|255:20,1,71.9999978027344,8|2,0:1|0:0,0:0:0:0:
177,99,182692,6,0,B|186:186,1,71.9999978027344,14|0,0:1|0:0,0:0:0:0:
194,185,182942,1,2,0:0:0:0:
202,200,183025,2,0,B|211:287,1,71.9999978027344,8|2,0:1|0:0,0:0:0:0:
144,361,183359,6,0,B|129:372|104:377|104:377|49:354|64:260,1,143.999995605469,10|8,0:1|0:1,0:0:0:0:
60,293,183859,1,8,0:1:0:0:
128,203,184025,6,0,B|243:186,1,80,14|0,0:1|0:0,0:0:0:0:
207,191,184275,1,2,0:0:0:0:
207,191,184359,1,8,0:1:0:0:
271,264,184525,1,2,0:0:0:0:
342,183,184692,6,0,P|333:145|344:97,1,80,10|0,0:1|0:0,0:0:0:0:
340,105,184942,1,2,0:0:0:0:
340,105,185025,1,8,0:1:0:0:
400,41,185192,1,2,0:0:0:0:
468,127,185359,6,0,P|477:165|466:213,1,80,14|0,0:1|0:0,0:0:0:0:
469,204,185609,1,2,0:0:0:0:
469,204,185692,1,8,0:1:0:0:
424,288,185859,1,2,0:0:0:0:
335,242,186025,6,0,P|298:227|244:235,1,80,10|8,0:1|0:0,0:0:0:0:
167,275,186359,1,8,0:3:0:0:
172,294,186442,1,8,0:3:0:0:
172,314,186525,1,8,0:3:0:0:
167,333,186609,1,8,0:3:0:0:
157,350,186692,6,0,L|66:339,1,88.000002685547,14|0,0:1|0:0,0:0:0:0:
53,347,186942,1,2,0:0:0:0:
39,358,187025,2,0,P|36:296|53:257,1,88.000002685547,8|2,0:1|0:0,0:0:0:0:
140,183,187359,6,0,L|237:175,1,88.000002685547,10|0,0:1|0:0,0:0:0:0:
227,175,187609,1,2,0:0:0:0:
227,175,187692,1,8,0:1:0:0:
309,254,187859,1,2,0:0:0:0:
418,190,188025,6,0,B|432:163|432:163|413:79,1,88.000002685547,14|0,0:1|0:0,0:0:0:0:
413,89,188275,1,2,0:0:0:0:
406,72,188359,1,8,0:1:0:0:
321,11,188525,1,2,0:0:0:0:
227,76,188692,6,0,P|186:91|93:58,1,132.00000402832,10|0,0:1|0:0,0:0:0:0:
90,79,189025,2,0,L|86:5,1,60.0000022888184,10|0,0:0|0:0,0:0:0:0:
241,91,189359,6,0,B|266:107|283:135|283:135|286:206|248:275,1,191.999994140625,14|8,0:1|0:1,0:0:0:0:
183,367,189859,1,2,0:0:0:0:
90,314,190025,2,0,P|79:268|91:223,1,95.9999970703126,10|2,0:1|0:0,0:0:0:0:
255,261,190359,2,0,P|267:215|255:169,1,95.9999970703126,10|2,0:0|0:0,0:0:0:0:
118,57,190692,5,10,0:0:0:0:
45,143,190859,2,0,L|14:185,3,29.3333342285157,8|8|8|8,0:3|0:3|0:3|0:1,0:0:0:0:
133,36,191192,5,12,0:0:0:0:
227,125,191359,1,8,0:0:0:0:
240,130,191442,1,8,0:0:0:0:
255,133,191525,1,8,0:0:0:0:
269,133,191609,1,8,0:0:0:0:
284,132,191692,1,8,0:0:0:0:
298,127,191775,1,8,0:0:0:0:
311,121,191859,1,8,0:0:0:0:
323,113,191942,1,8,0:0:0:0:
334,100,192025,6,0,P|327:46|345:0,1,103.999995239258,14|0,0:1|0:0,0:0:0:0:
476,125,192359,2,0,P|489:226|449:291,1,155.999992858887,10|0,0:0|0:0,0:0:0:0:
451,293,192692,1,10,0:1:0:0:
351,384,192859,2,0,L|333:258,1,103.999995239258,10|8,0:1|0:0,0:0:0:0:
247,176,193192,5,2,0:0:0:0:
247,176,193275,1,2,0:0:0:0:
247,176,193359,1,10,0:1:0:0:
143,244,193525,1,2,0:0:0:0:
135,119,193692,1,10,0:0:0:0:
247,176,193859,1,2,0:0:0:0:
130,264,194025,2,0,P|41:242|48:125,1,207.999990478516,10|8,0:1|0:0,0:0:0:0:
170,18,194525,5,2,0:0:0:0:
231,140,194692,1,10,0:1:0:0:
231,140,194859,1,10,0:1:0:0:
310,24,195025,1,10,0:0:0:0:
310,24,195192,1,2,0:0:0:0:
411,137,195359,2,0,P|421:97|392:28,1,103.999995239258,10|8,0:1|0:1,0:0:0:0:
243,157,195692,5,10,0:0:0:0:
315,253,195859,1,2,0:0:0:0:
234,346,196025,6,0,B|184:334|184:334|143:358|143:358|62:344,1,155.999992858887,10|0,0:1|0:0,0:0:0:0:
23,302,196359,2,0,P|4:228|48:166,1,155.999992858887,10|0,0:0|0:0,0:0:0:0:
121,150,196692,2,0,B|172:164|172:164|217:128,1,103.999995239258,10|8,0:1|0:1,0:0:0:0:
306,45,197025,5,14,0:2:0:0:
385,119,197192,1,8,0:2:0:0:
385,119,197275,1,8,0:2:0:0:
385,119,197359,2,0,P|422:180|373:284,1,155.999992858887,12|0,0:1|0:0,0:0:0:0:
392,279,197692,2,0,L|264:264,1,103.999995239258,10|2,0:0|0:0,0:0:0:0:
178,361,198025,1,10,0:1:0:0:
92,286,198192,2,0,P|84:236|96:185,1,103.999995239258,10|8,0:1|0:0,0:0:0:0:
191,62,198525,5,2,0:0:0:0:
191,62,198609,1,2,0:0:0:0:
191,62,198692,1,10,0:1:0:0:
263,150,198859,1,2,0:0:0:0:
298,41,199025,1,10,0:0:0:0:
370,130,199192,1,2,0:0:0:0:
419,26,199359,1,10,0:1:0:0:
494,124,199525,1,10,0:1:0:0:
494,124,199609,1,8,0:1:0:0:
494,124,199692,1,8,0:2:0:0:
425,320,200025,5,14,0:1:0:0:
375,237,200192,1,2,0:0:0:0:
289,280,200359,1,10,0:0:0:0:
339,363,200525,1,10,0:1:0:0:
276,267,200692,5,14,0:1:0:0:
206,348,200859,1,10,0:0:0:0:
120,286,201025,1,10,0:1:0:0:
189,205,201192,1,10,0:1:0:0:
64,159,201359,6,0,P|48:97|69:48,1,111.999996582031,14|10,0:2|0:1,0:0:0:0:
87,37,201609,1,8,0:1:0:0:
112,26,201692,2,0,L|237:11,1,111.999996582031,10|10,0:1|0:1,0:0:0:0:
321,97,202025,5,10,2:3:0:0:
308,121,202109,1,8,2:3:0:0:
304,149,202192,1,8,2:3:0:0:
308,177,202275,1,8,2:3:0:0:
320,202,202359,1,14,2:0:0:0:
421,281,202525,5,10,2:0:0:0:
421,281,202609,1,8,2:0:0:0:
421,281,202692,1,14,0:1:0:0:
507,216,202859,2,0,P|520:167|502:106,1,103.999995239258,10|8,0:1|0:0,0:0:0:0:
320,202,203192,2,0,P|307:251|325:312,1,103.999995239258,2|8,0:0|0:1,0:0:0:0:
484,206,203525,2,0,P|497:157|479:96,1,103.999995239258,10|8,0:1|0:0,0:0:0:0:
340,26,203859,5,2,0:0:0:0:
254,101,204025,1,10,0:1:0:0:
156,40,204192,2,0,P|107:19|34:41,1,103.999995239258,2|8,0:0|0:0,0:0:0:0:
141,159,204525,2,0,P|91:178|55:245,1,103.999995239258,2|8,0:0|0:1,0:0:0:0:
207,263,204859,1,8,0:1:0:0:
207,263,204942,1,8,0:1:0:0:
207,263,205025,2,0,P|191:315|269:366,1,155.999992858887,12|0,0:0|0:0,0:0:0:0:
336,334,205359,6,0,L|352:116,1,207.999990478516,14|10,0:1|0:0,0:0:0:0:
470,272,205859,2,0,L|478:153,1,103.999995239258,2|8,0:0|0:1,0:0:0:0:
311,42,206192,5,10,0:1:0:0:
207,112,206359,1,10,0:0:0:0:
125,17,206525,1,2,0:0:0:0:
32,108,206692,6,2,B|-1:149|-1:149|43:299,1,180.000006866455,14|0,0:1|0:0,0:1:0:0:
74,341,207025,2,2,B|124:321|173:362|173:362|216:362|243:318,1,180.000006866455,14|0,0:0|0:0,0:1:0:0:
289,279,207359,5,10,0:1:0:0:
272,261,207442,1,8,0:1:0:0:
264,239,207525,1,8,0:1:0:0:
266,214,207609,1,8,0:1:0:0:
276,193,207692,1,12,0:0:0:0:
366,133,207859,5,2,0:0:0:0:
417,230,208025,1,14,0:1:0:0:
497,152,208192,2,0,P|507:102|483:43,1,103.999995239258,2|8,0:0|0:0,0:0:0:0:
250,111,208525,2,0,P|246:59|269:13,1,103.999995239258,2|8,0:0|0:1,0:0:0:0:
383,224,208859,2,0,P|386:275|363:321,1,103.999995239258,10|8,0:1|0:0,0:0:0:0:
217,264,209192,5,2,0:0:0:0:
151,370,209359,1,10,0:1:0:0:
53,293,209525,2,0,L|40:174,1,103.999995239258,2|10,0:0|0:0,0:0:0:0:
237,282,209859,2,0,L|250:163,1,103.999995239258,2|10,0:1|0:1,0:0:0:0:
414,338,210192,2,0,L|396:120,1,207.999990478516,10|8,0:1|0:1,0:0:0:0:
235,34,210692,5,10,0:1:0:0:
108,159,210859,1,12,0:0:0:0:
131,10,211025,1,10,0:1:0:0:
224,179,211192,1,10,0:1:0:0:
224,179,211275,1,8,0:1:0:0:
224,179,211359,1,8,0:0:0:0:
121,272,211525,5,8,0:1:0:0:
121,272,211609,1,8,0:1:0:0:
121,272,211692,2,0,P|69:283|6:258,1,103.999995239258,14|10,0:0|0:1,0:0:0:0:
218,145,212025,6,0,P|212:93|231:46,1,103.999995239258,14|8,0:1|0:1,0:0:0:0:
231,46,212275,1,8,0:1:0:0:
231,46,212359,1,14,0:0:0:0:
337,0,212525,1,8,0:1:0:0:
337,0,212609,1,8,0:1:0:0:
337,0,212692,1,14,0:0:0:0:
434,56,212859,5,8,0:2:0:0:
445,79,212942,1,8,0:2:0:0:
453,103,213025,1,8,0:0:0:0:
457,129,213109,1,8,0:0:0:0:
457,155,213192,1,8,0:0:0:0:
452,181,213275,1,8,0:0:0:0:
444,205,213359,6,0,B|407:194|407:194|382:206|382:206|311:193,1,103.999995239258,14|8,0:1|0:0,0:0:0:0:
249,120,213692,1,10,0:1:0:0:
189,256,213859,1,8,0:3:0:0:
189,256,213942,1,8,0:3:0:0:
189,256,214025,1,6,0:3:0:0:
108,124,214192,1,8,0:3:0:0:
108,124,214275,1,8,0:3:0:0:
108,124,214359,1,6,0:3:0:0:
0,192,214525,5,8,0:0:0:0:
0,192,214609,1,8,0:0:0:0:
0,192,214692,1,14,0:1:0:0:
350,359,215609,1,2,0:0:0:0:
350,359,215692,2,2,B|376:361|391:372|391:372|402:352|420:336,1,90.0000034332277,2|0,0:0|0:0,0:1:0:0:
439,326,216025,6,0,P|451:285|440:243,1,88.000002685547,14|0,0:1|0:0,0:0:0:0:
356,163,216359,2,0,B|326:157|326:157|308:169|308:169|253:159,1,88.000002685547,10|0,0:0|0:0,0:0:0:0:
161,140,216692,5,10,0:1:0:0:
189,251,216859,1,8,0:1:0:0:
136,136,217025,1,10,0:0:0:0:
100,274,217192,1,8,0:1:0:0:
7,177,217359,6,0,P|2:134|29:81,1,88.000002685547,2|8,0:0|0:1,0:0:0:0:
112,32,217692,2,0,B|142:28|142:28|160:40|160:40|202:34,1,88.000002685547,10|0,0:0|0:0,0:0:0:0:
332,3,218025,5,10,0:1:0:0:
282,116,218192,1,10,0:1:0:0:
404,109,218359,1,14,0:0:0:0:
469,316,218692,6,0,L|462:212,1,88.000002685547,14|0,0:1|0:0,0:0:0:0:
361,361,219025,2,0,L|354:257,1,88.000002685547,10|0,0:0|0:0,0:0:0:0:
271,147,219359,5,10,0:1:0:0:
344,253,219525,1,8,0:1:0:0:
384,122,219692,1,10,0:0:0:0:
251,130,219859,1,8,0:1:0:0:
401,135,220025,6,0,P|416:93|396:33,1,88.000002685547,2|8,0:1|0:1,0:0:0:0:
407,51,220275,1,8,0:1:0:0:
407,51,220359,1,14,0:0:0:0:
178,0,220692,6,0,L|170:100,1,88.000002685547,14|8,0:1|0:0,0:0:0:0:
106,193,221025,1,10,0:1:0:0:
124,182,221109,1,8,0:1:0:0:
146,176,221192,1,8,0:0:0:0:
167,180,221275,1,8,0:0:0:0:
187,189,221359,6,0,P|176:229|193:285,1,88.000002685547,14|0,0:1|0:0,0:0:0:0:
256,362,221692,2,0,P|296:349|350:345,1,88.000002685547,10|0,0:0|0:0,0:0:0:0:
501,384,222025,5,10,0:1:0:0:
367,348,222192,1,8,0:1:0:0:
501,384,222359,1,10,0:0:0:0:
405,264,222525,1,8,0:1:0:0:
491,182,222692,6,0,L|498:87,1,88.000002685547,2|8,0:0|0:1,0:0:0:0:
343,193,223025,2,0,L|336:98,1,88.000002685547,10|0,0:0|0:1,0:0:0:0:
251,7,223359,5,10,0:1:0:0:
213,123,223525,1,10,0:1:0:0:
117,44,223692,1,14,0:0:0:0:
1,216,224025,6,0,P|-1:171|23:118,1,88.000002685547,14|0,0:1|0:0,0:0:0:0:
92,280,224359,2,0,P|131:260|183:263,1,88.000002685547,10|0,0:0|0:0,0:0:0:0:
310,319,224692,5,10,0:1:0:0:
199,372,224859,1,8,0:1:0:0:
195,254,225025,1,10,0:0:0:0:
321,337,225192,1,8,0:1:0:0:
398,293,225359,5,10,0:1:0:0:
471,372,225525,2,0,P|486:292|458:194,1,176.000005371094,14|8,0:1|0:1,0:1:0:0:
403,112,226025,5,10,0:0:0:0:
403,112,226109,1,8,0:0:0:0:
403,112,226192,2,0,P|368:151|323:141,1,88.000002685547,8|10,0:0|0:0,0:0:0:0:
194,94,226525,5,8,0:0:0:0:
194,94,226609,1,8,0:0:0:0:
194,93,226692,2,0,P|203:46|186:2,1,95.9999970703126,14|0,0:1|0:0,0:0:0:0:
54,86,227025,2,0,P|44:132|61:176,1,95.9999970703126,10|0,0:0|0:0,0:0:0:0:
200,227,227359,5,10,0:1:0:0:
79,192,227525,1,8,0:1:0:0:
113,310,227692,1,10,0:0:0:0:
219,212,227859,1,0,0:0:0:0:
315,289,228025,6,0,P|310:336|320:383,1,95.9999970703126,2|8,0:0|0:1,0:0:0:0:
475,322,228359,2,0,P|480:274|470:227,1,95.9999970703126,10|0,0:0|0:0,0:0:0:0:
375,149,228692,5,10,0:1:0:0:
361,168,228775,1,8,0:1:0:0:
341,181,228859,1,8,0:1:0:0:
318,185,228942,1,8,0:1:0:0:
295,180,229025,1,14,0:0:0:0:
108,102,229359,6,0,L|127:1,1,95.9999970703126,14|0,0:1|0:0,0:0:0:0:
217,128,229692,2,0,L|198:229,1,95.9999970703126,10|0,0:0|0:0,0:0:0:0:
126,347,230025,5,10,0:1:0:0:
191,245,230192,1,8,0:1:0:0:
243,378,230359,1,10,0:0:0:0:
198,267,230525,1,8,0:1:0:0:
324,326,230692,6,0,L|433:315,1,95.9999970703126,2|8,0:0|0:1,0:0:0:0:
419,316,230942,1,8,0:1:0:0:
419,316,231025,1,14,0:0:0:0:
472,155,231359,5,14,0:1:0:0:
362,214,231525,1,8,0:0:0:0:
258,137,231692,1,10,0:1:0:0:
139,188,231859,5,8,0:0:0:0:
139,188,231942,1,8,0:0:0:0:
139,188,232025,2,0,P|131:137|157:78,1,95.9999970703126,14|8,0:1|0:0,0:0:0:0:
162,79,232275,1,8,0:0:0:0:
182,66,232359,2,0,L|304:52,1,95.9999970703126,10|8,0:1|0:1,0:0:0:0:
425,8,232692,5,14,0:0:0:0:
472,91,232859,1,8,0:1:0:0:
439,180,233025,1,8,0:1:0:0:
318,132,233192,5,14,0:0:0:0:
262,210,233359,1,8,0:1:0:0:
276,304,233525,1,8,0:1:0:0:
356,356,233692,2,0,P|402:359|453:323,1,95.9999970703126,14|8,0:0|0:1,0:0:0:0:
269,217,234025,5,8,0:3:0:0:
269,217,234109,1,8,0:3:0:0:
269,217,234192,1,8,0:1:0:0:
172,286,234359,5,10,0:0:0:0:
148,303,234442,1,8,0:0:0:0:
119,313,234525,1,8,0:3:0:0:
88,311,234609,1,8,0:3:0:0:
64,296,234692,6,0,P|55:252|70:198,1,95.9999970703126,14|8,0:1|0:0,0:0:0:0:
167,93,235025,1,10,0:1:0:0:
261,167,235192,1,8,0:1:0:0:
263,179,235275,1,8,0:1:0:0:
265,192,235359,1,8,0:1:0:0:
266,204,235442,1,8,0:1:0:0:
269,217,235525,1,12,0:1:0:0:
344,293,235692,5,10,0:1:0:0:
344,293,235775,1,8,0:1:0:0:
344,293,235859,1,8,0:1:0:0:
430,237,236025,5,8,0:1:0:0:
430,237,236109,1,8,0:1:0:0:
430,237,236192,2,0,P|439:182|409:110,1,95.9999970703126,8|12,0:2|0:0,0:0:0:0:
353,60,236525,5,8,0:1:0:0:
353,60,236609,1,8,0:1:0:0:
353,60,236692,1,8,0:1:0:0:
252,104,236859,5,8,0:0:0:0:
223,118,236942,1,8,0:0:0:0:
198,111,237025,1,8,0:3:0:0:
182,96,237109,1,8,0:3:0:0:
175,78,237192,1,4,0:3:0:0:
177,68,237275,1,4,0:3:0:0:
182,63,237359,1,14,0:1:0:0:
179,165,239359,5,12,0:0:0:0:
229,267,239525,1,8,2:2:0:0:
331,217,239692,1,8,2:2:0:0:
281,115,239859,1,12,2:1:0:0:
