osu file format v14

[General]
AudioFilename: audio.mp3
AudioLeadIn: 0
PreviewTime: 55276
Countdown: 0
SampleSet: Soft
StackLeniency: 0.7
Mode: 0
LetterboxInBreaks: 0
WidescreenStoryboard: 1

[Editor]
DistanceSpacing: 1.3
BeatDivisor: 4
GridSize: 32
TimelineZoom: 2.799999

[Metadata]
Title:DICE
TitleUnicode:DICE
Artist:BAND-MAID
ArtistUnicode:BAND-MAID
Creator:Lasse
Version:HARD.
Source:
Tags:bandmaid world domination japanese rock english
BeatmapID:2594990
BeatmapSetID:1248526

[Difficulty]
HPDrainRate:4
CircleSize:3.8
OverallDifficulty:6.8
ApproachRate:8
SliderMultiplier:1.4
SliderTickRate:1

[Events]
//Background and Video events
0,0,"e.jpg",0,0
//Break Periods
2,23560,30610
2,90892,97942
2,170891,175275
//Storyboard Layer 0 (Background)
//Storyboard Layer 1 (Fail)
//Storyboard Layer 2 (Pass)
//Storyboard Layer 3 (Foreground)
//Storyboard Layer 4 (Overlay)
//Storyboard Sound Samples

[TimingPoints]
2027,333.333333333333,4,2,2,60,1,0
2027,-100,4,2,2,60,0,0
7360,-100,4,2,2,65,0,0
11693,-133.333333333333,4,2,1,65,0,0
12193,-117.647058823529,4,2,2,70,0,0
12610,-117.647058823529,4,2,2,30,0,0
12693,-100,4,2,1,75,0,0
17360,-100,4,2,2,75,0,0
18026,-100,4,2,1,75,0,0
22693,-100,4,2,2,70,0,0
23360,-125,4,2,2,65,0,0
28526,-125,4,2,1,65,0,0
31360,-100,4,2,2,70,0,0
34026,-100,4,2,1,68,0,0
35276,-100,4,2,1,20,0,0
35526,-100,4,2,1,68,0,0
35610,-100,4,2,1,20,0,0
35860,-100,4,2,1,68,0,0
35943,-100,4,2,1,20,0,0
36026,-100,4,2,1,68,0,0
37943,-100,4,2,1,20,0,0
38193,-100,4,2,1,68,0,0
38276,-100,4,2,1,20,0,0
38526,-100,4,2,1,68,0,0
38610,-100,4,2,1,20,0,0
38693,-100,4,2,1,68,0,0
41860,-100,4,2,1,70,0,0
42693,-100,4,2,1,72,0,0
43526,-100,4,2,1,74,0,0
44360,-100,4,2,1,72,0,0
44693,-111.111111111111,4,2,2,70,0,0
50026,-111.111111111111,4,2,2,72,0,0
53693,-111.111111111111,4,2,2,75,0,0
53860,-100,4,2,2,75,0,0
54693,-100,4,2,2,78,0,0
55526,-100,4,2,2,80,0,0
56026,333.333333333333,4,2,1,85,1,0
56026,-90.9090909090909,4,2,1,85,0,1
61359,-90.9090909090909,4,2,2,85,0,1
63692,-90.9090909090909,4,2,1,85,0,1
64025,-83.3333333333333,4,2,1,86,0,1
64692,-76.9230769230769,4,2,1,88,0,1
65359,-71.4285714285714,4,2,1,90,0,1
66025,-90.9090909090909,4,2,1,85,0,1
70692,-83.3333333333333,4,2,1,85,0,1
71359,-83.3333333333333,4,2,2,85,0,1
71692,-90.9090909090909,4,2,2,85,0,1
77359,-90.9090909090909,4,2,1,85,0,1
78025,-90.9090909090909,4,2,2,85,0,1
78692,-100,4,2,1,90,0,0
79692,-117.647058823529,4,2,1,60,0,0
79942,-125,4,2,1,30,0,0
80025,-100,4,2,1,75,0,0
84692,-100,4,2,2,75,0,0
85359,-100,4,2,1,75,0,0
90025,-100,4,2,2,75,0,0
90692,-111.111111111111,4,2,2,70,0,0
98692,-100,4,2,2,74,0,0
101359,-111.111111111111,4,2,2,70,0,0
106692,-111.111111111111,4,2,2,72,0,0
109359,-100,4,2,2,76,0,0
110692,-100,4,2,2,78,0,0
112025,-100,4,2,2,80,0,0
113359,-90.9090909090909,4,2,1,85,0,1
118692,-90.9090909090909,4,2,2,85,0,1
121359,-83.3333333333333,4,2,2,86,0,1
122025,-76.9230769230769,4,2,2,88,0,1
122692,-71.4285714285714,4,2,2,90,0,1
123359,-90.9090909090909,4,2,2,85,0,1
124025,-90.9090909090909,4,2,1,85,0,1
124359,-90.9090909090909,4,2,2,85,0,1
134692,-90.9090909090909,4,2,1,85,0,1
135359,-90.9090909090909,4,2,2,85,0,1
137025,-90.9090909090909,4,2,2,80,0,1
137359,-111.111111111111,4,2,1,75,0,0
140025,-111.111111111111,4,2,2,75,0,0
142859,-111.111111111111,4,2,1,68,0,0
144525,-100,4,2,2,68,0,0
145525,-111.111111111111,4,2,2,70,0,0
147609,-100,4,2,2,30,0,0
147692,-100,4,2,2,72,0,0
147775,-100,4,2,2,30,0,0
147859,-100,4,2,2,74,0,0
147942,-100,4,2,2,30,0,0
148025,-90.9090909090909,4,2,1,80,0,1
153359,-90.9090909090909,4,2,1,82,0,1
154192,-90.9090909090909,4,2,1,78,0,1
154692,-90.9090909090909,4,2,1,82,0,1
156025,-90.9090909090909,4,2,1,78,0,1
156359,-90.9090909090909,4,2,1,80,0,1
156692,-90.9090909090909,4,2,1,82,0,1
157025,-90.9090909090909,4,2,1,84,0,1
157359,-90.9090909090909,4,2,1,85,0,1
158609,-90.9090909090909,4,2,1,82,0,1
158692,-111.111111111111,4,2,2,78,0,0
158859,-111.111111111111,4,2,2,72,0,0
166692,-100,4,2,2,75,0,0
167025,-100,4,2,2,80,0,0
168025,-100,4,2,2,82,0,0
169192,-100,4,2,1,72,0,0
169859,-133.333333333333,4,2,1,70,0,0
170275,-100,4,2,1,68,0,0
170525,-100,4,2,1,64,0,0
170692,-100,4,2,99,62,0,0
176025,-125,4,2,2,65,0,0
180859,-111.111111111111,4,2,1,68,0,0
181025,-100,4,2,1,70,0,0
181359,-100,4,2,1,72,0,0
182692,-100,4,2,2,72,0,0
184025,-100,4,2,1,75,0,0
185359,-100,4,2,2,75,0,0
186692,-100,4,2,1,78,0,0
188025,-100,4,2,2,78,0,0
189025,-100,4,2,1,78,0,0
189692,-100,4,2,1,74,0,0
190692,-100,4,2,1,84,0,0
191359,-100,4,2,1,80,0,0
191442,-100,4,2,1,81,0,0
191525,-100,4,2,1,82,0,0
191609,-100,4,2,1,83,0,0
191692,-100,4,2,1,84,0,0
191775,-100,4,2,1,85,0,0
191859,-100,4,2,1,86,0,0
191942,-100,4,2,1,88,0,0
192025,-85.4700854700855,4,2,1,90,0,1
200025,-78.7401574803149,4,2,2,91,0,1
200692,-72.992700729927,4,2,2,93,0,1
201359,-68.0272108843537,4,2,2,95,0,1
202025,-78.7401574803149,4,2,2,90,0,1
202692,-85.4700854700855,4,2,1,90,0,1
206692,-78.7401574803149,4,2,2,90,0,1
207025,-78.7401574803149,4,2,1,90,0,1
207359,-85.4700854700855,4,2,2,90,0,1
213359,-85.4700854700855,4,2,1,90,0,1
214025,-85.4700854700855,4,2,2,90,0,1
214692,-100,4,2,1,78,0,0
215609,-100,4,2,1,50,0,0
215692,-117.647058823529,4,2,1,60,0,0
215942,-100,4,2,1,30,0,0
216025,-100,4,2,1,76,0,0
218859,-100,4,2,2,76,0,0
221359,-100,4,2,1,76,0,0
224192,-100,4,2,2,76,0,0
226692,-100,4,2,1,78,0,0
229359,-100,4,2,2,78,0,0
232025,-100,4,2,1,78,0,0
235525,-100,4,2,2,78,0,0
237359,-100,4,2,99,78,0,0
239359,-100,4,2,1,84,0,0
239525,-100,4,2,2,84,0,0

[Colours]
Combo1 : 255,140,140
Combo2 : 145,185,220
Combo3 : 255,180,110
Combo4 : 175,215,150

[HitObjects]
0,316,693,6,0,P|65:293|132:311,1,140,10|10,2:2|2:2,0:0:0:0:
203,355,1193,2,0,P|269:372|335:350,1,140,10|10,2:2|2:2,0:0:0:0:
400,296,1693,2,0,L|408:240,3,35,10|8|8|8,2:2|2:2|2:2|2:2,0:0:0:0:
437,246,2026,6,0,B|468:220|468:220|424:96,1,140,12|8,0:1|0:0,0:0:0:0:
321,8,2693,1,8,0:3:0:0:
321,8,2776,1,8,0:3:0:0:
321,8,2860,1,8,0:1:0:0:
312,91,3026,2,0,L|305:187,1,70,8|4,0:0|0:3,0:0:0:0:
243,246,3360,6,0,B|157:219|185:272|101:263,1,140,8|8,0:1|0:0,0:0:0:0:
30,219,3860,1,8,0:3:0:0:
30,219,3943,1,8,0:3:0:0:
30,219,4026,2,0,L|28:128,1,70,8|4,0:3|0:3,0:0:0:0:
120,157,4360,2,0,L|118:66,1,70,8|8,0:0|0:3,0:0:0:0:
199,26,4693,6,0,P|220:69|309:64,1,140,8|8,0:1|0:0,0:0:0:0:
466,10,5360,1,8,0:3:0:0:
466,10,5443,1,8,0:3:0:0:
466,10,5526,1,8,0:1:0:0:
493,89,5693,2,0,L|488:175,1,70,8|8,0:0|0:3,0:0:0:0:
431,241,6026,6,0,B|382:255|382:255|373:209|333:180,1,140,8|8,0:1|0:0,0:0:0:0:
260,143,6526,1,8,0:3:0:0:
260,143,6610,1,8,0:3:0:0:
260,143,6693,2,0,P|213:141|171:125,1,70,8|4,0:3|0:3,0:0:0:0:
121,181,7026,2,0,P|74:183|32:199,1,70,8|8,0:0|0:3,0:0:0:0:
0,285,7360,6,0,B|-8:349|53:365|53:365|93:344,1,140,14|10,0:1|0:0,0:0:0:0:
166,316,7860,1,8,0:3:0:0:
166,316,7943,1,8,0:3:0:0:
166,316,8026,2,0,L|179:221,1,70,8|4,0:3|0:3,0:0:0:0:
263,338,8360,2,0,L|260:246,1,70,8|10,0:0|0:3,0:0:0:0:
352,229,8693,6,0,P|400:251|462:189,1,140,10|10,0:1|0:0,0:0:0:0:
492,114,9193,1,8,0:3:0:0:
439,51,9360,1,8,0:3:0:0:
439,51,9443,1,8,0:3:0:0:
439,51,9526,1,4,0:3:0:0:
359,95,9693,2,0,P|339:101|276:74,1,70,10|8,0:0|0:3,0:0:0:0:
205,34,10026,6,0,P|173:19|138:16,1,70,14|8,0:1|0:1,0:0:0:0:
145,108,10360,2,0,P|109:135|94:177,1,70,10|8,0:0|0:3,0:0:0:0:
94,173,10610,1,8,0:3:0:0:
91,190,10693,2,0,P|92:234|107:275,1,70,8|4,0:3|0:3,0:0:0:0:
162,315,11026,6,0,L|199:302,4,35,8|8|8|8|8,0:0|0:0|0:0|0:0|0:1,0:0:0:0:
359,384,11693,6,0,L|361:276,1,105.000004005432,2|2,0:3|0:3,0:0:0:0:
431,225,12193,5,10,0:3:0:0:
431,225,12276,1,10,0:3:0:0:
431,225,12360,2,2,B|453:247|483:243|483:243|510:211,1,89.2500017023087,6|0,0:3|0:0,0:1:0:0:
511,208,12693,6,0,L|504:131,1,70,14|0,0:1|0:0,0:0:0:0:
408,120,13026,2,0,L|401:43,1,70,10|0,0:0|0:0,0:0:0:0:
311,9,13360,1,10,0:1:0:0:
311,9,13526,1,8,0:1:0:0:
238,65,13693,1,10,0:0:0:0:
238,65,13860,1,8,0:1:0:0:
146,27,14026,6,0,P|112:16|54:26,1,70,2|8,0:0|0:1,0:0:0:0:
10,92,14360,2,0,L|13:188,1,70,10|0,0:0|0:0,0:0:0:0:
44,247,14693,1,10,0:1:0:0:
131,221,14860,1,10,0:1:0:0:
162,306,15026,1,14,0:0:0:0:
301,175,15360,6,0,P|291:141|294:106,1,70,14|0,0:1|0:0,0:0:0:0:
353,34,15693,2,0,P|381:28|428:38,1,70,8|0,0:0|0:0,0:0:0:0:
488,113,16026,1,10,0:1:0:0:
488,113,16193,1,8,0:1:0:0:
470,205,16360,1,10,0:0:0:0:
470,205,16526,1,8,0:1:0:0:
364,237,16693,6,0,P|315:219|267:225,1,70,2|8,0:0|0:1,0:0:0:0:
297,218,16943,1,8,0:1:0:0:
297,218,17026,1,12,0:0:0:0:
153,344,17360,2,0,P|104:362|56:356,1,70,14|8,0:1|0:0,0:0:0:0:
12,298,17693,2,0,L|7:241,3,35,10|8|8|8,0:1|0:1|0:0|0:0,0:0:0:0:
1,229,18026,6,0,L|16:133,1,70,12|0,0:1|0:1,0:0:0:0:
95,107,18360,2,0,P|134:118|173:101,1,70,10|0,0:0|0:0,0:0:0:0:
241,63,18693,1,10,0:1:0:0:
241,63,18860,1,8,0:1:0:0:
312,127,19026,1,10,0:0:0:0:
312,127,19193,1,8,0:1:0:0:
229,197,19360,6,0,P|219:228|225:290,1,70,2|8,0:0|0:1,0:0:0:0:
264,352,19693,2,0,P|294:364|352:356,1,70,10|0,0:0|0:0,0:0:0:0:
421,352,20026,1,10,0:1:0:0:
402,262,20193,1,10,0:1:0:0:
464,195,20360,1,14,0:0:0:0:
356,26,20693,6,0,P|324:42|271:45,1,70,14|0,0:1|0:0,0:0:0:0:
194,66,21026,2,0,P|162:50|128:45,1,70,10|0,0:0|0:0,0:0:0:0:
37,76,21360,1,10,0:1:0:0:
37,76,21526,1,8,0:1:0:0:
19,168,21693,1,8,0:0:0:0:
19,168,21860,1,8,0:1:0:0:
93,231,22026,6,0,P|129:218|183:219,1,70,2|8,0:0|0:1,0:0:0:0:
160,215,22276,1,8,0:1:0:0:
160,215,22360,1,10,0:0:0:0:
338,310,22693,2,0,L|375:318,3,35,14|8|8|8,0:1|0:1|0:1|0:1,0:0:0:0:
397,340,23026,2,0,L|434:348,3,35,10|8|8|8,0:0|0:0|0:0|0:0,0:0:0:0:
458,372,23360,5,12,0:1:0:0:
468,343,31360,6,0,P|482:269|447:195,1,140,14|8,0:1|0:1,0:0:0:0:
404,146,31860,1,0,0:0:0:0:
347,207,32026,2,0,L|339:292,1,70,10|0,0:1|0:0,0:0:0:0:
284,339,32360,2,0,L|197:327,1,70,8|0,0:1|0:0,0:0:0:0:
126,356,32693,6,0,P|123:321|132:287,1,70,10|0,0:1|0:0,0:0:0:0:
197,233,33026,2,0,P|206:199|203:164,1,70,8|0,0:0|0:0,0:0:0:0:
166,88,33360,1,10,0:1:0:0:
166,88,33526,1,10,0:1:0:0:
209,15,33693,1,10,0:0:0:0:
296,47,33860,5,8,0:0:0:0:
296,47,33943,1,8,0:0:0:0:
296,47,34026,2,0,L|373:40,1,70,14|8,0:1|0:1,0:0:0:0:
494,148,34526,5,8,0:0:0:0:
419,138,34693,1,8,2:0:0:0:
419,138,34776,1,8,2:0:0:0:
419,138,34860,1,8,0:1:0:0:
287,242,35193,6,0,P|293:291|270:337,1,70,10|0,0:0|0:0,0:0:0:0:
219,360,35526,2,0,P|182:346|128:355,1,70,10|0,0:1|0:0,0:0:0:0:
68,358,35860,2,0,P|33:357|1:344,1,70,10|8,0:1|0:0,0:0:0:0:
1,344,36110,1,8,0:0:0:0:
1,344,36193,1,8,0:1:0:0:
45,187,36526,5,8,0:0:0:0:
45,187,36610,1,8,0:0:0:0:
45,187,36693,2,0,P|44:140|60:100,1,70,8|8,0:1|0:1,0:0:0:0:
191,25,37193,5,8,0:0:0:0:
239,106,37360,1,8,0:0:0:0:
239,106,37443,1,8,0:0:0:0:
239,106,37526,1,8,0:1:0:0:
405,78,37860,6,0,P|402:41|415:1,1,70,10|0,0:0|0:0,0:0:0:0:
489,38,38193,2,0,P|492:75|479:115,1,70,10|0,0:1|0:0,0:0:0:0:
424,166,38526,2,0,P|387:166|344:181,1,70,10|8,0:1|0:0,0:0:0:0:
355,175,38776,1,8,0:0:0:0:
355,175,38860,1,8,0:1:0:0:
201,135,39193,5,8,0:0:0:0:
201,135,39276,1,8,0:0:0:0:
201,135,39360,2,0,L|182:19,2,105,10|2|10,0:1|0:0|0:0,0:0:0:0:
217,225,40026,1,10,0:0:0:0:
217,225,40110,1,8,0:0:0:0:
217,225,40193,2,0,L|229:313,1,70,8|0,0:1|0:0,0:0:0:0:
297,365,40526,5,10,0:0:0:0:
297,365,40693,2,0,L|400:362,1,70,2|8,0:0|0:1,0:0:0:0:
487,291,41193,2,0,L|481:207,1,70,10|8,0:1|0:0,0:0:0:0:
469,209,41443,1,8,0:0:0:0:
457,195,41526,2,0,L|451:111,1,70,10|8,0:1|0:0,0:0:0:0:
430,34,41860,5,10,0:1:0:0:
430,34,41943,1,10,0:1:0:0:
430,33,42026,2,0,P|396:42|362:36,1,70,10|2,0:1|0:0,0:0:0:0:
307,110,42360,2,0,P|272:104|239:113,1,70,10|10,0:1|0:0,0:0:0:0:
204,199,42693,1,10,0:1:0:0:
204,199,42860,2,0,P|208:241|197:274,1,70,10|2,0:1|0:0,0:0:0:0:
155,346,43193,1,14,0:0:0:0:
9,237,43526,5,10,0:1:0:0:
36,328,43693,1,10,0:0:0:0:
36,328,43860,1,10,0:1:0:0:
102,266,44026,2,0,L|112:177,1,70,14|10,0:0|0:1,0:0:0:0:
173,130,44360,2,0,P|189:130|207:122,3,35,8|8|8|8,0:3|0:3|0:3|0:3,0:0:0:0:
246,100,44693,6,0,P|241:68|256:36,1,62.9999980773926,14|8,0:1|0:1,0:0:0:0:
334,73,45026,2,0,P|339:105|324:137,1,62.9999980773926,2|8,0:0|0:1,0:0:0:0:
327,132,45276,1,8,0:1:0:0:
327,132,45360,1,10,0:0:0:0:
247,260,45693,6,0,P|235:288|240:319,1,62.9999980773926,10|8,0:1|0:1,0:0:0:0:
301,365,46026,2,0,P|338:354|369:356,1,62.9999980773926,2|8,0:0|0:1,0:0:0:0:
436,372,46360,1,10,0:0:0:0:
494,232,46693,5,10,0:1:0:0:
494,232,46860,1,8,0:1:0:0:
442,168,47026,2,0,L|432:96,1,62.9999980773926,10|8,0:0|0:1,0:0:0:0:
363,36,47360,6,0,P|336:53|305:51,1,62.9999980773926,14|8,0:1|0:1,0:0:0:0:
230,85,47693,2,0,P|203:68|172:70,1,62.9999980773926,2|8,0:0|0:1,0:0:0:0:
172,70,47943,1,8,0:1:0:0:
172,70,48026,1,10,0:0:0:0:
22,138,48360,6,0,L|27:206,1,62.9999980773926,10|8,0:1|0:1,0:0:0:0:
39,281,48693,2,0,P|73:272|108:276,1,62.9999980773926,2|8,0:0|0:1,0:0:0:0:
161,329,49026,1,10,0:0:0:0:
319,372,49360,2,0,L|354:366,4,31.4999990386963,10|8|8|8|14,0:1|0:1|0:1|0:1|0:2,0:0:0:0:
484,324,50026,6,0,P|491:290|484:253,1,62.9999980773926,14|8,0:1|0:1,0:0:0:0:
427,204,50360,2,0,L|358:197,1,62.9999980773926,2|8,0:0|0:1,0:0:0:0:
364,197,50610,1,8,0:1:0:0:
364,197,50693,1,10,0:0:0:0:
241,305,51026,6,0,L|172:298,1,62.9999980773926,10|8,0:1|0:1,0:0:0:0:
117,354,51360,2,0,L|48:347,1,62.9999980773926,2|8,0:0|0:1,0:0:0:0:
8,279,51693,1,10,0:0:0:0:
60,130,52026,6,0,L|70:47,1,62.9999980773926,10|8,0:1|0:1,0:0:0:0:
140,129,52360,2,0,L|150:46,1,62.9999980773926,10|0,0:0|0:0,0:0:0:0:
228,14,52693,5,12,0:1:0:0:
268,85,52860,2,0,P|264:120|281:160,1,62.9999980773926,8|2,0:1|0:0,0:0:0:0:
342,206,53193,1,8,0:1:0:0:
342,206,53276,1,8,0:1:0:0:
342,206,53360,2,0,P|376:162|456:170,1,125.999996154785,10|10,0:0|0:0,0:0:0:0:
512,251,53860,5,8,0:0:0:0:
512,251,53943,1,8,0:0:0:0:
512,251,54026,2,0,L|505:335,1,70,14|8,0:1|0:1,0:0:0:0:
422,373,54360,2,0,P|396:346|362:330,1,70,8|8,0:2|0:1,0:0:0:0:
262,298,54693,6,0,L|176:321,1,70,10|10,0:1|0:1,0:0:0:0:
82,274,55026,2,0,P|82:239|96:207,1,70,10|10,0:2|0:1,0:0:0:0:
171,135,55360,5,10,0:3:0:0:
251,193,55526,1,8,0:0:0:0:
251,193,55610,1,8,0:0:0:0:
251,193,55693,2,0,P|266:195|291:189,3,35,8|8|8|8,0:0|0:0|0:0|0:0,0:0:0:0:
314,171,56026,6,0,P|324:140|319:94,1,77.0000023498536,12|10,0:1|0:1,0:0:0:0:
250,24,56359,2,0,L|156:11,1,77.0000023498536,10|0,0:0|0:0,0:0:0:0:
88,63,56692,1,10,0:1:0:0:
88,63,56859,2,0,P|71:91|70:136,1,77.0000023498536,2|8,0:1|0:0,0:0:0:0:
129,221,57192,5,2,0:0:0:0:
129,221,57276,1,2,0:0:0:0:
129,221,57359,2,0,L|216:208,1,77.0000023498536,10|10,0:1|0:1,0:0:0:0:
304,224,57692,1,10,0:0:0:0:
267,317,57859,1,2,0:0:0:0:
356,362,58026,2,0,P|423:372|477:301,1,154.000004699707,10|8,0:1|0:0,0:0:0:0:
511,200,58526,5,2,0:0:0:0:
417,180,58692,1,10,0:1:0:0:
417,180,58859,1,2,0:0:0:0:
349,105,59026,2,0,P|358:61|344:5,1,77.0000023498536,10|2,0:0|0:1,0:0:0:0:
246,49,59359,2,0,P|235:85|239:124,1,77.0000023498536,10|8,0:1|0:1,0:0:0:0:
287,210,59692,1,8,0:0:0:0:
287,210,59859,1,2,0:0:0:0:
198,285,60025,6,0,P|157:292|107:274,1,77.0000023498536,10|0,0:1|0:0,0:0:0:0:
39,236,60359,2,0,L|27:142,1,77.0000023498536,10|0,0:0|0:0,0:0:0:0:
116,118,60692,2,0,L|129:26,1,77.0000023498536,10|8,0:1|0:1,0:0:0:0:
229,9,61025,5,10,0:0:0:0:
289,89,61192,1,8,0:0:0:0:
289,89,61275,1,8,0:0:0:0:
289,89,61359,2,0,P|323:93|361:74,1,77.0000023498536,14|0,0:1|0:0,0:0:0:0:
427,145,61692,2,0,P|458:130|502:135,1,77.0000023498536,10|2,0:0|0:0,0:0:0:0:
414,225,62025,1,10,0:1:0:0:
485,270,62192,2,0,P|508:302|502:358,1,77.0000023498536,10|8,0:1|0:0,0:0:0:0:
392,376,62525,5,2,0:0:0:0:
392,376,62609,1,2,0:0:0:0:
392,376,62692,2,0,P|356:359|291:364,1,77.0000023498536,10|10,0:1|0:1,0:0:0:0:
254,288,63025,2,0,P|218:305|158:307,1,77.0000023498536,10|2,0:0|0:0,0:0:0:0:
92,262,63359,1,10,0:1:0:0:
14,324,63525,1,10,0:1:0:0:
14,324,63609,1,8,0:1:0:0:
14,324,63692,1,8,0:0:0:0:
12,100,64025,6,0,L|4:183,1,83.9999974365235,10|0,0:1|0:0,0:1:0:0:
87,203,64359,2,0,L|94:119,1,83.9999974365235,10|0,0:0|0:0,0:1:0:0:
191,147,64692,6,0,L|183:237,1,90.9999958343508,10|8,0:1|0:1,0:1:0:0:
275,260,65025,2,0,L|282:169,1,90.9999958343508,10|0,0:0|0:0,0:1:0:0:
381,198,65359,6,0,L|373:296,1,97.9999970092774,10|0,0:1|0:0,0:1:0:0:
473,320,65692,2,0,L|483:203,1,97.9999970092774,10|0,0:0|0:0,0:1:0:0:
509,109,66025,6,0,P|463:119|422:93,1,77.0000023498536,10|8,0:1|0:1,0:0:0:0:
423,99,66275,1,8,0:1:0:0:
410,89,66359,2,0,P|378:68|340:69,1,77.0000023498536,14|8,0:0|0:0,0:0:0:0:
254,140,66692,5,14,0:1:0:0:
254,140,66859,2,0,P|264:166|254:224,1,77.0000023498536,10|8,0:1|0:0,0:0:0:0:
192,288,67192,2,0,L|109:296,1,77.0000023498536,2|8,0:0|0:1,0:0:0:0:
29,243,67525,2,0,P|16:218|20:159,1,77.0000023498536,10|8,0:1|0:0,0:0:0:0:
63,80,67859,1,2,0:0:0:0:
159,135,68025,5,10,0:1:0:0:
159,135,68192,2,0,P|200:141|255:114,1,77.0000023498536,10|8,0:1|0:0,0:0:0:0:
322,79,68525,2,0,P|316:50|339:-7,1,77.0000023498536,2|8,0:0|0:1,0:0:0:0:
428,56,68859,1,10,0:1:0:0:
428,56,68942,1,8,0:1:0:0:
428,56,69025,2,0,P|434:85|411:142,1,77.0000023498536,8|0,0:0|0:0,0:0:0:0:
344,210,69359,6,0,B|320:184|289:182|289:182|249:214|264:283,1,154.000004699707,10|10,0:1|0:0,0:0:0:0:
309,351,69859,2,0,L|420:339,1,77.0000023498536,2|8,0:0|0:1,0:0:0:0:
480,376,70192,1,10,0:1:0:0:
512,285,70359,1,8,0:0:0:0:
512,285,70525,1,10,0:1:0:0:
445,191,70692,6,2,B|429:163|429:163|458:132|457:71,1,125.999996154785,10|0,0:1|0:0,0:1:0:0:
450,60,71025,2,2,P|414:33|316:45,1,125.999996154785,10|0,0:0|0:0,0:1:0:0:
322,47,71359,2,2,P|261:95|173:67,1,167.999994873047,10|8,0:1|0:0,0:1:0:0:
104,10,71859,1,2,0:0:0:0:
10,73,72025,5,14,0:1:0:0:
10,73,72192,2,0,P|-3:110|0:148,1,77.0000023498536,10|8,0:1|0:0,0:0:0:0:
57,228,72525,2,0,P|99:208|142:210,1,77.0000023498536,2|8,0:0|0:1,0:0:0:0:
220,249,72859,2,0,P|258:246|291:228,1,77.0000023498536,10|8,0:1|0:0,0:0:0:0:
354,150,73192,1,2,0:0:0:0:
454,204,73359,5,8,0:1:0:0:
454,204,73525,2,0,P|470:240|468:284,1,77.0000023498536,10|8,0:1|0:0,0:0:0:0:
405,356,73859,2,0,P|377:332|323:328,1,77.0000023498536,2|8,0:1|0:1,0:0:0:0:
241,349,74192,2,0,P|201:380|90:345,1,154.000004699707,10|0,0:1|0:0,0:0:0:0:
18,293,74692,6,0,B|37:255|37:255|20:223|18:196|18:196|53:130,1,154.000004699707,10|10,0:1|0:0,0:0:0:0:
129,95,75192,2,0,P|128:143|159:184,1,77.0000023498536,2|8,0:0|0:1,0:0:0:0:
229,238,75525,1,8,0:1:0:0:
290,159,75692,2,0,B|297:137|297:137|291:113|291:113|302:74,1,77.0000023498536,10|2,0:0|0:0,0:0:0:0:
392,20,76025,5,10,0:1:0:0:
392,20,76192,1,8,0:1:0:0:
478,70,76359,2,0,P|491:123|481:153,1,77.0000023498536,10|8,0:0|0:1,0:0:0:0:
481,162,76609,1,8,0:1:0:0:
472,179,76692,2,0,P|433:165|366:165,1,77.0000023498536,10|8,0:0|0:1,0:0:0:0:
308,207,77025,2,0,B|314:250|314:250|286:300,1,77.0000023498536,8|8,0:0|0:0,0:0:0:0:
287,296,77275,1,8,0:0:0:0:
272,308,77359,6,0,L|189:294,1,77.0000023498536,14|8,0:1|0:0,0:0:0:0:
103,332,77692,1,10,0:1:0:0:
41,266,77859,1,8,0:1:0:0:
41,266,77942,1,8,0:1:0:0:
41,266,78025,2,0,B|39:228|39:228|61:183,1,77.0000023498536,10|8,0:3|0:1,0:0:0:0:
126,120,78359,1,6,0:3:0:0:
205,204,78525,5,8,0:0:0:0:
205,204,78609,1,8,0:0:0:0:
205,204,78692,1,14,0:0:0:0:
404,369,79692,2,2,B|432:358|432:358|448:336|448:336|490:324,1,89.2500017023087,2|0,0:0|0:0,0:1:0:0:
503,321,80025,6,0,P|506:288|488:248,1,70,14|0,0:1|0:0,0:0:0:0:
379,257,80359,2,0,P|376:224|394:184,1,70,10|0,0:0|0:0,0:0:0:0:
452,111,80692,1,10,0:1:0:0:
452,111,80859,1,8,0:1:0:0:
405,32,81025,1,10,0:0:0:0:
405,32,81192,1,8,0:1:0:0:
311,66,81359,6,0,P|276:68|234:41,1,70,2|8,0:0|0:1,0:0:0:0:
174,119,81692,2,0,P|142:103|108:106,1,70,10|0,0:0|0:0,0:0:0:0:
32,166,82025,1,10,0:1:0:0:
89,237,82192,1,10,0:1:0:0:
30,305,82359,1,14,0:0:0:0:
218,363,82692,6,0,L|295:356,1,70,12|0,0:1|0:0,0:0:0:0:
387,381,83025,2,0,L|380:305,1,70,8|0,0:0|0:0,0:0:0:0:
377,224,83359,1,8,0:1:0:0:
377,224,83525,1,8,0:1:0:0:
289,227,83692,1,8,0:0:0:0:
289,227,83859,1,8,0:1:0:0:
216,153,84025,6,0,P|211:125|226:72,1,70,0|8,0:0|0:1,0:0:0:0:
219,84,84275,1,8,0:1:0:0:
219,84,84359,1,12,0:0:0:0:
378,0,84692,2,2,L|386:76,1,70,14|10,0:1|0:0,0:0:0:0:
440,152,85025,2,0,L|493:157,3,35,10|8|8|8,0:1|0:1|0:0|0:0,0:0:0:0:
493,175,85359,6,0,P|505:200|492:265,1,70,14|0,0:1|0:1,0:0:0:0:
442,320,85692,2,0,P|407:305|360:310,1,70,10|0,0:0|0:0,0:0:0:0:
289,358,86025,1,10,0:1:0:0:
289,358,86192,1,8,0:1:0:0:
222,304,86359,1,10,0:0:0:0:
222,304,86525,1,8,0:1:0:0:
282,221,86692,6,0,P|292:190|278:131,1,70,2|8,0:0|0:1,0:0:0:0:
231,73,87025,2,0,L|151:64,1,70,10|0,0:0|0:0,0:0:0:0:
64,18,87359,1,10,0:1:0:0:
7,89,87525,1,10,0:1:0:0:
44,172,87692,1,14,0:0:0:0:
230,155,88025,6,0,L|245:87,1,70,14|0,0:1|0:0,0:0:0:0:
318,192,88359,2,0,L|332:123,1,70,10|0,0:0|0:0,0:0:0:0:
364,33,88692,1,10,0:1:0:0:
364,33,88859,1,8,0:1:0:0:
458,26,89025,1,10,0:0:0:0:
458,26,89192,1,8,0:1:0:0:
504,118,89359,6,0,P|478:112|422:109,1,70,2|8,0:0|0:1,0:0:0:0:
434,108,89609,1,8,0:1:0:0:
434,108,89692,1,14,0:0:0:0:
310,244,90025,2,0,L|304:284,3,35,14|8|8|8,0:1|0:1|0:1|0:1,0:0:0:0:
278,299,90359,2,0,L|272:339,3,35,10|8|8|8,0:0|0:0|0:0|0:0,0:0:0:0:
245,352,90692,5,12,0:1:0:0:
6,203,98692,6,0,P|5:170|12:133,1,70,12|10,0:1|0:1,0:0:0:0:
87,71,99025,2,0,L|171:65,1,70,8|8,0:0|0:1,0:0:0:0:
214,145,99359,2,0,L|298:139,1,70,10|8,0:0|0:1,0:0:0:0:
362,91,99692,1,8,0:0:0:0:
439,166,99859,6,0,P|447:220|435:257,1,70,14|0,0:1|0:0,0:0:0:0:
396,305,100192,1,8,0:1:0:0:
396,305,100275,1,8,0:1:0:0:
396,305,100359,2,0,L|311:291,1,70,10|2,0:0|0:0,0:0:0:0:
243,329,100692,2,0,L|248:363,4,35,8|8|8|8|8,0:0|0:1|0:1|0:1|0:0,0:0:0:0:
187,256,101192,5,8,0:0:0:0:
187,256,101275,1,8,0:0:0:0:
187,256,101359,2,0,L|194:172,1,62.9999980773926,14|8,0:1|0:1,0:0:0:0:
272,221,101692,2,0,L|265:137,1,62.9999980773926,2|8,0:0|0:1,0:0:0:0:
266,158,101942,1,8,0:1:0:0:
266,158,102025,1,14,0:0:0:0:
188,31,102359,6,0,L|102:20,1,62.9999980773926,10|8,0:1|0:1,0:0:0:0:
59,59,102692,2,0,P|48:90|53:128,1,62.9999980773926,10|8,0:0|0:1,0:0:0:0:
50,119,102942,1,8,0:1:0:0:
50,119,103025,1,14,0:0:0:0:
149,233,103359,6,0,L|154:184,4,31.4999990386963,10|8|8|8|14,0:1|0:1|0:1|0:1|0:0,0:0:0:0:
218,298,103859,5,8,0:0:0:0:
218,298,103942,1,8,0:0:0:0:
218,298,104025,2,0,P|245:291|291:293,1,62.9999980773926,14|8,0:1|0:1,0:0:0:0:
335,358,104359,2,0,P|365:365|396:365,1,62.9999980773926,2|8,0:0|0:1,0:0:0:0:
396,365,104609,1,8,0:1:0:0:
396,365,104692,1,12,0:0:0:0:
510,255,105025,6,0,L|504:183,1,62.9999980773926,10|8,0:1|0:1,0:0:0:0:
445,143,105359,2,0,P|410:146|383:134,1,62.9999980773926,10|8,0:1|0:1,0:0:0:0:
319,173,105692,2,0,P|284:170|257:182,1,62.9999980773926,10|8,0:0|0:1,0:0:0:0:
208,237,106025,2,0,L|203:284,4,31.4999990386963,10|8|8|8|10,0:1|0:1|0:1|0:1|0:0,0:0:0:0:
288,80,106692,6,0,P|295:46|283:6,1,62.9999980773926,14|8,0:1|0:1,0:0:0:0:
206,41,107025,2,0,P|199:75|211:115,1,62.9999980773926,2|8,0:0|0:1,0:0:0:0:
204,102,107275,1,8,0:1:0:0:
204,102,107359,1,14,0:0:0:0:
334,205,107692,6,0,P|370:191|403:194,1,62.9999980773926,10|8,0:1|0:1,0:0:0:0:
471,240,108025,2,0,L|462:314,1,62.9999980773926,2|8,0:0|0:1,0:0:0:0:
463,302,108275,1,8,0:1:0:0:
463,302,108359,1,10,0:0:0:0:
300,351,108692,6,0,L|264:342,3,31.4999990386963,10|8|8|8,0:1|0:1|0:1|0:1,0:0:0:0:
235,358,109025,2,0,L|146:364,1,62.9999980773926,14|0,0:0|0:0,0:0:0:0:
75,313,109359,6,0,P|62:247|89:169,1,140,14|10,0:1|0:0,0:0:0:0:
150,117,109859,1,8,0:1:0:0:
225,166,110025,2,0,L|234:245,1,70,10|8,0:0|0:1,0:0:0:0:
297,301,110359,1,10,0:0:0:0:
297,301,110525,1,8,0:1:0:0:
374,239,110692,6,0,P|381:188|370:145,1,70,10|8,0:0|0:1,0:0:0:0:
372,153,110942,1,8,0:1:0:0:
364,137,111025,2,0,P|361:102|368:68,1,70,12|8,0:0|0:1,0:0:0:0:
423,3,111359,1,8,0:0:0:0:
509,38,111525,1,8,0:1:0:0:
509,38,111609,1,8,0:1:0:0:
509,38,111692,1,12,0:0:0:0:
383,178,112025,6,0,L|299:169,1,70,10|8,0:0|0:3,0:0:0:0:
218,218,112359,2,0,P|225:181|223:148,1,70,10|8,0:3|0:3,0:0:0:0:
182,55,112692,1,10,0:1:0:0:
111,119,112859,1,8,0:1:0:0:
86,13,113025,1,10,0:0:0:0:
0,218,113359,6,0,P|37:210|84:208,1,77.0000023498536,12|10,0:1|0:1,0:0:0:0:
148,286,113692,2,0,P|185:294|224:296,1,77.0000023498536,10|0,0:0|0:0,0:0:0:0:
305,237,114025,1,10,0:1:0:0:
305,237,114192,2,0,P|296:202|304:153,1,77.0000023498536,10|8,0:1|0:0,0:0:0:0:
372,82,114525,5,2,0:0:0:0:
372,82,114609,1,2,0:0:0:0:
372,82,114692,2,0,L|458:73,1,77.0000023498536,10|2,0:1|0:0,0:0:0:0:
506,155,115025,1,10,0:0:0:0:
461,244,115192,1,2,0:0:0:0:
501,335,115359,2,0,P|453:290|361:295,1,154.000004699707,10|8,0:1|0:0,0:0:0:0:
268,354,115859,5,2,0:0:0:0:
268,354,115942,1,2,0:0:0:0:
268,354,116025,2,0,P|214:371|191:361,1,77.0000023498536,10|2,0:1|0:0,0:0:0:0:
113,308,116359,2,0,L|104:209,1,77.0000023498536,10|2,0:0|0:0,0:0:0:0:
170,155,116692,1,10,0:1:0:0:
170,155,116859,1,10,0:1:0:0:
254,207,117025,2,0,P|297:218|338:210,1,77.0000023498536,10|2,0:0|0:0,0:0:0:0:
414,143,117359,6,8,L|408:58,1,77.0000023498536,10|0,0:1|0:0,0:1:0:0:
317,119,117692,2,0,L|311:34,1,77.0000023498536,10|0,0:0|0:0,0:0:0:0:
220,95,118025,2,0,L|214:10,1,77.0000023498536,10|8,0:1|0:1,0:0:0:0:
102,2,118359,5,10,0:0:0:0:
53,99,118525,1,8,0:0:0:0:
53,99,118609,1,8,0:0:0:0:
53,99,118692,2,0,P|48:154|62:189,1,77.0000023498536,12|10,0:1|0:1,0:0:0:0:
126,243,119025,2,0,P|160:229|204:229,1,77.0000023498536,10|2,0:0|0:0,0:0:0:0:
290,270,119359,1,10,0:1:0:0:
226,347,119525,2,0,P|190:361|152:361,1,77.0000023498536,10|8,0:1|0:0,0:0:0:0:
53,325,119859,5,2,0:0:0:0:
53,325,119942,1,2,0:0:0:0:
53,325,120025,2,0,L|64:224,1,77.0000023498536,10|8,0:1|0:1,0:0:0:0:
153,206,120359,2,0,L|142:105,1,77.0000023498536,10|0,0:0|0:0,0:0:0:0:
95,41,120692,1,10,0:1:0:0:
20,106,120859,1,10,0:1:0:0:
20,106,120942,1,8,0:1:0:0:
20,106,121025,1,8,0:0:0:0:
187,216,121359,6,0,P|229:219|266:200,1,83.9999974365235,2|0,0:0|0:0,0:0:0:0:
245,105,121692,2,0,P|203:102|166:121,1,83.9999974365235,10|0,0:2|0:0,0:0:0:0:
185,222,122025,6,0,P|229:225|270:205,1,90.9999958343508,10|8,0:1|0:1,0:0:0:0:
247,99,122359,2,0,P|203:96|162:116,1,90.9999958343508,10|0,0:0|0:0,0:0:0:0:
182,228,122692,6,0,P|231:232|275:210,1,97.9999970092774,10|0,0:1|0:0,0:0:0:0:
250,93,123025,2,0,P|201:89|157:111,1,97.9999970092774,10|0,0:0|0:0,0:0:0:0:
92,204,123359,6,0,L|86:299,1,77.0000023498536,10|8,2:1|2:1,0:0:0:0:
89,295,123609,1,8,2:1:0:0:
91,310,123692,2,0,B|126:326|126:326|163:319,1,77.0000023498536,14|8,2:0|0:0,0:0:0:0:
252,380,124025,6,0,P|270:331|374:342,1,154.000004699707,14|8,0:1|0:0,0:0:0:0:
454,384,124525,2,0,P|446:348|452:306,1,77.0000023498536,2|8,0:0|0:1,0:0:0:0:
497,218,124859,2,0,P|502:180|494:142,1,77.0000023498536,10|8,0:1|0:0,0:0:0:0:
443,56,125192,1,2,0:0:0:0:
348,102,125359,5,10,0:1:0:0:
348,102,125525,2,0,L|340:202,1,77.0000023498536,2|8,0:0|0:0,0:0:0:0:
288,263,125859,2,0,B|260:260|260:260|247:267|247:267|202:261,1,77.0000023498536,2|8,0:0|0:1,0:0:0:0:
120,297,126192,1,10,0:1:0:0:
120,297,126275,1,8,0:1:0:0:
120,297,126359,2,8,L|112:197,1,77.0000023498536,8|0,0:0|0:0,0:0:0:0:
5,157,126692,6,0,P|56:178|131:114,1,154.000004699707,10|10,0:1|0:0,0:0:0:0:
210,39,127192,2,0,L|120:32,1,77.0000023498536,2|8,0:0|0:1,0:0:0:0:
219,122,127525,2,0,L|212:212,1,77.0000023498536,10|8,0:1|0:0,0:0:0:0:
258,288,127859,1,2,0:0:0:0:
353,237,128025,6,0,L|363:149,1,77.0000023498536,10|10,0:1|0:1,0:0:0:0:
455,220,128359,2,0,L|446:296,1,77.0000023498536,10|2,0:0|0:0,0:0:0:0:
364,366,128692,2,0,P|325:332|206:341,1,154.000004699707,10|8,0:1|0:0,0:0:0:0:
138,376,129192,1,2,0:0:0:0:
50,310,129359,5,14,0:1:0:0:
50,310,129525,2,0,L|45:214,1,77.0000023498536,2|8,0:0|0:0,0:0:0:0:
140,276,129859,2,0,L|145:180,1,77.0000023498536,2|8,0:0|0:1,0:0:0:0:
235,247,130192,2,0,L|230:151,1,77.0000023498536,10|8,0:1|0:0,0:0:0:0:
305,90,130525,5,2,0:0:0:0:
305,90,130609,1,2,0:0:0:0:
305,90,130692,1,10,0:1:0:0:
386,147,130859,2,0,P|423:148|463:129,1,77.0000023498536,2|8,0:0|0:0,0:0:0:0:
305,90,131192,2,0,P|270:74|231:75,1,77.0000023498536,2|8,0:0|0:1,0:0:0:0:
137,117,131525,2,0,L|112:282,1,154.000004699707,10|0,0:1|0:0,0:0:0:0:
200,346,132025,6,0,B|285:327|261:378|360:364,1,154.000004699707,10|10,0:1|0:0,0:0:0:0:
444,334,132525,2,0,P|432:300|443:247,1,77.0000023498536,2|8,0:0|0:1,0:0:0:0:
501,183,132859,1,10,0:1:0:0:
417,127,133025,2,0,L|336:117,1,77.0000023498536,8|0,0:0|0:0,0:0:0:0:
253,179,133359,5,10,0:1:0:0:
253,179,133525,1,8,0:1:0:0:
183,106,133692,2,0,P|190:57|174:24,1,77.0000023498536,8|8,0:0|0:1,0:0:0:0:
164,21,133942,1,8,0:1:0:0:
145,17,134025,2,0,L|64:21,1,77.0000023498536,8|8,0:0|0:1,0:0:0:0:
6,103,134359,2,0,P|-1:152|15:185,1,77.0000023498536,8|8,0:0|0:0,0:0:0:0:
19,192,134609,1,8,0:0:0:0:
33,204,134692,6,0,L|115:194,1,77.0000023498536,14|8,0:1|0:0,0:0:0:0:
187,257,135025,1,10,0:1:0:0:
269,199,135192,1,8,0:3:0:0:
269,199,135275,1,8,0:3:0:0:
269,199,135359,2,0,P|260:157|276:110,1,77.0000023498536,6|4,0:3|0:3,0:0:0:0:
344,58,135692,1,10,0:0:0:0:
429,134,135859,5,8,0:0:0:0:
429,134,135942,1,8,0:0:0:0:
429,134,136025,2,0,P|438:176|422:223,1,77.0000023498536,14|8,0:1|0:0,0:0:0:0:
368,290,136359,2,0,P|329:290|292:299,1,77.0000023498536,14|10,0:1|0:3,0:0:0:0:
208,353,136692,2,0,P|170:362|132:362,1,77.0000023498536,10|6,0:0|0:3,0:0:0:0:
46,309,137025,2,0,L|41:261,3,38.5000011749268,8|8|8|8,0:0|0:0|0:0|0:0,0:0:0:0:
15,253,137359,6,0,P|3:200|33:120,1,125.999996154785,14|8,0:1|0:0,0:0:0:0:
131,27,138025,1,8,0:3:0:0:
131,27,138109,1,8,0:3:0:0:
131,27,138192,1,8,0:3:0:0:
189,75,138359,2,0,P|224:76|266:63,1,62.9999980773926,8|8,0:0|0:3,0:0:0:0:
266,65,138609,1,8,0:3:0:0:
280,59,138692,6,0,P|327:37|416:48,1,125.999996154785,4|8,0:3|0:0,0:0:0:0:
469,101,139192,1,8,0:3:0:0:
469,101,139275,1,8,0:3:0:0:
469,101,139359,2,0,L|454:190,1,62.9999980773926,8|8,0:3|0:0,0:0:0:0:
458,245,139692,2,0,L|467:280,2,31.4999990386963,4|4|4,0:3|0:3|0:3,0:0:0:0:
377,184,140025,6,0,B|311:166|321:212|252:199,1,125.999996154785,14|8,0:1|0:0,0:0:0:0:
187,157,140525,1,8,0:3:0:0:
187,157,140609,1,8,0:3:0:0:
187,157,140692,2,0,L|180:85,1,62.9999980773926,8|4,0:3|0:3,0:0:0:0:
118,41,141025,2,0,P|80:37|34:53,1,62.9999980773926,8|10,0:0|0:1,0:0:0:0:
46,55,141275,1,8,0:1:0:0:
36,67,141359,6,0,P|19:135|36:197,1,125.999996154785,8|8,0:0|0:0,0:0:0:0:
82,256,141859,2,0,P|116:246|159:246,1,62.9999980773926,10|8,0:1|0:0,0:0:0:0:
157,251,142109,1,8,0:0:0:0:
169,261,142192,2,0,L|181:326,1,62.9999980773926,8|8,0:3|0:0,0:0:0:0:
270,363,142525,5,8,0:0:0:0:
270,363,142609,1,8,0:0:0:0:
270,363,142692,2,0,P|315:340|306:255,1,125.999996154785,14|8,0:1|0:0,0:0:0:0:
272,203,143192,1,8,0:3:0:0:
272,203,143275,1,8,0:3:0:0:
272,203,143359,2,0,L|184:194,1,62.9999980773926,4|2,0:3|0:0,0:0:0:0:
138,237,143692,1,8,0:0:0:0:
66,189,143859,5,8,0:3:0:0:
66,189,143942,1,8,0:3:0:0:
66,189,144025,2,0,P|51:131|87:57,1,125.999996154785,12|8,0:1|0:0,0:0:0:0:
153,26,144525,1,10,0:3:0:0:
153,26,144609,1,8,0:3:0:0:
153,26,144692,2,0,P|182:40|226:38,1,70,8|8,0:3|0:1,0:0:0:0:
314,15,145025,1,10,0:0:0:0:
300,112,145192,1,14,0:1:0:0:
467,192,145525,5,10,0:1:0:0:
390,235,145692,2,0,L|383:164,1,62.9999980773926,8|8,0:0|0:1,0:0:0:0:
309,295,146025,2,0,L|302:224,1,62.9999980773926,8|8,0:0|0:1,0:0:0:0:
226,177,146359,1,8,0:0:0:0:
226,177,146442,1,8,0:0:0:0:
226,177,146525,1,12,0:1:0:0:
12,295,147525,6,0,L|2:366,2,62.9999980773926,2|10|2,0:0|0:3|0:0,0:0:0:0:
37,204,148025,6,2,B|61:243|103:237|103:237|127:203|166:195,1,154.000004699707,14|10,0:1|0:0,0:1:0:0:
244,255,148525,2,2,B|230:291|230:291|242:327,1,77.0000023498536,2|8,0:0|0:1,0:1:0:0:
336,384,148859,1,10,0:1:0:0:
336,384,148942,1,10,0:1:0:0:
336,384,149025,2,2,L|423:370,1,77.0000023498536,10|0,0:0|0:0,0:1:0:0:
512,307,149359,6,0,B|522:267|522:267|506:234,1,77.0000023498536,10|10,0:1|0:1,0:0:0:0:
443,156,149692,1,10,0:0:0:0:
356,199,149859,1,2,0:0:0:0:
356,199,149942,1,2,0:0:0:0:
356,199,150025,2,0,B|317:207|317:207|256:178,1,77.0000023498536,10|10,0:1|0:1,0:0:0:0:
198,136,150359,1,10,0:0:0:0:
129,225,150525,5,2,0:0:0:0:
129,225,150609,1,2,0:0:0:0:
129,225,150692,2,2,L|121:315,1,77.0000023498536,10|2,0:1|0:0,0:1:0:0:
19,369,151025,2,2,L|12:292,1,77.0000023498536,10|2,0:0|0:0,0:1:0:0:
8,191,151359,1,10,0:1:0:0:
76,119,151525,1,10,0:1:0:0:
76,119,151609,1,10,0:1:0:0:
76,119,151692,2,0,B|115:128|115:128|159:106,1,77.0000023498536,8|2,0:0|0:0,0:0:0:0:
257,122,152025,6,2,B|246:101|246:101|263:50,1,77.0000023498536,8|2,0:1|0:0,0:1:0:0:
280,41,152275,1,2,0:0:0:0:
297,33,152359,2,2,B|328:28|328:28|342:36|342:36|385:32,1,77.0000023498536,8|2,0:0|0:0,0:1:0:0:
484,78,152692,6,2,P|495:128|483:158,1,77.0000023498536,10|8,0:1|0:1,0:1:0:0:
419,227,153025,2,2,B|391:221|391:221|377:230|377:230|341:238,1,77.0000023498536,10|0,0:0|0:0,0:1:0:0:
244,276,153359,5,14,0:1:0:0:
244,276,153525,1,10,0:1:0:0:
217,184,153692,1,10,0:0:0:0:
217,184,153859,2,0,B|213:83,1,77.0000023498536,2|8,0:0|0:1,0:0:0:0:
132,48,154192,1,10,0:1:0:0:
76,131,154359,2,0,B|75:229,1,77.0000023498536,10|2,0:0|0:0,0:0:0:0:
134,312,154692,6,0,P|173:295|209:297,1,77.0000023498536,10|10,0:1|0:1,0:0:0:0:
295,343,155025,1,10,0:0:0:0:
390,312,155192,1,2,0:0:0:0:
390,312,155275,1,2,0:0:0:0:
390,312,155359,2,2,L|380:213,1,77.0000023498536,10|8,0:1|0:1,0:1:0:0:
493,338,155692,2,2,L|483:239,1,77.0000023498536,10|0,0:0|0:0,0:1:0:0:
444,145,156025,6,0,P|483:146|522:120,2,51.3333348999024,10|2|2,0:1|0:0|0:0,0:0:0:0:
412,104,156359,2,0,P|425:67|412:22,2,51.3333348999024,10|2|2,0:0|0:0|0:0,0:0:0:0:
363,121,156692,5,10,0:1:0:0:
363,121,156803,2,0,P|331:97|285:95,1,51.3333348999024,2|2,0:0|0:0,0:0:0:0:
258,130,157025,1,10,0:0:0:0:
258,130,157137,2,0,P|225:152|209:196,1,51.3333348999024,2|2,0:0|0:0,0:0:0:0:
203,240,157359,6,2,P|220:272|229:344,2,77.0000023498536,10|10|10,0:1|0:1|0:0,0:1:0:0:
123,197,157859,1,10,0:1:0:0:
123,197,157942,1,10,0:1:0:0:
123,197,158025,2,0,L|39:183,2,77.0000023498536,10|10|10,0:0|0:1|0:0,0:0:0:0:
209,143,158525,5,8,0:0:0:0:
209,143,158609,1,8,0:0:0:0:
209,143,158692,2,0,P|208:98|224:61,1,62.9999980773926,14|8,0:1|0:1,0:0:0:0:
296,95,159025,2,0,P|337:80|375:79,1,62.9999980773926,2|8,0:0|0:1,0:0:0:0:
356,78,159275,1,8,0:1:0:0:
356,78,159359,1,14,0:0:0:0:
476,168,159692,6,0,L|486:250,1,62.9999980773926,10|8,0:1|0:1,0:0:0:0:
456,301,160025,2,0,P|424:292|381:291,1,62.9999980773926,2|8,0:0|0:1,0:0:0:0:
394,290,160275,1,8,0:1:0:0:
394,290,160359,1,14,0:0:0:0:
246,342,160692,6,0,L|251:391,4,31.4999990386963,10|8|8|8|14,0:1|0:1|0:1|0:1|0:0,0:0:0:0:
198,283,161192,5,8,0:3:0:0:
198,283,161275,1,8,0:3:0:0:
198,283,161359,2,0,P|209:229|204:197,1,62.9999980773926,14|8,0:1|0:1,0:0:0:0:
150,159,161692,2,0,L|83:165,1,62.9999980773926,2|8,0:0|0:1,0:0:0:0:
87,164,161942,1,8,0:1:0:0:
87,164,162025,1,14,0:0:0:0:
210,86,162359,6,0,P|209:57|225:18,1,62.9999980773926,10|8,0:1|0:1,0:0:0:0:
296,65,162692,2,0,P|297:94|281:133,1,62.9999980773926,10|8,0:1|0:1,0:0:0:0:
221,176,163025,1,10,0:0:0:0:
221,176,163192,1,8,0:1:0:0:
142,153,163359,2,0,L|108:144,4,31.4999990386963,10|8|8|8|14,0:1|0:1|0:1|0:1|0:0,0:0:0:0:
251,256,164025,6,0,P|244:290|256:330,1,62.9999980773926,14|8,0:1|0:1,0:0:0:0:
315,366,164359,2,0,L|382:362,1,62.9999980773926,2|8,0:0|0:1,0:0:0:0:
377,362,164609,1,8,0:1:0:0:
377,362,164692,1,14,0:0:0:0:
503,279,165025,6,0,P|505:247|495:218,1,62.9999980773926,10|8,0:1|0:1,0:0:0:0:
438,166,165359,2,0,L|365:156,1,62.9999980773926,2|8,0:0|0:1,0:0:0:0:
375,157,165609,1,8,0:1:0:0:
375,157,165692,1,14,0:0:0:0:
241,227,166025,6,0,L|237:176,3,31.4999990386963,10|8|8|8,0:1|0:1|0:1|0:1,0:0:0:0:
253,160,166359,2,0,B|263:130|263:130|247:77,1,62.9999980773926,14|0,0:0|0:0,0:0:0:0:
170,36,166692,6,0,B|124:31|124:31|87:56|87:56|35:53,1,140,10|10,0:0|0:0,0:0:0:0:
130,133,167192,1,8,0:1:0:0:
62,193,167359,2,0,P|46:230|48:275,1,70,10|8,0:0|0:1,0:0:0:0:
92,336,167692,1,10,0:2:0:0:
92,336,167859,1,8,0:1:0:0:
180,370,168025,6,0,P|206:351|258:343,1,70,10|8,0:1|0:1,0:0:0:0:
259,344,168275,1,8,0:1:0:0:
275,350,168359,2,0,P|306:363|341:364,1,70,12|8,0:0|0:1,0:0:0:0:
432,349,168692,1,8,0:0:0:0:
399,263,168859,1,8,0:1:0:0:
399,263,168942,1,8,0:1:0:0:
399,263,169025,1,12,0:0:0:0:
470,217,169192,6,0,B|486:187|486:187|468:121,1,70,6|8,0:0|0:1,0:0:0:0:
452,69,169525,1,12,0:0:0:0:
317,16,169859,5,8,0:1:0:0:
317,16,169942,1,8,0:1:0:0:
317,16,170025,2,0,L|309:110,1,78.7500030040742,8|8,0:0|0:3,0:0:0:0:
204,178,170525,6,0,B|196:152|196:152|196:137|196:137|183:90,1,70,4|14,0:3|0:1,0:0:0:0:
142,286,176025,6,0,B|66:285|92:326|40:342|40:342|83:258|20:214|95:136,1,336,14|0,0:1|0:0,0:0:0:0:
90,140,177359,6,0,B|286:188|176:15|388:52,1,336,14|0,0:1|0:0,0:0:0:0:
387,51,178692,6,0,B|385:114|435:105|424:151|424:151|426:147|426:147|519:239|383:246|443:353,1,336,14|0,0:1|0:0,0:0:0:0:
440,347,180025,6,0,P|496:348|498:290,2,112,14|0|0,0:1|0:0|0:0,0:0:0:0:
376,294,180859,2,0,L|360:213,1,62.9999980773926,2|8,0:3|0:0,0:0:0:0:
300,166,181192,5,8,0:3:0:0:
300,166,181275,1,8,0:3:0:0:
300,166,181359,2,0,P|271:191|206:170,1,105,14|2,0:1|0:0,0:0:0:0:
198,169,181692,2,0,L|185:84,1,70,8|2,0:1|0:0,0:0:0:0:
117,41,182025,2,0,P|82:35|5:62,2,105,10|2|2,0:1|0:0|0:0,0:0:0:0:
211,109,182692,6,0,P|251:116|296:105,1,70,14|0,0:1|0:0,0:0:0:0:
297,109,182942,1,2,0:0:0:0:
313,102,183025,2,0,P|344:87|379:83,1,70,8|2,0:1|0:0,0:0:0:0:
468,129,183359,2,0,L|498:282,1,140,10|8,0:1|0:1,0:0:0:0:
412,341,184025,6,0,P|384:332|291:333,2,105,14|2|2,0:1|0:0|0:0,0:0:0:0:
496,292,184692,2,0,P|505:254|496:207,1,70,10|0,0:1|0:0,0:0:0:0:
495,207,184942,1,2,0:0:0:0:
485,192,185025,2,0,L|405:172,1,70,8|2,0:1|0:0,0:0:0:0:
333,125,185359,6,0,P|337:91|319:40,1,70,14|0,0:1|0:0,0:0:0:0:
328,56,185609,1,2,0:0:0:0:
328,56,185692,1,8,0:1:0:0:
263,10,185859,1,2,0:0:0:0:
215,82,186025,2,0,P|211:116|229:167,1,70,10|8,0:1|0:0,0:0:0:0:
273,220,186359,2,0,L|311:226,3,35,8|8|8|8,0:3|0:3|0:3|0:3,0:0:0:0:
331,235,186692,6,0,P|351:275|349:341,2,105,14|2|2,0:1|0:0|0:0,0:0:0:0:
247,198,187359,6,0,L|156:179,1,70,10|0,0:1|0:0,0:0:0:0:
161,187,187609,1,2,0:0:0:0:
143,191,187692,2,0,P|129:160|130:125,1,70,8|2,0:1|0:0,0:0:0:0:
184,37,188025,6,0,L|264:27,1,70,14|0,0:1|0:0,0:0:0:0:
253,28,188275,1,2,0:0:0:0:
253,28,188359,1,8,0:1:0:0:
348,8,188525,1,2,0:0:0:0:
431,55,188692,2,0,P|452:101|438:160,1,105,10|0,0:1|0:0,0:0:0:0:
430,170,189025,2,0,P|387:152|360:154,1,70,10|0,0:0|0:0,0:0:0:0:
280,205,189359,6,0,B|307:269|272:312|272:312|232:341,1,140,14|8,0:1|0:1,0:0:0:0:
170,372,189859,1,2,0:0:0:0:
100,314,190025,2,0,P|93:271|109:231,1,70,10|2,0:1|0:0,0:0:0:0:
172,183,190359,2,0,L|261:175,1,70,10|2,0:0|0:0,0:0:0:0:
361,195,190692,6,0,B|365:159|365:159|344:110,1,70,10|8,0:0|0:3,0:0:0:0:
297,54,191025,1,10,0:1:0:0:
215,95,191192,1,12,0:0:0:0:
131,67,191359,2,0,L|119:29,3,35,8|8|8|8,0:0|0:0|0:0|0:0,0:0:0:0:
93,14,191692,2,0,L|52:21,3,35,8|8|8|8,0:0|0:0|0:0|0:0,0:0:0:0:
26,54,192025,6,0,P|17:115|28:152,1,81.9000003124237,14|0,0:1|0:0,0:0:0:0:
93,212,192359,2,0,P|134:197|186:203,1,81.9000003124237,10|0,0:0|0:0,0:0:0:0:
263,253,192692,1,10,0:1:0:0:
263,253,192859,2,0,P|248:290|257:340,1,81.9000003124237,10|8,0:1|0:0,0:0:0:0:
355,379,193192,5,2,0:0:0:0:
355,379,193275,1,2,0:0:0:0:
355,379,193359,2,0,L|366:272,1,81.9000003124237,10|2,0:1|0:0,0:0:0:0:
465,329,193692,1,10,0:0:0:0:
488,224,193859,1,2,0:0:0:0:
386,194,194025,2,0,B|357:166|357:166|395:119|364:38,1,163.800000624847,10|8,0:1|0:0,0:0:0:0:
268,2,194525,5,2,0:0:0:0:
230,101,194692,1,10,0:1:0:0:
230,101,194859,1,10,0:1:0:0:
139,46,195025,2,0,P|85:26|45:29,1,81.9000003124237,10|2,0:0|0:0,0:0:0:0:
69,126,195359,2,0,P|54:140|28:207,1,81.9000003124237,10|8,0:1|0:1,0:0:0:0:
54,299,195692,1,10,0:0:0:0:
54,299,195859,1,2,0:0:0:0:
141,358,196025,6,0,P|184:341|243:339,1,81.9000003124237,10|0,0:1|0:0,0:0:0:0:
324,355,196359,2,0,P|367:372|426:374,1,81.9000003124237,10|0,0:0|0:0,0:0:0:0:
496,326,196692,2,0,L|512:228,1,81.9000003124237,10|8,0:1|0:1,0:0:0:0:
459,143,197025,5,14,0:2:0:0:
390,225,197192,1,8,0:2:0:0:
390,225,197275,1,8,0:2:0:0:
390,225,197359,2,0,P|359:242|302:230,1,81.9000003124237,12|0,0:1|0:0,0:0:0:0:
222,181,197692,2,0,L|213:97,1,81.9000003124237,10|2,0:0|0:0,0:0:0:0:
129,33,198025,1,10,0:1:0:0:
63,117,198192,2,0,L|54:198,1,81.9000003124237,10|8,0:1|0:0,0:0:0:0:
124,301,198525,5,2,0:0:0:0:
124,301,198609,1,2,0:0:0:0:
124,301,198692,2,0,B|155:297|155:297|170:305|170:305|214:301,1,81.9000003124237,10|2,0:1|0:0,0:0:0:0:
281,229,199025,2,0,L|289:138,1,81.9000003124237,10|2,0:0|0:0,0:0:0:0:
336,51,199359,1,10,0:1:0:0:
448,44,199525,1,10,0:1:0:0:
448,44,199609,1,8,0:1:0:0:
448,44,199692,1,8,0:2:0:0:
512,240,200025,6,0,P|475:221|423:225,1,88.8999993217468,14|0,0:1|0:0,0:0:0:0:
466,341,200359,2,0,P|422:344|383:325,1,88.8999993217468,10|8,0:0|0:1,0:0:0:0:
317,242,200692,5,14,0:1:0:0:
317,242,200859,1,8,0:0:0:0:
399,202,201025,2,0,P|418:142|406:104,1,95.9000027071381,10|8,0:1|0:1,0:0:0:0:
315,43,201359,6,0,P|266:64|210:53,1,102.899995211106,14|8,0:2|0:1,0:0:0:0:
218,56,201609,1,8,0:1:0:0:
218,56,201692,1,10,0:1:0:0:
145,3,201859,1,10,0:1:0:0:
52,66,202025,6,0,P|33:113|35:157,1,88.8999993217468,10|8,2:3|2:3,0:0:0:0:
43,170,202275,1,8,2:3:0:0:
57,186,202359,2,0,L|156:199,1,88.8999993217468,14|10,2:0|2:0,0:0:0:0:
251,244,202692,5,14,0:1:0:0:
251,244,202859,2,0,P|243:209|258:162,1,81.9000003124237,10|8,0:1|0:0,0:0:0:0:
361,215,203192,2,0,P|369:250|354:297,1,81.9000003124237,2|8,0:0|0:1,0:0:0:0:
271,357,203525,2,0,P|222:341|185:340,1,81.9000003124237,10|8,0:1|0:0,0:0:0:0:
89,376,203859,1,2,0:0:0:0:
24,288,204025,5,10,0:1:0:0:
24,288,204192,2,0,L|20:186,1,81.9000003124237,2|8,0:0|0:0,0:0:0:0:
122,273,204525,2,0,L|126:171,1,81.9000003124237,2|8,0:0|0:1,0:0:0:0:
226,260,204859,1,8,0:1:0:0:
226,260,204942,1,8,0:1:0:0:
226,260,205025,2,0,L|222:158,1,81.9000003124237,12|0,0:0|0:0,0:0:0:0:
332,144,205359,6,0,P|411:147|411:74,1,163.800000624847,14|10,0:1|0:0,0:0:0:0:
339,17,205859,2,0,P|321:38|258:34,1,81.9000003124237,2|8,0:0|0:1,0:0:0:0:
169,5,206192,1,10,0:1:0:0:
76,54,206359,1,10,0:0:0:0:
76,54,206525,1,2,0:0:0:0:
171,118,206692,6,2,B|197:163|197:163|170:259,1,133.34999898262,14|0,0:1|0:0,0:1:0:0:
167,263,207025,2,2,B|151:291|131:300|131:300|111:262|68:255,1,133.34999898262,14|0,0:0|0:0,0:1:0:0:
44,258,207359,2,2,L|6:292,4,40.9500001562119,10|8|8|8|12,0:1|0:1|0:1|0:1|0:0,0:1:0:0:
160,175,207859,5,2,0:0:0:0:
232,252,208025,1,14,0:1:0:0:
232,252,208192,2,0,P|271:267|322:251,1,81.9000003124237,2|8,0:0|0:0,0:0:0:0:
381,174,208525,2,0,P|366:132|379:86,1,81.9000003124237,2|8,0:0|0:1,0:0:0:0:
486,151,208859,2,0,P|492:190|478:228,1,81.9000003124237,10|8,0:1|0:0,0:0:0:0:
414,314,209192,1,2,0:0:0:0:
313,263,209359,5,10,0:1:0:0:
313,263,209525,2,0,P|253:250|213:256,1,81.9000003124237,2|10,0:0|0:0,0:0:0:0:
201,354,209859,2,0,P|161:365|121:365,1,81.9000003124237,2|10,0:1|0:1,0:0:0:0:
29,311,210192,2,0,L|17:136,1,163.800000624847,10|8,0:1|0:1,0:0:0:0:
26,38,210692,6,0,P|63:52|104:48,1,81.9000003124237,10|12,0:1|0:0,0:0:0:0:
206,16,211025,1,10,0:1:0:0:
237,118,211192,2,0,L|226:186,2,40.9500001562119,10|8|8,0:1|0:1|0:0,0:0:0:0:
329,61,211525,1,8,0:1:0:0:
329,61,211609,1,8,0:1:0:0:
329,61,211692,2,0,P|377:42|425:55,1,81.9000003124237,14|10,0:0|0:1,0:0:0:0:
512,119,212025,5,14,0:1:0:0:
463,214,212192,1,8,0:1:0:0:
463,214,212275,1,8,0:1:0:0:
463,214,212359,2,0,P|415:233|367:220,1,81.9000003124237,14|8,0:0|0:1,0:0:0:0:
310,154,212692,2,0,L|293:61,1,81.9000003124237,14|8,0:0|0:2,0:0:0:0:
194,39,213025,2,0,P|173:33|136:37,3,40.9500001562119,8|8|8|8,0:0|0:0|0:0|0:0,0:0:0:0:
120,48,213359,6,0,P|110:74|116:151,1,81.9000003124237,14|8,0:1|0:0,0:0:0:0:
164,218,213692,1,10,0:1:0:0:
266,188,213859,1,8,0:3:0:0:
266,188,213942,1,8,0:3:0:0:
266,188,214025,2,0,P|311:170|360:176,1,81.9000003124237,6|8,0:3|0:3,0:0:0:0:
443,210,214359,1,6,0:3:0:0:
436,322,214525,5,8,0:0:0:0:
436,322,214609,1,8,0:0:0:0:
436,322,214692,1,14,0:1:0:0:
65,384,215692,2,2,B|59:361|59:361|65:332|65:332|53:288,1,89.2500017023087,2|0,0:0|0:0,0:1:0:0:
38,282,216025,6,0,B|25:260|25:260|36:210,1,70,14|0,0:1|0:0,0:0:0:0:
133,258,216359,2,0,B|146:236|146:236|135:186,1,70,10|0,0:0|0:0,0:0:0:0:
76,130,216692,1,10,0:1:0:0:
76,130,216859,1,8,0:1:0:0:
96,44,217025,1,10,0:0:0:0:
96,44,217192,1,8,0:1:0:0:
186,29,217359,6,0,L|270:18,1,70,2|8,0:0|0:1,0:0:0:0:
282,114,217692,2,0,L|366:125,1,70,10|0,0:0|0:0,0:0:0:0:
458,86,218025,1,10,0:1:0:0:
512,156,218192,1,10,0:1:0:0:
483,242,218359,1,14,0:0:0:0:
334,346,218692,6,0,P|299:336|257:339,1,70,14|0,0:1|0:0,0:0:0:0:
178,380,219025,2,0,P|172:338|180:303,1,70,10|0,0:0|0:0,0:0:0:0:
245,250,219359,1,10,0:1:0:0:
245,250,219525,1,8,0:1:0:0:
339,255,219692,1,10,0:0:0:0:
339,255,219859,1,8,0:1:0:0:
403,190,220025,6,0,P|411:162|399:108,1,70,2|8,0:1|0:1,0:0:0:0:
405,121,220275,1,8,0:1:0:0:
405,121,220359,1,14,0:0:0:0:
267,2,220692,2,0,L|257:75,1,70,14|8,0:1|0:0,0:0:0:0:
178,117,221025,2,0,P|162:109|131:106,3,35,10|8|8|8,0:1|0:1|0:0|0:0,0:0:0:0:
108,116,221359,6,0,B|92:138|92:138|101:204,1,70,14|0,0:1|0:0,0:0:0:0:
173,230,221692,2,0,P|204:216|239:213,1,70,10|0,0:0|0:0,0:0:0:0:
333,229,222025,1,10,0:1:0:0:
333,229,222192,1,8,0:1:0:0:
370,317,222359,1,10,0:0:0:0:
370,317,222525,1,8,0:1:0:0:
291,363,222692,6,0,L|200:352,1,70,2|8,0:0|0:1,0:0:0:0:
131,368,223025,2,0,L|40:357,1,70,10|0,0:0|0:1,0:0:0:0:
3,277,223359,1,10,0:1:0:0:
68,214,223525,1,10,0:1:0:0:
30,131,223692,1,14,0:0:0:0:
171,16,224025,6,0,P|166:51|182:89,1,70,14|0,0:1|0:0,0:0:0:0:
258,126,224359,2,0,P|304:113|340:114,1,70,10|0,0:0|0:0,0:0:0:0:
411,143,224692,1,10,0:1:0:0:
411,143,224859,1,8,0:1:0:0:
442,227,225025,2,0,L|430:307,1,70,10|8,0:0|0:1,0:0:0:0:
359,378,225359,5,10,0:1:0:0:
288,321,225525,2,0,B|277:286|277:286|292:244|292:244|279:176,1,140,14|8,0:1|0:1,0:1:0:0:
259,97,226025,5,10,0:0:0:0:
259,97,226109,1,8,0:0:0:0:
259,97,226192,2,0,P|229:119|191:123,1,70,8|10,0:0|0:0,0:0:0:0:
113,88,226525,5,8,0:0:0:0:
113,88,226609,1,8,0:0:0:0:
113,88,226692,2,0,P|117:49|92:7,1,70,14|0,0:1|0:0,0:0:0:0:
17,59,227025,2,0,P|13:98|38:140,1,70,10|0,0:0|0:0,0:0:0:0:
94,185,227359,1,10,0:1:0:0:
94,185,227525,1,8,0:1:0:0:
180,151,227692,1,10,0:0:0:0:
180,151,227859,1,0,0:0:0:0:
242,227,228025,6,0,L|253:325,1,70,2|8,0:0|0:1,0:0:0:0:
314,360,228359,2,0,P|356:343|393:342,1,70,10|0,0:0|0:0,0:0:0:0:
470,352,228692,2,0,L|515:379,4,35,10|8|8|8|14,0:1|0:1|0:1|0:1|0:0,0:0:0:0:
379,193,229359,6,0,L|371:92,1,70,14|0,0:1|0:0,0:0:0:0:
318,50,229692,2,0,P|280:40|234:49,1,70,10|0,0:0|0:0,0:0:0:0:
176,98,230025,1,10,0:1:0:0:
176,98,230192,1,8,0:1:0:0:
97,51,230359,1,10,0:0:0:0:
97,51,230525,1,8,0:1:0:0:
16,109,230692,6,0,P|3:138|12:190,1,70,2|8,0:0|0:1,0:0:0:0:
5,175,230942,1,8,0:1:0:0:
5,175,231025,1,14,0:0:0:0:
113,320,231359,2,0,L|199:303,1,70,14|8,0:1|0:0,0:0:0:0:
250,366,231692,2,0,L|336:349,1,70,10|8,0:1|0:0,0:0:0:0:
396,280,232025,6,0,P|383:238|395:202,1,70,14|8,0:1|0:0,0:0:0:0:
402,197,232275,1,8,0:0:0:0:
418,183,232359,2,0,P|423:148|410:116,1,70,10|8,0:1|0:1,0:0:0:0:
320,50,232692,2,0,L|229:42,1,70,14|8,0:0|0:1,0:0:0:0:
172,0,233025,1,8,0:1:0:0:
105,86,233192,6,0,L|117:169,1,70,14|8,0:0|0:1,0:0:0:0:
77,237,233525,1,8,0:1:0:0:
157,293,233692,2,0,P|196:277|243:279,1,70,14|8,0:0|0:1,0:0:0:0:
314,341,234025,5,8,0:3:0:0:
314,341,234109,1,8,0:3:0:0:
314,341,234192,1,8,0:1:0:0:
389,278,234359,2,0,L|394:233,3,35,10|8|8|8,0:0|0:0|0:3|0:3,0:0:0:0:
410,225,234692,6,0,P|424:191|416:156,1,70,14|8,0:1|0:0,0:0:0:0:
348,88,235025,1,10,0:1:0:0:
273,149,235192,1,8,0:1:0:0:
273,149,235275,1,8,0:1:0:0:
273,149,235359,2,0,P|239:163|200:151,1,70,8|12,0:1|0:1,0:0:0:0:
128,97,235692,2,0,L|123:57,2,35,10|8|8,0:1|0:1|0:1,0:0:0:0:
62,181,236025,5,8,0:1:0:0:
62,181,236109,1,8,0:1:0:0:
62,181,236192,2,0,P|44:233|57:265,1,70,8|12,0:2|0:0,0:0:0:0:
105,325,236525,1,8,0:1:0:0:
105,325,236609,1,8,0:1:0:0:
105,325,236692,2,0,P|152:308|199:314,1,70,8|8,0:1|0:0,0:0:0:0:
264,338,237025,6,0,L|277:381,4,35,8|8|4|4|14,0:3|0:3|0:3|0:3|0:1,0:0:0:0:
204,174,239359,5,12,0:0:0:0:
238,243,239525,1,8,2:2:0:0:
307,209,239692,1,8,2:2:0:0:
273,140,239859,1,12,2:1:0:0:
