osu file format v14

[General]
AudioFilename: audio.mp3
AudioLeadIn: 0
PreviewTime: 55276
Countdown: 0
SampleSet: Soft
StackLeniency: 0.7
Mode: 0
LetterboxInBreaks: 0
WidescreenStoryboard: 1

[Editor]
DistanceSpacing: 1.3
BeatDivisor: 4
GridSize: 32
TimelineZoom: 2.799999

[Metadata]
Title:DICE
TitleUnicode:DICE
Artist:BAND-MAID
ArtistUnicode:BAND-MAID
Creator:Lasse
Version:EXPERT.
Source:
Tags:bandmaid world domination japanese rock english
BeatmapID:2594989
BeatmapSetID:1248526

[Difficulty]
HPDrainRate:5.2
CircleSize:4
OverallDifficulty:8.6
ApproachRate:9
SliderMultiplier:1.7
SliderTickRate:1

[Events]
//Background and Video events
0,0,"e.jpg",0,0
//Break Periods
2,170892,175425
//Storyboard Layer 0 (Background)
//Storyboard Layer 1 (Fail)
//Storyboard Layer 2 (Pass)
//Storyboard Layer 3 (Foreground)
//Storyboard Layer 4 (Overlay)
//Storyboard Sound Samples

[TimingPoints]
2027,333.333333333333,4,2,2,60,1,0
2027,-100,4,2,2,60,0,0
7360,-100,4,2,2,65,0,0
11693,-100,4,2,1,65,0,0
12193,-133.333333333333,4,2,2,70,0,0
12610,-133.333333333333,4,2,2,30,0,0
12693,-90.9090909090909,4,2,1,75,0,0
17360,-90.9090909090909,4,2,2,75,0,0
18026,-90.9090909090909,4,2,1,75,0,0
22693,-90.9090909090909,4,2,2,70,0,0
23360,-133.333333333333,4,2,2,65,0,0
28526,-133.333333333333,4,2,1,65,0,0
31360,-133.333333333333,4,2,2,70,0,0
34026,-100,4,2,1,68,0,0
35276,-100,4,2,1,20,0,0
35526,-100,4,2,1,68,0,0
35610,-100,4,2,1,20,0,0
35860,-100,4,2,1,68,0,0
35943,-100,4,2,1,20,0,0
36026,-100,4,2,1,68,0,0
37943,-100,4,2,1,20,0,0
38193,-100,4,2,1,68,0,0
38276,-100,4,2,1,20,0,0
38526,-100,4,2,1,68,0,0
38610,-100,4,2,1,20,0,0
38693,-100,4,2,1,68,0,0
39193,-100,4,2,1,68,0,0
41860,-100,4,2,1,70,0,0
42693,-100,4,2,1,72,0,0
43526,-100,4,2,1,74,0,0
44360,-100,4,2,1,72,0,0
44693,-125,4,2,2,70,0,0
50026,-125,4,2,2,72,0,0
53693,-90.9090909090909,4,2,2,75,0,0
54693,-125,4,2,2,78,0,0
55526,-125,4,2,2,80,0,0
56026,333.333333333333,4,2,1,85,1,0
56026,-83.3333333333333,4,2,1,85,0,1
61359,-83.3333333333333,4,2,2,85,0,1
63692,-133.333333333333,4,2,1,85,0,1
64025,-76.9230769230769,4,2,1,86,0,1
64692,-71.4285714285714,4,2,1,88,0,1
65359,-66.6666666666667,4,2,1,90,0,1
66025,-90.9090909090909,4,2,1,85,0,1
66692,-83.3333333333333,4,2,1,85,0,1
70692,-66.6666666666667,4,2,1,85,0,1
71025,-62.5,4,2,1,85,0,1
71359,-83.3333333333333,4,2,2,85,0,1
77359,-76.9230769230769,4,2,1,85,0,1
78025,-76.9230769230769,4,2,2,85,0,1
78692,-100,4,2,1,90,0,0
79692,-133.333333333333,4,2,1,60,0,0
79942,-133.333333333333,4,2,1,30,0,0
80025,-90.9090909090909,4,2,1,75,0,0
84692,-90.9090909090909,4,2,2,75,0,0
85359,-90.9090909090909,4,2,1,75,0,0
90025,-100,4,2,2,75,0,0
90692,-111.111111111111,4,2,2,70,0,0
98692,-100,4,2,2,74,0,0
101359,-111.111111111111,4,2,2,70,0,0
106692,-111.111111111111,4,2,2,72,0,0
109359,-90.9090909090909,4,2,2,76,0,0
110692,-111.111111111111,4,2,2,78,0,0
112025,-90.9090909090909,4,2,2,80,0,0
113025,-166.666666666667,4,2,2,80,0,0
113359,-83.3333333333333,4,2,1,85,0,1
118692,-83.3333333333333,4,2,2,85,0,1
121359,-83.3333333333333,4,2,2,86,0,1
122025,-83.3333333333333,4,2,2,88,0,1
122692,-83.3333333333333,4,2,2,90,0,1
123359,-83.3333333333333,4,2,2,85,0,1
124025,-83.3333333333333,4,2,1,85,0,1
124359,-83.3333333333333,4,2,2,85,0,1
134692,-83.3333333333333,4,2,1,85,0,1
135359,-83.3333333333333,4,2,2,85,0,1
137025,-83.3333333333333,4,2,2,80,0,1
137359,-100,4,2,1,75,0,0
140025,-100,4,2,2,75,0,0
142859,-111.111111111111,4,2,1,68,0,0
144525,-111.111111111111,4,2,2,68,0,0
145525,-111.111111111111,4,2,2,70,0,0
147609,-111.111111111111,4,2,2,30,0,0
147692,-111.111111111111,4,2,2,72,0,0
147775,-111.111111111111,4,2,2,30,0,0
147859,-111.111111111111,4,2,2,74,0,0
147942,-111.111111111111,4,2,2,30,0,0
148025,-71.4285714285714,4,2,1,80,0,1
149359,-76.9230769230769,4,2,1,80,0,1
151859,-71.4285714285714,4,2,1,80,0,1
152692,-76.9230769230769,4,2,1,80,0,1
153025,-83.3333333333333,4,2,1,80,0,1
153359,-71.4285714285714,4,2,1,82,0,1
154192,-71.4285714285714,4,2,1,78,0,1
154692,-71.4285714285714,4,2,1,82,0,1
156025,-71.4285714285714,4,2,1,78,0,1
156359,-71.4285714285714,4,2,1,80,0,1
156692,-71.4285714285714,4,2,1,82,0,1
157025,-71.4285714285714,4,2,1,84,0,1
157359,-71.4285714285714,4,2,1,85,0,1
157859,-66.6666666666667,4,2,1,85,0,1
158609,-66.6666666666667,4,2,1,82,0,1
158692,-104.166666666667,4,2,2,78,0,0
158859,-104.166666666667,4,2,2,72,0,0
166692,-104.166666666667,4,2,2,75,0,0
167025,-104.166666666667,4,2,2,80,0,0
168025,-104.166666666667,4,2,2,82,0,0
169192,-121.951219512195,4,2,1,72,0,0
169859,-121.951219512195,4,2,1,70,0,0
170275,-121.951219512195,4,2,1,68,0,0
170525,-121.951219512195,4,2,1,64,0,0
170692,-133.333333333333,4,2,99,62,0,0
176025,-133.333333333333,4,2,2,65,0,0
180859,-133.333333333333,4,2,1,68,0,0
181025,-133.333333333333,4,2,1,70,0,0
181359,-111.111111111111,4,2,1,72,0,0
182692,-111.111111111111,4,2,2,72,0,0
184025,-100,4,2,1,75,0,0
185359,-100,4,2,2,75,0,0
186692,-90.9090909090909,4,2,1,78,0,0
188025,-90.9090909090909,4,2,2,78,0,0
189025,-133.333333333333,4,2,1,78,0,0
189359,-83.3333333333333,4,2,1,78,0,0
189692,-83.3333333333333,4,2,1,74,0,0
190692,-90.9090909090909,4,2,1,84,0,0
191359,-100,4,2,1,80,0,0
191442,-100,4,2,1,81,0,0
191525,-100,4,2,1,82,0,0
191609,-100,4,2,1,83,0,0
191692,-100,4,2,1,84,0,0
191775,-100,4,2,1,85,0,0
191859,-100,4,2,1,86,0,0
191942,-100,4,2,1,88,0,0
192025,-76.9230769230769,4,2,1,90,0,1
200025,-83.3333333333333,4,2,2,91,0,1
200692,-71.4285714285714,4,2,2,93,0,1
201359,-66.6666666666667,4,2,2,95,0,1
202025,-71.4285714285714,4,2,2,90,0,1
202692,-76.9230769230769,4,2,1,90,0,1
206692,-62.5,4,2,2,90,0,1
207025,-58.8235294117647,4,2,1,90,0,1
207359,-71.4285714285714,4,2,2,90,0,1
207859,-76.9230769230769,4,2,2,90,0,1
212025,-71.4285714285714,4,2,2,90,0,1
213359,-71.4285714285714,4,2,1,90,0,1
214025,-71.4285714285714,4,2,2,90,0,1
214692,-100,4,2,1,78,0,0
215609,-100,4,2,1,50,0,0
215692,-133.333333333333,4,2,1,60,0,0
215942,-133.333333333333,4,2,1,30,0,0
216025,-90.9090909090909,4,2,1,76,0,0
218859,-90.9090909090909,4,2,2,76,0,0
221359,-90.9090909090909,4,2,1,76,0,0
224192,-90.9090909090909,4,2,2,76,0,0
226692,-83.3333333333333,4,2,1,78,0,0
229359,-83.3333333333333,4,2,2,78,0,0
232025,-83.3333333333333,4,2,1,78,0,0
235525,-83.3333333333333,4,2,2,78,0,0
237359,-83.3333333333333,4,2,99,78,0,0
239359,-83.3333333333333,4,2,1,84,0,0
239525,-83.3333333333333,4,2,2,84,0,0

[Colours]
Combo1 : 255,140,140
Combo2 : 145,185,220
Combo3 : 255,180,110
Combo4 : 175,215,150

[HitObjects]
37,335,693,5,10,2:2:0:0:
37,335,777,1,8,2:2:0:0:
37,335,860,1,8,2:3:0:0:
37,335,943,1,8,2:3:0:0:
37,335,1027,2,0,L|44:272,1,42.5,10|8,2:2|2:3,0:0:0:0:
177,384,1192,5,10,2:2:0:0:
177,384,1277,1,8,2:3:0:0:
177,384,1360,1,8,2:1:0:0:
177,384,1443,1,8,2:1:0:0:
177,384,1527,2,0,L|184:321,1,42.5,10|8,2:2|2:3,0:0:0:0:
298,269,1692,5,10,2:2:0:0:
327,256,1776,1,8,2:2:0:0:
358,258,1859,1,8,2:2:0:0:
386,273,1942,1,8,2:2:0:0:
404,299,2026,6,0,P|451:303|496:275,1,85,12|8,0:1|0:1,0:0:0:0:
486,147,2360,2,0,P|498:90|487:45,1,85,8|8,0:0|0:1,0:0:0:0:
376,27,2693,1,8,0:3:0:0:
376,27,2776,1,8,0:3:0:0:
376,27,2860,2,0,P|325:7|263:6,1,85,8|8,0:1|0:0,0:0:0:0:
143,129,3193,5,4,0:3:0:0:
143,129,3276,1,4,0:3:0:0:
143,129,3360,2,0,P|194:109|256:108,1,85,8|8,0:1|0:1,0:0:0:0:
322,196,3693,2,0,L|335:292,1,85,8|8,0:0|0:3,0:0:0:0:
330,297,3943,1,8,0:3:0:0:
326,313,4026,1,8,0:3:0:0:
320,329,4110,1,8,0:3:0:0:
314,345,4193,1,4,0:3:0:0:
204,372,4360,2,0,L|190:261,1,85,8|8,0:0|0:3,0:0:0:0:
179,277,4610,1,8,0:3:0:0:
164,267,4693,6,0,P|104:255|64:264,1,85,8|8,0:1|0:1,0:0:0:0:
224,163,5026,2,0,P|266:165|306:154,1,85,8|8,0:0|0:1,0:0:0:0:
376,17,5360,1,8,0:3:0:0:
376,17,5443,1,8,0:3:0:0:
376,17,5526,1,8,0:1:0:0:
512,96,5693,2,0,P|471:84|429:87,1,85,8|8,0:0|0:3,0:0:0:0:
414,97,5943,1,8,0:3:0:0:
404,111,6026,6,0,P|392:161|400:202,1,85,8|8,0:1|0:1,0:0:0:0:
296,293,6360,2,0,L|390:282,1,85,8|8,0:0|0:3,0:0:0:0:
387,298,6610,1,8,0:3:0:0:
393,313,6693,1,8,0:3:0:0:
399,328,6776,1,8,0:3:0:0:
405,343,6860,1,4,0:3:0:0:
496,277,7026,2,0,P|508:227|500:186,1,85,8|8,0:0|0:3,0:0:0:0:
492,180,7276,1,8,0:3:0:0:
479,168,7360,6,0,B|449:161|449:161|433:168|433:168|392:161,1,85,14|8,0:1|0:1,0:0:0:0:
269,114,7693,2,0,B|288:89|288:89|270:33,1,85,10|8,0:0|0:3,0:0:0:0:
255,31,7943,1,8,0:3:0:0:
239,24,8026,1,8,0:3:0:0:
222,18,8110,1,8,0:3:0:0:
205,12,8193,1,4,0:3:0:0:
99,77,8360,2,0,L|111:167,1,85,8|10,0:0|0:3,0:0:0:0:
115,177,8610,1,8,0:3:0:0:
118,193,8693,6,0,P|161:195|207:170,1,85,10|8,0:1|0:1,0:0:0:0:
318,299,9026,2,0,L|225:284,1,85,10|8,0:0|0:3,0:0:0:0:
224,299,9276,1,8,0:3:0:0:
214,313,9360,1,8,0:3:0:0:
205,327,9443,1,8,0:3:0:0:
196,341,9526,1,4,0:3:0:0:
88,384,9693,2,0,B|81:354|81:354|83:335|83:335|71:298,1,85,10|8,0:0|0:3,0:0:0:0:
58,291,9943,1,8,0:3:0:0:
43,282,10026,6,0,P|35:240|45:194,1,85,14|8,0:1|0:1,0:0:0:0:
121,106,10360,2,0,B|156:102|156:102|169:109|169:109|208:106,1,85,10|8,0:0|0:3,0:0:0:0:
203,127,10610,1,8,0:3:0:0:
210,147,10693,1,8,0:3:0:0:
223,164,10776,1,4,0:3:0:0:
241,175,10860,1,4,0:3:0:0:
262,180,10943,1,4,0:3:0:0:
287,175,11026,5,8,0:0:0:0:
291,143,11110,1,8,0:0:0:0:
295,111,11193,1,8,0:0:0:0:
299,80,11276,1,8,0:0:0:0:
303,48,11360,1,8,0:1:0:0:
512,177,11693,5,2,0:3:0:0:
400,277,12026,5,2,0:3:0:0:
484,353,12193,5,10,0:3:0:0:
484,353,12276,1,10,0:3:0:0:
484,353,12360,2,2,B|449:345|449:345|433:359|433:359|375:369,1,95.6250036478044,6|0,0:3|0:0,0:1:0:0:
326,324,12693,6,0,P|311:268|327:227,1,93.5000028533936,14|0,0:1|0:0,0:0:0:0:
423,113,13026,2,0,P|470:131|527:133,1,93.5000028533936,10|0,0:0|0:0,0:0:0:0:
350,9,13360,5,10,0:1:0:0:
405,135,13526,1,8,0:1:0:0:
295,84,13693,1,10,0:0:0:0:
398,163,13860,1,8,0:1:0:0:
302,246,14026,5,2,0:0:0:0:
220,200,14193,1,8,0:1:0:0:
157,268,14360,2,0,P|152:314|152:373,1,93.5000028533936,10|0,0:0|0:0,0:0:0:0:
44,226,14693,5,10,0:1:0:0:
200,183,14860,1,10,0:1:0:0:
87,69,15026,1,14,0:0:0:0:
439,14,15360,6,0,P|428:65|422:137,1,93.5000028533936,14|0,0:1|0:0,0:0:0:0:
395,287,15693,2,0,P|448:275|509:275,1,93.5000028533936,8|0,0:0|0:0,0:0:0:0:
302,111,16026,5,10,0:1:0:0:
226,202,16193,1,8,0:1:0:0:
200,81,16360,1,10,0:0:0:0:
319,124,16526,1,8,0:1:0:0:
135,158,16693,1,2,0:0:0:0:
283,28,16860,1,8,0:1:0:0:
283,28,16943,1,8,0:1:0:0:
283,28,17026,1,12,0:0:0:0:
512,260,17360,6,0,P|476:242|409:231,1,93.5000028533936,14|8,0:1|0:0,0:0:0:0:
288,288,17693,1,10,0:1:0:0:
277,332,17776,1,8,0:1:0:0:
243,363,17860,1,8,0:0:0:0:
197,369,17943,1,8,0:0:0:0:
154,348,18026,6,0,P|157:298|167:245,1,93.5000028533936,12|0,0:1|0:1,0:0:0:0:
403,293,18360,2,0,P|400:246|392:200,1,93.5000028533936,10|0,0:0|0:0,0:0:0:0:
253,75,18693,5,10,0:1:0:0:
175,154,18860,1,8,0:1:0:0:
271,84,19026,1,10,0:0:0:0:
120,77,19193,1,8,0:1:0:0:
309,0,19360,5,2,0:0:0:0:
357,90,19526,1,8,0:1:0:0:
447,139,19693,2,0,P|452:105|465:44,1,93.5000028533936,10|0,0:0|0:0,0:0:0:0:
362,244,20026,5,10,0:1:0:0:
512,226,20193,1,10,0:1:0:0:
460,367,20360,1,14,0:0:0:0:
162,195,20693,6,0,P|174:270|173:292,1,93.5000028533936,14|0,0:1|0:0,0:0:0:0:
24,378,21026,2,0,P|25:331|35:285,1,93.5000028533936,10|0,0:0|0:0,0:0:0:0:
164,170,21360,5,10,0:1:0:0:
283,223,21526,1,8,0:1:0:0:
244,75,21693,1,8,0:0:0:0:
132,185,21860,1,8,0:1:0:0:
324,141,22026,1,2,0:0:0:0:
181,20,22193,1,8,0:1:0:0:
181,20,22276,1,8,0:1:0:0:
181,20,22360,1,10,0:0:0:0:
453,154,22693,5,14,0:1:0:0:
450,142,22776,1,8,0:1:0:0:
448,131,22860,1,8,0:1:0:0:
446,119,22943,1,8,0:1:0:0:
444,108,23026,1,10,0:0:0:0:
442,96,23110,1,8,0:0:0:0:
440,85,23193,1,8,0:0:0:0:
438,73,23276,1,8,0:0:0:0:
436,62,23360,6,0,P|400:60|359:56,1,63.7500024318696,12|2,0:1|0:0,0:0:0:0:
272,183,23693,2,0,P|303:180|335:178,1,63.7500024318696,10|0,0:1|0:0,0:0:0:0:
196,106,24026,2,0,P|195:63|120:36,1,127.500004863739,10|8,0:1|0:1,0:0:0:0:
39,114,24526,6,0,L|48:186,1,63.7500024318696,2|8,0:0|0:1,0:0:0:0:
0,263,24860,2,0,L|63:255,1,63.7500024318696,2|8,0:0|0:1,0:0:0:0:
149,302,25193,2,0,L|141:238,1,63.7500024318696,2|8,0:0|0:1,0:0:0:0:
188,153,25526,2,0,L|124:160,1,63.7500024318696,2|8,0:0|0:1,0:0:0:0:
241,257,25860,5,0,0:0:0:0:
241,257,26026,2,0,L|248:320,1,63.7500024318696,10|0,0:1|0:0,0:0:0:0:
355,382,26360,2,0,L|362:319,1,63.7500024318696,10|0,0:1|0:0,0:0:0:0:
417,219,26693,1,10,0:1:0:0:
477,275,26860,1,0,0:0:0:0:
493,194,27026,1,10,0:1:0:0:
294,144,27360,5,10,0:1:0:0:
294,144,27526,2,0,P|323:139|361:136,1,63.7500024318696,2|8,0:0|0:1,0:0:0:0:
262,25,27860,2,0,P|251:52|235:87,1,63.7500024318696,2|8,0:0|0:1,0:0:0:0:
381,56,28193,2,0,P|362:33|340:1,1,63.7500024318696,2|8,0:0|0:1,0:0:0:0:
270,174,28526,5,2,0:0:0:0:
270,174,28693,2,0,P|328:150|392:153,1,127.500004863739,8|8,0:1|0:1,0:0:0:0:
456,284,29193,5,2,0:0:0:0:
392,333,29360,2,0,L|317:321,1,63.7500024318696,10|0,0:1|0:0,0:0:0:0:
316,333,29610,2,0,L|308:292,1,31.8750012159348,2|8,0:0|0:1,0:0:0:0:
214,201,29860,5,2,0:0:0:0:
272,148,30026,2,0,P|280:119|275:72,1,63.7500024318696,10|0,0:1|0:0,0:0:0:0:
273,70,30276,2,0,L|225:49,1,31.8750012159348,2|8,0:0|0:1,0:0:0:0:
66,21,30526,5,2,0:0:0:0:
0,99,30693,2,0,P|-1:130|6:161,1,63.7500024318696,10|0,0:1|0:0,0:1:0:0:
47,254,31026,2,0,P|75:242|120:235,1,63.7500024318696,10|0,0:0|0:0,0:0:0:0:
253,271,31360,5,14,0:1:0:0:
237,345,31526,1,0,0:0:0:0:
311,362,31693,1,8,0:1:0:0:
327,288,31860,1,0,0:0:0:0:
398,222,32026,5,10,0:1:0:0:
418,315,32193,1,0,0:0:0:0:
512,294,32360,1,8,0:1:0:0:
491,200,32526,1,0,0:0:0:0:
365,134,32693,5,10,0:1:0:0:
290,204,32860,1,0,0:0:0:0:
216,133,33026,2,0,L|206:43,1,63.7500024318696,8|0,0:0|0:0,0:0:0:0:
79,13,33360,5,10,0:1:0:0:
3,107,33526,1,10,0:1:0:0:
63,212,33693,1,10,0:0:0:0:
133,120,33860,5,8,0:0:0:0:
133,120,33943,1,8,0:0:0:0:
133,120,34026,1,14,0:1:0:0:
149,282,34193,1,8,0:1:0:0:
300,384,34526,5,8,0:0:0:0:
339,222,34693,1,8,2:0:0:0:
339,222,34776,1,8,2:0:0:0:
339,222,34860,1,8,0:1:0:0:
489,98,35193,6,0,L|498:202,1,85,10|0,0:0|0:0,0:0:0:0:
331,137,35526,2,0,L|340:241,1,85,10|0,0:1|0:0,0:0:0:0:
175,96,35860,2,0,L|184:200,1,85,10|8,0:1|0:0,0:0:0:0:
182,180,36110,1,8,0:0:0:0:
182,180,36193,1,8,0:1:0:0:
48,18,36526,5,8,0:0:0:0:
48,18,36610,1,8,0:0:0:0:
48,18,36693,1,8,0:1:0:0:
75,159,36860,1,8,0:1:0:0:
290,19,37193,5,8,0:0:0:0:
239,193,37360,1,8,0:0:0:0:
239,193,37443,1,8,0:0:0:0:
239,193,37526,1,8,0:1:0:0:
426,297,37860,6,0,L|525:291,1,85,10|0,0:0|0:0,0:0:0:0:
357,225,38193,2,0,L|351:126,1,85,10|0,0:1|0:0,0:0:0:0:
285,294,38526,2,0,L|186:300,1,85,10|8,0:1|0:0,0:0:0:0:
200,299,38776,1,8,0:0:0:0:
200,299,38860,1,8,0:1:0:0:
16,384,39193,5,8,0:0:0:0:
16,384,39276,1,8,0:0:0:0:
16,384,39360,2,0,P|14:313|25:279,1,85,10|8,0:1|0:1,0:0:0:0:
0,225,39610,2,0,P|-2:154|9:120,1,85,2|0,0:0|0:0,0:0:0:0:
42,76,39860,5,10,0:0:0:0:
123,161,40026,1,10,0:0:0:0:
123,161,40110,1,8,0:0:0:0:
123,161,40193,2,0,L|128:267,1,85,8|0,0:1|0:0,0:0:0:0:
223,361,40526,5,10,0:0:0:0:
223,361,40693,2,0,P|265:364|315:348,1,85,2|8,0:0|0:1,0:0:0:0:
382,374,40943,2,0,P|424:377|474:361,1,85,2|0,0:0|0:0,0:0:0:0:
506,299,41193,2,0,P|509:257|493:207,1,85,10|8,0:1|0:0,0:0:0:0:
455,154,41443,1,8,0:0:0:0:
455,154,41526,2,0,P|458:112|442:62,1,85,10|8,0:1|0:0,0:0:0:0:
278,20,41860,5,10,0:1:0:0:
278,20,41943,1,10,0:1:0:0:
278,20,42026,1,10,0:1:0:0:
337,98,42193,1,2,0:0:0:0:
212,149,42360,1,10,0:1:0:0:
352,112,42526,1,10,0:0:0:0:
179,63,42693,5,10,0:1:0:0:
318,212,42860,1,10,0:1:0:0:
278,20,43026,1,2,0:0:0:0:
179,236,43193,1,14,0:0:0:0:
454,368,43526,5,10,0:1:0:0:
330,340,43693,1,10,0:0:0:0:
472,268,43860,1,10,0:1:0:0:
331,212,44026,1,14,0:0:0:0:
481,177,44193,1,10,0:1:0:0:
381,56,44360,1,8,0:3:0:0:
378,87,44443,1,8,0:3:0:0:
358,111,44526,1,8,0:3:0:0:
327,118,44610,1,8,0:3:0:0:
295,102,44693,6,0,L|281:24,1,68,14|8,0:1|0:1,0:0:0:0:
197,175,45026,2,0,L|183:97,1,68,2|8,0:0|0:1,0:0:0:0:
184,108,45276,1,8,0:1:0:0:
184,108,45360,1,10,0:0:0:0:
58,7,45693,5,10,0:1:0:0:
4,86,45860,1,8,0:1:0:0:
49,168,46026,1,2,0:0:0:0:
0,249,46193,1,8,0:1:0:0:
30,339,46360,1,10,0:0:0:0:
38,355,46693,5,10,0:1:0:0:
105,308,46860,1,8,0:1:0:0:
186,300,47026,1,10,0:0:0:0:
260,333,47193,1,8,0:1:0:0:
387,278,47360,6,0,P|394:234|395:200,1,68,14|8,0:1|0:1,0:0:0:0:
220,224,47693,2,0,P|214:190|211:156,1,68,2|8,0:0|0:1,0:0:0:0:
211,156,47943,1,8,0:1:0:0:
211,156,48026,1,10,0:0:0:0:
426,41,48360,5,10,0:1:0:0:
473,114,48526,1,8,0:1:0:0:
478,26,48693,1,2,0:0:0:0:
422,94,48860,1,8,0:1:0:0:
507,71,49026,1,10,0:0:0:0:
288,0,49360,5,10,0:1:0:0:
296,24,49443,1,8,0:1:0:0:
299,49,49526,1,8,0:1:0:0:
296,74,49610,1,8,0:1:0:0:
289,99,49693,1,14,0:2:0:0:
77,180,50026,6,0,L|74:109,1,68,14|8,0:1|0:1,0:0:0:0:
187,253,50360,2,0,L|190:182,1,68,2|8,0:0|0:1,0:0:0:0:
189,185,50610,1,8,0:1:0:0:
189,185,50693,1,10,0:0:0:0:
408,53,51026,5,10,0:1:0:0:
362,128,51193,1,8,0:1:0:0:
418,196,51360,1,2,0:0:0:0:
378,274,51526,1,8,0:1:0:0:
437,339,51693,1,10,0:0:0:0:
205,384,52026,6,0,L|213:298,1,68,10|8,0:1|0:1,0:0:0:0:
348,284,52360,2,0,L|340:198,1,68,10|0,0:0|0:0,0:0:0:0:
179,142,52693,5,12,0:1:0:0:
148,232,52860,1,8,0:1:0:0:
53,240,53026,1,2,0:0:0:0:
7,167,53193,1,8,0:1:0:0:
7,167,53276,1,8,0:1:0:0:
7,167,53360,2,0,L|13:79,1,68,10|8,0:0|0:1,0:0:0:0:
205,0,53693,5,10,0:0:0:0:
344,173,53860,1,8,0:0:0:0:
344,173,53943,1,8,0:0:0:0:
344,173,54026,2,0,P|346:130|334:76,1,93.5000028533936,14|8,0:1|0:1,0:0:0:0:
148,232,54360,2,0,P|143:277|157:330,1,93.5000028533936,8|8,0:2|0:1,0:0:0:0:
411,358,54693,5,10,0:1:0:0:
254,266,54860,1,10,0:1:0:0:
431,186,55026,1,10,0:2:0:0:
427,384,55193,1,10,0:1:0:0:
300,155,55360,5,10,0:3:0:0:
459,267,55526,1,8,0:0:0:0:
479,258,55610,1,8,0:0:0:0:
496,243,55693,1,8,0:0:0:0:
507,223,55776,1,8,0:0:0:0:
512,202,55860,1,8,0:0:0:0:
509,179,55943,1,8,0:0:0:0:
503,157,56026,6,0,B|492:132|492:132|494:104|494:104|474:48,1,101.999996887207,12|2,0:1|0:1,0:0:0:0:
226,97,56359,2,0,B|237:72|237:72|235:44|235:44|255:-12,1,101.999996887207,10|0,0:0|0:0,0:0:0:0:
372,192,56692,1,10,0:1:0:0:
241,269,56859,2,0,P|178:263|146:241,1,101.999996887207,2|8,0:1|0:0,0:0:0:0:
40,95,57192,5,2,0:0:0:0:
40,95,57276,1,2,0:0:0:0:
40,95,57359,1,10,0:1:0:0:
1,273,57526,1,10,0:1:0:0:
149,203,57692,1,10,0:0:0:0:
0,295,57859,1,2,0:0:0:0:
158,377,58026,2,0,P|210:364|269:364,2,101.999996887207,10|8|8,0:1|0:1|0:0,0:0:0:0:
255,215,58526,5,2,0:0:0:0:
416,290,58692,1,10,0:1:0:0:
488,172,58859,1,2,0:0:0:0:
348,93,59026,1,10,0:0:0:0:
405,267,59192,1,2,0:1:0:0:
494,149,59359,2,0,L|513:26,1,101.999996887207,10|8,0:1|0:1,0:0:0:0:
324,78,59692,1,8,0:0:0:0:
488,172,59859,1,2,0:0:0:0:
304,6,60025,6,0,P|258:67|168:37,1,152.999995330811,10|0,0:1|0:0,0:0:0:0:
53,94,60359,2,0,P|99:33|189:63,1,152.999995330811,10|0,0:0|0:0,0:0:0:0:
222,160,60692,2,0,L|201:270,1,101.999996887207,10|8,0:1|0:1,0:0:0:0:
246,158,61025,5,10,0:0:0:0:
358,271,61192,1,8,0:0:0:0:
358,271,61275,1,8,0:0:0:0:
358,271,61359,2,0,P|428:291|491:246,1,152.999995330811,14|0,0:1|0:0,0:0:0:0:
509,256,61692,2,0,L|499:154,1,101.999996887207,10|2,0:0|0:0,0:0:0:0:
360,28,62025,1,10,0:1:0:0:
266,175,62192,2,0,P|315:160|386:153,1,101.999996887207,10|8,0:1|0:0,0:0:0:0:
194,24,62525,5,2,0:0:0:0:
194,24,62609,1,2,0:0:0:0:
194,24,62692,1,10,0:1:0:0:
96,196,62859,1,10,0:1:0:0:
54,68,63025,1,10,0:0:0:0:
242,156,63192,1,2,0:0:0:0:
87,225,63359,1,10,0:1:0:0:
189,54,63525,1,10,0:1:0:0:
189,54,63609,1,8,0:1:0:0:
189,54,63692,1,8,0:0:0:0:
360,323,64025,6,0,P|426:352|490:341,1,110.499994941712,10|0,0:1|0:0,0:1:0:0:
501,221,64359,2,0,P|452:195|397:193,1,110.499994941712,10|0,0:0|0:0,0:1:0:0:
174,331,64692,6,0,P|108:360|44:349,1,118.999996368408,10|8,0:1|0:1,0:1:0:0:
23,183,65025,2,0,P|89:154|153:165,1,118.999996368408,10|0,0:0|0:0,0:1:0:0:
364,231,65359,6,0,P|430:260|506:247,1,127.500004863739,10|0,0:1|0:0,0:1:0:0:
512,66,65692,2,0,P|446:37|382:48,1,127.500004863739,10|0,0:0|0:0,0:1:0:0:
165,173,66025,5,10,0:1:0:0:
142,199,66109,1,8,0:1:0:0:
111,214,66192,1,8,0:1:0:0:
76,215,66275,1,8,0:1:0:0:
44,202,66359,1,14,0:0:0:0:
170,58,66525,5,8,0:0:0:0:
170,58,66609,1,8,0:0:0:0:
170,58,66692,1,14,0:1:0:0:
258,172,66859,2,0,P|249:223|247:285,1,101.999996887207,10|8,0:1|0:0,0:0:0:0:
423,107,67192,2,0,P|432:158|434:220,1,101.999996887207,2|8,0:0|0:1,0:0:0:0:
170,58,67525,2,0,P|152:106|139:167,1,101.999996887207,10|8,0:1|0:0,0:0:0:0:
364,11,67859,5,2,0:0:0:0:
445,119,68025,1,10,0:1:0:0:
340,244,68192,2,0,P|331:193|309:136,1,101.999996887207,10|8,0:1|0:0,0:0:0:0:
126,290,68525,2,0,P|129:238|145:179,1,101.999996887207,2|8,0:0|0:1,0:0:0:0:
442,280,68859,1,10,0:1:0:0:
442,280,68942,1,8,0:1:0:0:
442,280,69025,2,0,P|436:228|418:170,1,101.999996887207,8|0,0:0|0:0,0:0:0:0:
179,12,69359,6,0,P|129:94|35:75,1,203.999993774414,10|10,0:1|0:0,0:0:0:0:
229,201,69859,2,0,P|279:186|335:185,1,101.999996887207,2|8,0:0|0:1,0:0:0:0:
480,323,70192,1,10,0:1:0:0:
447,142,70359,1,8,0:0:0:0:
359,362,70525,1,10,0:1:0:0:
229,201,70692,6,2,B|252:268|330:280|330:280|419:239,1,191.250007295609,10|0,0:1|0:0,0:1:0:0:
424,164,71025,2,2,B|450:147|466:119|466:119|463:33|381:12,1,204,10|0,0:0|0:0,0:1:0:0:
285,4,71359,5,10,0:1:0:0:
224,105,71525,1,8,0:1:0:0:
125,28,71692,1,8,0:0:0:0:
235,120,71859,5,2,0:0:0:0:
137,8,72025,1,14,0:1:0:0:
24,131,72192,2,0,P|8:179|12:229,1,101.999996887207,10|8,0:1|0:0,0:0:0:0:
159,383,72525,2,0,L|170:270,1,101.999996887207,2|8,0:0|0:1,0:0:0:0:
417,349,72859,2,0,L|406:236,1,101.999996887207,10|8,0:1|0:0,0:0:0:0:
310,143,73192,5,2,0:0:0:0:
479,189,73359,1,8,0:1:0:0:
420,23,73525,2,0,L|404:148,1,101.999996887207,10|8,0:1|0:0,0:0:0:0:
215,48,73859,2,0,P|263:32|323:36,1,101.999996887207,2|8,0:1|0:1,0:0:0:0:
199,215,74192,2,0,P|279:238|302:132,1,203.999993774414,10|0,0:1|0:0,0:0:0:0:
82,0,74692,6,0,P|81:68|68:153,1,152.999995330811,10|0,0:1|0:0,0:0:0:0:
57,175,75025,1,10,0:0:0:0:
217,129,75192,2,0,P|205:79|204:29,1,101.999996887207,2|8,0:0|0:1,0:0:0:0:
360,148,75525,5,8,0:1:0:0:
221,237,75692,1,10,0:0:0:0:
392,308,75859,1,2,0:0:0:0:
376,125,76025,5,10,0:1:0:0:
292,354,76192,1,8,0:1:0:0:
183,145,76359,1,10,0:0:0:0:
83,211,76525,5,8,0:1:0:0:
83,211,76609,1,8,0:1:0:0:
83,211,76692,2,0,P|49:207|8:197,1,50.9999984436036,10|0,0:0|0:2,0:0:0:0:
183,127,76859,2,0,P|189:97|203:57,1,50.9999984436036,8|8,0:1|0:1,0:0:0:0:
290,192,77025,2,0,P|300:220|307:256,1,50.9999984436036,8|0,0:0|0:0,0:0:0:0:
213,351,77192,5,8,0:0:0:0:
213,351,77275,1,8,0:0:0:0:
213,351,77359,1,14,0:1:0:0:
381,359,77525,1,8,0:0:0:0:
195,244,77692,1,10,0:1:0:0:
405,220,77859,1,8,0:1:0:0:
405,220,77942,1,8,0:1:0:0:
405,220,78025,1,10,0:3:0:0:
173,114,78192,1,8,0:1:0:0:
420,81,78359,1,6,0:3:0:0:
286,9,78525,5,8,0:0:0:0:
286,9,78609,1,8,0:0:0:0:
286,9,78692,1,14,0:0:0:0:
495,367,79692,2,2,B|488:339|488:339|497:316|497:316|483:269,1,95.6250036478044,2|0,0:0|0:0,0:1:0:0:
434,210,80025,6,0,P|391:225|337:218,1,93.5000028533936,14|0,0:1|0:0,0:0:0:0:
268,71,80359,2,0,P|311:56|365:63,1,93.5000028533936,10|0,0:0|0:0,0:0:0:0:
205,204,80692,5,10,0:1:0:0:
162,65,80859,1,8,0:1:0:0:
186,218,81025,1,10,0:0:0:0:
259,88,81192,1,8,0:1:0:0:
168,234,81359,5,2,0:0:0:0:
95,157,81525,1,8,0:1:0:0:
15,225,81692,2,0,P|4:269|1:331,1,93.5000028533936,10|0,0:0|0:0,0:0:0:0:
208,240,82025,5,10,0:1:0:0:
282,380,82192,1,10,0:1:0:0:
422,307,82359,1,14,0:0:0:0:
399,37,82692,6,0,P|448:46|503:45,1,93.5000028533936,12|0,0:1|0:0,0:0:0:0:
316,170,83025,2,0,P|303:118|283:66,1,93.5000028533936,8|0,0:0|0:0,0:0:0:0:
154,10,83359,5,8,0:1:0:0:
69,159,83525,1,8,0:1:0:0:
162,35,83692,1,8,0:0:0:0:
167,212,83859,1,8,0:1:0:0:
52,45,84025,1,0,0:0:0:0:
12,260,84192,1,8,0:1:0:0:
12,260,84275,1,8,0:1:0:0:
12,260,84359,1,12,0:0:0:0:
296,383,84692,6,2,L|302:273,1,93.5000028533936,14|10,0:1|0:0,0:0:0:0:
499,372,85025,1,10,0:1:0:0:
462,343,85109,1,8,0:1:0:0:
447,298,85192,1,8,0:0:0:0:
460,253,85275,1,8,0:0:0:0:
493,219,85359,6,0,P|502:181|493:117,1,93.5000028533936,14|0,0:1|0:1,0:0:0:0:
364,10,85692,2,0,L|358:120,1,93.5000028533936,10|0,0:0|0:0,0:0:0:0:
201,225,86025,5,10,0:1:0:0:
263,94,86192,1,8,0:1:0:0:
334,264,86359,1,10,0:0:0:0:
182,200,86525,1,8,0:1:0:0:
357,129,86692,5,2,0:0:0:0:
438,205,86859,1,8,0:1:0:0:
507,117,87025,2,0,P|503:72|493:17,1,93.5000028533936,10|0,0:0|0:0,0:0:0:0:
260,128,87359,5,10,0:1:0:0:
378,46,87525,1,10,0:1:0:0:
439,182,87692,1,14,0:0:0:0:
120,52,88025,6,0,P|172:43|216:39,1,93.5000028533936,14|0,0:1|0:0,0:0:0:0:
165,212,88359,2,0,P|118:207|72:199,1,93.5000028533936,10|0,0:0|0:0,0:0:0:0:
260,128,88692,5,10,0:1:0:0:
294,290,88859,1,8,0:1:0:0:
280,102,89025,1,10,0:0:0:0:
162,244,89192,1,8,0:1:0:0:
366,185,89359,1,2,0:0:0:0:
185,56,89525,1,8,0:1:0:0:
185,56,89609,1,8,0:1:0:0:
185,56,89692,1,14,0:0:0:0:
403,205,90025,5,14,0:1:0:0:
415,208,90109,1,8,0:1:0:0:
426,210,90192,1,8,0:1:0:0:
438,213,90275,1,8,0:1:0:0:
449,215,90359,1,10,0:0:0:0:
461,217,90442,1,8,0:0:0:0:
472,219,90525,1,8,0:0:0:0:
483,222,90609,1,8,0:0:0:0:
494,224,90692,6,0,P|508:191|507:138,1,76.4999976654053,12|10,0:1|0:1,0:0:0:0:
396,12,91025,2,0,L|388:98,1,76.4999976654053,10|0,0:0|0:0,0:0:0:0:
298,184,91359,2,0,B|220:156|223:229|160:228,1,152.999995330811,10|8,0:0|0:1,0:0:0:0:
30,132,91859,6,0,L|38:46,1,76.4999976654053,10|0,0:0|0:0,0:0:0:0:
145,145,92192,2,0,L|153:59,1,76.4999976654053,10|8,0:1|0:0,0:0:0:0:
298,184,92525,6,0,L|290:98,1,76.4999976654053,2|8,0:0|0:1,0:0:0:0:
413,171,92859,2,0,L|405:85,1,76.4999976654053,8|8,0:1|0:0,0:0:0:0:
302,22,93192,5,8,0:0:0:0:
302,22,93275,1,8,0:0:0:0:
302,22,93359,1,14,0:1:0:0:
277,94,93525,1,8,0:1:0:0:
219,143,93692,1,10,0:0:0:0:
144,157,93859,1,8,0:1:0:0:
72,131,94025,1,10,0:0:0:0:
69,116,94359,5,10,0:1:0:0:
144,157,94525,1,8,0:0:0:0:
75,208,94692,1,2,0:0:0:0:
150,249,94859,2,0,L|234:240,1,76.4999976654053,8|8,0:1|0:0,0:0:0:0:
319,310,95192,2,0,L|311:234,1,76.4999976654053,2|8,0:0|0:0,0:0:0:0:
311,233,95442,1,8,0:0:0:0:
311,233,95525,1,8,0:1:0:0:
413,194,95692,5,8,0:0:0:0:
413,194,95775,1,8,0:0:0:0:
413,194,95859,1,8,0:0:0:0:
413,194,95942,1,8,0:0:0:0:
413,194,96025,2,0,P|475:202|495:121,1,152.999995330811,14|8,0:1|0:0,0:0:0:0:
386,46,96525,5,2,0:0:0:0:
336,113,96692,1,10,0:0:0:0:
258,80,96859,2,0,L|251:2,1,76.4999976654053,10|8,0:1|0:0,0:0:0:0:
133,191,97192,6,2,L|140:113,1,76.4999976654053,14|0,0:1|0:0,0:1:0:0:
346,233,97525,2,2,L|339:155,1,76.4999976654053,10|0,0:1|0:0,0:1:0:0:
197,268,97859,5,10,0:1:0:0:
284,317,98025,1,8,0:0:0:0:
197,368,98192,1,8,0:1:0:0:
110,319,98359,1,8,0:0:0:0:
112,300,98442,1,8,0:0:0:0:
112,280,98525,1,8,0:3:0:0:
110,261,98609,1,8,0:3:0:0:
105,243,98692,6,0,P|98:196|105:138,1,85,12|10,0:1|0:1,0:0:0:0:
348,211,99025,2,0,P|355:164|348:106,1,85,8|8,0:0|0:1,0:0:0:0:
247,13,99359,5,10,0:0:0:0:
192,208,99525,1,8,0:1:0:0:
106,54,99692,1,8,0:0:0:0:
259,127,99859,2,0,B|225:118|225:118|205:122|205:122|176:115,1,85,14|0,0:1|0:0,0:0:0:0:
277,7,100192,5,8,0:1:0:0:
277,7,100275,1,8,0:1:0:0:
277,7,100359,1,10,0:0:0:0:
343,158,100525,1,2,0:0:0:0:
410,90,100692,1,8,0:0:0:0:
411,79,100775,1,8,0:1:0:0:
413,69,100859,1,8,0:1:0:0:
415,58,100942,1,8,0:1:0:0:
417,48,101025,1,8,0:0:0:0:
510,156,101192,5,8,0:0:0:0:
510,156,101275,1,8,0:0:0:0:
510,156,101359,2,0,P|513:222|498:253,1,76.4999976654053,14|8,0:1|0:1,0:0:0:0:
439,340,101692,2,0,P|403:325|338:327,1,76.4999976654053,2|8,0:0|0:1,0:0:0:0:
365,321,101942,1,8,0:1:0:0:
365,321,102025,1,14,0:0:0:0:
164,372,102359,5,10,0:1:0:0:
253,314,102525,1,8,0:1:0:0:
157,264,102692,1,10,0:0:0:0:
248,204,102859,1,8,0:1:0:0:
248,204,102942,1,8,0:1:0:0:
248,204,103025,1,14,0:0:0:0:
195,24,103359,5,10,0:1:0:0:
193,49,103442,1,8,0:1:0:0:
177,70,103525,1,8,0:1:0:0:
152,79,103609,1,8,0:1:0:0:
128,72,103692,1,14,0:0:0:0:
32,13,103859,5,8,0:0:0:0:
32,13,103942,1,8,0:0:0:0:
32,13,104025,1,14,0:1:0:0:
1,115,104192,1,8,0:1:0:0:
65,200,104359,1,2,0:0:0:0:
47,311,104525,1,8,0:1:0:0:
47,311,104609,1,8,0:1:0:0:
47,311,104692,1,12,0:0:0:0:
261,376,105025,5,10,0:1:0:0:
230,265,105192,1,8,0:1:0:0:
341,234,105359,1,10,0:1:0:0:
372,345,105525,1,8,0:1:0:0:
483,314,105692,2,0,L|486:223,1,76.4999976654053,10|8,0:0|0:1,0:0:0:0:
396,123,106025,5,10,0:1:0:0:
421,143,106109,1,8,0:1:0:0:
453,144,106192,1,8,0:1:0:0:
480,125,106275,1,8,0:1:0:0:
489,93,106359,1,10,0:0:0:0:
238,0,106692,6,0,L|229:98,1,76.4999976654053,14|8,0:1|0:1,0:0:0:0:
326,178,107025,2,0,L|332:254,1,76.4999976654053,2|8,0:0|0:1,0:0:0:0:
332,254,107275,1,8,0:1:0:0:
332,254,107359,1,14,0:0:0:0:
137,380,107692,5,10,0:1:0:0:
83,296,107859,1,8,0:1:0:0:
158,232,108025,1,2,0:0:0:0:
91,157,108192,1,8,0:1:0:0:
91,157,108275,1,8,0:1:0:0:
91,157,108359,1,10,0:0:0:0:
262,44,108692,5,10,0:1:0:0:
268,68,108775,1,8,0:1:0:0:
287,88,108859,1,8,0:1:0:0:
314,93,108942,1,8,0:1:0:0:
340,84,109025,2,0,P|348:43|337:6,1,76.4999976654053,14|0,0:0|0:0,0:0:0:0:
110,93,109359,6,0,P|96:137|104:182,1,93.5000028533936,14|0,0:1|0:0,0:0:0:0:
205,268,109692,5,10,0:0:0:0:
0,212,109859,1,8,0:1:0:0:
222,249,110025,5,10,0:0:0:0:
22,306,110192,1,8,0:1:0:0:
239,231,110359,5,10,0:0:0:0:
77,384,110525,1,8,0:1:0:0:
259,213,110692,5,10,0:0:0:0:
358,364,110859,1,8,0:1:0:0:
358,364,110942,1,8,0:1:0:0:
358,364,111025,1,12,0:0:0:0:
509,265,111192,1,8,0:1:0:0:
509,265,111275,1,8,0:1:0:0:
509,265,111359,1,8,0:0:0:0:
410,114,111525,1,8,0:1:0:0:
410,114,111609,1,8,0:1:0:0:
410,114,111692,1,12,0:0:0:0:
90,172,112025,5,10,0:0:0:0:
265,247,112192,2,8,L|305:258,3,31.1666676177979,8|8|8|8,0:3|0:3|0:3|0:3,0:3:0:0:
56,297,112525,2,0,L|15:304,3,31.1666676177979,8|8|8|8,0:3|0:3|0:3|0:1,0:0:0:0:
244,375,112859,1,8,0:1:0:0:
201,148,113025,1,10,0:0:0:0:
512,77,113359,5,12,0:1:0:0:
467,212,113525,1,10,0:1:0:0:
341,142,113692,2,0,L|329:29,1,101.999996887207,10|0,0:0|0:0,0:0:0:0:
196,240,114025,1,10,0:1:0:0:
79,126,114192,2,0,L|91:13,1,101.999996887207,10|8,0:1|0:0,0:0:0:0:
231,142,114525,5,2,0:0:0:0:
231,142,114609,1,2,0:0:0:0:
231,142,114692,1,10,0:1:0:0:
55,224,114859,1,2,0:0:0:0:
242,253,115025,1,10,0:0:0:0:
70,324,115192,1,2,0:0:0:0:
243,363,115359,2,0,P|293:352|344:350,2,101.999996887207,10|8|8,0:1|0:1|0:0,0:0:0:0:
290,166,115859,5,2,0:0:0:0:
290,166,115942,1,2,0:0:0:0:
290,166,116025,1,10,0:1:0:0:
468,309,116192,1,2,0:0:0:0:
406,120,116359,1,10,0:0:0:0:
348,328,116525,1,2,0:0:0:0:
394,100,116692,5,10,0:1:0:0:
265,264,116859,1,10,0:1:0:0:
274,47,117025,1,10,0:0:0:0:
399,230,117192,1,2,0:0:0:0:
157,154,117359,6,8,P|142:67|184:22,1,152.999995330811,10|0,0:1|0:0,0:1:0:0:
289,133,117692,2,0,P|304:220|262:265,1,152.999995330811,10|0,0:0|0:0,0:0:0:0:
160,337,118025,2,0,L|48:326,1,101.999996887207,10|8,0:1|0:1,0:0:0:0:
149,186,118359,5,10,0:0:0:0:
26,106,118525,1,8,0:0:0:0:
26,106,118609,1,8,0:0:0:0:
26,105,118692,2,0,P|3:154|6:206,1,101.999996887207,12|10,0:1|0:1,0:0:0:0:
108,384,119025,2,0,L|126:265,1,101.999996887207,10|2,0:0|0:0,0:0:0:0:
283,184,119359,1,10,0:1:0:0:
356,350,119525,2,0,P|308:333|257:329,1,101.999996887207,10|8,0:1|0:0,0:0:0:0:
454,187,119859,5,2,0:0:0:0:
454,187,119942,1,2,0:0:0:0:
454,187,120025,2,0,P|453:267|465:305,1,101.999996887207,10|10,0:1|0:1,0:0:0:0:
270,168,120359,2,0,P|279:117|274:67,1,101.999996887207,10|2,0:0|0:0,0:0:0:0:
44,157,120692,1,10,0:1:0:0:
117,20,120859,1,10,0:1:0:0:
117,20,120942,1,8,0:1:0:0:
117,20,121025,1,8,0:0:0:0:
440,204,121359,5,2,0:0:0:0:
394,109,121525,1,2,0:0:0:0:
301,155,121692,1,10,0:2:0:0:
346,249,121859,1,2,0:0:0:0:
154,212,122025,5,10,0:1:0:0:
105,311,122192,1,10,0:1:0:0:
6,263,122359,1,10,0:0:0:0:
54,163,122525,1,2,0:0:0:0:
238,47,122692,5,10,0:1:0:0:
262,176,122859,1,2,0:0:0:0:
391,150,123025,1,10,0:0:0:0:
366,22,123192,1,2,0:0:0:0:
215,77,123359,5,10,2:1:0:0:
178,86,123442,1,8,2:1:0:0:
140,83,123525,1,8,2:1:0:0:
104,68,123609,1,8,2:1:0:0:
76,43,123692,1,14,2:0:0:0:
0,179,123859,5,8,0:0:0:0:
0,179,123942,1,8,0:0:0:0:
0,179,124025,2,0,P|90:164|125:257,1,203.999993774414,14|8,0:1|0:0,0:0:0:0:
257,379,124525,2,0,P|212:372|133:364,1,101.999996887207,2|8,0:0|0:1,0:0:0:0:
266,213,124859,2,0,P|271:162|279:111,1,101.999996887207,10|8,0:1|0:0,0:0:0:0:
512,205,125192,5,2,0:0:0:0:
422,90,125359,1,10,0:1:0:0:
383,249,125525,2,0,P|388:299|396:350,1,101.999996887207,2|8,0:0|0:0,0:0:0:0:
208,190,125859,2,0,P|258:184|309:176,1,101.999996887207,2|8,0:0|0:1,0:0:0:0:
159,366,126192,1,10,0:1:0:0:
159,366,126275,1,8,0:1:0:0:
159,366,126359,2,8,P|153:315|145:264,1,101.999996887207,8|0,0:0|0:0,0:0:0:0:
42,101,126692,6,0,P|18:167|25:287,1,152.999995330811,10|0,0:1|0:0,0:0:0:0:
27,273,127025,1,10,0:0:0:0:
210,175,127192,2,0,L|88:163,1,101.999996887207,2|8,0:0|0:1,0:0:0:0:
255,345,127525,1,10,0:1:0:0:
255,345,127609,1,8,0:1:0:0:
255,345,127692,2,0,L|377:333,1,101.999996887207,8|2,0:0|0:0,0:0:0:0:
487,181,128025,5,10,0:1:0:0:
323,127,128192,1,10,0:1:0:0:
477,214,128359,1,10,0:0:0:0:
362,42,128525,1,2,0:0:0:0:
278,241,128692,2,0,L|400:229,2,101.999996887207,10|8|8,0:1|0:1|0:0,0:0:0:0:
126,173,129192,5,2,0:0:0:0:
249,269,129359,1,14,0:1:0:0:
334,111,129525,2,0,P|343:56|328:8,1,101.999996887207,2|8,0:0|0:0,0:0:0:0:
98,177,129859,2,0,P|85:128|94:78,1,101.999996887207,2|8,0:0|0:1,0:0:0:0:
326,213,130192,2,0,P|338:261|329:311,1,101.999996887207,10|8,0:1|0:0,0:0:0:0:
174,382,130525,5,2,0:0:0:0:
174,382,130609,1,2,0:0:0:0:
174,382,130692,1,10,0:1:0:0:
89,219,130859,5,2,0:0:0:0:
38,357,131025,1,8,0:0:0:0:
232,236,131192,5,2,0:0:0:0:
282,384,131359,1,8,0:1:0:0:
447,310,131525,5,10,0:1:0:0:
447,310,131609,1,8,0:1:0:0:
447,310,131692,2,0,L|345:297,1,101.999996887207,8|0,0:0|0:0,0:0:0:0:
187,156,132025,6,0,P|220:101|184:-2,1,152.999995330811,10|0,0:1|0:0,0:0:0:0:
182,6,132359,1,10,0:0:0:0:
44,125,132525,2,0,L|59:252,1,101.999996887207,2|8,0:0|0:1,0:0:0:0:
173,378,132859,1,10,0:1:0:0:
173,378,132942,1,8,0:1:0:0:
173,378,133025,2,0,L|184:276,1,101.999996887207,8|0,0:0|0:0,0:0:0:0:
347,171,133359,5,10,0:1:0:0:
504,231,133525,1,8,0:1:0:0:
473,66,133692,1,8,0:0:0:0:
336,205,133859,5,8,0:1:0:0:
336,205,133942,1,8,0:1:0:0:
336,205,134025,2,0,L|346:298,1,50.9999984436036,8|0,0:0|0:2,0:0:0:0:
229,171,134192,2,0,L|136:181,1,50.9999984436036,8|8,0:1|0:1,0:0:0:0:
299,89,134359,2,0,L|289:-3,1,50.9999984436036,8|0,0:0|0:0,0:0:0:0:
173,0,134525,5,8,0:0:0:0:
173,0,134609,1,8,0:0:0:0:
173,0,134692,1,14,0:1:0:0:
75,165,134859,1,8,0:0:0:0:
173,0,135025,1,10,0:1:0:0:
186,201,135192,1,8,0:3:0:0:
186,201,135275,1,8,0:3:0:0:
186,201,135359,1,6,0:3:0:0:
59,35,135525,1,4,0:3:0:0:
0,249,135692,1,10,0:0:0:0:
182,314,135859,5,8,0:0:0:0:
182,314,135942,1,8,0:0:0:0:
182,314,136025,2,0,L|203:189,1,101.999996887207,14|8,0:1|0:0,0:0:0:0:
352,352,136359,2,0,P|371:306|359:227,1,101.999996887207,14|10,0:1|0:3,0:0:0:0:
25,285,136692,2,0,P|23:234|42:187,1,101.999996887207,10|6,0:0|0:3,0:0:0:0:
243,38,137025,5,8,0:0:0:0:
263,52,137109,1,8,0:0:0:0:
287,61,137192,1,8,0:0:0:0:
312,62,137275,1,8,0:0:0:0:
337,56,137359,6,0,P|376:39|437:52,1,85,14|8,0:1|0:1,0:0:0:0:
503,128,137692,2,0,L|495:233,1,85,8|0,0:0|0:0,0:0:0:0:
415,326,138025,5,8,0:3:0:0:
415,326,138109,1,8,0:3:0:0:
415,326,138192,2,0,P|374:312|312:308,1,85,8|8,0:3|0:0,0:0:0:0:
233,229,138525,1,8,0:3:0:0:
233,229,138609,1,8,0:3:0:0:
233,229,138692,2,0,P|275:223|315:210,1,85,4|0,0:3|0:0,0:0:0:0:
378,104,139025,6,0,L|360:12,1,85,8|8,0:0|0:3,0:0:0:0:
361,20,139275,1,8,0:3:0:0:
361,20,139359,1,8,0:3:0:0:
263,74,139525,1,8,0:0:0:0:
170,22,139692,1,4,0:3:0:0:
170,22,139775,1,4,0:3:0:0:
170,22,139859,1,4,0:3:0:0:
38,85,140025,6,0,P|23:121|29:179,1,85,14|8,0:1|0:1,0:0:0:0:
86,258,140359,2,0,P|124:241|167:240,1,85,8|8,0:0|0:3,0:0:0:0:
186,248,140609,1,8,0:3:0:0:
203,259,140692,1,8,0:3:0:0:
217,274,140775,1,8,0:3:0:0:
229,291,140859,1,4,0:3:0:0:
296,384,141025,5,8,0:0:0:0:
377,337,141192,1,10,0:1:0:0:
377,337,141275,1,8,0:1:0:0:
377,337,141359,2,0,P|386:279|371:229,1,85,8|8,0:0|0:1,0:0:0:0:
266,165,141692,5,8,0:0:0:0:
184,235,141859,2,0,P|120:255|88:238,1,85,10|8,0:1|0:0,0:0:0:0:
85,243,142109,1,8,0:0:0:0:
68,230,142192,1,8,0:3:0:0:
56,212,142275,1,8,0:3:0:0:
51,191,142359,1,8,0:0:0:0:
69,86,142525,5,8,0:0:0:0:
69,86,142609,1,8,0:0:0:0:
69,86,142692,1,14,0:1:0:0:
171,66,142859,5,10,0:1:0:0:
213,139,143025,1,8,0:0:0:0:
299,116,143192,1,8,0:3:0:0:
299,116,143275,1,8,0:3:0:0:
299,116,143359,2,0,P|303:69|311:27,1,76.4999976654053,4|2,0:3|0:0,0:0:0:0:
427,0,143692,5,8,0:0:0:0:
496,72,143859,1,8,0:3:0:0:
496,72,143942,1,8,0:3:0:0:
496,72,144025,2,0,P|492:119|484:161,1,76.4999976654053,12|8,0:1|0:1,0:0:0:0:
433,261,144359,5,8,0:0:0:0:
368,202,144525,1,10,0:3:0:0:
351,192,144609,1,8,0:3:0:0:
333,187,144692,1,8,0:3:0:0:
314,184,144775,1,8,0:3:0:0:
295,185,144859,1,8,0:1:0:0:
212,233,145025,5,10,0:0:0:0:
224,111,145192,1,14,0:1:0:0:
29,0,145525,5,10,0:1:0:0:
123,65,145692,1,8,0:0:0:0:
29,131,145859,1,8,0:1:0:0:
103,217,146025,1,8,0:0:0:0:
17,293,146192,1,8,0:1:0:0:
121,361,146359,1,8,0:0:0:0:
121,361,146442,1,8,0:0:0:0:
121,361,146525,1,12,0:1:0:0:
512,87,147525,5,2,0:0:0:0:
442,116,147692,1,10,0:3:0:0:
451,40,147859,1,2,0:0:0:0:
367,209,148025,6,2,B|412:169|412:169|367:59,1,178.499994552612,14|0,0:1|0:0,0:1:0:0:
355,40,148359,1,10,0:0:0:0:
177,136,148525,2,2,B|192:92|192:92|186:72|186:72|199:22,1,118.999996368408,2|8,0:0|0:1,0:1:0:0:
325,247,148859,1,10,0:1:0:0:
325,247,148942,1,10,0:1:0:0:
325,247,149025,2,2,B|310:203|310:203|316:183|316:183|302:133,1,118.999996368408,10|0,0:0|0:0,0:1:0:0:
125,295,149359,5,10,0:1:0:0:
251,363,149525,1,10,0:1:0:0:
104,287,149692,1,10,0:0:0:0:
306,255,149859,1,2,0:0:0:0:
306,255,149942,1,2,0:0:0:0:
306,255,150025,1,10,0:1:0:0:
223,376,150192,1,10,0:1:0:0:
81,279,150359,1,10,0:0:0:0:
195,202,150525,5,2,0:0:0:0:
195,202,150609,1,2,0:0:0:0:
195,202,150692,2,2,L|200:141,1,55.2499974708558,10|0,0:1|0:0,0:1:0:0:
46,155,150859,5,2,0:0:0:0:
46,155,150942,1,2,0:0:0:0:
46,155,151025,2,2,L|51:94,1,55.2499974708558,10|0,0:0|0:0,0:1:0:0:
215,63,151192,5,2,0:0:0:0:
215,63,151275,1,2,0:0:0:0:
215,63,151359,2,2,L|220:2,1,55.2499974708558,10|0,0:1|0:0,0:1:0:0:
338,141,151525,5,10,0:1:0:0:
338,141,151609,1,10,0:1:0:0:
338,141,151692,2,0,L|343:80,1,55.2499974708558,8|0,0:0|0:0,0:0:0:0:
478,50,151859,5,2,0:0:0:0:
478,50,151942,1,2,0:0:0:0:
478,50,152025,2,2,P|452:36|408:31,1,59.4999981842042,8|0,0:1|0:0,0:1:0:0:
441,185,152192,1,2,0:0:0:0:
441,185,152275,1,2,0:0:0:0:
441,185,152359,2,2,P|466:169|492:133,1,59.4999981842042,8|0,0:0|0:0,0:1:0:0:
342,85,152525,2,2,P|342:114|360:155,1,59.4999981842042,2|0,0:0|0:0,0:1:0:0:
243,54,152692,6,2,B|194:29|194:29|139:43,1,110.499994941712,10|8,0:1|0:1,0:1:0:0:
0,181,153025,2,2,B|44:159|44:159|103:170,1,101.999996887207,10|0,0:0|0:0,0:1:0:0:
257,252,153359,5,14,0:1:0:0:
78,316,153525,1,10,0:1:0:0:
244,222,153692,1,10,0:0:0:0:
284,384,153859,2,0,P|233:371|157:359,1,118.999996368408,2|8,0:0|0:1,0:0:0:0:
349,237,154192,5,10,0:1:0:0:
408,384,154359,1,10,0:0:0:0:
501,271,154525,1,2,0:0:0:0:
333,265,154692,5,10,0:1:0:0:
483,186,154859,1,10,0:1:0:0:
348,102,155025,1,10,0:0:0:0:
221,188,155192,1,2,0:0:0:0:
221,188,155275,1,2,0:0:0:0:
221,188,155359,2,2,B|197:153|197:153|219:52,1,118.999996368408,10|8,0:1|0:1,0:1:0:0:
465,173,155692,2,2,B|489:138|489:138|467:37,1,118.999996368408,10|0,0:0|0:0,0:1:0:0:
288,23,156025,5,10,0:1:0:0:
260,52,156137,1,2,0:0:0:0:
221,59,156248,1,2,0:0:0:0:
222,117,156359,5,10,0:0:0:0:
190,93,156470,1,2,0:0:0:0:
151,85,156581,1,2,0:0:0:0:
125,16,156692,5,10,0:1:0:0:
110,61,156803,1,2,0:0:0:0:
74,92,156914,1,2,0:0:0:0:
122,157,157025,5,10,0:0:0:0:
78,136,157137,1,2,0:0:0:0:
34,154,157248,1,2,0:0:0:0:
12,196,157359,6,2,B|24:233|24:233|14:263|14:263|32:325,1,118.999996368408,10|10,0:1|0:1,0:1:0:0:
204,384,157692,1,10,0:0:0:0:
311,258,157859,1,10,0:1:0:0:
311,258,157942,1,10,0:1:0:0:
311,258,158025,1,10,0:0:0:0:
185,144,158192,1,10,0:1:0:0:
185,144,158275,1,10,0:1:0:0:
189,147,158359,1,10,0:0:0:0:
333,32,158525,5,8,0:0:0:0:
333,32,158609,1,8,0:0:0:0:
333,32,158692,2,0,P|375:35|434:7,1,81.6000019921876,14|8,0:1|0:1,0:0:0:0:
512,148,159025,2,0,P|473:135|432:138,1,81.6000019921876,2|8,0:0|0:1,0:0:0:0:
432,138,159275,1,8,0:1:0:0:
432,138,159359,1,14,0:0:0:0:
307,300,159692,5,10,0:1:0:0:
398,368,159859,1,8,0:1:0:0:
413,255,160025,1,2,0:0:0:0:
315,307,160192,1,8,0:1:0:0:
315,307,160275,1,8,0:1:0:0:
315,307,160359,1,14,0:0:0:0:
265,119,160692,5,10,0:1:0:0:
284,106,160775,1,8,0:1:0:0:
292,84,160859,1,8,0:1:0:0:
287,61,160942,1,8,0:1:0:0:
269,46,161025,1,14,0:0:0:0:
167,1,161192,5,8,0:3:0:0:
167,1,161275,1,8,0:3:0:0:
167,1,161359,1,14,0:1:0:0:
100,83,161525,1,8,0:1:0:0:
179,153,161692,1,2,0:0:0:0:
119,243,161859,1,8,0:1:0:0:
119,243,161942,1,8,0:1:0:0:
119,243,162025,1,14,0:0:0:0:
306,363,162359,5,10,0:1:0:0:
340,254,162525,1,8,0:1:0:0:
417,344,162692,1,10,0:1:0:0:
417,344,162859,1,8,0:1:0:0:
251,286,163025,5,10,0:0:0:0:
365,240,163192,1,8,0:1:0:0:
270,162,163359,1,10,0:1:0:0:
257,134,163442,1,8,0:1:0:0:
253,104,163525,1,8,0:1:0:0:
260,74,163609,1,8,0:1:0:0:
275,47,163692,1,14,0:0:0:0:
510,120,164025,6,0,L|404:113,1,81.6000019921876,14|8,0:1|0:1,0:0:0:0:
344,268,164359,2,0,L|450:261,1,81.6000019921876,2|8,0:0|0:1,0:0:0:0:
425,262,164609,1,8,0:1:0:0:
425,262,164692,1,14,0:0:0:0:
245,164,165025,5,10,0:1:0:0:
168,225,165192,1,8,0:1:0:0:
73,198,165359,1,2,0:0:0:0:
60,109,165525,1,8,0:1:0:0:
60,109,165609,1,8,0:1:0:0:
60,109,165692,1,14,0:0:0:0:
233,32,166025,5,10,0:1:0:0:
255,51,166109,1,8,0:1:0:0:
287,56,166192,1,8,0:1:0:0:
315,45,166275,1,8,0:1:0:0:
334,19,166359,1,14,0:0:0:0:
455,195,166692,5,10,0:0:0:0:
455,195,166859,1,2,0:0:0:0:
390,128,167025,5,10,0:0:0:0:
375,267,167192,1,8,0:1:0:0:
326,347,167359,5,10,0:0:0:0:
285,193,167525,1,8,0:1:0:0:
234,108,167692,5,10,0:2:0:0:
188,289,167859,1,8,0:1:0:0:
110,339,168025,5,10,0:1:0:0:
86,126,168192,1,8,0:1:0:0:
86,126,168275,1,8,0:1:0:0:
86,126,168359,1,12,0:0:0:0:
266,202,168525,1,8,0:1:0:0:
266,202,168609,1,8,0:1:0:0:
266,202,168692,1,8,0:0:0:0:
0,249,168859,5,8,0:1:0:0:
0,249,168942,1,8,0:1:0:0:
0,249,169025,1,12,0:0:0:0:
86,126,169192,2,0,P|96:89|94:32,1,69.7000010635376,6|8,0:0|0:1,0:0:0:0:
38,0,169525,5,12,0:0:0:0:
203,157,169859,5,8,0:1:0:0:
203,157,169942,1,8,0:1:0:0:
203,157,170025,1,8,0:0:0:0:
341,99,170275,5,8,0:3:0:0:
412,246,170525,5,4,0:3:0:0:
507,211,170692,5,14,0:1:0:0:
0,261,176025,6,0,B|205:195|143:400|348:335,1,382.500014591218,14|0,0:1|0:0,0:0:0:0:
349,335,177359,6,0,B|210:191|316:43|453:118|391:216,1,382.500014591218,14|0,0:1|0:0,0:0:0:0:
395,208,178692,6,0,B|349:199|319:170|319:170|228:176|212:281|212:281|159:223|81:233,1,382.500014591218,14|0,0:1|0:0,0:0:0:0:
99,231,180025,6,0,B|76:286|117:305|94:357,2,127.500004863739,14|0|0,0:1|0:0|0:0,0:0:0:0:
169,162,180859,1,2,0:3:0:0:
240,244,181025,1,8,0:0:0:0:
343,169,181192,5,8,0:3:0:0:
343,169,181275,1,8,0:3:0:0:
343,169,181359,2,0,P|356:126|346:75,1,76.4999976654053,14|0,0:1|0:0,0:0:0:0:
322,28,181609,1,2,0:0:0:0:
322,28,181692,2,0,L|227:18,1,76.4999976654053,8|2,0:1|0:0,0:0:0:0:
103,53,182025,6,0,P|90:96|100:147,1,76.4999976654053,10|0,0:1|0:0,0:0:0:0:
129,195,182275,1,2,0:0:0:0:
129,195,182359,2,0,L|224:205,1,76.4999976654053,8|2,0:1|0:0,0:0:0:0:
314,260,182692,6,0,B|302:299|302:299|318:345,1,76.4999976654053,14|0,0:1|0:0,0:0:0:0:
379,383,182942,1,2,0:0:0:0:
379,383,183025,2,0,L|468:375,1,76.4999976654053,8|2,0:1|0:0,0:0:0:0:
505,260,183359,6,0,B|487:211|487:211|494:169|494:169|474:114,1,152.999995330811,10|8,0:1|0:1,0:0:0:0:
474,114,183859,1,8,0:1:0:0:
384,19,184025,6,0,B|372:111,1,85,14|0,0:1|0:0,0:0:0:0:
364,180,184275,1,2,0:0:0:0:
364,180,184359,1,8,0:1:0:0:
263,198,184525,1,2,0:0:0:0:
165,132,184692,6,0,B|154:47,1,85,10|0,0:1|0:0,0:0:0:0:
88,12,184942,1,2,0:0:0:0:
88,12,185025,1,8,0:1:0:0:
18,84,185192,1,2,0:0:0:0:
65,194,185359,6,0,B|75:278,1,85,14|0,0:1|0:0,0:0:0:0:
93,356,185609,1,2,0:0:0:0:
93,356,185692,1,8,0:1:0:0:
186,291,185859,1,2,0:0:0:0:
278,384,186025,6,0,L|284:296,1,85,10|8,0:1|0:0,0:0:0:0:
386,252,186359,1,8,0:3:0:0:
410,272,186442,1,8,0:3:0:0:
440,279,186525,1,8,0:3:0:0:
471,270,186609,1,8,0:3:0:0:
493,248,186692,6,0,L|483:149,1,93.5000028533936,14|0,0:1|0:0,0:0:0:0:
473,81,186942,1,2,0:0:0:0:
473,81,187025,2,0,L|468:31,1,46.7500014266968,8|0,0:1|0:0,0:0:0:0:
397,114,187192,2,0,L|392:64,1,46.7500014266968,2|0,0:0|0:0,0:0:0:0:
301,34,187359,6,0,P|256:21|210:26,1,93.5000028533936,10|0,0:1|0:0,0:0:0:0:
146,69,187609,1,2,0:0:0:0:
146,69,187692,2,0,L|151:119,1,46.7500014266968,8|0,0:1|0:0,0:0:0:0:
209,169,187859,2,0,L|214:219,1,46.7500014266968,2|0,0:0|0:0,0:0:0:0:
152,291,188025,6,0,B|109:304|109:304|59:290,1,93.5000028533936,14|0,0:1|0:0,0:0:0:0:
7,241,188275,1,2,0:0:0:0:
7,241,188359,2,0,L|2:175,1,46.7500014266968,8|0,0:1|0:0,0:0:0:0:
60,144,188525,2,0,L|55:78,1,46.7500014266968,2|0,0:0|0:0,0:0:0:0:
131,33,188692,6,0,P|177:81|244:72,1,140.25000428009,10|0,0:1|0:0,0:0:0:0:
268,80,189025,2,0,L|282:7,1,63.7500024318696,10|0,0:0|0:0,0:0:0:0:
397,93,189359,6,0,P|488:123|493:219,1,203.999993774414,14|8,0:1|0:1,0:0:0:0:
427,326,189859,5,2,0:0:0:0:
346,282,190025,1,10,0:1:0:0:
280,347,190192,1,2,0:0:0:0:
201,299,190359,1,10,0:0:0:0:
136,364,190525,1,2,0:0:0:0:
38,236,190692,5,10,0:0:0:0:
18,339,190859,2,0,L|9:394,3,31.1666676177979,8|8|8|8,0:3|0:3|0:3|0:1,0:0:0:0:
126,190,191192,5,12,0:0:0:0:
201,299,191359,1,8,0:0:0:0:
220,316,191442,1,8,0:0:0:0:
245,326,191525,1,8,0:0:0:0:
271,328,191609,1,8,0:0:0:0:
297,321,191692,1,8,0:0:0:0:
318,305,191775,1,8,0:0:0:0:
334,284,191859,1,8,0:0:0:0:
342,259,191942,1,8,0:0:0:0:
341,233,192025,6,0,L|325:101,1,110.499994941712,14|0,0:1|0:0,0:0:0:0:
14,220,192359,2,0,L|32:91,1,110.499994941712,10|0,0:0|0:0,0:0:0:0:
274,22,192692,1,10,0:1:0:0:
423,140,192859,2,0,L|405:8,1,110.499994941712,10|8,0:1|0:0,0:0:0:0:
231,132,193192,5,2,0:0:0:0:
231,132,193275,1,2,0:0:0:0:
231,132,193359,1,10,0:1:0:0:
367,214,193525,1,2,0:0:0:0:
276,44,193692,1,10,0:0:0:0:
223,239,193859,1,2,0:0:0:0:
364,320,194025,2,0,P|419:307|483:304,2,110.499994941712,10|8|8,0:1|0:1|0:0,0:0:0:0:
177,382,194525,5,2,0:0:0:0:
243,230,194692,1,10,0:1:0:0:
347,341,194859,1,10,0:1:0:0:
232,203,195025,1,10,0:0:0:0:
152,365,195192,1,2,0:0:0:0:
7,261,195359,2,0,L|128:247,1,110.499994941712,10|8,0:1|0:1,0:0:0:0:
33,130,195692,1,10,0:0:0:0:
88,12,195859,1,2,0:0:0:0:
250,128,196025,6,0,P|220:192|240:293,1,165.749992412568,10|0,0:1|0:0,0:0:0:0:
320,375,196359,2,0,B|337:322|337:322|327:286|327:286|349:205,1,165.749992412568,10|0,0:0|0:0,0:0:0:0:
427,151,196692,2,0,B|462:193|462:193|506:159,1,110.499994941712,10|8,0:1|0:1,0:0:0:0:
327,13,197025,5,14,0:2:0:0:
217,141,197192,1,8,0:2:0:0:
217,141,197275,1,8,0:2:0:0:
217,141,197359,2,0,B|142:178|142:178|73:126,1,165.749992412568,12|0,0:1|0:0,0:0:0:0:
51,129,197692,2,0,L|69:14,1,110.499994941712,10|2,0:0|0:0,0:0:0:0:
277,223,198025,1,10,0:1:0:0:
413,129,198192,2,0,L|395:14,1,110.499994941712,10|8,0:1|0:0,0:0:0:0:
196,160,198525,5,2,0:0:0:0:
196,160,198609,1,2,0:0:0:0:
196,160,198692,1,10,0:1:0:0:
360,272,198859,1,2,0:0:0:0:
315,107,199025,1,10,0:0:0:0:
240,342,199192,1,2,0:0:0:0:
380,249,199359,1,10,0:1:0:0:
179,147,199525,1,10,0:1:0:0:
179,147,199609,1,8,0:1:0:0:
179,147,199692,1,8,0:2:0:0:
385,42,200025,5,14,0:1:0:0:
410,144,200192,1,2,0:0:0:0:
487,16,200359,1,10,0:0:0:0:
512,119,200525,1,10,0:1:0:0:
290,76,200692,5,14,0:1:0:0:
257,206,200859,1,10,0:0:0:0:
158,43,201025,1,10,0:1:0:0:
126,174,201192,1,10,0:1:0:0:
377,126,201359,5,14,0:2:0:0:
452,255,201525,1,10,0:1:0:0:
452,255,201609,1,8,0:1:0:0:
452,255,201692,1,10,0:1:0:0:
391,382,201859,1,10,0:1:0:0:
247,317,202025,5,10,2:3:0:0:
269,278,202109,1,8,2:3:0:0:
275,234,202192,1,8,2:3:0:0:
265,191,202275,1,8,2:3:0:0:
239,155,202359,1,14,2:0:0:0:
113,248,202525,5,10,2:0:0:0:
113,248,202609,1,8,2:0:0:0:
113,248,202692,1,14,0:1:0:0:
10,164,202859,2,0,P|4:109|23:57,1,110.499994941712,10|8,0:1|0:0,0:0:0:0:
265,10,203192,2,0,L|253:119,1,110.499994941712,2|8,0:0|0:1,0:0:0:0:
463,238,203525,2,0,P|481:186|476:131,1,110.499994941712,10|8,0:1|0:0,0:0:0:0:
273,317,203859,5,2,0:0:0:0:
430,364,204025,1,10,0:1:0:0:
359,227,204192,2,0,P|354:172|372:120,1,110.499994941712,2|8,0:0|0:0,0:0:0:0:
172,4,204525,2,0,P|176:58|158:110,1,110.499994941712,2|8,0:0|0:1,0:0:0:0:
0,239,204859,1,8,0:1:0:0:
0,239,204942,1,8,0:1:0:0:
0,239,205025,2,0,P|20:180|117:193,1,165.749992412568,12|0,0:0|0:0,0:0:0:0:
160,274,205359,6,0,P|164:338|269:342,1,165.749992412568,14|0,0:1|0:0,0:0:0:0:
315,316,205692,1,10,0:0:0:0:
457,384,205859,2,0,L|446:264,1,110.499994941712,2|8,0:0|0:1,0:0:0:0:
293,164,206192,5,10,0:1:0:0:
433,252,206359,1,10,0:0:0:0:
509,105,206525,1,2,0:0:0:0:
305,6,206692,6,2,P|296:100|202:110,1,204,14|0,0:1|0:0,0:1:0:0:
20,64,207025,2,2,P|46:171|143:167,1,216.750004134178,14|0,0:0|0:0,0:1:0:0:
202,110,207359,5,10,0:1:0:0:
182,88,207442,1,8,0:1:0:0:
172,61,207525,1,8,0:1:0:0:
174,31,207609,1,8,0:1:0:0:
187,5,207692,1,12,0:0:0:0:
288,82,207859,5,2,0:0:0:0:
444,20,208025,1,14,0:1:0:0:
508,131,208192,2,0,P|523:189|510:244,1,110.499994941712,2|8,0:0|0:0,0:0:0:0:
291,365,208525,2,0,L|274:243,1,110.499994941712,2|8,0:0|0:1,0:0:0:0:
32,170,208859,2,0,P|21:228|37:281,1,110.499994941712,10|8,0:1|0:0,0:0:0:0:
248,155,209192,5,2,0:0:0:0:
385,244,209359,1,10,0:1:0:0:
505,136,209525,2,0,P|519:78|508:22,1,110.499994941712,2|10,0:0|0:0,0:0:0:0:
248,155,209859,2,0,P|228:99|231:42,1,110.499994941712,2|10,0:1|0:1,0:0:0:0:
410,226,210192,2,0,P|415:284|395:341,2,110.499994941712,10|8|8,0:1|0:0|0:1,0:0:0:0:
218,65,210692,5,10,0:1:0:0:
11,184,210859,1,12,0:0:0:0:
122,0,211025,1,10,0:1:0:0:
144,246,211192,1,10,0:1:0:0:
144,246,211275,1,8,0:1:0:0:
144,246,211359,1,8,0:0:0:0:
249,160,211525,5,8,0:1:0:0:
249,160,211609,1,8,0:1:0:0:
249,160,211692,1,14,0:0:0:0:
182,343,211859,1,10,0:1:0:0:
373,380,212025,6,0,P|427:364|514:365,1,118.999996368408,14|8,0:1|0:1,0:0:0:0:
489,361,212275,1,8,0:1:0:0:
489,361,212359,1,14,0:0:0:0:
306,254,212525,1,8,0:1:0:0:
306,254,212609,1,8,0:1:0:0:
306,254,212692,1,14,0:0:0:0:
466,194,212859,1,8,0:2:0:0:
489,175,212942,1,8,0:2:0:0:
505,150,213025,1,8,0:0:0:0:
511,121,213109,1,8,0:0:0:0:
507,92,213192,1,8,0:0:0:0:
493,66,213275,1,8,0:0:0:0:
471,47,213359,5,14,0:1:0:0:
362,191,213525,1,8,0:0:0:0:
328,0,213692,1,10,0:1:0:0:
216,214,213859,1,8,0:3:0:0:
216,214,213942,1,8,0:3:0:0:
216,214,214025,1,6,0:3:0:0:
161,0,214192,1,8,0:3:0:0:
161,0,214275,1,8,0:3:0:0:
161,0,214359,1,6,0:3:0:0:
0,117,214525,5,8,0:0:0:0:
0,117,214609,1,8,0:0:0:0:
0,117,214692,1,14,0:1:0:0:
161,379,215609,1,2,0:0:0:0:
161,379,215692,2,2,B|180:337|180:337|161:279,1,95.6250036478044,2|0,0:0|0:0,0:1:0:0:
125,216,216025,6,0,P|112:180|138:110,1,93.5000028533936,14|0,0:1|0:0,0:0:0:0:
273,9,216359,2,0,L|284:118,1,93.5000028533936,10|0,0:0|0:0,0:0:0:0:
435,128,216692,5,10,0:1:0:0:
335,231,216859,1,8,0:1:0:0:
424,107,217025,1,10,0:0:0:0:
447,276,217192,1,8,0:1:0:0:
415,81,217359,5,2,0:0:0:0:
321,142,217525,1,8,0:1:0:0:
212,106,217692,2,0,P|200:61|214:0,1,93.5000028533936,10|0,0:0|0:0,0:0:0:0:
336,155,218025,5,10,0:1:0:0:
190,220,218192,1,10,0:1:0:0:
320,311,218359,1,14,0:0:0:0:
81,374,218692,6,0,L|91:256,1,93.5000028533936,14|0,0:1|0:0,0:0:0:0:
300,338,219025,2,0,L|290:220,1,93.5000028533936,10|0,0:0|0:0,0:0:0:0:
181,118,219359,5,10,0:1:0:0:
73,261,219525,1,8,0:1:0:0:
172,101,219692,1,10,0:0:0:0:
203,240,219859,1,8,0:1:0:0:
39,132,220025,1,2,0:1:0:0:
168,9,220192,1,8,0:1:0:0:
168,9,220275,1,8,0:1:0:0:
168,9,220359,1,14,0:0:0:0:
469,90,220692,6,0,L|339:75,1,93.5000028533936,14|8,0:1|0:0,0:0:0:0:
249,156,221025,1,10,0:1:0:0:
232,199,221109,1,8,0:1:0:0:
242,246,221192,1,8,0:0:0:0:
276,278,221275,1,8,0:0:0:0:
322,290,221359,6,0,P|367:280|423:277,1,93.5000028533936,14|0,0:1|0:0,0:0:0:0:
252,375,221692,2,0,P|205:371|159:361,1,93.5000028533936,10|0,0:0|0:0,0:0:0:0:
61,235,222025,5,10,0:1:0:0:
8,380,222192,1,8,0:1:0:0:
71,206,222359,1,10,0:0:0:0:
159,361,222525,1,8,0:1:0:0:
83,172,222692,5,2,0:0:0:0:
179,230,222859,1,8,0:1:0:0:
242,136,223025,2,0,L|254:24,1,93.5000028533936,10|0,0:0|0:1,0:0:0:0:
380,194,223359,5,10,0:1:0:0:
473,78,223525,1,10,0:1:0:0:
512,222,223692,1,14,0:0:0:0:
283,365,224025,6,0,P|334:354|397:352,1,93.5000028533936,14|0,0:1|0:0,0:0:0:0:
276,215,224359,2,0,P|272:167|261:123,1,93.5000028533936,10|0,0:0|0:0,0:0:0:0:
84,36,224692,5,10,0:1:0:0:
164,209,224859,1,8,0:1:0:0:
213,9,225025,1,10,0:0:0:0:
59,147,225192,1,8,0:1:0:0:
196,23,225359,1,10,0:1:0:0:
307,154,225525,2,0,P|226:110|133:117,1,187.000005706787,14|8,0:1|0:1,0:1:0:0:
0,213,226025,5,10,0:0:0:0:
0,213,226109,1,8,0:0:0:0:
0,213,226192,1,8,0:0:0:0:
52,63,226359,1,10,0:0:0:0:
131,238,226525,5,8,0:0:0:0:
131,238,226609,1,8,0:0:0:0:
131,238,226692,2,0,P|112:286|123:342,1,101.999996887207,14|0,0:1|0:0,0:0:0:0:
334,384,227025,2,0,P|353:336|342:280,1,101.999996887207,10|0,0:0|0:0,0:0:0:0:
225,158,227359,5,10,0:1:0:0:
244,320,227525,1,8,0:1:0:0:
358,208,227692,1,10,0:0:0:0:
207,149,227859,1,0,0:0:0:0:
341,84,228025,5,2,0:0:0:0:
380,212,228192,1,8,0:1:0:0:
497,175,228359,2,0,P|511:112|480:57,1,101.999996887207,10|0,0:0|0:0,0:0:0:0:
317,0,228692,5,10,0:1:0:0:
290,22,228775,1,8,0:1:0:0:
259,34,228859,1,8,0:1:0:0:
226,33,228942,1,8,0:1:0:0:
194,21,229025,1,14,0:0:0:0:
22,176,229359,6,0,P|20:104|41:55,1,101.999996887207,14|0,0:1|0:0,0:0:0:0:
239,137,229692,2,0,P|244:187|231:236,1,101.999996887207,10|0,0:0|0:0,0:0:0:0:
73,309,230025,5,10,0:1:0:0:
230,361,230192,1,8,0:1:0:0:
141,209,230359,1,10,0:0:0:0:
71,334,230525,1,8,0:1:0:0:
239,258,230692,1,2,0:0:0:0:
80,146,230859,1,8,0:1:0:0:
80,146,230942,1,8,0:1:0:0:
80,146,231025,1,14,0:0:0:0:
260,12,231359,5,14,0:1:0:0:
335,120,231525,1,8,0:0:0:0:
430,28,231692,1,10,0:1:0:0:
512,148,231859,5,8,0:0:0:0:
512,148,231942,1,8,0:0:0:0:
512,148,232025,1,14,0:1:0:0:
321,221,232192,1,8,0:0:0:0:
321,221,232275,1,8,0:0:0:0:
321,221,232359,2,0,L|337:100,1,101.999996887207,10|8,0:1|0:1,0:0:0:0:
448,268,232692,5,14,0:0:0:0:
341,367,232859,1,8,0:1:0:0:
321,221,233025,1,8,0:1:0:0:
142,279,233192,5,14,0:0:0:0:
243,157,233359,1,8,0:1:0:0:
265,351,233525,1,8,0:1:0:0:
118,268,233692,2,0,P|110:215|125:166,1,101.999996887207,14|8,0:0|0:1,0:0:0:0:
228,52,234025,5,8,0:3:0:0:
228,52,234109,1,8,0:3:0:0:
228,52,234192,1,8,0:1:0:0:
344,146,234359,5,10,0:0:0:0:
374,168,234442,1,8,0:0:0:0:
410,180,234525,1,8,0:3:0:0:
448,178,234609,1,8,0:3:0:0:
478,155,234692,6,0,P|489:100|459:40,1,101.999996887207,14|8,0:1|0:0,0:0:0:0:
293,0,235025,1,10,0:1:0:0:
251,142,235192,1,8,0:1:0:0:
255,167,235275,1,8,0:1:0:0:
259,192,235359,1,8,0:1:0:0:
263,217,235442,1,8,0:1:0:0:
267,242,235525,1,12,0:1:0:0:
187,324,235692,5,10,0:1:0:0:
187,324,235775,1,8,0:1:0:0:
187,324,235859,1,8,0:1:0:0:
61,239,236025,5,8,0:1:0:0:
61,239,236109,1,8,0:1:0:0:
61,239,236192,2,0,L|66:108,1,101.999996887207,8|12,0:2|0:0,0:0:0:0:
164,32,236525,5,8,0:1:0:0:
164,32,236609,1,8,0:1:0:0:
164,32,236692,1,8,0:1:0:0:
273,137,236859,5,8,0:0:0:0:
308,155,236942,1,8,0:0:0:0:
340,146,237025,1,8,0:3:0:0:
360,128,237109,1,8,0:3:0:0:
368,105,237192,1,4,0:3:0:0:
366,93,237275,1,4,0:3:0:0:
359,86,237359,1,14,0:1:0:0:
142,153,239359,5,12,0:0:0:0:
216,305,239525,1,8,2:2:0:0:
369,230,239692,1,8,2:2:0:0:
294,78,239859,1,12,2:1:0:0:
