osu file format v14

[General]
AudioFilename: audio.mp3
AudioLeadIn: 0
PreviewTime: 55276
Countdown: 0
SampleSet: Soft
StackLeniency: 0.7
Mode: 0
LetterboxInBreaks: 0
WidescreenStoryboard: 1

[Editor]
DistanceSpacing: 1.05
BeatDivisor: 4
GridSize: 32
TimelineZoom: 2.799999

[Metadata]
Title:DICE
TitleUnicode:DICE
Artist:BAND-MAID
ArtistUnicode:BAND-MAID
Creator:Lasse
Version:EASY.
Source:
Tags:bandmaid world domination japanese rock english
BeatmapID:2594988
BeatmapSetID:1248526

[Difficulty]
HPDrainRate:2.4
CircleSize:3
OverallDifficulty:4
ApproachRate:5
SliderMultiplier:0.799999999999999
SliderTickRate:1

[Events]
//Background and Video events
0,0,"e.jpg",0,0
//Break Periods
2,23560,30160
2,90892,97492
2,137559,146825
2,170892,174825
//Storyboard Layer 0 (Background)
//Storyboard Layer 1 (Fail)
//Storyboard Layer 2 (Pass)
//Storyboard Layer 3 (Foreground)
//Storyboard Layer 4 (Overlay)
//Storyboard Sound Samples

[TimingPoints]
2027,333.333333333333,4,2,2,60,1,0
2027,-100,4,2,2,60,0,0
7360,-100,4,2,2,65,0,0
11693,-100,4,2,1,65,0,0
12193,-100,4,2,2,70,0,0
12610,-100,4,2,2,30,0,0
12693,-100,4,2,1,75,0,0
17360,-100,4,2,2,75,0,0
18026,-100,4,2,1,75,0,0
22693,-100,4,2,2,70,0,0
23360,-100,4,2,2,65,0,0
28526,-100,4,2,1,65,0,0
31360,-100,4,2,2,70,0,0
34026,-100,4,2,1,68,0,0
35276,-100,4,2,1,20,0,0
35526,-100,4,2,1,68,0,0
35610,-100,4,2,1,20,0,0
35860,-100,4,2,1,68,0,0
35943,-100,4,2,1,20,0,0
36026,-100,4,2,1,68,0,0
37943,-100,4,2,1,20,0,0
38193,-100,4,2,1,68,0,0
38276,-100,4,2,1,20,0,0
38526,-100,4,2,1,68,0,0
38610,-100,4,2,1,20,0,0
38693,-100,4,2,1,68,0,0
41860,-100,4,2,1,70,0,0
42693,-100,4,2,1,72,0,0
43526,-100,4,2,1,74,0,0
44360,-100,4,2,1,72,0,0
44693,-100,4,2,2,70,0,0
50026,-100,4,2,2,72,0,0
53693,-100,4,2,2,75,0,0
54693,-100,4,2,2,78,0,0
55526,-100,4,2,2,80,0,0
56026,333.333333333333,4,2,1,85,1,0
56026,-90.9090909090909,4,2,1,85,0,1
61359,-90.9090909090909,4,2,2,85,0,1
63692,-90.9090909090909,4,2,1,85,0,1
64025,-90.9090909090909,4,2,1,86,0,1
64692,-90.9090909090909,4,2,1,88,0,1
65359,-90.9090909090909,4,2,1,90,0,1
66025,-90.9090909090909,4,2,1,85,0,1
71359,-90.9090909090909,4,2,2,85,0,1
77359,-90.9090909090909,4,2,1,85,0,1
78025,-90.9090909090909,4,2,2,85,0,1
78692,-100,4,2,1,90,0,0
79692,-100,4,2,1,60,0,0
79942,-100,4,2,1,30,0,0
80025,-100,4,2,1,75,0,0
84692,-100,4,2,2,75,0,0
85359,-100,4,2,1,75,0,0
90025,-100,4,2,2,75,0,0
90692,-100,4,2,2,70,0,0
98692,-100,4,2,2,74,0,0
101359,-100,4,2,2,70,0,0
106692,-100,4,2,2,72,0,0
109359,-100,4,2,2,76,0,0
110692,-100,4,2,2,78,0,0
112025,-100,4,2,2,80,0,0
113359,-90.9090909090909,4,2,1,85,0,1
118692,-90.9090909090909,4,2,2,85,0,1
121359,-90.9090909090909,4,2,2,86,0,1
122025,-90.9090909090909,4,2,2,88,0,1
122692,-90.9090909090909,4,2,2,90,0,1
123359,-90.9090909090909,4,2,2,85,0,1
124025,-90.9090909090909,4,2,1,85,0,1
124359,-90.9090909090909,4,2,2,85,0,1
134692,-90.9090909090909,4,2,1,85,0,1
135359,-90.9090909090909,4,2,2,85,0,1
137025,-90.9090909090909,4,2,2,80,0,1
137359,-100,4,2,1,75,0,0
140025,-100,4,2,2,75,0,0
142859,-100,4,2,1,68,0,0
144525,-100,4,2,2,68,0,0
145525,-100,4,2,2,70,0,0
147609,-100,4,2,2,30,0,0
147692,-100,4,2,2,72,0,0
147775,-100,4,2,2,30,0,0
147859,-100,4,2,2,74,0,0
147942,-100,4,2,2,30,0,0
148025,-95.2380952380952,4,2,1,80,0,1
153359,-95.2380952380952,4,2,1,82,0,1
154192,-95.2380952380952,4,2,1,78,0,1
154692,-95.2380952380952,4,2,1,82,0,1
156025,-95.2380952380952,4,2,1,78,0,1
156359,-95.2380952380952,4,2,1,80,0,1
156692,-95.2380952380952,4,2,1,82,0,1
157025,-95.2380952380952,4,2,1,84,0,1
157359,-95.2380952380952,4,2,1,85,0,1
158609,-95.2380952380952,4,2,1,82,0,1
158692,-100,4,2,2,78,0,0
158859,-100,4,2,2,72,0,0
166692,-100,4,2,2,75,0,0
167025,-100,4,2,2,80,0,0
168025,-100,4,2,2,82,0,0
169192,-100,4,2,1,72,0,0
169859,-100,4,2,1,70,0,0
170275,-100,4,2,1,68,0,0
170525,-100,4,2,1,64,0,0
170692,-100,4,2,99,62,0,0
176025,-100,4,2,2,65,0,0
180859,-100,4,2,1,68,0,0
181025,-100,4,2,1,70,0,0
181359,-100,4,2,1,72,0,0
182692,-100,4,2,2,72,0,0
184025,-100,4,2,1,75,0,0
185359,-100,4,2,2,75,0,0
186692,-100,4,2,1,78,0,0
188025,-100,4,2,2,78,0,0
189025,-100,4,2,1,78,0,0
189692,-100,4,2,1,74,0,0
190692,-100,4,2,1,84,0,0
191359,-100,4,2,1,80,0,0
191442,-100,4,2,1,81,0,0
191525,-100,4,2,1,82,0,0
191609,-100,4,2,1,83,0,0
191692,-100,4,2,1,84,0,0
191775,-100,4,2,1,85,0,0
191859,-100,4,2,1,86,0,0
191942,-100,4,2,1,88,0,0
192025,-90.9090909090909,4,2,1,90,0,1
200025,-90.9090909090909,4,2,2,91,0,1
200692,-90.9090909090909,4,2,2,93,0,1
201359,-90.9090909090909,4,2,2,95,0,1
202025,-90.9090909090909,4,2,2,90,0,1
202692,-90.9090909090909,4,2,1,90,0,1
206692,-90.9090909090909,4,2,2,90,0,1
207025,-90.9090909090909,4,2,1,90,0,1
207359,-90.9090909090909,4,2,2,90,0,1
213359,-90.9090909090909,4,2,1,90,0,1
214025,-90.9090909090909,4,2,2,90,0,1
214692,-100,4,2,1,78,0,0
215609,-100,4,2,1,50,0,0
215692,-100,4,2,1,60,0,0
215942,-100,4,2,1,30,0,0
216025,-100,4,2,1,76,0,0
218859,-100,4,2,2,76,0,0
221359,-100,4,2,1,76,0,0
224192,-100,4,2,2,76,0,0
226692,-100,4,2,1,78,0,0
229359,-100,4,2,2,78,0,0
232025,-100,4,2,1,78,0,0
235525,-100,4,2,2,78,0,0
237359,-100,4,2,99,78,0,0
239359,-100,4,2,1,84,0,0
239525,-100,4,2,2,84,0,0

[Colours]
Combo1 : 255,140,140
Combo2 : 145,185,220
Combo3 : 255,180,110
Combo4 : 175,215,150

[HitObjects]
127,310,693,6,0,P|74:319|5:295,2,120,10|10|10,2:2|2:2|2:2,0:0:0:0:
191,257,2026,6,0,B|168:216|168:216|202:94,1,160,12|8,0:1|0:3,0:0:0:0:
337,26,3360,1,8,0:1:0:0:
472,111,4026,1,8,0:3:0:0:
481,270,4693,6,0,P|440:305|345:280,1,160,10|8,0:1|0:3,0:0:0:0:
300,126,6026,1,8,0:1:0:0:
167,36,6693,1,8,0:3:0:0:
42,136,7360,6,0,P|17:215|39:306,1,160,14|8,0:1|0:3,0:0:0:0:
68,359,8360,1,8,0:0:0:0:
147,359,8693,2,0,L|316:338,1,160,10|8,0:1|0:3,0:0:0:0:
382,361,9693,1,10,0:0:0:0:
450,320,10026,2,0,P|464:278|451:204,1,120,14|8,0:1|0:3,0:0:0:0:
375,111,11026,2,0,L|280:102,1,79.9999999999999,8|8,0:0|0:1,0:0:0:0:
28,31,12693,6,0,L|39:119,1,79.9999999999999,14|10,0:1|0:0,0:0:0:0:
51,193,13360,1,10,0:1:0:0:
130,167,13693,1,10,0:0:0:0:
208,196,14026,2,0,P|247:206|304:198,1,79.9999999999999,2|10,0:0|0:0,0:0:0:0:
353,152,14693,2,0,B|343:113|343:113|361:63,1,79.9999999999999,10|14,0:1|0:0,0:0:0:0:
445,76,15360,6,0,P|457:115|448:156,1,79.9999999999999,14|8,0:1|0:0,0:0:0:0:
418,230,16026,1,10,0:1:0:0:
360,291,16360,1,10,0:0:0:0:
287,333,16693,2,0,P|253:320|198:318,1,79.9999999999999,2|12,0:0|0:0,0:0:0:0:
128,338,17360,1,14,0:1:0:0:
56,381,17693,1,10,0:1:0:0:
0,317,18026,6,0,P|1:266|13:222,1,79.9999999999999,12|10,0:1|0:0,0:0:0:0:
66,177,18693,1,10,0:1:0:0:
149,164,19026,1,10,0:0:0:0:
212,218,19360,2,0,P|239:234|288:230,1,79.9999999999999,2|10,0:0|0:0,0:0:0:0:
357,186,20026,2,0,B|361:163|361:163|359:147|359:147|371:94,1,79.9999999999999,10|14,0:1|0:0,0:0:0:0:
322,36,20693,6,0,P|283:23|232:33,1,79.9999999999999,14|10,0:1|0:0,0:0:0:0:
171,68,21360,1,10,0:1:0:0:
94,32,21693,1,8,0:0:0:0:
23,76,22026,2,0,P|11:105|18:161,1,79.9999999999999,2|10,0:0|0:0,0:0:0:0:
51,228,22693,1,14,0:1:0:0:
133,210,23026,1,10,0:0:0:0:
193,268,23360,1,12,0:1:0:0:
15,355,31360,6,0,P|12:315|27:278,1,79.9999999999999,14|8,0:1|0:1,0:0:0:0:
92,225,32026,2,0,P|123:223|179:188,1,79.9999999999999,10|8,0:1|0:1,0:0:0:0:
222,138,32693,1,10,0:1:0:0:
272,70,33026,1,8,0:0:0:0:
348,34,33360,2,0,P|389:23|441:25,1,79.9999999999999,10|10,0:1|0:0,0:0:0:0:
497,67,34026,5,14,0:1:0:0:
429,180,34526,2,0,P|390:181|338:169,1,79.9999999999999,8|8,0:0|0:1,0:0:0:0:
284,119,35193,1,10,0:0:0:0:
228,181,35526,1,10,0:1:0:0:
289,238,35860,2,0,P|295:272|283:322,1,79.9999999999999,10|8,0:1|0:1,0:0:0:0:
218,365,36526,6,0,L|132:353,1,79.9999999999999,8|8,0:0|0:1,0:0:0:0:
66,310,37193,2,0,P|57:275|68:226,1,79.9999999999999,8|8,0:0|0:1,0:0:0:0:
103,157,37860,1,10,0:0:0:0:
184,138,38193,1,10,0:1:0:0:
254,183,38526,2,0,P|308:196|342:189,1,79.9999999999999,10|8,0:1|0:1,0:0:0:0:
402,137,39193,6,0,L|392:50,1,79.9999999999999,8|8,0:0|0:1,0:0:0:0:
317,19,39860,2,0,L|225:22,1,79.9999999999999,10|8,0:0|0:1,0:0:0:0:
165,66,40526,2,0,L|73:69,1,79.9999999999999,10|8,0:0|0:1,0:0:0:0:
21,123,41193,1,10,0:1:0:0:
43,203,41526,1,10,0:1:0:0:
22,331,42026,6,0,P|54:320|107:322,1,79.9999999999999,10|10,0:1|0:1,0:0:0:0:
169,366,42693,2,0,P|206:377|290:367,1,120,10|14,0:1|0:0,0:0:0:0:
355,321,43526,2,0,P|338:297|334:243,1,79.9999999999999,10|10,0:1|0:1,0:0:0:0:
351,209,44026,1,14,0:0:0:0:
432,228,44360,1,8,0:3:0:0:
479,156,44693,6,0,P|482:101|395:56,1,160,14|10,0:1|0:0,0:0:0:0:
325,95,45693,2,0,L|307:261,1,160,10|10,0:1|0:0,0:0:0:0:
287,335,46693,1,10,0:1:0:0:
204,352,47026,1,10,0:0:0:0:
127,316,47360,6,0,P|108:243|122:152,1,160,14|10,0:1|0:0,0:0:0:0:
167,91,48360,2,0,P|198:119|310:97,1,160,10|10,0:1|0:0,0:0:0:0:
365,41,49360,1,10,0:1:0:0:
448,34,49693,1,14,0:2:0:0:
486,108,50026,6,0,L|473:273,1,160,14|10,0:1|0:0,0:0:0:0:
415,328,51026,2,0,B|329:296|345:372|260:365,1,160,10|10,0:1|0:0,0:0:0:0:
180,363,52026,1,10,0:1:0:0:
105,323,52360,1,10,0:0:0:0:
84,241,52693,6,0,L|111:78,1,160,12|10,0:1|0:0,0:0:0:0:
176,31,53693,1,10,0:0:0:0:
234,91,54026,2,0,L|243:185,1,79.9999999999999,14|8,0:1|0:2,0:0:0:0:
278,246,54693,2,0,L|287:340,1,79.9999999999999,10|10,0:1|0:2,0:0:0:0:
352,376,55360,1,10,0:3:0:0:
510,280,56026,5,12,0:1:0:0:
436,231,56359,1,10,0:0:0:0:
468,149,56692,2,0,P|484:81|468:4,2,132.00000402832,10|2|10,0:1|0:0|0:0,0:0:0:0:
393,196,58026,1,10,0:1:0:0:
286,56,58692,5,10,0:1:0:0:
206,18,59026,1,10,0:0:0:0:
122,45,59359,1,10,0:1:0:0:
86,125,59692,1,8,0:0:0:0:
153,181,60025,2,0,P|202:173|248:176,2,88.0000026855468,10|10|10,0:1|0:0|0:1,0:0:0:0:
23,300,61359,5,14,0:1:0:0:
82,364,61692,1,10,0:0:0:0:
159,323,62025,1,10,0:1:0:0:
284,362,62525,2,0,L|424:359,1,132.00000402832,2|10,0:0|0:0,0:0:0:0:
482,301,63359,1,10,0:1:0:0:
469,125,64025,5,10,0:1:0:0:
402,176,64359,1,10,0:0:0:0:
315,160,64692,1,10,0:1:0:0:
278,79,65025,1,10,0:0:0:0:
191,60,65359,1,10,0:1:0:0:
120,112,65692,1,10,0:0:0:0:
114,199,66025,1,10,0:1:0:0:
186,249,66359,1,14,0:0:0:0:
266,212,66692,6,0,P|323:189|411:301,1,220.000006713867,14|10,0:1|0:1,0:0:0:0:
355,360,67859,2,0,L|257:350,1,88.0000026855468,2|10,0:0|0:1,0:0:0:0:
185,319,68525,1,2,0:0:0:0:
110,366,68859,1,10,0:1:0:0:
32,258,69359,6,0,P|22:210|41:118,2,132.00000402832,10|2|8,0:1|0:0|0:0,0:0:0:0:
89,325,70692,1,10,0:1:0:0:
167,284,71025,1,10,0:0:0:0:
250,313,71359,1,10,0:1:0:0:
423,349,72025,6,0,P|474:257|423:165,1,220.000006713867,14|10,0:1|0:1,0:0:0:0:
341,135,73192,2,0,L|242:152,1,88.0000026855468,2|10,0:0|0:1,0:0:0:0:
171,119,73859,1,2,0:1:0:0:
114,51,74192,1,10,0:1:0:0:
24,147,74692,6,0,P|8:179|32:284,1,132.00000402832,10|2,0:1|0:0,0:0:0:0:
89,326,75525,2,0,P|137:308|187:314,1,88.0000026855468,8|2,0:1|0:0,0:0:0:0:
209,335,76025,1,10,0:1:0:0:
289,371,76359,1,10,0:0:0:0:
367,331,76692,1,10,0:0:0:0:
491,206,77359,5,14,0:1:0:0:
415,161,77692,1,10,0:1:0:0:
339,116,78025,1,10,0:3:0:0:
263,71,78359,1,6,0:3:0:0:
218,147,78692,1,14,0:0:0:0:
0,341,80025,6,0,L|5:246,1,79.9999999999999,14|10,0:1|0:0,0:0:0:0:
35,182,80692,1,10,0:1:0:0:
109,221,81025,1,10,0:0:0:0:
182,181,81359,2,0,L|184:86,1,79.9999999999999,2|10,0:0|0:0,0:0:0:0:
246,44,82025,2,0,B|286:34|286:34|327:47,1,79.9999999999999,10|14,0:1|0:0,0:0:0:0:
391,95,82692,6,0,L|400:177,1,79.9999999999999,12|8,0:1|0:0,0:0:0:0:
385,257,83359,1,8,0:1:0:0:
425,330,83692,1,8,0:0:0:0:
348,364,84025,2,0,L|258:358,1,79.9999999999999,0|12,0:0|0:0,0:0:0:0:
185,376,84692,1,14,0:1:0:0:
144,302,85025,1,10,0:1:0:0:
204,244,85359,6,0,P|211:204|211:164,1,79.9999999999999,14|10,0:1|0:0,0:0:0:0:
193,82,86025,1,10,0:1:0:0:
114,52,86359,1,10,0:0:0:0:
39,90,86692,2,0,P|31:129|31:169,1,79.9999999999999,2|10,0:0|0:0,0:0:0:0:
66,245,87359,2,0,B|70:268|70:268|68:294|68:294|80:337,1,79.9999999999999,10|14,0:1|0:0,0:0:0:0:
149,365,88025,6,0,P|186:364|224:345,1,79.9999999999999,14|10,0:1|0:0,0:0:0:0:
254,266,88692,1,10,0:1:0:0:
212,192,89025,1,10,0:0:0:0:
248,116,89359,2,0,L|277:38,1,79.9999999999999,2|14,0:0|0:0,0:0:0:0:
356,16,90025,1,14,0:1:0:0:
433,48,90359,1,10,0:0:0:0:
435,132,90692,1,12,0:1:0:0:
0,88,98692,6,0,L|89:81,1,79.9999999999999,12|8,0:1|0:0,0:0:0:0:
137,142,99359,2,0,P|119:183|143:269,1,120,10|14,0:0|0:1,0:0:0:0:
182,322,100192,2,0,P|210:312|268:315,1,79.9999999999999,8|2,0:1|0:0,0:0:0:0:
295,335,100692,1,8,0:0:0:0:
369,372,101025,1,8,0:0:0:0:
446,339,101359,6,0,P|461:297|441:178,1,160,14|14,0:1|0:0,0:0:0:0:
381,128,102359,2,0,B|331:119|331:119|309:238,1,160,10|14,0:1|0:0,0:0:0:0:
300,309,103359,1,10,0:1:0:0:
228,352,103692,1,14,0:0:0:0:
153,312,104025,6,0,P|123:241|140:146,1,160,14|12,0:1|0:0,0:0:0:0:
180,90,105025,2,0,B|229:85|229:85|274:100|274:100|354:92,1,160,10|10,0:1|0:0,0:0:0:0:
397,35,106025,1,10,0:1:0:0:
479,51,106359,1,10,0:0:0:0:
502,131,106692,6,0,B|493:183|493:183|501:221|501:221|486:295,1,160,14|14,0:1|0:0,0:0:0:0:
429,349,107692,2,0,P|393:327|265:319,1,160,10|10,0:1|0:0,0:0:0:0:
203,354,108692,1,10,0:1:0:0:
149,288,109025,1,14,0:0:0:0:
200,222,109359,6,0,P|223:160|208:54,1,160,14|10,0:1|0:0,0:0:0:0:
142,22,110359,1,10,0:0:0:0:
62,48,110692,2,0,P|47:94|50:141,1,79.9999999999999,10|12,0:0|0:0,0:0:0:0:
91,196,111359,2,0,P|102:236|100:290,1,79.9999999999999,8|12,0:0|0:0,0:0:0:0:
74,353,112025,1,10,0:0:0:0:
375,310,113359,5,12,0:1:0:0:
450,354,113692,1,10,0:0:0:0:
505,285,114025,2,0,P|512:218|495:143,2,132.00000402832,10|2|10,0:1|0:0|0:0,0:0:0:0:
450,354,115359,1,10,0:1:0:0:
336,286,115859,6,0,P|277:262|196:287,1,132.00000402832,2|10,0:0|0:0,0:0:0:0:
153,341,116692,1,10,0:1:0:0:
66,325,117025,1,10,0:0:0:0:
6,259,117359,2,8,L|18:170,1,88.0000026855468,10|10,0:1|0:0,0:1:0:0:
68,99,118025,2,0,P|99:87|169:97,1,88.0000026855468,10|10,0:1|0:0,0:0:0:0:
220,146,118692,5,12,0:1:0:0:
208,233,119025,1,10,0:0:0:0:
257,305,119359,1,10,0:1:0:0:
379,255,119859,2,0,L|391:111,1,132.00000402832,2|10,0:0|0:0,0:0:0:0:
335,53,120692,1,10,0:1:0:0:
164,10,121359,5,2,0:0:0:0:
100,70,121692,1,10,0:2:0:0:
123,154,122025,1,10,0:1:0:0:
204,185,122359,1,10,0:0:0:0:
233,268,122692,1,10,0:1:0:0:
202,350,123025,1,10,0:0:0:0:
117,376,123359,1,10,2:1:0:0:
42,328,123692,1,14,2:0:0:0:
13,244,124025,6,0,B|0:165|26:86|26:86|56:57|93:56,1,220.000006713867,14|10,0:1|0:1,0:0:0:0:
164,75,125192,2,0,P|213:82|262:65,1,88.0000026855468,2|2,0:0|0:0,0:0:0:0:
327,30,125859,1,2,0:0:0:0:
414,23,126192,1,10,0:1:0:0:
490,130,126692,6,0,L|473:359,1,220.000006713867,10|10,0:1|0:1,0:0:0:0:
343,371,128025,1,10,0:1:0:0:
260,341,128359,1,10,0:0:0:0:
268,253,128692,1,10,0:1:0:0:
424,170,129359,6,0,B|448:158|473:120|473:120|460:13|382:16,1,220.000006713867,14|10,0:1|0:1,0:0:0:0:
307,50,130525,2,0,L|293:155,1,88.0000026855468,2|2,0:0|0:0,0:0:0:0:
260,218,131192,1,2,0:0:0:0:
183,262,131525,1,10,0:1:0:0:
63,206,132025,6,0,P|55:160|84:75,1,132.00000402832,10|2,0:1|0:0,0:0:0:0:
154,33,132859,2,0,P|198:48|254:40,1,88.0000026855468,10|0,0:1|0:0,0:0:0:0:
279,29,133359,1,10,0:1:0:0:
365,12,133692,1,8,0:0:0:0:
441,55,134025,1,8,0:0:0:0:
500,218,134692,5,14,0:1:0:0:
429,270,135025,1,10,0:1:0:0:
343,248,135359,1,6,0:3:0:0:
275,305,135692,1,10,0:0:0:0:
203,253,136025,2,0,P|194:225|207:155,1,88.0000026855468,14|14,0:1|0:1,0:0:0:0:
248,93,136692,2,0,L|347:73,1,88.0000026855468,10|8,0:0|0:0,0:0:0:0:
415,101,137359,1,14,0:1:0:0:
320,137,148025,6,2,B|290:103|290:103|319:13,2,125.999996154785,14|2|10,0:1|0:0|0:0,0:1:0:0:
397,170,149359,2,0,B|476:157|476:157|517:198,2,125.999996154785,10|2|10,0:1|0:0|0:0,0:0:0:0:
328,218,150692,5,10,0:1:0:0:
328,301,151025,1,10,0:0:0:0:
266,358,151359,1,10,0:1:0:0:
182,356,151692,1,8,0:0:0:0:
127,292,152025,1,8,0:1:0:0:
126,207,152359,1,8,0:0:0:0:
190,152,152692,1,10,0:1:0:0:
353,189,153359,6,0,P|454:188|423:69,1,251.99999230957,14|10,0:1|0:0,0:0:0:0:
350,44,154692,2,0,B|253:9|229:144|197:1|102:52,1,251.99999230957,10|10,0:1|0:0,0:0:0:0:
35,93,156025,5,10,0:1:0:0:
11,173,156359,1,10,0:0:0:0:
49,247,156692,1,10,0:1:0:0:
127,277,157025,1,10,0:0:0:0:
204,244,157359,1,10,0:1:0:0:
224,162,157692,1,10,0:0:0:0:
295,117,158025,1,10,0:0:0:0:
379,119,158359,1,10,0:0:0:0:
437,178,158692,6,0,P|457:259|425:340,1,160,14|14,0:1|0:0,0:0:0:0:
351,351,159692,2,0,L|189:332,1,160,10|14,0:1|0:0,0:0:0:0:
116,369,160692,1,10,0:1:0:0:
55,310,161025,1,14,0:0:0:0:
97,237,161359,6,0,B|118:187|118:187|107:142|107:142|136:73,1,160,14|14,0:1|0:0,0:0:0:0:
206,51,162359,2,0,B|270:78|270:78|304:37|355:36,1,160,10|10,0:1|0:0,0:0:0:0:
431,35,163359,1,10,0:1:0:0:
473,107,163692,1,14,0:0:0:0:
419,171,164025,6,0,B|388:236|477:246|434:319,1,160,14|14,0:1|0:0,0:0:0:0:
360,359,165025,2,0,L|191:346,1,160,10|14,0:1|0:0,0:0:0:0:
119,369,166025,1,10,0:1:0:0:
40,338,166359,1,14,0:0:0:0:
23,255,166692,6,0,P|22:174|49:90,1,160,10|10,0:0|0:0,0:0:0:0:
108,43,167692,1,10,0:2:0:0:
186,72,168025,2,0,P|225:82|272:75,1,79.9999999999999,10|12,0:1|0:0,0:0:0:0:
342,47,168692,2,0,P|381:37|428:44,1,79.9999999999999,8|12,0:0|0:0,0:0:0:0:
481,98,169359,6,0,B|476:137|476:137|484:151|484:151|477:198|477:198|483:211|483:211|476:268,2,160,8|8|14,0:1|0:0|0:1,0:0:0:0:
375,278,176025,5,14,0:1:0:0:
170,311,177359,5,14,0:1:0:0:
137,106,178692,5,14,0:1:0:0:
342,73,180025,6,0,P|432:94|420:224,1,240,14|8,0:1|0:0,0:0:0:0:
360,275,181359,6,0,L|270:264,1,79.9999999999999,14|8,0:1|0:1,0:0:0:0:
200,239,182025,1,10,0:1:0:0:
137,295,182359,1,8,0:1:0:0:
63,254,182692,2,0,P|49:215|59:169,2,79.9999999999999,14|8|10,0:1|0:1|0:1,0:0:0:0:
206,354,184025,6,0,L|299:347,1,79.9999999999999,14|8,0:1|0:1,0:0:0:0:
367,329,184692,1,10,0:1:0:0:
435,376,185025,1,8,0:1:0:0:
494,316,185359,2,0,P|500:277|488:229,1,79.9999999999999,14|8,0:1|0:1,0:0:0:0:
441,170,186025,2,0,L|356:164,1,79.9999999999999,10|8,0:1|0:3,0:0:0:0:
287,124,186692,6,0,P|292:79|280:37,1,79.9999999999999,14|8,0:1|0:1,0:0:0:0:
206,12,187359,1,10,0:1:0:0:
124,32,187692,1,8,0:1:0:0:
89,108,188025,2,0,P|84:153|96:195,1,79.9999999999999,14|8,0:1|0:1,0:0:0:0:
157,239,188692,1,10,0:1:0:0:
230,195,189025,1,10,0:0:0:0:
297,248,189359,6,0,P|334:294|413:143,1,320,14|10,0:1|0:0,0:0:0:0:
105,19,192025,5,14,0:1:0:0:
143,98,192359,1,10,0:0:0:0:
88,167,192692,2,0,P|60:235|66:306,2,132.00000402832,10|2|10,0:1|0:0|0:0,0:0:0:0:
143,98,194025,1,10,0:1:0:0:
287,9,194692,5,10,0:1:0:0:
333,84,195025,1,10,0:0:0:0:
420,80,195359,1,10,0:1:0:0:
481,142,195692,1,10,0:0:0:0:
474,229,196025,1,10,0:1:0:0:
397,273,196359,1,10,0:0:0:0:
399,360,196692,1,10,0:1:0:0:
244,275,197359,5,12,0:1:0:0:
184,339,197692,1,10,0:0:0:0:
97,323,198025,1,10,0:1:0:0:
32,207,198525,2,0,L|57:64,1,132.00000402832,2|10,0:0|0:0,0:0:0:0:
121,18,199359,1,10,0:1:0:0:
290,63,200025,5,14,0:1:0:0:
222,120,200359,1,10,0:0:0:0:
215,207,200692,1,14,0:1:0:0:
264,279,201025,1,10,0:1:0:0:
349,300,201359,1,14,0:2:0:0:
427,260,201692,1,10,0:1:0:0:
451,175,202025,1,10,2:3:0:0:
404,99,202359,1,14,2:0:0:0:
316,85,202692,6,0,B|179:91|272:13|105:14,1,220.000006713867,14|10,0:1|0:1,0:0:0:0:
47,66,203859,2,0,L|63:170,1,88.0000026855468,2|2,0:0|0:0,0:0:0:0:
81,238,204525,1,2,0:0:0:0:
161,273,204859,1,10,0:1:0:0:
282,220,205359,6,0,P|335:193|419:213,2,132.00000402832,14|2|10,0:1|0:0|0:0,0:0:0:0:
230,291,206692,1,14,0:1:0:0:
152,332,207025,1,14,0:0:0:0:
66,310,207359,1,10,0:1:0:0:
19,140,208025,6,0,P|29:86|172:65,1,220.000006713867,14|10,0:1|0:1,0:0:0:0:
231,125,209192,2,0,L|217:217,1,88.0000026855468,2|2,0:0|0:0,0:0:0:0:
241,296,209859,1,2,0:1:0:0:
317,338,210192,1,10,0:1:0:0:
438,286,210692,6,0,P|454:254|430:149,1,132.00000402832,10|10,0:1|0:1,0:0:0:0:
374,103,211525,2,0,P|327:103|286:75,1,88.0000026855468,8|10,0:1|0:1,0:0:0:0:
261,51,212025,1,14,0:1:0:0:
178,82,212359,1,14,0:0:0:0:
107,30,212692,1,14,0:0:0:0:
103,206,213359,5,14,0:1:0:0:
190,192,213692,1,10,0:1:0:0:
277,177,214025,1,6,0:3:0:0:
364,162,214359,1,6,0:3:0:0:
379,249,214692,1,14,0:1:0:0:
75,349,216025,6,0,P|69:309|81:259,1,79.9999999999999,14|10,0:1|0:0,0:0:0:0:
120,198,216692,1,10,0:1:0:0:
203,196,217025,1,10,0:0:0:0:
265,251,217359,2,0,P|299:262|361:266,1,79.9999999999999,2|10,0:0|0:0,0:0:0:0:
418,228,218025,2,0,B|428:199|428:199|425:183|425:183|435:141,1,79.9999999999999,10|14,0:1|0:0,0:0:0:0:
403,71,218692,6,0,P|364:56|319:53,1,79.9999999999999,14|10,0:1|0:0,0:0:0:0:
247,80,219359,1,10,0:1:0:0:
171,42,219692,1,10,0:0:0:0:
104,92,220025,2,0,P|92:124|99:179,1,79.9999999999999,2|14,0:1|0:0,0:0:0:0:
146,236,220692,1,14,0:1:0:0:
222,201,221025,1,10,0:1:0:0:
287,254,221359,6,0,P|284:307|295:339,1,79.9999999999999,14|10,0:1|0:0,0:0:0:0:
360,380,222025,1,10,0:1:0:0:
442,365,222359,1,10,0:0:0:0:
487,293,222692,2,0,P|490:240|479:208,1,79.9999999999999,2|10,0:0|0:0,0:0:0:0:
421,156,223359,2,0,B|391:149|391:149|379:154|379:154|329:144,1,79.9999999999999,10|14,0:1|0:0,0:0:0:0:
259,139,224025,6,0,P|268:97|253:55,1,79.9999999999999,14|10,0:1|0:0,0:0:0:0:
189,13,224692,1,10,0:1:0:0:
111,46,225025,1,10,0:0:0:0:
68,118,225359,2,0,B|58:146|48:160|48:160|59:199|98:215|98:215|86:263,1,160,10|10,0:1|0:0,0:0:0:0:
224,350,226692,6,0,L|316:344,1,79.9999999999999,14|10,0:1|0:0,0:0:0:0:
385,366,227359,1,10,0:1:0:0:
438,301,227692,1,10,0:0:0:0:
387,233,228025,2,0,L|380:137,1,79.9999999999999,2|10,0:0|0:0,0:0:0:0:
327,88,228692,2,0,B|287:98|287:98|246:85,1,79.9999999999999,10|14,0:1|0:0,0:0:0:0:
173,52,229359,6,0,P|145:41|88:48,1,79.9999999999999,14|10,0:1|0:0,0:0:0:0:
29,95,230025,1,10,0:1:0:0:
9,176,230359,1,10,0:0:0:0:
61,241,230692,2,0,P|106:251|151:235,1,79.9999999999999,2|14,0:0|0:0,0:0:0:0:
203,190,231359,1,14,0:1:0:0:
275,232,231692,1,10,0:1:0:0:
327,166,232025,6,0,P|324:125|334:86,1,79.9999999999999,14|10,0:1|0:1,0:0:0:0:
379,16,232692,1,14,0:0:0:0:
462,22,233025,1,8,0:1:0:0:
503,95,233359,2,0,P|506:136|496:175,1,79.9999999999999,8|14,0:1|0:0,0:0:0:0:
427,220,234025,2,0,B|401:219|401:219|382:226|382:226|338:221,1,79.9999999999999,8|10,0:3|0:0,0:0:0:0:
264,216,234692,6,0,L|254:124,1,79.9999999999999,14|10,0:1|0:1,0:0:0:0:
226,57,235359,1,8,0:1:0:0:
142,56,235692,1,10,0:1:0:0:
104,130,236025,2,0,L|95:210,1,79.9999999999999,10|12,0:1|0:0,0:0:0:0:
116,290,236692,1,10,0:1:0:0:
199,296,237025,1,10,0:3:0:0:
260,353,237359,1,14,0:1:0:0:
456,146,239359,6,0,B|452:126|452:126|457:110|457:110|449:86|449:86|457:69|457:69|451:20,1,120,12|12,0:0|2:1,0:0:0:0:
