osu file format v14

[General]
AudioFilename: audio.mp3
AudioLeadIn: 0
PreviewTime: 54810
Countdown: 0
SampleSet: Normal
StackLeniency: 0.7
Mode: 1
LetterboxInBreaks: 0
WidescreenStoryboard: 1

[Editor]
DistanceSpacing: 3
BeatDivisor: 4
GridSize: 4
TimelineZoom: 1.8

[Metadata]
Title:DICE
TitleUnicode:DICE
Artist:BAND-MAID
ArtistUnicode:BAND-MAID
Creator:-Tenshi-
Version:Oni
Source:
Tags:japanese j-rock hard rock metal miku kobato kanami akane saiki misa 小鳩 ミク 遠乃 歌波 touno tono 廣瀬 茜 hirose 厚見 彩姫 atsumi world domination Band-Maiko
BeatmapID:2372915
BeatmapSetID:1121118

[Difficulty]
HPDrainRate:5
CircleSize:5
OverallDifficulty:5
ApproachRate:5
SliderMultiplier:1.4
SliderTickRate:1

[Events]
//Background and Video events
0,0,"band-maid-5872f69ab5abe.jpg",0,50
//Break Periods
2,170343,174276
//Storyboard Layer 0 (Background)
//Storyboard Layer 1 (Fail)
//Storyboard Layer 2 (Pass)
//Storyboard Layer 3 (Foreground)
//Storyboard Layer 4 (Overlay)
//Storyboard Sound Samples

[TimingPoints]
144,333.333333333333,4,1,0,100,1,0
54810,333.333333333333,4,1,0,100,1,8
55477,333.333333333333,4,1,0,100,1,1
78143,-100,4,1,0,100,0,0
112810,-100,4,1,0,100,0,1
135476,-100,4,1,0,100,0,0
191476,-100,4,1,0,100,0,1
214143,-100,4,1,0,100,0,0

[HitObjects]
224,209,144,5,0,0:0:0:0:
230,133,227,1,0,0:0:0:0:
265,194,310,1,0,0:0:0:0:
265,194,477,1,8,0:0:0:0:
271,159,643,1,8,0:0:0:0:
165,177,810,1,0,0:0:0:0:
254,157,977,1,8,0:0:0:0:
170,145,1143,1,8,0:0:0:0:
119,113,1227,1,8,0:0:0:0:
188,136,1310,1,8,0:0:0:0:
188,136,1393,1,8,0:0:0:0:
188,136,1477,1,0,0:0:0:0:
165,166,1810,1,8,0:0:0:0:
104,198,1977,1,0,0:0:0:0:
194,158,2143,1,0,0:0:0:0:
179,168,2227,1,0,0:0:0:0:
194,158,2310,1,0,0:0:0:0:
194,158,2477,1,8,0:0:0:0:
150,82,2643,1,0,0:0:0:0:
181,153,2810,1,0,0:0:0:0:
181,153,2977,1,0,0:0:0:0:
181,153,3143,1,8,0:0:0:0:
189,111,3310,1,0,0:0:0:0:
211,157,3477,1,8,0:0:0:0:
166,83,3560,1,8,0:0:0:0:
211,157,3643,1,0,0:0:0:0:
211,157,3810,1,8,0:0:0:0:
179,95,4143,1,8,0:0:0:0:
179,95,4310,1,0,0:0:0:0:
179,95,4477,1,8,0:0:0:0:
34,158,4643,1,0,0:0:0:0:
182,88,4810,1,0,0:0:0:0:
166,83,4893,1,0,0:0:0:0:
182,88,4977,1,0,0:0:0:0:
182,88,5143,1,8,0:0:0:0:
192,77,5310,1,0,0:0:0:0:
208,113,5477,1,0,0:0:0:0:
208,113,5643,1,0,0:0:0:0:
208,113,5810,1,8,0:0:0:0:
222,133,5977,1,0,0:0:0:0:
208,113,6143,1,8,0:0:0:0:
219,71,6227,1,8,0:0:0:0:
208,113,6310,1,0,0:0:0:0:
208,113,6477,1,8,0:0:0:0:
219,71,6643,1,0,0:0:0:0:
222,133,6810,1,12,0:0:0:0:
181,79,7143,1,8,0:0:0:0:
71,191,7310,1,0,0:0:0:0:
181,79,7477,1,0,0:0:0:0:
181,79,7560,1,0,0:0:0:0:
181,79,7643,1,0,0:0:0:0:
181,79,7810,1,8,0:0:0:0:
172,75,7977,1,0,0:0:0:0:
192,46,8143,1,0,0:0:0:0:
192,46,8310,1,0,0:0:0:0:
192,46,8477,1,8,0:0:0:0:
168,98,8643,1,0,0:0:0:0:
192,46,8810,1,8,0:0:0:0:
163,69,8893,1,8,0:0:0:0:
163,69,8977,1,0,0:0:0:0:
163,69,9143,1,8,0:0:0:0:
163,69,9477,1,8,0:0:0:0:
103,126,9643,1,0,0:0:0:0:
88,112,9810,1,8,0:0:0:0:
254,142,9977,1,8,0:0:0:0:
119,167,10143,1,0,0:0:0:0:
81,136,10310,1,0,0:0:0:0:
89,155,10477,1,8,0:0:0:0:
89,155,10560,1,8,0:0:0:0:
89,155,10643,1,8,0:0:0:0:
191,54,10727,1,8,0:0:0:0:
157,116,10810,1,0,0:0:0:0:
139,151,11143,1,8,0:0:0:0:
166,138,11477,1,8,0:0:0:0:
166,138,11810,1,8,0:0:0:0:
148,142,12143,1,12,0:0:0:0:
115,122,12310,1,0,0:0:0:0:
115,122,12477,1,8,0:0:0:0:
159,102,12643,1,0,0:0:0:0:
161,120,12810,1,0,0:0:0:0:
161,120,12977,1,0,0:0:0:0:
161,120,13143,1,8,0:0:0:0:
328,66,13310,1,8,0:0:0:0:
289,95,13393,1,8,0:0:0:0:
155,111,13477,1,0,0:0:0:0:
155,111,13643,1,0,0:0:0:0:
155,111,13810,1,8,0:0:0:0:
155,111,13977,1,0,0:0:0:0:
155,111,14310,1,0,0:0:0:0:
155,111,14477,1,12,0:0:0:0:
123,85,14810,1,0,0:0:0:0:
150,133,14977,1,8,0:0:0:0:
150,133,15143,1,8,0:0:0:0:
141,141,15310,1,0,0:0:0:0:
82,121,15477,1,0,0:0:0:0:
82,121,15643,1,0,0:0:0:0:
82,121,15810,1,8,0:0:0:0:
234,118,15977,1,0,0:0:0:0:
83,89,16143,1,8,0:0:0:0:
143,111,16310,1,0,0:0:0:0:
143,111,16393,1,0,0:0:0:0:
143,111,16477,1,8,0:0:0:0:
175,91,16643,1,0,0:0:0:0:
113,171,16810,1,12,0:0:0:0:
137,46,16977,1,0,0:0:0:0:
138,158,17143,1,12,0:0:0:0:
153,148,17477,1,8,0:0:0:0:
115,122,17643,1,0,0:0:0:0:
115,122,17810,1,8,0:0:0:0:
164,93,17977,1,0,0:0:0:0:
161,120,18143,1,0,0:0:0:0:
161,120,18310,1,0,0:0:0:0:
161,120,18477,1,8,0:0:0:0:
173,100,18643,1,8,0:0:0:0:
173,100,18727,1,8,0:0:0:0:
155,111,18810,1,0,0:0:0:0:
155,111,18977,1,0,0:0:0:0:
155,111,19143,1,8,0:0:0:0:
155,111,19310,1,0,0:0:0:0:
155,111,19643,1,0,0:0:0:0:
155,111,19810,1,12,0:0:0:0:
123,85,20143,1,0,0:0:0:0:
150,133,20310,1,8,0:0:0:0:
150,133,20477,1,8,0:0:0:0:
124,102,20643,1,0,0:0:0:0:
82,121,20810,1,0,0:0:0:0:
82,121,20977,1,0,0:0:0:0:
82,121,21143,1,8,0:0:0:0:
227,144,21310,1,0,0:0:0:0:
83,89,21477,1,8,0:0:0:0:
143,111,21643,1,0,0:0:0:0:
143,111,21727,1,0,0:0:0:0:
143,111,21810,1,8,0:0:0:0:
173,50,21977,1,0,0:0:0:0:
113,171,22143,1,12,0:0:0:0:
55,145,22310,1,0,0:0:0:0:
175,133,22393,1,0,0:0:0:0:
138,158,22477,1,0,0:0:0:0:
175,133,22560,1,0,0:0:0:0:
88,100,22643,1,0,0:0:0:0:
115,139,22727,1,0,0:0:0:0:
119,108,22810,1,8,0:0:0:0:
242,156,23143,1,8,0:0:0:0:
242,156,23310,1,8,0:0:0:0:
242,156,23477,1,0,0:0:0:0:
242,156,23810,1,0,0:0:0:0:
188,77,23977,1,0,0:0:0:0:
149,153,24060,1,0,0:0:0:0:
48,119,24143,1,8,0:0:0:0:
254,100,24310,1,0,0:0:0:0:
120,110,24477,1,8,0:0:0:0:
79,120,24643,1,0,0:0:0:0:
166,102,24810,1,8,0:0:0:0:
121,93,24977,1,8,0:0:0:0:
132,177,25143,1,0,0:0:0:0:
166,102,25477,1,8,0:0:0:0:
213,118,25643,1,0,0:0:0:0:
213,118,25810,1,8,0:0:0:0:
138,105,25977,1,8,0:0:0:0:
148,73,26060,1,0,0:0:0:0:
213,118,26143,1,0,0:0:0:0:
213,118,26310,1,8,0:0:0:0:
213,118,26477,1,0,0:0:0:0:
220,141,26810,1,8,0:0:0:0:
164,92,26977,1,0,0:0:0:0:
154,146,27060,1,8,0:0:0:0:
220,141,27143,1,0,0:0:0:0:
150,143,27310,1,8,0:0:0:0:
194,88,27477,1,0,0:0:0:0:
164,92,27643,1,8,0:0:0:0:
152,60,27810,1,0,0:0:0:0:
154,83,27977,1,8,0:0:0:0:
154,83,28143,1,8,0:0:0:0:
58,129,28477,1,0,0:0:0:0:
75,136,28643,1,0,0:0:0:0:
141,146,28810,1,8,0:0:0:0:
159,134,28977,1,0,0:0:0:0:
141,146,29143,1,8,0:0:0:0:
75,89,29310,1,8,0:0:0:0:
188,181,29393,1,8,0:0:0:0:
159,134,29477,1,0,0:0:0:0:
145,89,29643,1,8,0:0:0:0:
90,208,29810,1,0,0:0:0:0:
103,157,29977,1,8,0:0:0:0:
148,117,30143,1,0,0:0:0:0:
149,86,30310,1,0,0:0:0:0:
55,131,30477,1,12,0:0:0:0:
99,134,30810,1,0,0:0:0:0:
147,127,30977,1,0,0:0:0:0:
170,132,31143,1,8,0:0:0:0:
170,132,31310,1,0,0:0:0:0:
170,131,31477,1,0,0:0:0:0:
170,131,31643,1,0,0:0:0:0:
170,131,31810,1,8,0:0:0:0:
170,131,31977,1,0,0:0:0:0:
165,45,32060,1,0,0:0:0:0:
170,132,32143,1,8,0:0:0:0:
179,97,32310,1,0,0:0:0:0:
179,97,32477,1,8,0:0:0:0:
179,97,32643,1,8,0:0:0:0:
137,149,32977,1,0,0:0:0:0:
137,149,33143,1,8,0:0:0:0:
148,148,33310,1,0,0:0:0:0:
148,148,33393,1,0,0:0:0:0:
148,148,33477,1,8,0:0:0:0:
85,109,33643,1,0,0:0:0:0:
168,162,33977,1,8,0:0:0:0:
177,102,34060,1,0,0:0:0:0:
179,143,34143,1,0,0:0:0:0:
177,102,34310,1,8,0:0:0:0:
116,127,34643,1,8,0:0:0:0:
116,127,34977,1,8,0:0:0:0:
176,88,35310,1,8,0:0:0:0:
262,149,35477,1,0,0:0:0:0:
170,95,35560,1,0,0:0:0:0:
262,149,35643,1,8,0:0:0:0:
110,118,35977,1,0,0:0:0:0:
88,75,36060,1,0,0:0:0:0:
110,118,36143,1,8,0:0:0:0:
15,141,36310,1,0,0:0:0:0:
130,157,36643,1,8,0:0:0:0:
130,157,36727,1,0,0:0:0:0:
130,157,36810,1,0,0:0:0:0:
130,157,36977,1,8,0:0:0:0:
155,124,37310,1,8,0:0:0:0:
155,124,37643,1,8,0:0:0:0:
155,124,37977,1,8,0:0:0:0:
205,88,38143,1,0,0:0:0:0:
139,86,38227,1,0,0:0:0:0:
205,88,38310,1,8,0:0:0:0:
88,100,38643,1,8,0:0:0:0:
174,60,38727,1,0,0:0:0:0:
88,100,38810,1,0,0:0:0:0:
99,109,38977,1,0,0:0:0:0:
132,107,39310,1,8,0:0:0:0:
132,107,39393,1,0,0:0:0:0:
132,107,39477,1,0,0:0:0:0:
154,95,39643,1,8,0:0:0:0:
81,109,39977,1,8,0:0:0:0:
81,109,40310,1,8,0:0:0:0:
81,109,40643,1,8,0:0:0:0:
81,109,40810,1,0,0:0:0:0:
114,120,40893,1,0,0:0:0:0:
81,109,40977,1,8,0:0:0:0:
144,62,41143,1,0,0:0:0:0:
139,89,41310,1,8,0:0:0:0:
139,89,41393,1,0,0:0:0:0:
139,89,41477,1,0,0:0:0:0:
117,171,41643,1,8,0:0:0:0:
206,115,41810,1,0,0:0:0:0:
206,115,41977,1,8,0:0:0:0:
206,115,42143,1,0,0:0:0:0:
88,122,42227,1,0,0:0:0:0:
206,115,42310,1,0,0:0:0:0:
84,87,42477,1,0,0:0:0:0:
214,111,42643,1,12,0:0:0:0:
145,81,42977,1,8,0:0:0:0:
135,78,43143,1,0,0:0:0:0:
133,75,43310,1,8,0:0:0:0:
98,113,43477,1,0,0:0:0:0:
98,113,43643,1,8,0:0:0:0:
79,98,43810,1,0,0:0:0:0:
121,102,43893,1,0,0:0:0:0:
121,102,43977,1,0,0:0:0:0:
203,126,44060,1,0,0:0:0:0:
121,102,44143,1,8,0:0:0:0:
39,144,44477,1,0,0:0:0:0:
108,110,44810,1,8,0:0:0:0:
99,118,44977,1,0,0:0:0:0:
99,118,45143,1,8,0:0:0:0:
137,111,45310,1,8,0:0:0:0:
129,121,45393,1,8,0:0:0:0:
137,111,45477,1,0,0:0:0:0:
159,82,45643,1,0,0:0:0:0:
134,64,45810,1,8,0:0:0:0:
174,66,45977,1,0,0:0:0:0:
103,126,46143,1,8,0:0:0:0:
178,113,46227,1,0,0:0:0:0:
178,113,46310,1,8,0:0:0:0:
85,110,46477,1,8,0:0:0:0:
85,115,46643,1,0,0:0:0:0:
139,102,46810,1,8,0:0:0:0:
92,136,47143,1,8,0:0:0:0:
183,117,47310,1,0,0:0:0:0:
183,117,47393,1,0,0:0:0:0:
139,115,47477,1,8,0:0:0:0:
143,111,47643,1,0,0:0:0:0:
143,111,47810,1,8,0:0:0:0:
106,112,47977,1,0,0:0:0:0:
134,157,48143,1,8,0:0:0:0:
134,157,48227,1,8,0:0:0:0:
134,157,48310,1,0,0:0:0:0:
106,121,48477,1,8,0:0:0:0:
159,80,48810,1,0,0:0:0:0:
159,80,48893,1,0,0:0:0:0:
159,80,48977,1,8,0:0:0:0:
97,124,49143,1,8,0:0:0:0:
130,126,49310,1,0,0:0:0:0:
168,139,49477,1,8,0:0:0:0:
152,163,49810,1,0,0:0:0:0:
66,85,49977,1,0,0:0:0:0:
117,109,50060,1,0,0:0:0:0:
117,109,50143,1,8,0:0:0:0:
11,165,50310,1,8,0:0:0:0:
173,76,50477,1,0,0:0:0:0:
154,45,50643,1,0,0:0:0:0:
73,81,50810,1,8,0:0:0:0:
159,95,51143,1,8,0:0:0:0:
90,94,51310,1,0,0:0:0:0:
139,91,51477,1,8,0:0:0:0:
115,145,51560,1,0,0:0:0:0:
121,156,51643,1,0,0:0:0:0:
114,95,51810,1,8,0:0:0:0:
106,92,52143,1,0,0:0:0:0:
150,100,52310,1,8,0:0:0:0:
150,100,52477,1,8,0:0:0:0:
150,100,52643,1,0,0:0:0:0:
149,107,52727,1,0,0:0:0:0:
149,107,52810,1,8,0:0:0:0:
107,113,52977,1,0,0:0:0:0:
67,153,53143,1,8,0:0:0:0:
77,113,53310,1,8,0:0:0:0:
102,122,53393,1,8,0:0:0:0:
102,122,53477,1,0,0:0:0:0:
135,108,53643,1,0,0:0:0:0:
135,108,53810,1,8,0:0:0:0:
121,129,53977,1,0,0:0:0:0:
192,122,54143,1,8,0:0:0:0:
145,70,54310,1,0,0:0:0:0:
215,73,54393,1,0,0:0:0:0:
192,122,54477,1,8,0:0:0:0:
191,145,54643,1,0,0:0:0:0:
149,127,54810,1,8,0:0:0:0:
197,83,54977,1,0,0:0:0:0:
187,160,55060,1,0,0:0:0:0:
197,83,55143,1,0,0:0:0:0:
78,122,55227,1,0,0:0:0:0:
197,83,55310,1,0,0:0:0:0:
197,83,55477,1,12,0:0:0:0:
227,153,55810,1,8,0:0:0:0:
115,124,55977,1,0,0:0:0:0:
74,97,56143,1,0,0:0:0:0:
74,97,56227,1,0,0:0:0:0:
74,97,56310,1,8,0:0:0:0:
157,52,56477,1,8,0:0:0:0:
175,70,56643,1,0,0:0:0:0:
201,100,56810,1,0,0:0:0:0:
128,158,56977,1,8,0:0:0:0:
211,75,57143,1,8,0:0:0:0:
211,75,57310,1,0,0:0:0:0:
121,65,57477,1,8,0:0:0:0:
121,65,57560,1,8,0:0:0:0:
121,65,57643,1,8,0:0:0:0:
121,65,57810,1,8,0:0:0:0:
141,119,58143,1,8,0:0:0:0:
154,89,58310,1,0,0:0:0:0:
154,95,58477,1,8,0:0:0:0:
154,97,58560,1,8,0:0:0:0:
154,97,58643,1,0,0:0:0:0:
222,75,58810,1,8,0:0:0:0:
162,157,58977,1,0,0:0:0:0:
170,151,59143,1,8,0:0:0:0:
205,133,59310,1,0,0:0:0:0:
231,93,59476,1,8,0:0:0:0:
203,84,59560,1,0,0:0:0:0:
165,49,59643,1,0,0:0:0:0:
202,137,59810,1,8,0:0:0:0:
174,79,59976,1,0,0:0:0:0:
205,133,60143,1,8,0:0:0:0:
187,38,60226,1,0,0:0:0:0:
165,37,60310,1,0,0:0:0:0:
203,104,60476,1,8,0:0:0:0:
146,169,60643,1,0,0:0:0:0:
139,131,60810,1,12,0:0:0:0:
55,116,61143,1,8,0:0:0:0:
26,118,61310,1,0,0:0:0:0:
30,121,61393,1,0,0:0:0:0:
30,121,61476,1,8,0:0:0:0:
146,53,61643,1,0,0:0:0:0:
154,89,61810,1,8,0:0:0:0:
185,66,61976,1,0,0:0:0:0:
78,46,62143,1,0,0:0:0:0:
59,139,62310,1,0,0:0:0:0:
122,84,62476,1,8,0:0:0:0:
180,57,62643,1,0,0:0:0:0:
135,88,62810,1,8,0:0:0:0:
135,88,62893,1,0,0:0:0:0:
136,88,62976,1,8,0:0:0:0:
34,102,63143,1,8,0:0:0:0:
158,112,63476,1,8,0:0:0:0:
158,112,63560,1,8,0:0:0:0:
159,126,63643,1,0,0:0:0:0:
157,127,63810,1,8,0:0:0:0:
127,94,63976,1,0,0:0:0:0:
154,136,64143,1,8,0:0:0:0:
155,136,64226,1,8,0:0:0:0:
155,136,64310,1,0,0:0:0:0:
155,136,64476,1,8,0:0:0:0:
123,217,64643,1,0,0:0:0:0:
119,75,64810,1,0,0:0:0:0:
119,75,64893,1,0,0:0:0:0:
119,75,64976,1,8,0:0:0:0:
119,75,65143,1,8,0:0:0:0:
155,121,65310,1,0,0:0:0:0:
164,51,65476,1,0,0:0:0:0:
164,51,65560,1,0,0:0:0:0:
164,51,65643,1,8,0:0:0:0:
164,51,65810,1,8,0:0:0:0:
150,88,65976,1,0,0:0:0:0:
150,88,66143,1,12,0:0:0:0:
110,197,66476,1,8,0:0:0:0:
146,100,66643,1,8,0:0:0:0:
130,99,66810,1,0,0:0:0:0:
120,92,66976,1,0,0:0:0:0:
139,115,67060,1,0,0:0:0:0:
117,69,67143,1,8,0:0:0:0:
100,100,67310,1,0,0:0:0:0:
215,71,67476,1,8,0:0:0:0:
171,144,67643,1,0,0:0:0:0:
132,112,67810,1,8,0:0:0:0:
72,122,67976,1,8,0:0:0:0:
89,113,68143,1,0,0:0:0:0:
163,76,68310,1,8,0:0:0:0:
159,64,68393,1,8,0:0:0:0:
159,70,68476,1,8,0:0:0:0:
123,73,68643,1,0,0:0:0:0:
123,73,68810,1,8,0:0:0:0:
100,141,69143,1,8,0:0:0:0:
145,116,69310,1,0,0:0:0:0:
145,116,69476,1,0,0:0:0:0:
110,74,69643,1,8,0:0:0:0:
110,75,69726,1,0,0:0:0:0:
112,75,69810,1,8,0:0:0:0:
146,108,69976,1,0,0:0:0:0:
97,75,70143,1,8,0:0:0:0:
123,149,70226,1,0,0:0:0:0:
123,149,70310,1,0,0:0:0:0:
153,111,70476,1,8,0:0:0:0:
184,28,70643,1,0,0:0:0:0:
154,106,70810,1,8,0:0:0:0:
152,110,70893,1,0,0:0:0:0:
152,110,70976,1,0,0:0:0:0:
134,116,71143,1,8,0:0:0:0:
248,37,71310,1,0,0:0:0:0:
172,105,71476,1,12,0:0:0:0:
74,120,71810,1,8,0:0:0:0:
103,64,71976,1,8,0:0:0:0:
119,114,72060,1,8,0:0:0:0:
146,103,72143,1,0,0:0:0:0:
176,103,72310,1,0,0:0:0:0:
143,86,72476,1,8,0:0:0:0:
187,120,72643,1,0,0:0:0:0:
153,99,72810,1,8,0:0:0:0:
142,89,72976,1,0,0:0:0:0:
135,89,73143,1,8,0:0:0:0:
125,109,73310,1,8,0:0:0:0:
126,109,73476,1,0,0:0:0:0:
185,68,73643,1,8,0:0:0:0:
181,78,73726,1,8,0:0:0:0:
94,128,73810,1,8,0:0:0:0:
157,73,73976,1,0,0:0:0:0:
151,64,74143,1,8,0:0:0:0:
157,78,74476,1,8,0:0:0:0:
215,64,74560,1,8,0:0:0:0:
101,153,74643,1,0,0:0:0:0:
101,153,74810,1,0,0:0:0:0:
194,85,74976,1,8,0:0:0:0:
140,39,75143,1,8,0:0:0:0:
97,99,75310,1,0,0:0:0:0:
316,198,75476,1,8,0:0:0:0:
165,181,75643,1,0,0:0:0:0:
139,105,75726,1,0,0:0:0:0:
316,198,75810,1,8,0:0:0:0:
165,181,75976,1,8,0:0:0:0:
117,89,76060,1,0,0:0:0:0:
316,198,76143,1,8,0:0:0:0:
130,109,76310,1,0,0:0:0:0:
130,109,76393,1,0,0:0:0:0:
130,109,76476,1,0,0:0:0:0:
142,84,76560,1,0,0:0:0:0:
155,84,76643,1,0,0:0:0:0:
97,133,76726,1,0,0:0:0:0:
155,84,76810,1,8,0:0:0:0:
180,122,77143,1,8,0:0:0:0:
134,135,77310,1,0,0:0:0:0:
180,122,77476,1,8,0:0:0:0:
180,122,77643,1,0,0:0:0:0:
180,122,77810,1,8,0:0:0:0:
177,80,77976,1,0,0:0:0:0:
177,80,78060,1,0,0:0:0:0:
177,80,78143,1,8,0:0:0:0:
176,192,79143,1,8,0:0:0:0:
148,142,79476,1,12,0:0:0:0:
115,122,79643,1,0,0:0:0:0:
115,122,79810,1,8,0:0:0:0:
159,102,79976,1,0,0:0:0:0:
161,120,80143,1,0,0:0:0:0:
161,120,80310,1,0,0:0:0:0:
161,120,80476,1,8,0:0:0:0:
328,66,80643,1,8,0:0:0:0:
289,95,80726,1,8,0:0:0:0:
155,111,80810,1,0,0:0:0:0:
155,111,80976,1,0,0:0:0:0:
155,111,81143,1,8,0:0:0:0:
155,111,81310,1,0,0:0:0:0:
155,111,81643,1,0,0:0:0:0:
155,111,81810,1,12,0:0:0:0:
123,85,82143,1,0,0:0:0:0:
150,133,82310,1,8,0:0:0:0:
150,133,82476,1,8,0:0:0:0:
141,141,82643,1,0,0:0:0:0:
82,121,82810,1,0,0:0:0:0:
82,121,82976,1,0,0:0:0:0:
82,121,83143,1,8,0:0:0:0:
234,118,83310,1,0,0:0:0:0:
83,89,83476,1,8,0:0:0:0:
143,111,83643,1,0,0:0:0:0:
143,111,83726,1,0,0:0:0:0:
143,111,83810,1,8,0:0:0:0:
175,91,83976,1,0,0:0:0:0:
113,171,84143,1,12,0:0:0:0:
137,46,84310,1,0,0:0:0:0:
138,158,84476,1,12,0:0:0:0:
153,148,84810,1,8,0:0:0:0:
115,122,84976,1,0,0:0:0:0:
115,122,85143,1,8,0:0:0:0:
164,93,85310,1,0,0:0:0:0:
161,120,85476,1,0,0:0:0:0:
161,120,85643,1,0,0:0:0:0:
161,120,85810,1,8,0:0:0:0:
173,100,85976,1,8,0:0:0:0:
173,100,86060,1,8,0:0:0:0:
155,111,86143,1,0,0:0:0:0:
155,111,86310,1,0,0:0:0:0:
155,111,86476,1,8,0:0:0:0:
155,111,86643,1,0,0:0:0:0:
155,111,86976,1,0,0:0:0:0:
155,111,87143,1,12,0:0:0:0:
123,85,87476,1,0,0:0:0:0:
150,133,87643,1,8,0:0:0:0:
150,133,87810,1,8,0:0:0:0:
124,102,87976,1,0,0:0:0:0:
82,121,88143,1,0,0:0:0:0:
82,121,88310,1,0,0:0:0:0:
82,121,88476,1,8,0:0:0:0:
227,144,88643,1,0,0:0:0:0:
83,89,88810,1,8,0:0:0:0:
143,111,88976,1,0,0:0:0:0:
143,111,89060,1,0,0:0:0:0:
143,111,89143,1,8,0:0:0:0:
173,50,89310,5,0,0:0:0:0:
113,171,89476,1,12,0:0:0:0:
55,145,89643,1,0,0:0:0:0:
175,133,89726,1,0,0:0:0:0:
138,158,89810,1,0,0:0:0:0:
175,133,89893,1,0,0:0:0:0:
88,100,89976,1,0,0:0:0:0:
186,120,90060,1,0,0:0:0:0:
119,108,90143,1,8,0:0:0:0:
189,182,90476,5,8,0:0:0:0:
263,133,90643,1,0,0:0:0:0:
263,133,90810,1,8,0:0:0:0:
79,137,90976,1,0,0:0:0:0:
217,101,91143,1,0,0:0:0:0:
174,50,91310,1,8,0:0:0:0:
212,106,91643,1,0,0:0:0:0:
275,96,91810,1,8,0:0:0:0:
144,106,91976,1,0,0:0:0:0:
161,92,92060,1,0,0:0:0:0:
155,73,92143,1,0,0:0:0:0:
155,73,92310,1,0,0:0:0:0:
155,73,92476,1,8,0:0:0:0:
68,133,92643,1,0,0:0:0:0:
74,106,92726,1,0,0:0:0:0:
143,142,92810,1,8,0:0:0:0:
134,114,92976,1,0,0:0:0:0:
115,124,93143,1,8,0:0:0:0:
115,124,93310,1,0,0:0:0:0:
132,97,93476,1,8,0:0:0:0:
118,122,93810,1,0,0:0:0:0:
166,77,93976,1,8,0:0:0:0:
157,94,94143,1,8,0:0:0:0:
110,95,94226,1,8,0:0:0:0:
146,69,94310,1,0,0:0:0:0:
188,108,94476,1,8,0:0:0:0:
133,140,94643,1,0,0:0:0:0:
101,84,94810,1,0,0:0:0:0:
183,144,94976,1,8,0:0:0:0:
183,144,95143,1,8,0:0:0:0:
161,101,95310,1,0,0:0:0:0:
161,101,95393,1,0,0:0:0:0:
161,101,95476,1,8,0:0:0:0:
117,121,95810,1,8,0:0:0:0:
222,69,95976,1,0,0:0:0:0:
222,69,96143,1,0,0:0:0:0:
192,41,96310,1,0,0:0:0:0:
222,69,96476,1,8,0:0:0:0:
140,74,96643,1,0,0:0:0:0:
168,200,96726,1,0,0:0:0:0:
140,74,96810,1,8,0:0:0:0:
140,74,96976,1,0,0:0:0:0:
140,74,97143,1,8,0:0:0:0:
164,79,97476,1,8,0:0:0:0:
164,79,97643,1,0,0:0:0:0:
135,118,97810,1,8,0:0:0:0:
135,118,97893,1,8,0:0:0:0:
135,118,97976,1,8,0:0:0:0:
156,59,98143,1,0,0:0:0:0:
170,132,98476,1,8,0:0:0:0:
120,140,98643,1,0,0:0:0:0:
170,131,98810,1,8,0:0:0:0:
170,131,98976,1,0,0:0:0:0:
170,131,99143,1,8,0:0:0:0:
170,131,99310,1,8,0:0:0:0:
179,97,99643,1,0,0:0:0:0:
127,110,99726,1,0,0:0:0:0:
179,97,99810,1,8,0:0:0:0:
179,97,99976,1,0,0:0:0:0:
143,56,100143,1,8,0:0:0:0:
137,149,100310,1,0,0:0:0:0:
137,149,100476,1,0,0:0:0:0:
146,106,100560,1,0,0:0:0:0:
82,90,100643,1,0,0:0:0:0:
117,89,100726,1,0,0:0:0:0:
117,89,100810,1,8,0:0:0:0:
123,140,101143,1,0,0:0:0:0:
136,93,101310,1,0,0:0:0:0:
136,93,101393,1,0,0:0:0:0:
136,93,101476,1,8,0:0:0:0:
119,83,101643,1,0,0:0:0:0:
114,111,101810,1,8,0:0:0:0:
168,93,102143,1,8,0:0:0:0:
165,82,102310,1,0,0:0:0:0:
165,82,102476,1,8,0:0:0:0:
92,121,102643,1,0,0:0:0:0:
90,106,102810,1,8,0:0:0:0:
88,144,102893,1,8,0:0:0:0:
90,106,102976,1,8,0:0:0:0:
90,106,103143,1,0,0:0:0:0:
105,106,103310,1,8,0:0:0:0:
105,106,103393,1,8,0:0:0:0:
68,132,103476,1,0,0:0:0:0:
144,91,103643,1,8,0:0:0:0:
148,95,103810,1,0,0:0:0:0:
167,99,103976,1,0,0:0:0:0:
134,124,104060,1,0,0:0:0:0:
134,124,104143,1,8,0:0:0:0:
159,111,104310,1,8,0:0:0:0:
160,144,104476,1,0,0:0:0:0:
137,153,104810,1,8,0:0:0:0:
138,153,104893,1,0,0:0:0:0:
138,153,104976,1,0,0:0:0:0:
120,92,105143,1,8,0:0:0:0:
138,72,105310,1,0,0:0:0:0:
99,118,105476,1,8,0:0:0:0:
59,111,105643,1,0,0:0:0:0:
59,111,105726,1,0,0:0:0:0:
59,111,105810,1,8,0:0:0:0:
184,67,105976,1,0,0:0:0:0:
169,50,106143,1,8,0:0:0:0:
166,100,106476,1,0,0:0:0:0:
128,117,106643,1,0,0:0:0:0:
128,117,106726,1,0,0:0:0:0:
128,117,106810,1,8,0:0:0:0:
119,108,106976,1,0,0:0:0:0:
125,110,107143,1,8,0:0:0:0:
77,89,107476,1,8,0:0:0:0:
152,80,107643,1,0,0:0:0:0:
152,80,107726,1,0,0:0:0:0:
110,119,107810,1,8,0:0:0:0:
161,58,107976,1,0,0:0:0:0:
161,58,108143,1,8,0:0:0:0:
209,62,108310,1,0,0:0:0:0:
209,62,108393,1,0,0:0:0:0:
209,62,108476,1,8,0:0:0:0:
87,85,108643,1,0,0:0:0:0:
87,85,108810,1,8,0:0:0:0:
168,76,109143,1,8,0:0:0:0:
152,115,109310,1,0,0:0:0:0:
168,76,109476,1,8,0:0:0:0:
152,115,109643,1,0,0:0:0:0:
181,80,109810,1,8,0:0:0:0:
163,85,109976,1,0,0:0:0:0:
143,61,110143,1,8,0:0:0:0:
165,117,110310,1,0,0:0:0:0:
126,113,110393,1,0,0:0:0:0:
126,113,110476,1,8,0:0:0:0:
154,64,110643,1,0,0:0:0:0:
154,64,110810,1,8,0:0:0:0:
154,64,110976,1,0,0:0:0:0:
154,64,111060,1,0,0:0:0:0:
154,64,111143,1,0,0:0:0:0:
133,87,111226,1,0,0:0:0:0:
175,47,111310,1,0,0:0:0:0:
133,87,111393,1,0,0:0:0:0:
175,47,111476,1,8,0:0:0:0:
86,120,111810,1,8,0:0:0:0:
125,128,111976,1,8,0:0:0:0:
125,128,112060,1,8,0:0:0:0:
125,128,112143,1,0,0:0:0:0:
137,115,112310,1,0,0:0:0:0:
115,117,112476,1,12,0:0:0:0:
193,79,112810,1,4,0:0:0:0:
227,153,113143,1,8,0:0:0:0:
115,124,113310,1,0,0:0:0:0:
74,97,113476,1,0,0:0:0:0:
74,97,113560,1,0,0:0:0:0:
74,97,113643,1,8,0:0:0:0:
157,52,113810,1,8,0:0:0:0:
175,70,113976,1,8,0:0:0:0:
201,100,114143,1,0,0:0:0:0:
128,158,114310,1,0,0:0:0:0:
211,75,114476,1,8,0:0:0:0:
211,75,114643,1,0,0:0:0:0:
121,65,114810,1,8,0:0:0:0:
121,65,114893,1,8,0:0:0:0:
121,65,114976,1,8,0:0:0:0:
121,65,115143,1,8,0:0:0:0:
141,119,115476,1,0,0:0:0:0:
154,89,115643,1,0,0:0:0:0:
154,97,115726,1,0,0:0:0:0:
154,95,115810,1,8,0:0:0:0:
154,97,115976,1,0,0:0:0:0:
222,75,116143,1,8,0:0:0:0:
162,157,116310,1,0,0:0:0:0:
170,151,116476,1,8,0:0:0:0:
205,133,116643,1,0,0:0:0:0:
231,93,116810,1,8,0:0:0:0:
203,84,116893,1,0,0:0:0:0:
165,49,116976,1,0,0:0:0:0:
202,137,117143,1,8,0:0:0:0:
174,79,117310,1,0,0:0:0:0:
205,133,117476,1,8,0:0:0:0:
187,38,117560,1,0,0:0:0:0:
165,37,117643,1,0,0:0:0:0:
203,104,117810,1,8,0:0:0:0:
146,169,117976,1,0,0:0:0:0:
139,131,118143,1,12,0:0:0:0:
55,116,118476,1,8,0:0:0:0:
26,118,118643,1,0,0:0:0:0:
30,121,118726,1,0,0:0:0:0:
30,121,118810,1,8,0:0:0:0:
146,53,118976,1,0,0:0:0:0:
154,89,119143,1,8,0:0:0:0:
185,66,119310,1,0,0:0:0:0:
78,46,119476,1,0,0:0:0:0:
59,139,119643,1,0,0:0:0:0:
122,84,119810,1,8,0:0:0:0:
180,57,119976,1,0,0:0:0:0:
135,88,120143,1,8,0:0:0:0:
135,88,120226,1,0,0:0:0:0:
136,88,120310,1,8,0:0:0:0:
34,102,120476,1,8,0:0:0:0:
158,112,120810,1,8,0:0:0:0:
158,112,120893,1,8,0:0:0:0:
159,126,120976,1,0,0:0:0:0:
157,127,121143,1,8,0:0:0:0:
127,94,121310,1,0,0:0:0:0:
154,136,121476,1,8,0:0:0:0:
155,136,121560,1,8,0:0:0:0:
155,136,121643,1,0,0:0:0:0:
155,136,121810,1,8,0:0:0:0:
123,217,121976,1,0,0:0:0:0:
119,75,122143,1,0,0:0:0:0:
119,75,122226,1,0,0:0:0:0:
119,75,122310,1,8,0:0:0:0:
119,75,122476,1,8,0:0:0:0:
155,121,122643,1,0,0:0:0:0:
164,51,122810,1,0,0:0:0:0:
164,51,122893,1,0,0:0:0:0:
164,51,122976,1,8,0:0:0:0:
164,51,123143,1,8,0:0:0:0:
150,88,123310,1,0,0:0:0:0:
150,88,123476,1,12,0:0:0:0:
110,197,123810,1,8,0:0:0:0:
146,100,123976,1,8,0:0:0:0:
130,99,124143,1,0,0:0:0:0:
120,92,124310,1,0,0:0:0:0:
139,115,124393,1,0,0:0:0:0:
117,69,124476,1,8,0:0:0:0:
100,100,124643,1,0,0:0:0:0:
215,71,124810,1,8,0:0:0:0:
171,144,124976,1,0,0:0:0:0:
132,112,125143,1,8,0:0:0:0:
72,122,125310,1,8,0:0:0:0:
89,113,125476,1,0,0:0:0:0:
163,76,125643,1,0,0:0:0:0:
159,64,125726,1,0,0:0:0:0:
159,70,125810,1,8,0:0:0:0:
123,73,125976,1,0,0:0:0:0:
123,73,126143,1,8,0:0:0:0:
100,141,126476,1,8,0:0:0:0:
145,116,126643,1,8,0:0:0:0:
145,116,126810,1,0,0:0:0:0:
110,74,126976,1,8,0:0:0:0:
110,75,127060,1,0,0:0:0:0:
112,75,127143,1,8,0:0:0:0:
146,108,127310,1,0,0:0:0:0:
97,75,127476,1,8,0:0:0:0:
123,149,127560,1,0,0:0:0:0:
123,149,127643,1,0,0:0:0:0:
167,45,127810,1,8,0:0:0:0:
150,93,127893,1,0,0:0:0:0:
184,28,127976,1,0,0:0:0:0:
199,97,128060,1,0,0:0:0:0:
154,106,128143,1,8,0:0:0:0:
152,110,128310,1,0,0:0:0:0:
134,116,128476,1,8,0:0:0:0:
248,37,128643,1,0,0:0:0:0:
172,105,128810,1,12,0:0:0:0:
74,120,129143,1,8,0:0:0:0:
103,64,129310,1,8,0:0:0:0:
119,114,129393,1,8,0:0:0:0:
146,103,129476,1,0,0:0:0:0:
176,103,129643,1,0,0:0:0:0:
143,86,129810,1,8,0:0:0:0:
187,120,129976,1,0,0:0:0:0:
153,99,130143,1,8,0:0:0:0:
142,89,130310,1,0,0:0:0:0:
135,89,130476,1,8,0:0:0:0:
126,109,130643,1,8,0:0:0:0:
125,109,130810,1,0,0:0:0:0:
185,68,130976,1,8,0:0:0:0:
181,78,131060,1,8,0:0:0:0:
94,128,131143,1,8,0:0:0:0:
157,73,131310,1,0,0:0:0:0:
151,64,131476,1,8,0:0:0:0:
157,78,131810,1,8,0:0:0:0:
215,64,131893,1,8,0:0:0:0:
101,153,131976,1,0,0:0:0:0:
101,153,132143,1,0,0:0:0:0:
194,85,132310,1,8,0:0:0:0:
140,39,132476,1,8,0:0:0:0:
97,99,132643,1,0,0:0:0:0:
316,198,132810,1,8,0:0:0:0:
139,105,132893,1,0,0:0:0:0:
165,181,132976,1,0,0:0:0:0:
316,198,133143,1,8,0:0:0:0:
117,89,133226,1,0,0:0:0:0:
165,181,133310,1,0,0:0:0:0:
316,198,133476,1,8,0:0:0:0:
130,109,133643,1,0,0:0:0:0:
130,109,133726,1,0,0:0:0:0:
130,109,133810,1,0,0:0:0:0:
142,84,133893,1,0,0:0:0:0:
155,84,133976,1,0,0:0:0:0:
97,133,134060,1,0,0:0:0:0:
155,84,134143,1,8,0:0:0:0:
180,122,134476,5,8,0:0:0:0:
134,135,134643,1,0,0:0:0:0:
180,122,134810,1,8,0:0:0:0:
180,122,134976,1,0,0:0:0:0:
180,122,135143,1,8,0:0:0:0:
177,80,135310,1,0,0:0:0:0:
177,80,135393,1,0,0:0:0:0:
177,80,135476,1,8,0:0:0:0:
143,111,135643,5,0,0:0:0:0:
338,175,135810,1,8,0:0:0:0:
338,175,136143,1,8,0:0:0:0:
160,97,136310,1,0,0:0:0:0:
138,111,136476,1,8,0:0:0:0:
138,111,136560,1,0,0:0:0:0:
138,111,136643,1,0,0:0:0:0:
138,111,136810,1,12,0:0:0:0:
97,89,136976,1,0,0:0:0:0:
165,166,137143,1,8,0:0:0:0:
104,198,137310,1,0,0:0:0:0:
194,158,137476,1,0,0:0:0:0:
179,168,137560,1,0,0:0:0:0:
194,158,137643,1,0,0:0:0:0:
194,158,137810,1,8,0:0:0:0:
181,153,138143,1,0,0:0:0:0:
181,153,138310,1,0,0:0:0:0:
181,153,138476,1,8,0:0:0:0:
189,111,138643,1,0,0:0:0:0:
211,157,138810,1,0,0:0:0:0:
211,157,138976,1,8,0:0:0:0:
211,157,139143,1,0,0:0:0:0:
104,132,139310,1,0,0:0:0:0:
164,93,139393,1,0,0:0:0:0:
179,95,139476,1,8,0:0:0:0:
179,95,139810,1,8,0:0:0:0:
34,158,139976,1,0,0:0:0:0:
182,88,140143,1,0,0:0:0:0:
166,83,140226,1,0,0:0:0:0:
182,88,140310,1,0,0:0:0:0:
182,88,140476,1,8,0:0:0:0:
179,102,140643,1,0,0:0:0:0:
208,113,140810,1,8,0:0:0:0:
208,113,140976,1,0,0:0:0:0:
208,113,141143,1,8,0:0:0:0:
222,133,141310,1,0,0:0:0:0:
208,113,141476,1,0,0:0:0:0:
219,71,141560,1,0,0:0:0:0:
208,113,141643,1,0,0:0:0:0:
208,113,141810,1,8,0:0:0:0:
219,71,141976,1,0,0:0:0:0:
222,133,142143,1,8,0:0:0:0:
134,120,142476,1,8,0:0:0:0:
150,88,142643,1,0,0:0:0:0:
153,95,142810,1,0,0:0:0:0:
171,93,142976,1,0,0:0:0:0:
162,91,143143,1,8,0:0:0:0:
140,61,143476,1,8,0:0:0:0:
128,106,143643,1,0,0:0:0:0:
128,106,143810,1,8,0:0:0:0:
125,147,143976,1,8,0:0:0:0:
147,125,144143,1,8,0:0:0:0:
91,92,144226,1,0,0:0:0:0:
91,92,144310,1,0,0:0:0:0:
123,82,144476,1,8,0:0:0:0:
124,82,144643,1,4,0:0:0:0:
125,147,144976,1,0,0:0:0:0:
125,147,145143,1,8,0:0:0:0:
159,127,145310,1,0,0:0:0:0:
159,127,145476,1,8,0:0:0:0:
159,127,145643,1,0,0:0:0:0:
159,127,145810,1,8,0:0:0:0:
159,127,145976,1,8,0:0:0:0:
72,135,146310,1,0,0:0:0:0:
72,135,146476,1,0,0:0:0:0:
72,135,146643,1,8,0:0:0:0:
72,135,146810,1,8,0:0:0:0:
117,171,146976,1,0,0:0:0:0:
103,124,147143,1,8,0:0:0:0:
36,123,147310,1,0,0:0:0:0:
170,95,147476,1,12,0:0:0:0:
103,117,147810,1,8,0:0:0:0:
106,120,147976,1,0,0:0:0:0:
109,118,148143,1,0,0:0:0:0:
170,95,148310,1,0,0:0:0:0:
170,95,148476,1,8,0:0:0:0:
134,112,148810,1,0,0:0:0:0:
134,112,148976,1,0,0:0:0:0:
134,112,149143,1,0,0:0:0:0:
134,112,149310,1,8,0:0:0:0:
160,81,149643,1,8,0:0:0:0:
160,81,149810,1,8,0:0:0:0:
128,135,150143,1,0,0:0:0:0:
170,107,150226,1,0,0:0:0:0:
128,135,150310,1,0,0:0:0:0:
150,98,150393,1,0,0:0:0:0:
156,128,150476,1,8,0:0:0:0:
156,128,150643,1,0,0:0:0:0:
92,101,150810,1,8,0:0:0:0:
156,107,150893,1,8,0:0:0:0:
92,101,150976,1,8,0:0:0:0:
161,80,151060,1,8,0:0:0:0:
159,100,151143,1,0,0:0:0:0:
159,100,151310,1,8,0:0:0:0:
167,89,151476,1,0,0:0:0:0:
157,106,151560,1,0,0:0:0:0:
167,89,151643,1,8,0:0:0:0:
186,57,151726,1,8,0:0:0:0:
167,88,151810,1,0,0:0:0:0:
172,73,151893,1,0,0:0:0:0:
167,88,151976,1,8,0:0:0:0:
140,70,152060,1,8,0:0:0:0:
167,88,152143,1,0,0:0:0:0:
87,91,152476,1,8,0:0:0:0:
141,82,152810,1,12,0:0:0:0:
141,82,152976,1,8,0:0:0:0:
141,82,153143,1,0,0:0:0:0:
141,120,153310,1,0,0:0:0:0:
141,103,153643,1,8,0:0:0:0:
77,160,153810,1,0,0:0:0:0:
150,100,153976,1,8,0:0:0:0:
134,82,154310,1,0,0:0:0:0:
134,82,154643,1,8,0:0:0:0:
150,187,154810,1,0,0:0:0:0:
158,86,154976,1,0,0:0:0:0:
114,38,155143,1,8,0:0:0:0:
109,132,155476,1,0,0:0:0:0:
109,132,155588,1,8,0:0:0:0:
165,93,155699,1,8,0:0:0:0:
109,132,155810,1,0,0:0:0:0:
109,132,156032,1,8,0:0:0:0:
188,36,156143,1,0,0:0:0:0:
109,132,156254,1,0,0:0:0:0:
116,97,156365,1,0,0:0:0:0:
161,121,156476,1,8,0:0:0:0:
161,121,156699,1,0,0:0:0:0:
123,92,156810,1,8,0:0:0:0:
161,121,156921,1,8,0:0:0:0:
158,49,157032,1,8,0:0:0:0:
161,121,157143,1,0,0:0:0:0:
154,35,157254,1,0,0:0:0:0:
53,120,157365,1,0,0:0:0:0:
53,120,157476,1,8,0:0:0:0:
158,111,157643,1,0,0:0:0:0:
85,122,157810,1,8,0:0:0:0:
127,93,158143,1,8,0:0:0:0:
39,144,158310,1,0,0:0:0:0:
106,64,158643,1,0,0:0:0:0:
108,110,158810,1,8,0:0:0:0:
99,118,158976,1,0,0:0:0:0:
99,118,159143,1,8,0:0:0:0:
137,111,159310,1,8,0:0:0:0:
129,121,159393,1,8,0:0:0:0:
137,111,159476,1,0,0:0:0:0:
159,82,159643,1,0,0:0:0:0:
134,64,159810,1,8,0:0:0:0:
174,66,159976,1,0,0:0:0:0:
103,126,160143,1,8,0:0:0:0:
178,113,160226,1,0,0:0:0:0:
178,113,160310,1,8,0:0:0:0:
85,110,160476,1,8,0:0:0:0:
85,115,160643,1,0,0:0:0:0:
139,102,160810,1,8,0:0:0:0:
92,136,161143,1,8,0:0:0:0:
183,117,161310,1,0,0:0:0:0:
183,117,161393,1,0,0:0:0:0:
139,115,161476,1,8,0:0:0:0:
143,111,161643,1,0,0:0:0:0:
143,111,161810,1,8,0:0:0:0:
106,112,161976,1,0,0:0:0:0:
134,157,162143,1,8,0:0:0:0:
134,157,162226,1,8,0:0:0:0:
134,157,162310,1,0,0:0:0:0:
106,121,162476,1,8,0:0:0:0:
159,80,162810,1,0,0:0:0:0:
159,80,162893,1,0,0:0:0:0:
159,80,162976,1,8,0:0:0:0:
97,124,163143,1,8,0:0:0:0:
130,126,163310,1,0,0:0:0:0:
168,139,163476,1,8,0:0:0:0:
152,163,163810,1,0,0:0:0:0:
66,85,163976,1,0,0:0:0:0:
117,109,164060,1,0,0:0:0:0:
117,109,164143,1,8,0:0:0:0:
11,165,164310,1,8,0:0:0:0:
173,76,164476,1,0,0:0:0:0:
154,45,164643,1,0,0:0:0:0:
75,83,164810,1,8,0:0:0:0:
90,94,165143,1,0,0:0:0:0:
159,95,165310,1,8,0:0:0:0:
139,91,165476,1,8,0:0:0:0:
115,145,165560,1,0,0:0:0:0:
121,156,165643,1,0,0:0:0:0:
114,95,165810,1,8,0:0:0:0:
106,92,166143,1,0,0:0:0:0:
150,100,166310,1,8,0:0:0:0:
150,100,166476,1,8,0:0:0:0:
150,100,166643,1,0,0:0:0:0:
149,107,166726,1,0,0:0:0:0:
149,107,166810,1,8,0:0:0:0:
107,113,166976,1,0,0:0:0:0:
67,153,167143,1,8,0:0:0:0:
77,113,167310,1,8,0:0:0:0:
102,122,167393,1,8,0:0:0:0:
102,122,167476,1,0,0:0:0:0:
135,108,167643,1,0,0:0:0:0:
135,108,167810,1,8,0:0:0:0:
121,129,167976,1,0,0:0:0:0:
192,122,168143,1,0,0:0:0:0:
145,70,168310,1,0,0:0:0:0:
215,73,168393,1,0,0:0:0:0:
192,122,168476,1,8,0:0:0:0:
191,145,168643,1,0,0:0:0:0:
149,127,168810,1,0,0:0:0:0:
197,83,168976,1,8,0:0:0:0:
157,127,169310,1,0,0:0:0:0:
147,78,169393,1,0,0:0:0:0:
148,120,169476,1,8,0:0:0:0:
142,102,169726,1,0,0:0:0:0:
142,102,169976,1,0,0:0:0:0:
142,102,170143,1,12,0:0:0:0:
134,138,175476,5,12,0:0:0:0:
155,133,176810,1,12,0:0:0:0:
155,133,178143,1,12,0:0:0:0:
139,126,179476,1,4,0:0:0:0:
135,131,180476,1,8,0:0:0:0:
46,236,180643,1,0,0:0:0:0:
152,133,180810,1,12,0:0:0:0:
163,85,181476,1,0,0:0:0:0:
211,88,181810,1,0,0:0:0:0:
75,109,182143,1,12,0:0:0:0:
191,56,182476,1,0,0:0:0:0:
139,196,182810,1,8,0:0:0:0:
161,107,183476,1,12,0:0:0:0:
170,84,183810,1,0,0:0:0:0:
147,126,184143,1,8,0:0:0:0:
170,84,184476,5,8,0:0:0:0:
147,126,184810,1,4,0:0:0:0:
171,115,185143,1,0,0:0:0:0:
101,54,185310,1,8,0:0:0:0:
170,116,185476,1,0,0:0:0:0:
137,108,185643,1,8,0:0:0:0:
175,106,185810,1,0,0:0:0:0:
175,106,185893,1,0,0:0:0:0:
175,106,185976,1,0,0:0:0:0:
177,111,186143,1,12,0:0:0:0:
178,128,186476,1,8,0:0:0:0:
178,128,186810,1,0,0:0:0:0:
179,128,187143,1,0,0:0:0:0:
178,128,187476,1,12,0:0:0:0:
161,104,187810,1,0,0:0:0:0:
82,71,187976,1,0,0:0:0:0:
161,104,188143,1,8,0:0:0:0:
155,79,188310,1,8,0:0:0:0:
161,104,188476,1,0,0:0:0:0:
161,104,188810,1,12,0:0:0:0:
161,104,189143,1,0,0:0:0:0:
161,104,189476,1,0,0:0:0:0:
161,104,189810,1,0,0:0:0:0:
175,47,190143,1,8,0:0:0:0:
137,115,190226,1,8,0:0:0:0:
152,85,190310,1,8,0:0:0:0:
86,120,190476,1,0,0:0:0:0:
125,128,190643,1,8,0:0:0:0:
125,128,190810,1,0,0:0:0:0:
125,128,190893,1,0,0:0:0:0:
137,115,190976,1,0,0:0:0:0:
175,47,191060,1,0,0:0:0:0:
115,117,191143,1,0,0:0:0:0:
179,38,191226,1,0,0:0:0:0:
145,84,191310,1,0,0:0:0:0:
145,84,191393,1,0,0:0:0:0:
166,106,191476,1,8,0:0:0:0:
227,153,191810,1,8,0:0:0:0:
115,124,191976,1,0,0:0:0:0:
74,97,192143,1,0,0:0:0:0:
74,97,192226,1,0,0:0:0:0:
74,97,192310,1,8,0:0:0:0:
157,52,192476,1,8,0:0:0:0:
175,70,192643,1,0,0:0:0:0:
201,100,192810,1,0,0:0:0:0:
128,158,192976,1,8,0:0:0:0:
211,75,193143,1,8,0:0:0:0:
211,75,193310,1,0,0:0:0:0:
121,65,193476,1,8,0:0:0:0:
121,65,193560,1,8,0:0:0:0:
121,65,193643,1,8,0:0:0:0:
121,65,193810,1,8,0:0:0:0:
141,119,194143,1,8,0:0:0:0:
154,89,194310,1,0,0:0:0:0:
154,95,194476,1,8,0:0:0:0:
154,97,194560,1,8,0:0:0:0:
154,97,194643,1,0,0:0:0:0:
222,75,194810,1,8,0:0:0:0:
162,157,194976,1,0,0:0:0:0:
170,151,195143,1,8,0:0:0:0:
205,133,195310,1,0,0:0:0:0:
231,93,195476,1,8,0:0:0:0:
203,84,195560,1,0,0:0:0:0:
165,49,195643,1,0,0:0:0:0:
202,137,195810,1,8,0:0:0:0:
174,79,195976,1,0,0:0:0:0:
205,133,196143,1,8,0:0:0:0:
187,38,196226,1,0,0:0:0:0:
165,37,196310,1,0,0:0:0:0:
203,104,196476,1,8,0:0:0:0:
146,169,196643,1,0,0:0:0:0:
139,131,196810,1,12,0:0:0:0:
55,116,197143,1,8,0:0:0:0:
26,118,197310,1,0,0:0:0:0:
30,121,197393,1,0,0:0:0:0:
30,121,197476,1,8,0:0:0:0:
146,53,197643,1,0,0:0:0:0:
154,89,197810,1,8,0:0:0:0:
185,66,197976,1,0,0:0:0:0:
78,46,198143,1,0,0:0:0:0:
59,139,198310,1,0,0:0:0:0:
122,84,198476,1,8,0:0:0:0:
180,57,198643,1,0,0:0:0:0:
135,88,198810,1,8,0:0:0:0:
135,88,198893,1,0,0:0:0:0:
136,88,198976,1,8,0:0:0:0:
34,102,199143,1,8,0:0:0:0:
158,112,199476,1,8,0:0:0:0:
158,112,199560,1,8,0:0:0:0:
159,126,199643,1,0,0:0:0:0:
157,127,199810,1,8,0:0:0:0:
127,94,199976,1,0,0:0:0:0:
154,136,200143,1,8,0:0:0:0:
155,136,200226,1,8,0:0:0:0:
155,136,200310,1,0,0:0:0:0:
155,136,200476,1,8,0:0:0:0:
123,217,200643,1,0,0:0:0:0:
119,75,200810,1,0,0:0:0:0:
119,75,200893,1,0,0:0:0:0:
119,75,200976,1,8,0:0:0:0:
119,75,201143,1,8,0:0:0:0:
155,121,201310,1,0,0:0:0:0:
164,51,201476,1,8,0:0:0:0:
164,51,201560,1,8,0:0:0:0:
164,51,201643,1,8,0:0:0:0:
214,73,201726,1,8,0:0:0:0:
164,51,201810,1,8,0:0:0:0:
214,73,201893,1,8,0:0:0:0:
150,88,201976,1,0,0:0:0:0:
150,88,202143,1,12,0:0:0:0:
110,197,202476,1,8,0:0:0:0:
146,100,202643,1,8,0:0:0:0:
130,99,202810,1,0,0:0:0:0:
120,92,202976,1,0,0:0:0:0:
139,115,203060,1,0,0:0:0:0:
117,69,203143,1,8,0:0:0:0:
100,100,203310,1,0,0:0:0:0:
215,71,203476,1,8,0:0:0:0:
171,144,203643,1,0,0:0:0:0:
132,112,203810,1,8,0:0:0:0:
72,122,203976,1,8,0:0:0:0:
89,113,204143,1,0,0:0:0:0:
163,76,204310,1,0,0:0:0:0:
159,64,204393,1,0,0:0:0:0:
159,70,204476,1,8,0:0:0:0:
123,73,204643,1,0,0:0:0:0:
123,73,204810,1,8,0:0:0:0:
100,141,205143,1,8,0:0:0:0:
145,116,205310,1,0,0:0:0:0:
145,116,205476,1,0,0:0:0:0:
110,74,205643,1,8,0:0:0:0:
110,75,205726,1,0,0:0:0:0:
112,75,205810,1,8,0:0:0:0:
146,108,205976,1,0,0:0:0:0:
97,75,206143,1,8,0:0:0:0:
123,149,206226,1,0,0:0:0:0:
123,149,206310,1,0,0:0:0:0:
153,111,206476,1,8,0:0:0:0:
184,28,206643,1,0,0:0:0:0:
154,106,206810,1,8,0:0:0:0:
152,110,206893,1,0,0:0:0:0:
152,110,206976,1,0,0:0:0:0:
134,116,207143,1,8,0:0:0:0:
248,37,207310,1,0,0:0:0:0:
172,105,207476,1,12,0:0:0:0:
74,120,207810,1,8,0:0:0:0:
103,64,207976,1,8,0:0:0:0:
119,114,208060,1,8,0:0:0:0:
146,103,208143,1,0,0:0:0:0:
176,103,208310,1,0,0:0:0:0:
143,86,208476,1,8,0:0:0:0:
187,120,208643,1,0,0:0:0:0:
153,99,208810,1,8,0:0:0:0:
142,89,208976,1,0,0:0:0:0:
135,89,209143,1,8,0:0:0:0:
126,109,209310,5,8,0:0:0:0:
125,109,209476,1,0,0:0:0:0:
185,68,209643,1,8,0:0:0:0:
181,78,209726,1,8,0:0:0:0:
94,128,209810,1,8,0:0:0:0:
157,73,209976,1,0,0:0:0:0:
151,64,210143,1,8,0:0:0:0:
157,78,210476,5,8,0:0:0:0:
215,64,210560,1,8,0:0:0:0:
101,153,210643,1,0,0:0:0:0:
101,153,210810,1,8,0:0:0:0:
194,85,210976,1,0,0:0:0:0:
140,39,211143,1,8,0:0:0:0:
97,99,211310,1,0,0:0:0:0:
316,198,211476,1,8,0:0:0:0:
165,181,211643,1,0,0:0:0:0:
139,105,211726,1,0,0:0:0:0:
316,198,211810,1,8,0:0:0:0:
165,181,211976,1,0,0:0:0:0:
117,89,212060,1,0,0:0:0:0:
316,198,212143,1,8,0:0:0:0:
130,109,212310,1,0,0:0:0:0:
130,109,212393,1,0,0:0:0:0:
130,109,212476,1,0,0:0:0:0:
142,84,212560,1,0,0:0:0:0:
155,84,212643,1,0,0:0:0:0:
97,133,212726,1,0,0:0:0:0:
155,84,212810,1,8,0:0:0:0:
136,40,212976,1,0,0:0:0:0:
134,135,213143,1,8,0:0:0:0:
180,122,213310,1,0,0:0:0:0:
102,89,213393,1,0,0:0:0:0:
180,122,213476,1,8,0:0:0:0:
180,122,213643,1,0,0:0:0:0:
180,122,213810,1,8,0:0:0:0:
177,80,213976,5,0,0:0:0:0:
177,80,214060,1,0,0:0:0:0:
177,80,214143,1,8,0:0:0:0:
166,138,215143,1,8,0:0:0:0:
148,142,215476,1,12,0:0:0:0:
115,122,215643,1,0,0:0:0:0:
115,122,215810,1,8,0:0:0:0:
159,102,215976,1,0,0:0:0:0:
161,120,216143,1,0,0:0:0:0:
161,120,216310,1,0,0:0:0:0:
161,120,216476,1,8,0:0:0:0:
328,66,216643,1,8,0:0:0:0:
289,95,216726,1,8,0:0:0:0:
155,111,216810,1,0,0:0:0:0:
155,111,216976,1,0,0:0:0:0:
155,111,217143,1,8,0:0:0:0:
155,111,217310,1,0,0:0:0:0:
155,111,217643,1,0,0:0:0:0:
155,111,217810,1,12,0:0:0:0:
123,85,218143,1,0,0:0:0:0:
150,133,218310,1,8,0:0:0:0:
150,133,218476,1,8,0:0:0:0:
141,141,218643,1,0,0:0:0:0:
82,121,218810,1,0,0:0:0:0:
82,121,218976,1,0,0:0:0:0:
82,121,219143,1,8,0:0:0:0:
234,118,219310,1,0,0:0:0:0:
83,89,219476,1,8,0:0:0:0:
143,111,219643,1,0,0:0:0:0:
143,111,219726,1,0,0:0:0:0:
143,111,219810,1,8,0:0:0:0:
175,91,219976,1,0,0:0:0:0:
113,171,220143,1,12,0:0:0:0:
137,46,220310,1,0,0:0:0:0:
138,158,220476,1,12,0:0:0:0:
153,148,220810,1,8,0:0:0:0:
115,122,220976,1,0,0:0:0:0:
115,122,221143,1,8,0:0:0:0:
164,93,221310,1,0,0:0:0:0:
161,120,221476,1,0,0:0:0:0:
161,120,221643,1,0,0:0:0:0:
161,120,221810,1,8,0:0:0:0:
173,100,221976,1,8,0:0:0:0:
173,100,222060,1,8,0:0:0:0:
155,111,222143,1,0,0:0:0:0:
155,111,222310,1,0,0:0:0:0:
155,111,222476,1,8,0:0:0:0:
155,111,222643,1,0,0:0:0:0:
155,111,222976,1,0,0:0:0:0:
155,111,223143,1,12,0:0:0:0:
123,85,223476,1,0,0:0:0:0:
150,133,223643,1,8,0:0:0:0:
150,133,223810,1,8,0:0:0:0:
124,102,223976,1,0,0:0:0:0:
82,121,224143,1,0,0:0:0:0:
82,121,224310,1,0,0:0:0:0:
82,121,224476,1,8,0:0:0:0:
227,144,224643,1,0,0:0:0:0:
83,89,224810,1,8,0:0:0:0:
143,111,224976,1,0,0:0:0:0:
143,111,225060,1,8,0:0:0:0:
143,111,225143,1,8,0:0:0:0:
173,50,225310,1,0,0:0:0:0:
113,171,225476,1,12,0:0:0:0:
55,145,225643,1,0,0:0:0:0:
175,133,225726,1,0,0:0:0:0:
138,158,225810,1,0,0:0:0:0:
175,133,225893,1,0,0:0:0:0:
88,100,225976,1,0,0:0:0:0:
190,184,226060,1,0,0:0:0:0:
119,108,226143,1,8,0:0:0:0:
115,122,226476,1,8,0:0:0:0:
159,102,226643,1,0,0:0:0:0:
161,120,226810,1,0,0:0:0:0:
161,120,226976,1,0,0:0:0:0:
161,120,227143,1,8,0:0:0:0:
328,66,227310,1,8,0:0:0:0:
289,95,227393,1,8,0:0:0:0:
155,111,227476,1,0,0:0:0:0:
155,111,227643,1,0,0:0:0:0:
155,111,227810,1,8,0:0:0:0:
155,111,227976,1,0,0:0:0:0:
165,79,228143,1,0,0:0:0:0:
165,79,228226,1,0,0:0:0:0:
155,111,228310,1,0,0:0:0:0:
155,111,228476,1,12,0:0:0:0:
123,85,228810,1,0,0:0:0:0:
150,133,228976,1,8,0:0:0:0:
150,133,229143,1,8,0:0:0:0:
141,141,229310,1,0,0:0:0:0:
82,121,229476,1,0,0:0:0:0:
82,121,229643,1,0,0:0:0:0:
82,121,229810,1,8,0:0:0:0:
234,118,229976,1,0,0:0:0:0:
83,89,230143,1,8,0:0:0:0:
143,111,230310,1,0,0:0:0:0:
143,111,230393,1,0,0:0:0:0:
143,111,230476,1,8,0:0:0:0:
175,91,230643,1,0,0:0:0:0:
113,171,230810,1,12,0:0:0:0:
137,46,230976,1,0,0:0:0:0:
138,158,231143,1,12,0:0:0:0:
153,148,231476,1,8,0:0:0:0:
115,122,231643,1,0,0:0:0:0:
115,122,231810,1,8,0:0:0:0:
164,93,231976,1,0,0:0:0:0:
161,120,232143,1,0,0:0:0:0:
161,120,232310,1,0,0:0:0:0:
161,120,232476,1,8,0:0:0:0:
173,100,232643,1,8,0:0:0:0:
173,100,232726,1,8,0:0:0:0:
155,111,232810,1,0,0:0:0:0:
155,111,232976,1,0,0:0:0:0:
155,111,233143,1,8,0:0:0:0:
155,111,233310,1,0,0:0:0:0:
186,49,233476,1,0,0:0:0:0:
186,49,233560,1,0,0:0:0:0:
155,111,233643,1,8,0:0:0:0:
155,111,233810,1,12,0:0:0:0:
123,85,234143,1,0,0:0:0:0:
150,133,234310,1,8,0:0:0:0:
150,133,234476,1,8,0:0:0:0:
124,102,234643,1,0,0:0:0:0:
219,68,234726,1,0,0:0:0:0:
82,121,234810,1,0,0:0:0:0:
82,121,234976,1,0,0:0:0:0:
82,121,235143,1,8,0:0:0:0:
227,144,235310,1,0,0:0:0:0:
146,77,235393,1,0,0:0:0:0:
83,89,235476,1,8,0:0:0:0:
143,111,235643,1,0,0:0:0:0:
143,111,235726,1,0,0:0:0:0:
143,111,235810,1,8,0:0:0:0:
173,50,235976,1,0,0:0:0:0:
113,171,236143,1,12,0:0:0:0:
55,145,236310,1,0,0:0:0:0:
117,80,236393,1,0,0:0:0:0:
138,158,236476,1,0,0:0:0:0:
175,133,236560,1,0,0:0:0:0:
88,100,236643,1,0,0:0:0:0:
51,89,236726,1,0,0:0:0:0:
119,108,236810,1,8,0:0:0:0:
112,86,238810,5,12,0:0:0:0:
139,78,238976,1,4,0:0:0:0:
139,78,239143,1,4,0:0:0:0:
139,78,239310,1,4,0:0:0:0:
