osu file format v14

[General]
AudioFilename: audio.mp3
AudioLeadIn: 0
PreviewTime: 54810
Countdown: 0
SampleSet: Normal
StackLeniency: 0.7
Mode: 1
LetterboxInBreaks: 0
WidescreenStoryboard: 0

[Editor]
DistanceSpacing: 3
BeatDivisor: 4
GridSize: 4
TimelineZoom: 1.8

[Metadata]
Title:DICE
TitleUnicode:DICE
Artist:BAND-MAID
ArtistUnicode:BAND-MAID
Creator:-Tenshi-
Version:Muzukashii
Source:
Tags:japanese j-rock hard rock metal miku kobato kanami akane saiki misa 小鳩 ミク 遠乃 歌波 touno tono 廣瀬 茜 hirose 厚見 彩姫 atsumi world domination Band-Maiko
BeatmapID:2353358
BeatmapSetID:1121118

[Difficulty]
HPDrainRate:6
CircleSize:5
OverallDifficulty:4
ApproachRate:5
SliderMultiplier:1.4
SliderTickRate:1

[Events]
//Background and Video events
0,0,"band-maid-5872f69ab5abe.jpg",0,50
//Break Periods
2,170343,174276
//Storyboard Layer 0 (Background)
//Storyboard Layer 1 (Fail)
//Storyboard Layer 2 (Pass)
//Storyboard Layer 3 (Foreground)
//Storyboard Layer 4 (Overlay)
//Storyboard Sound Samples

[TimingPoints]
144,333.333333333333,4,1,0,100,1,0
54810,333.333333333333,4,1,0,100,1,8
55477,333.333333333333,4,1,0,100,1,1
78143,-100,4,1,0,100,0,0
112810,-100,4,1,0,100,0,1
135476,-100,4,1,0,100,0,0
191476,-100,4,1,0,100,0,1
214143,-100,4,1,0,100,0,0

[HitObjects]
223,208,144,5,0,0:0:0:0:
264,193,310,1,0,0:0:0:0:
264,193,477,1,8,0:0:0:0:
270,158,643,1,8,0:0:0:0:
164,176,810,1,0,0:0:0:0:
253,156,977,1,8,0:0:0:0:
169,144,1143,1,8,0:0:0:0:
187,135,1310,1,0,0:0:0:0:
187,135,1393,1,0,0:0:0:0:
187,135,1477,1,0,0:0:0:0:
164,165,1810,1,8,0:0:0:0:
193,157,2310,1,0,0:0:0:0:
193,157,2477,1,8,0:0:0:0:
180,152,2810,1,0,0:0:0:0:
180,152,2977,1,0,0:0:0:0:
180,152,3143,1,8,0:0:0:0:
188,110,3310,1,0,0:0:0:0:
210,156,3477,1,0,0:0:0:0:
165,82,3560,1,0,0:0:0:0:
210,156,3643,1,0,0:0:0:0:
210,156,3810,1,8,0:0:0:0:
178,94,4143,1,8,0:0:0:0:
178,94,4310,1,0,0:0:0:0:
178,94,4477,1,8,0:0:0:0:
181,87,4810,1,0,0:0:0:0:
181,87,4977,1,0,0:0:0:0:
181,87,5143,1,8,0:0:0:0:
207,112,5477,1,0,0:0:0:0:
207,112,5643,1,0,0:0:0:0:
207,112,5810,1,8,0:0:0:0:
195,61,5977,1,0,0:0:0:0:
207,112,6143,1,0,0:0:0:0:
218,70,6227,1,0,0:0:0:0:
207,112,6310,1,0,0:0:0:0:
207,112,6477,1,8,0:0:0:0:
218,70,6643,1,0,0:0:0:0:
221,132,6810,1,12,0:0:0:0:
129,190,7143,1,8,0:0:0:0:
180,78,7643,1,0,0:0:0:0:
180,78,7810,1,8,0:0:0:0:
191,45,8143,1,0,0:0:0:0:
191,45,8310,1,0,0:0:0:0:
191,45,8477,1,8,0:0:0:0:
167,97,8643,1,0,0:0:0:0:
191,45,8810,1,0,0:0:0:0:
162,68,8893,1,0,0:0:0:0:
162,68,8977,1,0,0:0:0:0:
162,68,9143,1,8,0:0:0:0:
162,68,9477,1,8,0:0:0:0:
102,125,9643,1,0,0:0:0:0:
87,111,9810,1,8,0:0:0:0:
118,166,10143,1,0,0:0:0:0:
80,135,10310,1,0,0:0:0:0:
88,154,10477,1,8,0:0:0:0:
88,154,10560,1,8,0:0:0:0:
88,154,10643,1,8,0:0:0:0:
156,115,10810,1,0,0:0:0:0:
138,150,11143,1,8,0:0:0:0:
231,61,11477,1,8,0:0:0:0:
165,88,11810,1,8,0:0:0:0:
147,141,12143,1,12,0:0:0:0:
114,121,12310,1,0,0:0:0:0:
114,121,12477,1,8,0:0:0:0:
160,119,12810,1,0,0:0:0:0:
160,119,12977,1,0,0:0:0:0:
160,119,13143,1,8,0:0:0:0:
87,134,13310,1,0,0:0:0:0:
154,110,13477,1,0,0:0:0:0:
154,110,13643,1,0,0:0:0:0:
154,110,13810,1,8,0:0:0:0:
154,110,13977,1,0,0:0:0:0:
154,110,14477,1,12,0:0:0:0:
122,84,14810,1,0,0:0:0:0:
149,132,14977,1,8,0:0:0:0:
149,132,15143,1,8,0:0:0:0:
81,120,15477,1,0,0:0:0:0:
81,120,15643,1,0,0:0:0:0:
81,120,15810,1,8,0:0:0:0:
196,183,15977,1,0,0:0:0:0:
82,88,16143,1,8,0:0:0:0:
142,110,16310,1,8,0:0:0:0:
142,110,16393,1,8,0:0:0:0:
142,110,16477,1,8,0:0:0:0:
174,90,16643,1,0,0:0:0:0:
112,170,16810,1,12,0:0:0:0:
137,157,17143,1,12,0:0:0:0:
152,147,17477,1,8,0:0:0:0:
114,121,17643,1,0,0:0:0:0:
114,121,17810,1,8,0:0:0:0:
160,119,18143,1,0,0:0:0:0:
160,119,18310,1,0,0:0:0:0:
160,119,18477,1,8,0:0:0:0:
165,97,18643,1,0,0:0:0:0:
154,110,18810,1,0,0:0:0:0:
154,110,18977,1,0,0:0:0:0:
154,110,19143,1,8,0:0:0:0:
154,110,19310,1,0,0:0:0:0:
154,110,19810,1,12,0:0:0:0:
122,84,20143,1,0,0:0:0:0:
149,132,20310,1,8,0:0:0:0:
149,132,20477,1,8,0:0:0:0:
81,120,20810,1,0,0:0:0:0:
81,120,20977,1,0,0:0:0:0:
81,120,21143,1,8,0:0:0:0:
67,25,21310,1,0,0:0:0:0:
82,88,21477,1,8,0:0:0:0:
142,110,21643,1,8,0:0:0:0:
142,110,21727,1,8,0:0:0:0:
142,110,21810,1,8,0:0:0:0:
172,49,21977,1,0,0:0:0:0:
112,170,22143,1,12,0:0:0:0:
54,144,22310,1,0,0:0:0:0:
137,157,22477,1,0,0:0:0:0:
100,149,22560,1,0,0:0:0:0:
87,99,22643,1,0,0:0:0:0:
118,107,22810,1,12,0:0:0:0:
200,99,23143,1,8,0:0:0:0:
241,155,23310,1,8,0:0:0:0:
241,155,23477,1,0,0:0:0:0:
241,155,23810,1,0,0:0:0:0:
187,76,23977,1,8,0:0:0:0:
47,118,24143,1,8,0:0:0:0:
253,99,24310,1,0,0:0:0:0:
119,109,24477,1,8,0:0:0:0:
165,101,24643,1,0,0:0:0:0:
120,92,24977,1,8,0:0:0:0:
165,101,25477,1,8,0:0:0:0:
212,117,25643,1,0,0:0:0:0:
212,117,25810,1,8,0:0:0:0:
207,130,25977,1,0,0:0:0:0:
212,117,26143,1,0,0:0:0:0:
212,117,26310,1,8,0:0:0:0:
212,117,26477,1,0,0:0:0:0:
219,140,26810,1,8,0:0:0:0:
163,91,26977,1,0,0:0:0:0:
149,142,27310,1,8,0:0:0:0:
193,87,27643,1,8,0:0:0:0:
151,59,27810,1,0,0:0:0:0:
153,82,27977,1,8,0:0:0:0:
153,82,28143,1,8,0:0:0:0:
57,128,28477,1,0,0:0:0:0:
74,135,28643,1,0,0:0:0:0:
140,145,28810,1,8,0:0:0:0:
158,133,28977,1,0,0:0:0:0:
74,88,29310,1,8,0:0:0:0:
144,88,29477,1,0,0:0:0:0:
158,133,29643,1,8,0:0:0:0:
102,156,30143,1,0,0:0:0:0:
54,130,30477,1,12,0:0:0:0:
98,133,30810,1,0,0:0:0:0:
146,126,30977,1,0,0:0:0:0:
169,131,31143,1,8,0:0:0:0:
169,130,31477,1,0,0:0:0:0:
169,130,31643,1,0,0:0:0:0:
169,130,31810,1,8,0:0:0:0:
169,130,31977,1,0,0:0:0:0:
169,131,32143,1,0,0:0:0:0:
178,96,32310,1,0,0:0:0:0:
178,96,32477,1,8,0:0:0:0:
178,96,32643,1,8,0:0:0:0:
136,148,32977,1,0,0:0:0:0:
136,148,33143,1,8,0:0:0:0:
147,147,33310,1,0,0:0:0:0:
147,147,33477,1,0,0:0:0:0:
84,108,33643,1,0,0:0:0:0:
167,161,33977,1,0,0:0:0:0:
178,142,34143,1,0,0:0:0:0:
176,101,34310,1,8,0:0:0:0:
115,126,34643,1,8,0:0:0:0:
115,126,34977,1,8,0:0:0:0:
175,87,35310,1,8,0:0:0:0:
261,148,35477,1,0,0:0:0:0:
194,75,35560,1,0,0:0:0:0:
261,148,35643,1,0,0:0:0:0:
109,117,35977,1,0,0:0:0:0:
109,117,36143,1,8,0:0:0:0:
129,156,36643,1,0,0:0:0:0:
129,156,36810,1,0,0:0:0:0:
129,156,36977,1,8,0:0:0:0:
154,123,37310,1,8,0:0:0:0:
154,123,37643,1,8,0:0:0:0:
154,123,37977,1,8,0:0:0:0:
204,87,38143,1,0,0:0:0:0:
175,74,38227,1,0,0:0:0:0:
204,87,38310,1,0,0:0:0:0:
87,99,38643,1,8,0:0:0:0:
87,99,38810,1,8,0:0:0:0:
98,108,38977,1,0,0:0:0:0:
131,106,39310,1,0,0:0:0:0:
131,106,39477,1,0,0:0:0:0:
153,94,39643,1,8,0:0:0:0:
80,108,39977,1,8,0:0:0:0:
80,108,40310,1,8,0:0:0:0:
80,108,40643,1,8,0:0:0:0:
80,108,40810,1,0,0:0:0:0:
138,88,40893,1,0,0:0:0:0:
80,108,40977,1,0,0:0:0:0:
143,61,41143,1,0,0:0:0:0:
138,88,41310,1,8,0:0:0:0:
138,88,41477,1,0,0:0:0:0:
205,114,41977,1,8,0:0:0:0:
205,114,42143,1,0,0:0:0:0:
83,86,42477,1,0,0:0:0:0:
213,110,42643,1,12,0:0:0:0:
144,80,42977,1,8,0:0:0:0:
134,77,43143,1,0,0:0:0:0:
132,74,43310,1,8,0:0:0:0:
97,112,43477,1,0,0:0:0:0:
97,112,43643,1,8,0:0:0:0:
78,97,43810,1,0,0:0:0:0:
120,101,43893,1,0,0:0:0:0:
120,101,43977,1,0,0:0:0:0:
120,101,44143,1,8,0:0:0:0:
107,109,44810,1,8,0:0:0:0:
98,117,44977,1,0,0:0:0:0:
98,117,45143,1,8,0:0:0:0:
136,110,45477,1,0,0:0:0:0:
136,110,45643,1,0,0:0:0:0:
133,63,45810,1,8,0:0:0:0:
102,125,46143,1,8,0:0:0:0:
177,112,46227,1,8,0:0:0:0:
177,112,46310,1,8,0:0:0:0:
84,109,46477,1,8,0:0:0:0:
84,114,46643,1,0,0:0:0:0:
138,101,46810,1,8,0:0:0:0:
91,135,47143,1,8,0:0:0:0:
138,114,47477,1,8,0:0:0:0:
142,110,47643,1,0,0:0:0:0:
142,110,47810,1,8,0:0:0:0:
133,156,47977,1,0,0:0:0:0:
225,68,48143,1,8,0:0:0:0:
105,120,48477,1,8,0:0:0:0:
158,79,48810,1,8,0:0:0:0:
158,79,48893,1,8,0:0:0:0:
158,79,48977,1,8,0:0:0:0:
96,123,49143,1,8,0:0:0:0:
129,125,49310,1,0,0:0:0:0:
167,138,49477,1,8,0:0:0:0:
116,108,50143,1,0,0:0:0:0:
10,164,50310,1,8,0:0:0:0:
172,75,50477,1,0,0:0:0:0:
153,44,50643,1,0,0:0:0:0:
74,82,50810,1,8,0:0:0:0:
158,94,51143,1,8,0:0:0:0:
89,93,51310,1,0,0:0:0:0:
138,90,51477,1,8,0:0:0:0:
113,94,51810,1,8,0:0:0:0:
105,91,52143,1,0,0:0:0:0:
149,99,52310,1,8,0:0:0:0:
149,99,52477,1,8,0:0:0:0:
149,99,52643,1,0,0:0:0:0:
148,106,52810,1,0,0:0:0:0:
66,152,53143,1,8,0:0:0:0:
76,112,53310,1,8,0:0:0:0:
101,121,53393,1,8,0:0:0:0:
101,121,53477,1,8,0:0:0:0:
134,107,53643,1,0,0:0:0:0:
134,107,53810,1,8,0:0:0:0:
191,121,54143,1,8,0:0:0:0:
144,69,54310,1,0,0:0:0:0:
191,121,54477,1,8,0:0:0:0:
190,144,54643,1,0,0:0:0:0:
148,126,54810,1,8,0:0:0:0:
196,82,54977,1,0,0:0:0:0:
196,82,55143,1,0,0:0:0:0:
196,82,55227,1,0,0:0:0:0:
196,82,55310,1,0,0:0:0:0:
196,82,55477,1,12,0:0:0:0:
200,161,55810,1,8,0:0:0:0:
73,96,56143,1,0,0:0:0:0:
73,96,56310,1,0,0:0:0:0:
156,51,56477,1,8,0:0:0:0:
200,99,56810,1,0,0:0:0:0:
174,69,56977,1,8,0:0:0:0:
210,74,57143,1,8,0:0:0:0:
210,74,57310,1,0,0:0:0:0:
120,64,57477,1,8,0:0:0:0:
120,64,57560,1,8,0:0:0:0:
120,64,57643,1,8,0:0:0:0:
120,64,57810,1,8,0:0:0:0:
140,118,58143,1,8,0:0:0:0:
153,88,58310,1,0,0:0:0:0:
153,94,58477,1,8,0:0:0:0:
153,96,58643,1,0,0:0:0:0:
221,74,58810,1,8,0:0:0:0:
169,150,59143,1,8,0:0:0:0:
204,132,59310,1,0,0:0:0:0:
230,92,59476,1,8,0:0:0:0:
164,48,59643,1,0,0:0:0:0:
201,136,59810,1,8,0:0:0:0:
173,78,59976,1,0,0:0:0:0:
204,132,60143,1,8,0:0:0:0:
186,37,60226,1,8,0:0:0:0:
164,36,60310,1,8,0:0:0:0:
202,103,60476,1,8,0:0:0:0:
85,183,60643,1,0,0:0:0:0:
138,130,60810,1,12,0:0:0:0:
134,79,61143,1,8,0:0:0:0:
29,120,61476,1,0,0:0:0:0:
145,52,61643,5,0,0:0:0:0:
153,88,61810,1,8,0:0:0:0:
78,45,62143,1,0,0:0:0:0:
92,175,62310,1,0,0:0:0:0:
121,83,62476,1,8,0:0:0:0:
179,56,62643,1,0,0:0:0:0:
134,87,62810,1,0,0:0:0:0:
134,87,62893,1,0,0:0:0:0:
135,87,62976,1,0,0:0:0:0:
33,101,63143,1,8,0:0:0:0:
157,111,63476,1,0,0:0:0:0:
114,155,63560,1,0,0:0:0:0:
158,125,63643,1,0,0:0:0:0:
156,126,63810,1,8,0:0:0:0:
153,135,64143,1,0,0:0:0:0:
165,74,64226,1,0,0:0:0:0:
154,135,64310,1,0,0:0:0:0:
154,135,64476,1,8,0:0:0:0:
118,74,64810,1,8,0:0:0:0:
143,147,64893,1,8,0:0:0:0:
118,74,64976,1,8,0:0:0:0:
118,74,65143,1,8,0:0:0:0:
163,50,65476,1,8,0:0:0:0:
163,50,65560,1,8,0:0:0:0:
163,50,65643,1,8,0:0:0:0:
163,50,65810,1,8,0:0:0:0:
149,87,65976,1,0,0:0:0:0:
149,87,66143,1,12,0:0:0:0:
151,132,66476,1,8,0:0:0:0:
157,125,66810,1,0,0:0:0:0:
163,61,66976,1,8,0:0:0:0:
116,68,67143,1,8,0:0:0:0:
214,70,67310,1,0,0:0:0:0:
99,99,67476,1,8,0:0:0:0:
131,111,67810,1,8,0:0:0:0:
100,220,67976,1,8,0:0:0:0:
88,112,68143,1,0,0:0:0:0:
162,75,68310,1,8,0:0:0:0:
158,63,68393,1,8,0:0:0:0:
158,69,68476,1,8,0:0:0:0:
122,72,68643,1,0,0:0:0:0:
111,104,68810,1,8,0:0:0:0:
99,140,69143,1,8,0:0:0:0:
146,199,69310,1,0,0:0:0:0:
144,115,69476,1,0,0:0:0:0:
109,73,69643,1,8,0:0:0:0:
167,96,69726,1,8,0:0:0:0:
111,74,69810,1,8,0:0:0:0:
145,107,69976,1,0,0:0:0:0:
96,74,70143,1,8,0:0:0:0:
152,110,70476,1,8,0:0:0:0:
183,27,70643,1,0,0:0:0:0:
153,105,70810,1,0,0:0:0:0:
151,109,70893,1,0,0:0:0:0:
151,109,70976,1,0,0:0:0:0:
133,115,71143,1,8,0:0:0:0:
100,176,71310,1,0,0:0:0:0:
171,104,71476,1,12,0:0:0:0:
141,66,71810,1,8,0:0:0:0:
145,102,72143,1,0,0:0:0:0:
175,102,72310,1,0,0:0:0:0:
142,85,72476,1,8,0:0:0:0:
152,98,72810,1,8,0:0:0:0:
137,183,72976,1,0,0:0:0:0:
134,88,73143,1,8,0:0:0:0:
124,108,73310,1,8,0:0:0:0:
125,108,73476,1,0,0:0:0:0:
184,67,73643,1,8,0:0:0:0:
180,77,73726,1,8,0:0:0:0:
93,127,73810,1,8,0:0:0:0:
156,72,73976,1,0,0:0:0:0:
150,63,74143,1,8,0:0:0:0:
156,77,74476,1,8,0:0:0:0:
214,63,74560,1,8,0:0:0:0:
100,152,74643,1,8,0:0:0:0:
100,152,74810,1,0,0:0:0:0:
193,84,74976,1,8,0:0:0:0:
139,38,75143,1,8,0:0:0:0:
315,197,75476,1,8,0:0:0:0:
164,180,75643,1,0,0:0:0:0:
315,197,75810,1,8,0:0:0:0:
164,180,75976,1,0,0:0:0:0:
315,197,76143,1,8,0:0:0:0:
129,108,76310,1,0,0:0:0:0:
129,108,76393,1,0,0:0:0:0:
129,108,76476,1,0,0:0:0:0:
154,83,76643,1,0,0:0:0:0:
154,83,76810,1,8,0:0:0:0:
179,121,77143,1,8,0:0:0:0:
133,134,77310,1,0,0:0:0:0:
179,121,77476,1,8,0:0:0:0:
179,121,77643,1,0,0:0:0:0:
179,121,77810,1,8,0:0:0:0:
176,79,78143,1,12,0:0:0:0:
165,137,79143,1,8,0:0:0:0:
147,141,79476,1,12,0:0:0:0:
114,121,79643,1,0,0:0:0:0:
114,121,79810,1,8,0:0:0:0:
160,119,80143,1,0,0:0:0:0:
160,119,80310,1,0,0:0:0:0:
160,119,80476,1,8,0:0:0:0:
176,94,80643,1,0,0:0:0:0:
154,110,80810,1,0,0:0:0:0:
154,110,80976,1,0,0:0:0:0:
154,110,81143,1,8,0:0:0:0:
154,110,81310,1,0,0:0:0:0:
154,110,81810,1,12,0:0:0:0:
122,84,82143,1,0,0:0:0:0:
149,132,82310,1,8,0:0:0:0:
149,132,82476,1,8,0:0:0:0:
81,120,82810,1,0,0:0:0:0:
81,120,82976,1,0,0:0:0:0:
81,120,83143,1,8,0:0:0:0:
184,168,83310,1,0,0:0:0:0:
82,88,83476,1,8,0:0:0:0:
142,110,83643,1,8,0:0:0:0:
142,110,83726,1,8,0:0:0:0:
142,110,83810,1,8,0:0:0:0:
174,90,83976,1,0,0:0:0:0:
112,170,84143,1,12,0:0:0:0:
137,157,84476,1,12,0:0:0:0:
152,147,84810,1,8,0:0:0:0:
114,121,84976,1,0,0:0:0:0:
114,121,85143,1,8,0:0:0:0:
160,119,85476,1,0,0:0:0:0:
160,119,85643,1,0,0:0:0:0:
160,119,85810,1,8,0:0:0:0:
197,128,85976,1,0,0:0:0:0:
154,110,86143,1,0,0:0:0:0:
154,110,86310,1,0,0:0:0:0:
154,110,86476,1,8,0:0:0:0:
154,110,86643,1,0,0:0:0:0:
154,110,87143,1,12,0:0:0:0:
122,84,87476,1,0,0:0:0:0:
149,132,87643,1,8,0:0:0:0:
149,132,87810,1,8,0:0:0:0:
81,120,88143,1,0,0:0:0:0:
81,120,88310,1,0,0:0:0:0:
81,120,88476,1,8,0:0:0:0:
199,155,88643,1,0,0:0:0:0:
82,88,88810,1,8,0:0:0:0:
142,110,88976,1,8,0:0:0:0:
142,110,89060,1,8,0:0:0:0:
142,110,89143,1,8,0:0:0:0:
172,49,89310,5,0,0:0:0:0:
112,170,89476,1,12,0:0:0:0:
54,144,89643,1,0,0:0:0:0:
137,157,89810,1,0,0:0:0:0:
72,157,89893,1,0,0:0:0:0:
87,99,89976,1,0,0:0:0:0:
118,107,90143,1,12,0:0:0:0:
188,181,90476,5,8,0:0:0:0:
262,132,90643,1,0,0:0:0:0:
262,132,90810,1,8,0:0:0:0:
216,100,91143,1,0,0:0:0:0:
173,49,91310,1,8,0:0:0:0:
211,105,91643,1,0,0:0:0:0:
274,95,91810,1,8,0:0:0:0:
134,92,91976,1,0,0:0:0:0:
154,72,92143,1,0,0:0:0:0:
154,72,92310,1,8,0:0:0:0:
142,141,92810,1,8,0:0:0:0:
133,113,92976,1,0,0:0:0:0:
114,123,93143,1,8,0:0:0:0:
114,123,93310,1,0,0:0:0:0:
131,96,93476,1,8,0:0:0:0:
117,121,93810,1,0,0:0:0:0:
165,76,93976,1,8,0:0:0:0:
156,93,94143,1,0,0:0:0:0:
187,107,94476,1,8,0:0:0:0:
113,126,94643,1,0,0:0:0:0:
100,83,94810,1,0,0:0:0:0:
182,143,94976,1,8,0:0:0:0:
182,143,95143,1,8,0:0:0:0:
160,100,95310,1,0,0:0:0:0:
160,100,95393,1,0,0:0:0:0:
160,100,95476,1,0,0:0:0:0:
116,120,95810,1,8,0:0:0:0:
182,83,95976,1,0,0:0:0:0:
221,68,96143,1,0,0:0:0:0:
139,88,96310,1,8,0:0:0:0:
114,85,96643,1,0,0:0:0:0:
150,81,96810,1,8,0:0:0:0:
160,56,96976,1,0,0:0:0:0:
161,26,97310,1,8,0:0:0:0:
163,78,97476,1,8,0:0:0:0:
163,78,97643,1,0,0:0:0:0:
134,117,97810,1,8,0:0:0:0:
134,117,97976,1,8,0:0:0:0:
98,133,98143,1,0,0:0:0:0:
169,131,98476,1,8,0:0:0:0:
169,130,98810,1,8,0:0:0:0:
169,130,98976,1,0,0:0:0:0:
169,130,99143,1,8,0:0:0:0:
169,130,99310,1,8,0:0:0:0:
178,96,99643,1,0,0:0:0:0:
178,96,99810,1,8,0:0:0:0:
178,96,99976,1,0,0:0:0:0:
142,55,100143,1,8,0:0:0:0:
136,148,100310,1,0,0:0:0:0:
136,148,100476,1,8,0:0:0:0:
81,89,100643,1,0,0:0:0:0:
116,88,100726,1,0,0:0:0:0:
116,88,100810,1,0,0:0:0:0:
135,92,101476,1,8,0:0:0:0:
118,82,101643,1,0,0:0:0:0:
113,110,101810,1,8,0:0:0:0:
167,92,102143,1,8,0:0:0:0:
164,81,102310,1,0,0:0:0:0:
164,81,102476,1,8,0:0:0:0:
89,105,102810,1,8,0:0:0:0:
91,125,102893,1,8,0:0:0:0:
89,105,102976,1,8,0:0:0:0:
89,105,103143,1,8,0:0:0:0:
67,131,103310,1,0,0:0:0:0:
143,90,103476,1,8,0:0:0:0:
147,94,103810,1,0,0:0:0:0:
149,56,103976,1,0,0:0:0:0:
133,123,104143,1,8,0:0:0:0:
158,110,104310,1,8,0:0:0:0:
159,143,104476,1,0,0:0:0:0:
136,152,104810,1,0,0:0:0:0:
142,158,104976,1,0,0:0:0:0:
119,91,105143,1,8,0:0:0:0:
98,117,105476,1,8,0:0:0:0:
58,110,105643,1,0,0:0:0:0:
58,110,105726,1,0,0:0:0:0:
58,110,105810,1,0,0:0:0:0:
183,66,105976,1,0,0:0:0:0:
168,49,106143,1,8,0:0:0:0:
116,108,106810,1,8,0:0:0:0:
10,164,106976,1,0,0:0:0:0:
172,75,107143,1,8,0:0:0:0:
74,82,107476,1,8,0:0:0:0:
180,67,107643,1,0,0:0:0:0:
89,93,107810,1,0,0:0:0:0:
158,94,107976,1,0,0:0:0:0:
138,90,108143,1,8,0:0:0:0:
104,119,108310,1,0,0:0:0:0:
113,94,108476,1,8,0:0:0:0:
105,91,108810,1,0,0:0:0:0:
149,99,109143,1,8,0:0:0:0:
149,99,109310,1,0,0:0:0:0:
148,106,109476,1,8,0:0:0:0:
66,152,109810,1,8,0:0:0:0:
76,112,109976,1,8,0:0:0:0:
101,121,110060,1,8,0:0:0:0:
101,121,110143,1,8,0:0:0:0:
134,107,110310,1,0,0:0:0:0:
134,107,110476,1,8,0:0:0:0:
191,121,110810,1,8,0:0:0:0:
144,69,110976,1,0,0:0:0:0:
121,62,111060,1,0,0:0:0:0:
191,121,111143,1,0,0:0:0:0:
174,46,111310,1,0,0:0:0:0:
174,46,111476,1,8,0:0:0:0:
85,119,111810,1,8,0:0:0:0:
124,127,111976,1,0,0:0:0:0:
124,127,112143,1,0,0:0:0:0:
136,114,112310,1,0,0:0:0:0:
114,116,112476,1,12,0:0:0:0:
165,105,112810,1,4,0:0:0:0:
101,194,113143,1,8,0:0:0:0:
73,96,113476,1,0,0:0:0:0:
73,96,113643,1,0,0:0:0:0:
156,51,113810,1,8,0:0:0:0:
200,99,114143,1,0,0:0:0:0:
174,69,114310,1,0,0:0:0:0:
210,74,114476,1,8,0:0:0:0:
210,74,114643,1,0,0:0:0:0:
120,64,114810,1,8,0:0:0:0:
120,64,114893,1,8,0:0:0:0:
120,64,114976,1,8,0:0:0:0:
120,64,115143,1,8,0:0:0:0:
140,118,115476,1,0,0:0:0:0:
153,88,115643,1,0,0:0:0:0:
153,94,115810,1,8,0:0:0:0:
153,96,115976,1,0,0:0:0:0:
221,74,116143,1,8,0:0:0:0:
204,132,116310,1,0,0:0:0:0:
169,150,116476,1,8,0:0:0:0:
230,92,116810,1,8,0:0:0:0:
164,48,116976,1,0,0:0:0:0:
201,136,117143,1,8,0:0:0:0:
173,78,117310,1,0,0:0:0:0:
204,132,117476,1,8,0:0:0:0:
186,37,117560,1,8,0:0:0:0:
164,36,117643,1,8,0:0:0:0:
202,103,117810,1,8,0:0:0:0:
138,130,118143,1,12,0:0:0:0:
103,94,118476,1,8,0:0:0:0:
29,120,118810,1,0,0:0:0:0:
145,52,118976,5,0,0:0:0:0:
153,88,119143,1,8,0:0:0:0:
78,45,119476,1,0,0:0:0:0:
153,154,119643,1,0,0:0:0:0:
121,83,119810,1,8,0:0:0:0:
179,56,119976,1,0,0:0:0:0:
134,87,120143,1,0,0:0:0:0:
134,87,120226,1,0,0:0:0:0:
135,87,120310,1,0,0:0:0:0:
33,101,120476,1,8,0:0:0:0:
157,111,120810,1,0,0:0:0:0:
149,105,120893,1,0,0:0:0:0:
158,125,120976,1,0,0:0:0:0:
156,126,121143,1,8,0:0:0:0:
153,135,121476,1,0,0:0:0:0:
165,74,121560,1,0,0:0:0:0:
154,135,121643,1,0,0:0:0:0:
154,135,121810,1,8,0:0:0:0:
118,74,122143,1,8,0:0:0:0:
148,57,122226,1,8,0:0:0:0:
118,74,122310,1,8,0:0:0:0:
118,74,122476,1,8,0:0:0:0:
163,50,122810,1,8,0:0:0:0:
163,50,122893,1,8,0:0:0:0:
163,50,122976,1,8,0:0:0:0:
163,50,123143,1,8,0:0:0:0:
149,87,123310,1,0,0:0:0:0:
149,87,123476,1,12,0:0:0:0:
186,58,123810,1,8,0:0:0:0:
156,67,124143,1,0,0:0:0:0:
163,61,124310,1,8,0:0:0:0:
116,68,124476,1,8,0:0:0:0:
214,70,124643,1,0,0:0:0:0:
99,99,124810,1,8,0:0:0:0:
131,111,125143,1,8,0:0:0:0:
164,137,125310,1,8,0:0:0:0:
88,112,125476,1,0,0:0:0:0:
162,75,125643,1,0,0:0:0:0:
158,63,125726,1,0,0:0:0:0:
158,69,125810,1,0,0:0:0:0:
122,72,125976,1,0,0:0:0:0:
111,104,126143,1,8,0:0:0:0:
99,140,126476,1,8,0:0:0:0:
163,191,126643,1,8,0:0:0:0:
144,115,126810,1,0,0:0:0:0:
109,73,126976,1,8,0:0:0:0:
167,96,127060,1,8,0:0:0:0:
111,74,127143,1,8,0:0:0:0:
145,107,127310,1,0,0:0:0:0:
96,74,127476,1,8,0:0:0:0:
152,110,127810,1,8,0:0:0:0:
183,27,127976,1,0,0:0:0:0:
185,66,128060,1,0,0:0:0:0:
153,105,128143,1,0,0:0:0:0:
151,109,128310,1,0,0:0:0:0:
133,115,128476,1,8,0:0:0:0:
120,189,128643,1,0,0:0:0:0:
171,104,128810,1,12,0:0:0:0:
168,69,129143,1,8,0:0:0:0:
145,102,129476,1,0,0:0:0:0:
175,102,129643,1,0,0:0:0:0:
142,85,129810,1,8,0:0:0:0:
152,98,130143,1,8,0:0:0:0:
122,154,130310,1,0,0:0:0:0:
134,88,130476,1,8,0:0:0:0:
124,108,130643,1,0,0:0:0:0:
125,108,130810,1,8,0:0:0:0:
184,67,130976,1,8,0:0:0:0:
180,77,131060,1,8,0:0:0:0:
93,127,131143,1,8,0:0:0:0:
156,72,131310,1,0,0:0:0:0:
150,63,131476,1,8,0:0:0:0:
156,77,131810,1,8,0:0:0:0:
214,63,131893,1,8,0:0:0:0:
100,152,131976,1,8,0:0:0:0:
100,152,132143,1,0,0:0:0:0:
193,84,132310,1,8,0:0:0:0:
139,38,132476,1,8,0:0:0:0:
315,197,132810,1,8,0:0:0:0:
164,180,132976,1,0,0:0:0:0:
315,197,133143,1,8,0:0:0:0:
164,180,133310,1,0,0:0:0:0:
315,197,133476,1,8,0:0:0:0:
129,108,133643,1,0,0:0:0:0:
129,108,133726,1,0,0:0:0:0:
129,108,133810,1,0,0:0:0:0:
154,83,133976,1,0,0:0:0:0:
154,83,134143,1,8,0:0:0:0:
179,121,134476,1,8,0:0:0:0:
133,134,134643,5,0,0:0:0:0:
179,121,134810,1,8,0:0:0:0:
179,121,134976,1,0,0:0:0:0:
179,121,135143,1,8,0:0:0:0:
176,79,135476,1,12,0:0:0:0:
337,174,136143,1,8,0:0:0:0:
159,96,136310,1,0,0:0:0:0:
137,110,136476,1,0,0:0:0:0:
87,92,136560,1,0,0:0:0:0:
137,110,136643,1,0,0:0:0:0:
137,110,136810,1,12,0:0:0:0:
164,165,137143,1,8,0:0:0:0:
193,157,137476,1,0,0:0:0:0:
193,157,137643,1,0,0:0:0:0:
193,157,137810,1,8,0:0:0:0:
180,152,138143,1,0,0:0:0:0:
180,152,138310,1,0,0:0:0:0:
180,152,138476,1,8,0:0:0:0:
188,110,138643,1,0,0:0:0:0:
210,156,138810,1,8,0:0:0:0:
210,156,138976,1,8,0:0:0:0:
210,156,139143,1,0,0:0:0:0:
111,77,139310,1,0,0:0:0:0:
178,94,139476,1,12,0:0:0:0:
178,94,139810,1,8,0:0:0:0:
150,108,139976,1,0,0:0:0:0:
181,87,140143,1,0,0:0:0:0:
181,87,140310,1,0,0:0:0:0:
181,87,140476,1,8,0:0:0:0:
207,112,140810,1,8,0:0:0:0:
204,101,140976,5,0,0:0:0:0:
207,112,141143,1,8,0:0:0:0:
104,114,141476,1,0,0:0:0:0:
177,83,141560,1,0,0:0:0:0:
207,112,141643,1,0,0:0:0:0:
207,112,141810,1,8,0:0:0:0:
218,70,141976,1,0,0:0:0:0:
221,132,142143,1,8,0:0:0:0:
133,119,142476,5,8,0:0:0:0:
149,87,142643,1,0,0:0:0:0:
170,92,142976,1,0,0:0:0:0:
161,90,143143,1,8,0:0:0:0:
139,60,143476,1,8,0:0:0:0:
127,105,143643,1,0,0:0:0:0:
127,105,143810,1,8,0:0:0:0:
146,124,144143,1,0,0:0:0:0:
90,91,144310,1,0,0:0:0:0:
122,81,144476,1,8,0:0:0:0:
123,81,144643,1,12,0:0:0:0:
124,146,144976,1,0,0:0:0:0:
124,146,145143,1,8,0:0:0:0:
158,126,145310,1,0,0:0:0:0:
158,126,145476,1,8,0:0:0:0:
188,52,145643,1,0,0:0:0:0:
158,126,145810,1,8,0:0:0:0:
158,126,145976,1,8,0:0:0:0:
203,240,146976,1,0,0:0:0:0:
102,123,147143,1,8,0:0:0:0:
35,122,147310,1,0,0:0:0:0:
169,94,147476,1,12,0:0:0:0:
102,116,147810,1,8,0:0:0:0:
105,119,147976,1,0,0:0:0:0:
169,94,148310,1,0,0:0:0:0:
169,94,148476,1,8,0:0:0:0:
133,111,148810,1,0,0:0:0:0:
133,111,148976,1,0,0:0:0:0:
133,111,149143,1,0,0:0:0:0:
133,111,149310,1,8,0:0:0:0:
159,80,149643,1,8,0:0:0:0:
159,80,149810,1,8,0:0:0:0:
127,134,150143,1,0,0:0:0:0:
169,106,150226,1,0,0:0:0:0:
127,134,150310,1,0,0:0:0:0:
155,127,150476,1,0,0:0:0:0:
155,127,150643,1,0,0:0:0:0:
91,100,150810,1,8,0:0:0:0:
155,106,150893,1,8,0:0:0:0:
91,100,150976,1,8,0:0:0:0:
158,99,151143,1,8,0:0:0:0:
158,99,151310,1,8,0:0:0:0:
166,88,151476,1,0,0:0:0:0:
156,105,151560,1,0,0:0:0:0:
166,88,151643,1,0,0:0:0:0:
187,107,151726,1,0,0:0:0:0:
166,87,151810,1,0,0:0:0:0:
166,87,151976,1,8,0:0:0:0:
166,87,152143,1,0,0:0:0:0:
140,81,152810,1,12,0:0:0:0:
140,81,153143,1,0,0:0:0:0:
140,102,153643,1,8,0:0:0:0:
149,99,153976,1,8,0:0:0:0:
133,81,154310,1,0,0:0:0:0:
133,81,154643,1,8,0:0:0:0:
113,37,155143,1,8,0:0:0:0:
108,131,155476,1,8,0:0:0:0:
108,131,155588,1,8,0:0:0:0:
172,45,155699,1,8,0:0:0:0:
108,131,155810,1,8,0:0:0:0:
108,131,156143,1,0,0:0:0:0:
187,35,156254,1,0,0:0:0:0:
108,131,156365,1,0,0:0:0:0:
160,120,156476,1,0,0:0:0:0:
160,120,156810,1,8,0:0:0:0:
122,91,156921,1,8,0:0:0:0:
91,116,157032,1,8,0:0:0:0:
160,120,157143,1,8,0:0:0:0:
52,119,157476,1,8,0:0:0:0:
194,99,157810,1,0,0:0:0:0:
126,92,158143,1,8,0:0:0:0:
107,109,158810,1,8,0:0:0:0:
98,117,158976,1,0,0:0:0:0:
98,117,159143,1,8,0:0:0:0:
136,110,159476,1,0,0:0:0:0:
136,110,159643,1,0,0:0:0:0:
133,63,159810,1,8,0:0:0:0:
102,125,160143,1,8,0:0:0:0:
177,112,160226,1,8,0:0:0:0:
177,112,160310,1,8,0:0:0:0:
84,109,160476,1,8,0:0:0:0:
84,114,160643,1,0,0:0:0:0:
138,101,160810,1,8,0:0:0:0:
91,135,161143,1,8,0:0:0:0:
138,114,161476,1,8,0:0:0:0:
142,110,161643,1,0,0:0:0:0:
142,110,161810,1,8,0:0:0:0:
133,156,161976,1,0,0:0:0:0:
225,68,162143,1,8,0:0:0:0:
105,120,162476,1,8,0:0:0:0:
158,79,162810,1,8,0:0:0:0:
158,79,162893,1,8,0:0:0:0:
158,79,162976,1,8,0:0:0:0:
96,123,163143,1,8,0:0:0:0:
129,125,163310,1,0,0:0:0:0:
167,138,163476,1,8,0:0:0:0:
116,108,164143,1,0,0:0:0:0:
10,164,164310,1,8,0:0:0:0:
172,75,164476,1,0,0:0:0:0:
153,44,164643,1,0,0:0:0:0:
74,82,164810,1,8,0:0:0:0:
89,93,165143,1,0,0:0:0:0:
158,94,165310,1,8,0:0:0:0:
138,90,165476,1,0,0:0:0:0:
113,94,165810,1,8,0:0:0:0:
105,91,166143,1,0,0:0:0:0:
149,99,166310,1,8,0:0:0:0:
149,99,166476,1,8,0:0:0:0:
149,99,166643,1,0,0:0:0:0:
148,106,166810,1,8,0:0:0:0:
66,152,167143,5,8,0:0:0:0:
76,112,167310,1,8,0:0:0:0:
101,121,167393,1,8,0:0:0:0:
101,121,167476,1,8,0:0:0:0:
134,107,167643,1,0,0:0:0:0:
134,107,167810,1,8,0:0:0:0:
139,81,168143,1,0,0:0:0:0:
142,97,168310,1,0,0:0:0:0:
98,110,168476,1,8,0:0:0:0:
113,120,168643,1,0,0:0:0:0:
149,29,168810,1,0,0:0:0:0:
134,107,168976,1,8,0:0:0:0:
147,76,169310,1,0,0:0:0:0:
147,76,169476,1,8,0:0:0:0:
150,88,169726,1,0,0:0:0:0:
150,88,169976,1,0,0:0:0:0:
127,130,170143,1,12,0:0:0:0:
133,137,175476,5,12,0:0:0:0:
154,132,176810,1,12,0:0:0:0:
154,132,178143,1,12,0:0:0:0:
138,125,179476,1,4,0:0:0:0:
134,130,180476,1,8,0:0:0:0:
151,132,180810,1,12,0:0:0:0:
162,84,181476,1,0,0:0:0:0:
74,108,182143,1,12,0:0:0:0:
96,105,182476,1,0,0:0:0:0:
138,195,182810,1,8,0:0:0:0:
160,106,183476,1,12,0:0:0:0:
145,231,183810,1,0,0:0:0:0:
146,125,184143,1,8,0:0:0:0:
113,161,184476,1,8,0:0:0:0:
146,125,184810,1,4,0:0:0:0:
103,119,185310,1,8,0:0:0:0:
169,115,185476,1,0,0:0:0:0:
136,107,185643,1,8,0:0:0:0:
174,105,185810,1,0,0:0:0:0:
174,105,185976,1,0,0:0:0:0:
176,110,186143,1,12,0:0:0:0:
176,54,186476,1,8,0:0:0:0:
177,127,186810,1,0,0:0:0:0:
151,97,187143,1,0,0:0:0:0:
177,127,187476,1,12,0:0:0:0:
172,81,187810,1,0,0:0:0:0:
162,63,187976,1,0,0:0:0:0:
160,103,188143,1,8,0:0:0:0:
156,68,188476,1,0,0:0:0:0:
160,103,188810,1,12,0:0:0:0:
160,103,189476,1,0,0:0:0:0:
160,103,189810,1,0,0:0:0:0:
174,46,190143,1,8,0:0:0:0:
85,119,190476,1,0,0:0:0:0:
124,127,190643,1,8,0:0:0:0:
124,127,190810,1,0,0:0:0:0:
180,127,190893,1,0,0:0:0:0:
136,114,190976,1,0,0:0:0:0:
114,115,191143,1,8,0:0:0:0:
178,77,191310,1,0,0:0:0:0:
178,77,191393,1,0,0:0:0:0:
165,105,191476,1,0,0:0:0:0:
130,101,191810,1,8,0:0:0:0:
76,95,192143,1,0,0:0:0:0:
76,95,192310,1,0,0:0:0:0:
159,50,192476,1,8,0:0:0:0:
203,98,192810,1,0,0:0:0:0:
177,68,192976,1,8,0:0:0:0:
213,73,193143,1,8,0:0:0:0:
213,73,193310,1,0,0:0:0:0:
123,63,193476,1,8,0:0:0:0:
123,63,193560,1,8,0:0:0:0:
123,63,193643,1,8,0:0:0:0:
123,63,193810,1,8,0:0:0:0:
143,117,194143,1,8,0:0:0:0:
156,87,194310,1,0,0:0:0:0:
156,93,194476,1,8,0:0:0:0:
156,95,194643,1,0,0:0:0:0:
224,73,194810,1,8,0:0:0:0:
172,149,195143,1,8,0:0:0:0:
207,131,195310,1,0,0:0:0:0:
233,91,195476,1,8,0:0:0:0:
167,47,195643,1,0,0:0:0:0:
204,135,195810,1,8,0:0:0:0:
176,77,195976,1,0,0:0:0:0:
207,131,196143,1,8,0:0:0:0:
189,36,196226,1,8,0:0:0:0:
167,35,196310,1,8,0:0:0:0:
205,102,196476,1,8,0:0:0:0:
141,129,196810,1,12,0:0:0:0:
134,120,197143,1,8,0:0:0:0:
32,119,197476,1,0,0:0:0:0:
148,51,197643,5,0,0:0:0:0:
156,87,197810,1,8,0:0:0:0:
81,44,198143,1,0,0:0:0:0:
109,146,198310,1,0,0:0:0:0:
124,82,198476,1,8,0:0:0:0:
182,55,198643,1,0,0:0:0:0:
137,86,198810,1,0,0:0:0:0:
137,86,198893,1,0,0:0:0:0:
138,86,198976,1,0,0:0:0:0:
36,100,199143,1,8,0:0:0:0:
160,110,199476,1,0,0:0:0:0:
97,154,199560,1,0,0:0:0:0:
161,124,199643,1,0,0:0:0:0:
159,125,199810,1,8,0:0:0:0:
156,134,200143,1,0,0:0:0:0:
168,73,200226,1,0,0:0:0:0:
157,134,200310,1,0,0:0:0:0:
157,134,200476,1,8,0:0:0:0:
121,73,200810,1,8,0:0:0:0:
139,70,200893,1,8,0:0:0:0:
121,73,200976,1,8,0:0:0:0:
121,73,201143,1,8,0:0:0:0:
175,101,201310,1,0,0:0:0:0:
166,49,201476,1,8,0:0:0:0:
166,49,201560,1,8,0:0:0:0:
166,49,201643,1,8,0:0:0:0:
166,49,201810,1,0,0:0:0:0:
252,128,201893,1,0,0:0:0:0:
152,86,201976,1,0,0:0:0:0:
152,86,202143,1,12,0:0:0:0:
170,69,202476,1,8,0:0:0:0:
132,97,202810,1,0,0:0:0:0:
166,60,202976,1,8,0:0:0:0:
119,67,203143,1,8,0:0:0:0:
217,69,203310,1,0,0:0:0:0:
102,98,203476,1,8,0:0:0:0:
134,110,203810,1,8,0:0:0:0:
121,177,203976,1,8,0:0:0:0:
91,111,204143,1,0,0:0:0:0:
165,74,204310,1,0,0:0:0:0:
161,62,204393,1,0,0:0:0:0:
161,68,204476,1,0,0:0:0:0:
125,71,204643,1,0,0:0:0:0:
114,103,204810,1,8,0:0:0:0:
102,139,205143,1,8,0:0:0:0:
133,141,205310,1,0,0:0:0:0:
147,114,205476,1,0,0:0:0:0:
112,72,205643,1,8,0:0:0:0:
170,95,205726,1,8,0:0:0:0:
114,73,205810,1,8,0:0:0:0:
148,106,205976,1,0,0:0:0:0:
99,73,206143,1,8,0:0:0:0:
155,109,206476,1,8,0:0:0:0:
186,26,206643,1,0,0:0:0:0:
156,104,206810,1,0,0:0:0:0:
154,108,206893,1,0,0:0:0:0:
154,108,206976,1,0,0:0:0:0:
136,114,207143,1,8,0:0:0:0:
174,103,207476,1,12,0:0:0:0:
159,63,207810,1,8,0:0:0:0:
148,101,208143,1,0,0:0:0:0:
178,101,208310,1,0,0:0:0:0:
145,84,208476,1,8,0:0:0:0:
155,97,208810,1,8,0:0:0:0:
153,147,208976,1,0,0:0:0:0:
137,87,209143,1,8,0:0:0:0:
127,107,209310,1,0,0:0:0:0:
128,107,209476,1,8,0:0:0:0:
187,66,209643,1,8,0:0:0:0:
183,76,209726,1,8,0:0:0:0:
96,126,209810,1,8,0:0:0:0:
159,71,209976,1,0,0:0:0:0:
153,62,210143,1,8,0:0:0:0:
159,76,210476,1,8,0:0:0:0:
217,62,210560,1,8,0:0:0:0:
103,151,210643,1,8,0:0:0:0:
103,151,210810,1,0,0:0:0:0:
196,83,210976,1,0,0:0:0:0:
142,37,211143,1,8,0:0:0:0:
318,196,211476,1,8,0:0:0:0:
167,179,211643,1,0,0:0:0:0:
318,196,211810,1,8,0:0:0:0:
167,179,211976,1,0,0:0:0:0:
318,196,212143,1,8,0:0:0:0:
132,107,212310,1,0,0:0:0:0:
132,107,212393,1,0,0:0:0:0:
132,107,212476,1,0,0:0:0:0:
157,82,212643,1,0,0:0:0:0:
157,82,212810,1,8,0:0:0:0:
188,157,212976,1,0,0:0:0:0:
182,120,213143,1,8,0:0:0:0:
136,133,213310,1,8,0:0:0:0:
182,120,213476,1,8,0:0:0:0:
182,120,213643,1,0,0:0:0:0:
182,120,213810,1,8,0:0:0:0:
221,87,213976,1,8,0:0:0:0:
221,87,214060,1,8,0:0:0:0:
179,78,214143,5,8,0:0:0:0:
165,137,215143,1,8,0:0:0:0:
147,141,215476,1,12,0:0:0:0:
114,121,215643,1,0,0:0:0:0:
114,121,215810,1,8,0:0:0:0:
160,119,216143,1,0,0:0:0:0:
160,119,216310,1,0,0:0:0:0:
160,119,216476,1,8,0:0:0:0:
151,85,216643,1,0,0:0:0:0:
154,110,216810,1,0,0:0:0:0:
154,110,216976,1,0,0:0:0:0:
154,110,217143,1,8,0:0:0:0:
154,110,217310,1,0,0:0:0:0:
154,110,217810,1,12,0:0:0:0:
122,84,218143,1,0,0:0:0:0:
149,132,218310,1,8,0:0:0:0:
149,132,218476,1,8,0:0:0:0:
81,120,218810,1,0,0:0:0:0:
81,120,218976,1,0,0:0:0:0:
81,120,219143,1,8,0:0:0:0:
191,81,219310,1,0,0:0:0:0:
82,88,219476,1,8,0:0:0:0:
142,110,219643,1,8,0:0:0:0:
142,110,219726,1,8,0:0:0:0:
142,110,219810,1,8,0:0:0:0:
174,90,219976,1,0,0:0:0:0:
112,170,220143,1,12,0:0:0:0:
137,157,220476,1,12,0:0:0:0:
152,147,220810,1,8,0:0:0:0:
114,121,220976,1,0,0:0:0:0:
114,121,221143,1,8,0:0:0:0:
160,119,221476,1,0,0:0:0:0:
160,119,221643,1,0,0:0:0:0:
160,119,221810,1,8,0:0:0:0:
201,120,221976,1,0,0:0:0:0:
154,110,222143,1,0,0:0:0:0:
154,110,222310,1,0,0:0:0:0:
154,110,222476,1,8,0:0:0:0:
154,110,222643,1,0,0:0:0:0:
154,110,223143,1,12,0:0:0:0:
122,84,223476,1,0,0:0:0:0:
149,132,223643,1,8,0:0:0:0:
149,132,223810,1,8,0:0:0:0:
81,120,224143,1,0,0:0:0:0:
81,120,224310,1,0,0:0:0:0:
81,120,224476,1,8,0:0:0:0:
186,92,224643,1,0,0:0:0:0:
82,88,224810,1,8,0:0:0:0:
142,110,224976,1,8,0:0:0:0:
142,110,225060,1,8,0:0:0:0:
142,110,225143,1,8,0:0:0:0:
172,49,225310,1,0,0:0:0:0:
112,170,225476,1,12,0:0:0:0:
54,144,225643,1,0,0:0:0:0:
137,157,225810,1,0,0:0:0:0:
106,149,225893,1,0,0:0:0:0:
87,99,225976,1,0,0:0:0:0:
118,107,226143,1,12,0:0:0:0:
114,121,226476,1,8,0:0:0:0:
160,119,226810,1,0,0:0:0:0:
160,119,226976,1,0,0:0:0:0:
160,119,227143,1,8,0:0:0:0:
52,142,227310,1,0,0:0:0:0:
154,110,227476,1,0,0:0:0:0:
154,110,227643,1,0,0:0:0:0:
154,110,227810,1,8,0:0:0:0:
154,110,227976,1,0,0:0:0:0:
154,110,228310,1,0,0:0:0:0:
154,110,228476,1,12,0:0:0:0:
122,84,228810,1,0,0:0:0:0:
149,132,228976,1,8,0:0:0:0:
149,132,229143,1,8,0:0:0:0:
81,120,229476,1,0,0:0:0:0:
81,120,229643,1,0,0:0:0:0:
81,120,229810,1,8,0:0:0:0:
147,114,229976,1,0,0:0:0:0:
82,88,230143,1,8,0:0:0:0:
142,110,230310,1,8,0:0:0:0:
142,110,230393,1,8,0:0:0:0:
142,110,230476,1,8,0:0:0:0:
174,90,230643,1,0,0:0:0:0:
112,170,230810,1,12,0:0:0:0:
137,157,231143,1,12,0:0:0:0:
152,147,231476,1,8,0:0:0:0:
114,121,231643,1,0,0:0:0:0:
114,121,231810,1,8,0:0:0:0:
160,119,232143,1,0,0:0:0:0:
160,119,232310,1,0,0:0:0:0:
160,119,232476,1,8,0:0:0:0:
185,99,232643,1,0,0:0:0:0:
154,110,232810,1,0,0:0:0:0:
154,110,232976,1,0,0:0:0:0:
154,110,233143,1,8,0:0:0:0:
154,110,233310,1,0,0:0:0:0:
154,110,233643,1,0,0:0:0:0:
154,110,233810,1,12,0:0:0:0:
122,84,234143,1,0,0:0:0:0:
149,132,234310,1,8,0:0:0:0:
149,132,234476,1,8,0:0:0:0:
81,120,234810,1,0,0:0:0:0:
81,120,234976,1,0,0:0:0:0:
81,120,235143,1,8,0:0:0:0:
185,98,235310,1,0,0:0:0:0:
82,88,235476,1,8,0:0:0:0:
142,110,235643,1,8,0:0:0:0:
142,110,235726,1,8,0:0:0:0:
142,110,235810,1,8,0:0:0:0:
172,49,235976,1,0,0:0:0:0:
112,170,236143,1,12,0:0:0:0:
54,144,236310,1,0,0:0:0:0:
204,66,236393,1,0,0:0:0:0:
137,157,236476,1,0,0:0:0:0:
111,137,236560,1,0,0:0:0:0:
87,99,236643,1,0,0:0:0:0:
118,107,236810,1,12,0:0:0:0:
111,85,238810,5,12,0:0:0:0:
138,77,238976,1,4,0:0:0:0:
138,77,239143,1,4,0:0:0:0:
138,77,239310,1,4,0:0:0:0:
