osu file format v14

[General]
AudioFilename: audio.mp3
AudioLeadIn: 0
PreviewTime: 54810
Countdown: 0
SampleSet: Normal
StackLeniency: 0.7
Mode: 1
LetterboxInBreaks: 0
WidescreenStoryboard: 0

[Editor]
DistanceSpacing: 3
BeatDivisor: 4
GridSize: 4
TimelineZoom: 1.8

[Metadata]
Title:DICE
TitleUnicode:DICE
Artist:BAND-MAID
ArtistUnicode:BAND-MAID
Creator:-Tenshi-
Version:Inner Oni
Source:
Tags:japanese j-rock hard rock metal miku kobato kanami akane saiki misa 小鳩 ミク 遠乃 歌波 touno tono 廣瀬 茜 hirose 厚見 彩姫 atsumi world domination Band-Maiko
BeatmapID:2342551
BeatmapSetID:1121118

[Difficulty]
HPDrainRate:5
CircleSize:5
OverallDifficulty:6
ApproachRate:5
SliderMultiplier:1.4
SliderTickRate:1

[Events]
//Background and Video events
0,0,"band-maid-5872f69ab5abe.jpg",0,50
//Break Periods
2,170343,174276
//Storyboard Layer 0 (Background)
//Storyboard Layer 1 (Fail)
//Storyboard Layer 2 (Pass)
//Storyboard Layer 3 (Foreground)
//Storyboard Layer 4 (Overlay)
//Storyboard Sound Samples

[TimingPoints]
144,333.333333333333,4,1,0,100,1,0
54810,333.333333333333,4,1,0,100,1,8
55477,333.333333333333,4,1,0,100,1,1
78143,-100,4,1,0,100,0,0
112810,-100,4,1,0,100,0,1
135476,-100,4,1,0,100,0,0
191476,-100,4,1,0,100,0,1
214143,-100,4,1,0,100,0,0

[HitObjects]
261,190,144,5,8,0:0:0:0:
127,149,227,1,0,0:0:0:0:
127,149,310,1,0,0:0:0:0:
127,149,393,1,0,0:0:0:0:
217,106,477,1,8,0:0:0:0:
194,96,560,1,0,0:0:0:0:
239,122,643,1,8,0:0:0:0:
169,95,727,1,0,0:0:0:0:
210,73,810,1,0,0:0:0:0:
210,73,893,1,0,0:0:0:0:
210,59,977,1,8,0:0:0:0:
210,73,1060,1,0,0:0:0:0:
210,59,1143,1,8,0:0:0:0:
210,73,1227,1,8,0:0:0:0:
210,73,1310,1,8,0:0:0:0:
210,73,1393,1,8,0:0:0:0:
223,62,1477,1,0,0:0:0:0:
206,138,1643,1,0,0:0:0:0:
206,138,1810,1,8,0:0:0:0:
210,106,1977,1,0,0:0:0:0:
324,215,2143,1,0,0:0:0:0:
237,141,2227,1,0,0:0:0:0:
237,141,2310,1,0,0:0:0:0:
218,102,2477,1,8,0:0:0:0:
185,118,2643,1,0,0:0:0:0:
185,118,2727,1,0,0:0:0:0:
185,118,2810,1,8,0:0:0:0:
185,118,2977,1,0,0:0:0:0:
185,118,3143,1,8,0:0:0:0:
197,95,3310,1,0,0:0:0:0:
171,146,3477,1,8,0:0:0:0:
171,146,3560,1,8,0:0:0:0:
171,146,3643,1,0,0:0:0:0:
262,169,3810,1,8,0:0:0:0:
179,146,3977,1,0,0:0:0:0:
179,146,4060,1,0,0:0:0:0:
179,146,4143,1,8,0:0:0:0:
179,86,4310,1,0,0:0:0:0:
179,86,4477,1,8,0:0:0:0:
181,77,4643,1,0,0:0:0:0:
181,77,4810,1,0,0:0:0:0:
181,77,4893,1,0,0:0:0:0:
181,77,4977,1,0,0:0:0:0:
181,78,5143,1,8,0:0:0:0:
181,78,5310,1,0,0:0:0:0:
181,78,5393,1,0,0:0:0:0:
181,78,5477,1,8,0:0:0:0:
166,86,5643,1,0,0:0:0:0:
166,86,5810,1,8,0:0:0:0:
172,138,5977,1,0,0:0:0:0:
184,70,6143,1,8,0:0:0:0:
184,70,6227,1,8,0:0:0:0:
184,70,6310,1,0,0:0:0:0:
172,138,6477,1,8,0:0:0:0:
207,69,6643,1,0,0:0:0:0:
206,69,6727,1,0,0:0:0:0:
169,113,6810,1,8,0:0:0:0:
172,108,6977,1,0,0:0:0:0:
162,101,7143,1,8,0:0:0:0:
209,77,7310,1,0,0:0:0:0:
209,77,7477,1,0,0:0:0:0:
209,77,7560,1,0,0:0:0:0:
165,105,7643,1,0,0:0:0:0:
200,46,7810,1,8,0:0:0:0:
185,73,7977,1,0,0:0:0:0:
185,73,8060,1,0,0:0:0:0:
185,73,8143,1,8,0:0:0:0:
184,75,8310,1,0,0:0:0:0:
184,75,8477,1,8,0:0:0:0:
185,73,8643,1,0,0:0:0:0:
185,73,8810,1,8,0:0:0:0:
185,73,8893,1,8,0:0:0:0:
185,73,8977,1,0,0:0:0:0:
203,76,9143,1,8,0:0:0:0:
206,64,9310,1,0,0:0:0:0:
206,64,9393,1,0,0:0:0:0:
206,64,9477,1,8,0:0:0:0:
186,93,9643,1,0,0:0:0:0:
186,93,9810,1,8,0:0:0:0:
218,87,9977,1,8,0:0:0:0:
218,87,10060,1,0,0:0:0:0:
246,81,10143,1,8,0:0:0:0:
200,76,10227,1,8,0:0:0:0:
200,76,10310,1,0,0:0:0:0:
200,77,10393,1,0,0:0:0:0:
206,64,10477,1,8,0:0:0:0:
208,60,10560,1,8,0:0:0:0:
208,60,10643,1,8,0:0:0:0:
208,60,10727,1,8,0:0:0:0:
208,60,10810,1,0,0:0:0:0:
225,101,11143,1,8,0:0:0:0:
224,110,11477,1,8,0:0:0:0:
177,95,11643,1,0,0:0:0:0:
177,95,11699,1,0,0:0:0:0:
75,91,11755,1,0,0:0:0:0:
223,111,11810,1,8,0:0:0:0:
230,138,12143,1,12,0:0:0:0:
171,88,12310,1,0,0:0:0:0:
121,130,12477,1,8,0:0:0:0:
197,86,12643,1,0,0:0:0:0:
115,98,12727,1,0,0:0:0:0:
201,93,12810,1,8,0:0:0:0:
183,120,12977,1,0,0:0:0:0:
175,122,13143,1,8,0:0:0:0:
185,106,13310,1,8,0:0:0:0:
243,150,13393,1,8,0:0:0:0:
185,108,13477,1,0,0:0:0:0:
223,73,13643,1,0,0:0:0:0:
215,88,13810,1,8,0:0:0:0:
174,74,13977,1,0,0:0:0:0:
244,136,14143,1,0,0:0:0:0:
194,82,14310,1,0,0:0:0:0:
194,82,14477,1,12,0:0:0:0:
231,140,14810,1,0,0:0:0:0:
171,88,14977,1,8,0:0:0:0:
121,130,15143,1,8,0:0:0:0:
197,86,15310,1,8,0:0:0:0:
115,98,15393,1,0,0:0:0:0:
201,93,15477,1,0,0:0:0:0:
183,120,15643,1,0,0:0:0:0:
175,122,15810,1,8,0:0:0:0:
185,106,15977,1,0,0:0:0:0:
185,108,16143,1,8,0:0:0:0:
223,73,16310,1,0,0:0:0:0:
243,150,16393,1,0,0:0:0:0:
215,88,16477,1,8,0:0:0:0:
244,111,16643,1,0,0:0:0:0:
208,78,16810,1,8,0:0:0:0:
148,129,16893,1,8,0:0:0:0:
148,129,16977,1,0,0:0:0:0:
208,136,17143,1,8,0:0:0:0:
142,109,17227,1,8,0:0:0:0:
140,102,17310,1,0,0:0:0:0:
175,44,17393,1,0,0:0:0:0:
225,155,17477,1,8,0:0:0:0:
171,88,17643,1,0,0:0:0:0:
121,130,17810,1,8,0:0:0:0:
197,86,17977,1,0,0:0:0:0:
115,98,18060,1,0,0:0:0:0:
201,93,18143,1,8,0:0:0:0:
183,120,18310,1,0,0:0:0:0:
175,122,18477,1,8,0:0:0:0:
185,106,18643,1,8,0:0:0:0:
243,150,18727,1,8,0:0:0:0:
185,108,18810,1,0,0:0:0:0:
223,73,18977,1,0,0:0:0:0:
215,88,19143,1,8,0:0:0:0:
174,74,19310,1,0,0:0:0:0:
230,115,19477,1,0,0:0:0:0:
194,82,19643,1,0,0:0:0:0:
194,82,19810,1,12,0:0:0:0:
231,140,20143,1,0,0:0:0:0:
171,88,20310,1,8,0:0:0:0:
121,130,20477,1,8,0:0:0:0:
197,86,20643,1,8,0:0:0:0:
115,98,20727,1,0,0:0:0:0:
201,93,20810,1,0,0:0:0:0:
183,120,20977,1,0,0:0:0:0:
175,122,21143,1,8,0:0:0:0:
185,106,21310,1,0,0:0:0:0:
185,108,21477,1,8,0:0:0:0:
223,73,21643,1,0,0:0:0:0:
243,150,21727,1,0,0:0:0:0:
215,88,21810,1,8,0:0:0:0:
244,111,21977,1,0,0:0:0:0:
208,78,22143,1,8,0:0:0:0:
148,129,22227,1,8,0:0:0:0:
148,129,22310,1,0,0:0:0:0:
180,127,22393,1,0,0:0:0:0:
208,136,22477,1,8,0:0:0:0:
142,109,22560,1,0,0:0:0:0:
140,102,22643,1,8,0:0:0:0:
166,142,22727,1,8,0:0:0:0:
225,155,22810,1,0,0:0:0:0:
145,100,23143,1,8,0:0:0:0:
170,47,23310,1,8,0:0:0:0:
148,97,23477,1,0,0:0:0:0:
288,96,23810,1,0,0:0:0:0:
115,94,23977,1,0,0:0:0:0:
91,138,24060,1,0,0:0:0:0:
183,109,24143,1,8,0:0:0:0:
134,90,24310,1,0,0:0:0:0:
142,68,24477,5,8,0:0:0:0:
173,155,24643,1,8,0:0:0:0:
101,17,24727,1,8,0:0:0:0:
178,72,24810,1,0,0:0:0:0:
94,39,24977,1,8,0:0:0:0:
134,90,25143,1,0,0:0:0:0:
214,90,25477,1,8,0:0:0:0:
160,146,25643,1,0,0:0:0:0:
212,74,25810,1,8,0:0:0:0:
83,84,25977,1,8,0:0:0:0:
125,77,26060,1,0,0:0:0:0:
120,76,26143,1,0,0:0:0:0:
157,49,26310,1,8,0:0:0:0:
245,47,26477,1,0,0:0:0:0:
245,47,26810,1,8,0:0:0:0:
203,128,26977,1,0,0:0:0:0:
168,81,27060,1,8,0:0:0:0:
217,113,27143,1,0,0:0:0:0:
182,88,27310,1,8,0:0:0:0:
123,106,27477,1,0,0:0:0:0:
163,114,27643,1,8,0:0:0:0:
69,204,27727,1,0,0:0:0:0:
163,114,27810,1,0,0:0:0:0:
163,114,27977,1,8,0:0:0:0:
163,114,28143,1,8,0:0:0:0:
206,90,28477,1,0,0:0:0:0:
206,90,28643,1,0,0:0:0:0:
147,109,28727,1,0,0:0:0:0:
206,90,28810,1,8,0:0:0:0:
178,42,28977,1,0,0:0:0:0:
175,194,29143,1,8,0:0:0:0:
178,42,29310,1,8,0:0:0:0:
151,113,29393,1,8,0:0:0:0:
194,51,29477,1,0,0:0:0:0:
105,9,29643,1,8,0:0:0:0:
201,183,29810,1,0,0:0:0:0:
137,149,29977,1,8,0:0:0:0:
147,23,30143,5,0,0:0:0:0:
98,138,30227,1,8,0:0:0:0:
100,122,30310,1,0,0:0:0:0:
194,51,30477,1,12,0:0:0:0:
263,129,30810,1,0,0:0:0:0:
143,158,30977,1,0,0:0:0:0:
208,140,31143,1,8,0:0:0:0:
172,94,31310,1,0,0:0:0:0:
92,71,31393,1,0,0:0:0:0:
172,94,31477,1,8,0:0:0:0:
172,94,31643,1,0,0:0:0:0:
172,94,31810,1,8,0:0:0:0:
172,94,31977,1,0,0:0:0:0:
151,78,32060,1,0,0:0:0:0:
172,94,32143,1,8,0:0:0:0:
172,94,32310,1,0,0:0:0:0:
210,105,32477,1,8,0:0:0:0:
210,105,32643,1,8,0:0:0:0:
107,135,32810,1,0,0:0:0:0:
210,105,32977,1,0,0:0:0:0:
210,105,33143,1,8,0:0:0:0:
186,149,33310,1,0,0:0:0:0:
186,149,33393,1,0,0:0:0:0:
186,149,33477,1,8,0:0:0:0:
184,47,33643,5,0,0:0:0:0:
180,66,33977,1,8,0:0:0:0:
243,93,34060,1,0,0:0:0:0:
243,93,34143,1,0,0:0:0:0:
108,108,34227,1,0,0:0:0:0:
223,115,34310,1,8,0:0:0:0:
223,115,34643,1,8,0:0:0:0:
220,106,34977,1,8,0:0:0:0:
220,106,35310,1,8,0:0:0:0:
168,48,35393,1,0,0:0:0:0:
212,88,35477,1,0,0:0:0:0:
212,88,35560,1,0,0:0:0:0:
212,88,35643,1,8,0:0:0:0:
212,88,35977,1,0,0:0:0:0:
212,88,36060,1,0,0:0:0:0:
212,88,36143,1,8,0:0:0:0:
190,58,36227,1,8,0:0:0:0:
212,88,36310,1,0,0:0:0:0:
212,88,36643,1,8,0:0:0:0:
253,135,36727,5,8,0:0:0:0:
253,135,36810,1,0,0:0:0:0:
116,84,36893,1,0,0:0:0:0:
253,135,36977,1,8,0:0:0:0:
253,135,37310,1,8,0:0:0:0:
253,135,37643,1,8,0:0:0:0:
166,118,37977,1,8,0:0:0:0:
166,118,38143,1,0,0:0:0:0:
166,118,38227,1,0,0:0:0:0:
145,48,38310,1,8,0:0:0:0:
172,128,38477,1,8,0:0:0:0:
145,48,38643,1,8,0:0:0:0:
145,48,38727,1,0,0:0:0:0:
145,48,38810,1,0,0:0:0:0:
206,106,38893,1,0,0:0:0:0:
145,48,38977,1,0,0:0:0:0:
150,99,39310,1,8,0:0:0:0:
150,99,39393,1,0,0:0:0:0:
150,99,39477,1,0,0:0:0:0:
255,157,39560,5,0,0:0:0:0:
150,99,39643,1,8,0:0:0:0:
212,75,39977,1,8,0:0:0:0:
162,129,40143,1,0,0:0:0:0:
212,75,40310,1,8,0:0:0:0:
212,75,40643,1,8,0:0:0:0:
212,75,40810,1,0,0:0:0:0:
212,75,40893,1,0,0:0:0:0:
212,75,40977,1,8,0:0:0:0:
235,54,41143,1,0,0:0:0:0:
235,54,41310,1,8,0:0:0:0:
235,54,41393,1,0,0:0:0:0:
235,54,41477,1,0,0:0:0:0:
263,129,41643,1,8,0:0:0:0:
170,57,41810,1,0,0:0:0:0:
208,140,41977,1,8,0:0:0:0:
172,94,42143,1,0,0:0:0:0:
92,71,42227,1,0,0:0:0:0:
172,94,42310,1,0,0:0:0:0:
172,94,42477,1,0,0:0:0:0:
172,94,42643,1,12,0:0:0:0:
172,94,42810,1,0,0:0:0:0:
151,78,42893,1,0,0:0:0:0:
172,94,42977,1,8,0:0:0:0:
172,94,43143,1,0,0:0:0:0:
210,105,43310,1,8,0:0:0:0:
210,105,43477,1,0,0:0:0:0:
250,80,43643,1,8,0:0:0:0:
250,80,43810,1,0,0:0:0:0:
214,64,43893,1,0,0:0:0:0:
214,64,43977,1,0,0:0:0:0:
214,64,44060,1,0,0:0:0:0:
214,64,44143,1,8,0:0:0:0:
142,118,44477,1,0,0:0:0:0:
193,145,44643,1,0,0:0:0:0:
201,98,44727,1,0,0:0:0:0:
231,125,44810,1,8,0:0:0:0:
231,125,44977,1,0,0:0:0:0:
193,145,45143,1,8,0:0:0:0:
226,120,45310,1,8,0:0:0:0:
226,120,45393,1,8,0:0:0:0:
177,124,45477,1,0,0:0:0:0:
254,108,45643,1,0,0:0:0:0:
254,108,45810,1,8,0:0:0:0:
41,124,45977,1,0,0:0:0:0:
232,170,46143,1,8,0:0:0:0:
139,64,46227,1,0,0:0:0:0:
232,170,46310,1,8,0:0:0:0:
232,170,46477,1,8,0:0:0:0:
190,65,46643,1,0,0:0:0:0:
190,65,46810,1,8,0:0:0:0:
157,114,47143,1,8,0:0:0:0:
218,76,47310,1,0,0:0:0:0:
218,76,47393,1,0,0:0:0:0:
218,76,47477,1,8,0:0:0:0:
184,157,47643,1,0,0:0:0:0:
180,71,47810,1,8,0:0:0:0:
180,71,47977,1,0,0:0:0:0:
132,86,48143,1,8,0:0:0:0:
72,118,48227,1,8,0:0:0:0:
174,165,48310,1,0,0:0:0:0:
152,94,48477,1,8,0:0:0:0:
197,151,48643,1,0,0:0:0:0:
243,174,48810,1,0,0:0:0:0:
243,174,48893,1,0,0:0:0:0:
243,174,48977,1,0,0:0:0:0:
243,174,49060,1,0,0:0:0:0:
243,174,49143,1,8,0:0:0:0:
128,149,49310,1,0,0:0:0:0:
128,149,49477,1,8,0:0:0:0:
170,38,49810,1,0,0:0:0:0:
141,104,49977,1,0,0:0:0:0:
110,97,50060,1,0,0:0:0:0:
141,104,50143,1,8,0:0:0:0:
118,146,50310,1,8,0:0:0:0:
204,111,50477,1,0,0:0:0:0:
209,104,50560,1,8,0:0:0:0:
204,111,50643,1,0,0:0:0:0:
168,60,50810,1,8,0:0:0:0:
209,86,51143,1,8,0:0:0:0:
108,97,51310,1,0,0:0:0:0:
190,99,51477,5,8,0:0:0:0:
122,117,51560,1,0,0:0:0:0:
200,54,51643,1,0,0:0:0:0:
190,75,51810,1,8,0:0:0:0:
164,80,51977,1,0,0:0:0:0:
164,80,52060,1,0,0:0:0:0:
188,64,52143,1,8,0:0:0:0:
188,66,52310,1,8,0:0:0:0:
188,66,52477,1,8,0:0:0:0:
188,179,52643,5,0,0:0:0:0:
188,179,52727,1,0,0:0:0:0:
188,179,52810,1,8,0:0:0:0:
234,135,52977,1,0,0:0:0:0:
243,111,53143,1,8,0:0:0:0:
174,60,53310,1,8,0:0:0:0:
174,60,53393,1,8,0:0:0:0:
174,60,53477,1,0,0:0:0:0:
234,117,53643,1,8,0:0:0:0:
234,117,53727,1,8,0:0:0:0:
234,117,53810,1,0,0:0:0:0:
201,80,53977,1,0,0:0:0:0:
201,80,54143,1,8,0:0:0:0:
201,80,54310,1,0,0:0:0:0:
135,142,54393,1,0,0:0:0:0:
201,80,54477,1,8,0:0:0:0:
173,104,54560,1,0,0:0:0:0:
96,101,54643,1,0,0:0:0:0:
129,88,54727,1,0,0:0:0:0:
175,109,54810,1,8,0:0:0:0:
197,122,54977,5,0,0:0:0:0:
197,122,55060,1,0,0:0:0:0:
197,122,55143,1,0,0:0:0:0:
197,122,55227,1,0,0:0:0:0:
197,122,55310,1,0,0:0:0:0:
197,122,55393,1,0,0:0:0:0:
197,122,55477,1,8,0:0:0:0:
201,149,55810,1,8,0:0:0:0:
161,61,55977,1,0,0:0:0:0:
192,147,56143,1,0,0:0:0:0:
248,67,56227,1,0,0:0:0:0:
192,147,56310,1,8,0:0:0:0:
192,147,56477,1,8,0:0:0:0:
106,69,56643,1,0,0:0:0:0:
109,81,56727,1,0,0:0:0:0:
210,146,56810,1,0,0:0:0:0:
123,76,56977,1,8,0:0:0:0:
210,146,57143,1,8,0:0:0:0:
196,3,57227,1,0,0:0:0:0:
174,46,57310,1,8,0:0:0:0:
210,147,57477,1,0,0:0:0:0:
152,53,57560,1,0,0:0:0:0:
210,146,57643,1,0,0:0:0:0:
105,126,57727,1,0,0:0:0:0:
210,146,57810,1,8,0:0:0:0:
185,83,57977,1,0,0:0:0:0:
228,85,58143,1,8,0:0:0:0:
133,112,58310,1,0,0:0:0:0:
170,92,58477,1,8,0:0:0:0:
170,101,58560,1,8,0:0:0:0:
170,91,58643,1,0,0:0:0:0:
171,93,58810,1,8,0:0:0:0:
226,93,58977,1,0,0:0:0:0:
177,61,59060,1,8,0:0:0:0:
181,108,59143,1,8,0:0:0:0:
181,108,59310,1,0,0:0:0:0:
223,89,59476,1,8,0:0:0:0:
223,89,59560,1,0,0:0:0:0:
223,89,59643,1,0,0:0:0:0:
223,89,59810,1,8,0:0:0:0:
223,89,59893,1,0,0:0:0:0:
223,89,59976,1,0,0:0:0:0:
223,89,60143,1,8,0:0:0:0:
185,120,60226,1,0,0:0:0:0:
164,135,60310,1,0,0:0:0:0:
175,83,60476,1,8,0:0:0:0:
261,129,60643,1,0,0:0:0:0:
174,57,60810,1,12,0:0:0:0:
212,159,61143,1,8,0:0:0:0:
183,47,61310,1,0,0:0:0:0:
182,47,61393,1,0,0:0:0:0:
167,212,61476,1,8,0:0:0:0:
248,109,61643,1,0,0:0:0:0:
248,109,61810,1,8,0:0:0:0:
165,79,61976,1,0,0:0:0:0:
148,55,62060,1,0,0:0:0:0:
248,109,62143,1,0,0:0:0:0:
187,62,62310,1,0,0:0:0:0:
248,109,62476,1,8,0:0:0:0:
107,77,62643,1,0,0:0:0:0:
248,109,62810,1,8,0:0:0:0:
143,97,62893,1,0,0:0:0:0:
248,109,62976,1,8,0:0:0:0:
103,106,63143,1,8,0:0:0:0:
248,109,63476,1,0,0:0:0:0:
195,58,63560,1,0,0:0:0:0:
195,58,63643,1,0,0:0:0:0:
195,58,63726,1,0,0:0:0:0:
170,91,63810,1,8,0:0:0:0:
135,68,63976,1,0,0:0:0:0:
183,67,64143,1,8,0:0:0:0:
183,67,64226,1,8,0:0:0:0:
183,67,64310,1,0,0:0:0:0:
183,67,64393,1,0,0:0:0:0:
183,67,64476,1,8,0:0:0:0:
195,62,64643,1,0,0:0:0:0:
105,139,64810,1,8,0:0:0:0:
105,139,64893,1,8,0:0:0:0:
105,139,64976,1,8,0:0:0:0:
105,139,65060,1,8,0:0:0:0:
105,139,65143,1,0,0:0:0:0:
174,76,65310,1,8,0:0:0:0:
170,82,65476,1,0,0:0:0:0:
170,82,65560,1,0,0:0:0:0:
170,82,65643,1,8,0:0:0:0:
170,82,65726,1,8,0:0:0:0:
170,82,65810,1,0,0:0:0:0:
235,84,65976,1,0,0:0:0:0:
235,84,66060,1,0,0:0:0:0:
235,84,66143,1,8,0:0:0:0:
201,149,66476,1,8,0:0:0:0:
162,60,66643,1,8,0:0:0:0:
192,147,66810,1,0,0:0:0:0:
192,147,66976,1,0,0:0:0:0:
248,67,67060,1,0,0:0:0:0:
192,147,67143,1,8,0:0:0:0:
106,69,67310,1,0,0:0:0:0:
210,146,67476,1,8,0:0:0:0:
57,173,67560,1,8,0:0:0:0:
123,76,67643,1,0,0:0:0:0:
210,146,67810,1,8,0:0:0:0:
174,46,67976,1,0,0:0:0:0:
196,3,68060,1,0,0:0:0:0:
210,147,68143,1,8,0:0:0:0:
210,146,68310,1,8,0:0:0:0:
105,126,68393,1,8,0:0:0:0:
210,146,68476,1,8,0:0:0:0:
141,145,68560,1,8,0:0:0:0:
232,114,68643,1,0,0:0:0:0:
228,85,68810,1,8,0:0:0:0:
301,102,68976,1,0,0:0:0:0:
170,92,69143,1,8,0:0:0:0:
170,101,69226,1,8,0:0:0:0:
170,91,69310,1,0,0:0:0:0:
132,98,69476,1,0,0:0:0:0:
226,93,69643,1,8,0:0:0:0:
97,108,69726,1,0,0:0:0:0:
181,108,69810,1,8,0:0:0:0:
181,108,69976,1,0,0:0:0:0:
223,89,70143,1,8,0:0:0:0:
223,89,70226,1,0,0:0:0:0:
223,89,70310,1,0,0:0:0:0:
223,89,70476,1,8,0:0:0:0:
223,89,70560,1,0,0:0:0:0:
223,89,70643,1,0,0:0:0:0:
223,89,70810,1,8,0:0:0:0:
223,89,70893,1,0,0:0:0:0:
223,89,70976,1,0,0:0:0:0:
154,68,71060,1,0,0:0:0:0:
175,83,71143,1,8,0:0:0:0:
115,117,71310,1,0,0:0:0:0:
174,57,71476,1,12,0:0:0:0:
141,120,71810,1,8,0:0:0:0:
105,89,71976,1,8,0:0:0:0:
195,78,72060,1,0,0:0:0:0:
149,135,72143,1,0,0:0:0:0:
149,135,72310,1,0,0:0:0:0:
82,129,72476,1,8,0:0:0:0:
183,49,72643,1,0,0:0:0:0:
183,58,72726,1,0,0:0:0:0:
156,81,72810,1,8,0:0:0:0:
183,58,72976,1,0,0:0:0:0:
156,81,73143,1,8,0:0:0:0:
56,131,73310,1,0,0:0:0:0:
90,126,73393,1,0,0:0:0:0:
156,81,73476,1,8,0:0:0:0:
156,81,73643,1,8,0:0:0:0:
98,102,73726,1,8,0:0:0:0:
98,102,73810,1,8,0:0:0:0:
98,102,73893,1,8,0:0:0:0:
156,81,73976,1,0,0:0:0:0:
187,158,74143,1,8,0:0:0:0:
206,33,74310,1,0,0:0:0:0:
187,158,74476,1,8,0:0:0:0:
168,72,74560,1,8,0:0:0:0:
244,87,74643,1,0,0:0:0:0:
187,158,74810,1,0,0:0:0:0:
187,158,74976,1,8,0:0:0:0:
148,74,75060,1,0,0:0:0:0:
187,158,75143,1,8,0:0:0:0:
140,89,75310,1,0,0:0:0:0:
188,151,75476,1,8,0:0:0:0:
188,151,75643,1,0,0:0:0:0:
205,86,75726,1,0,0:0:0:0:
188,151,75810,1,8,0:0:0:0:
188,151,75976,1,8,0:0:0:0:
147,112,76060,1,0,0:0:0:0:
188,151,76143,1,8,0:0:0:0:
46,164,76310,1,0,0:0:0:0:
131,85,76393,1,0,0:0:0:0:
115,156,76476,1,8,0:0:0:0:
127,110,76560,1,8,0:0:0:0:
130,140,76643,1,0,0:0:0:0:
193,139,76726,1,0,0:0:0:0:
130,140,76810,1,8,0:0:0:0:
130,140,76976,1,0,0:0:0:0:
130,140,77143,1,8,0:0:0:0:
121,78,77310,1,0,0:0:0:0:
65,106,77393,1,0,0:0:0:0:
188,62,77476,1,8,0:0:0:0:
255,109,77643,1,0,0:0:0:0:
152,138,77810,1,8,0:0:0:0:
81,162,77976,1,0,0:0:0:0:
81,162,78060,1,0,0:0:0:0:
81,162,78143,1,8,0:0:0:0:
249,189,79143,1,8,0:0:0:0:
159,133,79476,1,12,0:0:0:0:
171,88,79643,1,0,0:0:0:0:
121,130,79810,1,8,0:0:0:0:
197,86,79976,1,0,0:0:0:0:
115,98,80060,1,0,0:0:0:0:
201,93,80143,1,8,0:0:0:0:
183,120,80310,1,0,0:0:0:0:
175,122,80476,1,8,0:0:0:0:
185,106,80643,1,8,0:0:0:0:
243,150,80726,1,8,0:0:0:0:
185,108,80810,1,0,0:0:0:0:
223,73,80976,1,0,0:0:0:0:
215,88,81143,1,8,0:0:0:0:
174,74,81310,1,0,0:0:0:0:
162,61,81476,1,0,0:0:0:0:
194,82,81643,1,0,0:0:0:0:
194,82,81810,1,12,0:0:0:0:
231,140,82143,1,0,0:0:0:0:
171,88,82310,1,8,0:0:0:0:
121,130,82476,1,8,0:0:0:0:
197,86,82643,1,8,0:0:0:0:
115,98,82726,1,0,0:0:0:0:
201,93,82810,1,0,0:0:0:0:
183,120,82976,1,0,0:0:0:0:
175,122,83143,1,8,0:0:0:0:
185,106,83310,1,0,0:0:0:0:
185,108,83476,1,8,0:0:0:0:
223,73,83643,1,0,0:0:0:0:
164,113,83726,1,0,0:0:0:0:
215,88,83810,1,8,0:0:0:0:
244,111,83976,1,0,0:0:0:0:
208,78,84143,1,8,0:0:0:0:
148,129,84226,1,8,0:0:0:0:
148,129,84310,1,0,0:0:0:0:
208,136,84476,1,8,0:0:0:0:
142,109,84560,1,8,0:0:0:0:
140,102,84643,1,0,0:0:0:0:
139,84,84726,1,0,0:0:0:0:
225,155,84810,1,8,0:0:0:0:
171,88,84976,1,0,0:0:0:0:
121,130,85143,1,8,0:0:0:0:
197,86,85310,1,0,0:0:0:0:
115,98,85393,1,0,0:0:0:0:
201,93,85476,1,8,0:0:0:0:
183,120,85643,1,0,0:0:0:0:
175,122,85810,1,8,0:0:0:0:
185,106,85976,1,8,0:0:0:0:
243,150,86060,1,8,0:0:0:0:
185,108,86143,1,0,0:0:0:0:
223,73,86310,1,0,0:0:0:0:
215,88,86476,1,8,0:0:0:0:
174,74,86643,1,0,0:0:0:0:
161,64,86810,1,0,0:0:0:0:
194,82,86976,1,0,0:0:0:0:
194,82,87143,1,12,0:0:0:0:
231,140,87476,1,0,0:0:0:0:
171,88,87643,1,8,0:0:0:0:
121,130,87810,1,8,0:0:0:0:
197,86,87976,1,8,0:0:0:0:
115,98,88060,1,0,0:0:0:0:
201,93,88143,1,0,0:0:0:0:
183,120,88310,1,0,0:0:0:0:
175,122,88476,1,8,0:0:0:0:
185,106,88643,1,0,0:0:0:0:
185,108,88810,1,8,0:0:0:0:
223,73,88976,1,0,0:0:0:0:
172,65,89060,1,0,0:0:0:0:
215,88,89143,1,8,0:0:0:0:
244,111,89310,1,0,0:0:0:0:
208,78,89476,1,8,0:0:0:0:
148,129,89560,1,8,0:0:0:0:
148,129,89643,1,0,0:0:0:0:
180,127,89726,1,0,0:0:0:0:
208,136,89810,1,8,0:0:0:0:
142,109,89893,1,0,0:0:0:0:
140,102,89976,1,8,0:0:0:0:
166,142,90060,1,8,0:0:0:0:
225,155,90143,1,0,0:0:0:0:
215,66,90476,1,8,0:0:0:0:
175,86,90643,1,0,0:0:0:0:
230,80,90810,1,8,0:0:0:0:
72,162,90893,1,8,0:0:0:0:
72,162,90976,1,8,0:0:0:0:
203,69,91143,1,0,0:0:0:0:
215,131,91310,1,8,0:0:0:0:
206,86,91643,1,0,0:0:0:0:
206,86,91810,1,8,0:0:0:0:
85,138,91976,1,0,0:0:0:0:
126,142,92060,1,0,0:0:0:0:
157,90,92143,1,0,0:0:0:0:
205,186,92310,1,0,0:0:0:0:
191,144,92476,1,8,0:0:0:0:
193,59,92643,1,0,0:0:0:0:
193,59,92726,1,0,0:0:0:0:
193,59,92810,1,8,0:0:0:0:
235,95,92976,1,0,0:0:0:0:
145,124,93060,1,0,0:0:0:0:
159,46,93143,1,8,0:0:0:0:
225,79,93310,1,0,0:0:0:0:
225,79,93476,1,8,0:0:0:0:
209,138,93810,1,0,0:0:0:0:
209,138,93976,1,8,0:0:0:0:
103,108,94143,1,8,0:0:0:0:
103,108,94226,1,8,0:0:0:0:
204,120,94310,1,0,0:0:0:0:
204,120,94476,1,8,0:0:0:0:
146,69,94643,1,0,0:0:0:0:
194,108,94726,1,0,0:0:0:0:
204,120,94810,1,8,0:0:0:0:
110,78,94893,1,8,0:0:0:0:
204,120,94976,1,0,0:0:0:0:
204,120,95143,1,8,0:0:0:0:
147,154,95226,1,0,0:0:0:0:
235,74,95310,1,8,0:0:0:0:
235,74,95393,1,8,0:0:0:0:
235,74,95476,1,0,0:0:0:0:
206,90,95810,1,8,0:0:0:0:
206,90,95976,1,0,0:0:0:0:
147,109,96060,1,0,0:0:0:0:
206,90,96143,1,8,0:0:0:0:
175,194,96310,1,0,0:0:0:0:
178,42,96476,1,8,0:0:0:0:
178,42,96643,1,8,0:0:0:0:
151,113,96726,1,0,0:0:0:0:
194,51,96810,1,8,0:0:0:0:
105,9,96976,1,0,0:0:0:0:
205,75,97143,5,8,0:0:0:0:
147,24,97476,5,8,0:0:0:0:
100,122,97643,1,0,0:0:0:0:
194,51,97810,1,8,0:0:0:0:
108,140,97893,1,8,0:0:0:0:
108,140,97976,1,8,0:0:0:0:
263,129,98143,1,8,0:0:0:0:
170,57,98310,1,0,0:0:0:0:
208,140,98476,1,8,0:0:0:0:
172,94,98643,1,0,0:0:0:0:
92,71,98726,1,0,0:0:0:0:
172,94,98810,1,8,0:0:0:0:
172,94,98976,1,0,0:0:0:0:
172,94,99143,1,8,0:0:0:0:
172,94,99310,1,8,0:0:0:0:
168,88,99476,1,0,0:0:0:0:
150,102,99643,1,0,0:0:0:0:
151,78,99726,1,0,0:0:0:0:
172,94,99810,1,8,0:0:0:0:
175,128,99976,1,0,0:0:0:0:
134,58,100143,1,8,0:0:0:0:
148,71,100226,1,8,0:0:0:0:
210,105,100310,1,0,0:0:0:0:
115,138,100393,1,0,0:0:0:0:
210,105,100476,1,8,0:0:0:0:
115,138,100560,1,0,0:0:0:0:
186,149,100643,1,0,0:0:0:0:
186,149,100726,1,8,0:0:0:0:
186,149,100810,1,0,0:0:0:0:
142,118,101143,1,0,0:0:0:0:
193,145,101310,1,0,0:0:0:0:
201,98,101393,1,0,0:0:0:0:
231,125,101476,1,8,0:0:0:0:
231,125,101643,1,0,0:0:0:0:
193,145,101810,1,8,0:0:0:0:
226,120,101976,1,8,0:0:0:0:
226,120,102060,1,8,0:0:0:0:
177,124,102143,1,8,0:0:0:0:
254,108,102310,1,0,0:0:0:0:
175,216,102393,1,0,0:0:0:0:
254,108,102476,1,8,0:0:0:0:
41,124,102643,1,0,0:0:0:0:
193,100,102810,1,8,0:0:0:0:
182,171,102893,1,0,0:0:0:0:
182,171,102976,1,0,0:0:0:0:
179,177,103060,1,0,0:0:0:0:
192,102,103143,1,8,0:0:0:0:
193,100,103310,1,8,0:0:0:0:
193,100,103393,1,8,0:0:0:0:
193,100,103476,1,0,0:0:0:0:
193,100,103643,1,8,0:0:0:0:
193,100,103810,1,0,0:0:0:0:
192,102,103976,1,0,0:0:0:0:
192,102,104060,1,0,0:0:0:0:
192,102,104143,1,8,0:0:0:0:
206,181,104226,1,0,0:0:0:0:
206,181,104310,1,8,0:0:0:0:
193,100,104476,1,0,0:0:0:0:
193,100,104643,1,8,0:0:0:0:
193,100,104810,1,8,0:0:0:0:
180,199,104893,1,0,0:0:0:0:
222,162,104976,1,0,0:0:0:0:
222,162,105143,1,8,0:0:0:0:
222,162,105310,1,0,0:0:0:0:
222,162,105476,1,8,0:0:0:0:
155,157,105560,1,8,0:0:0:0:
223,146,105643,1,0,0:0:0:0:
223,146,105726,1,0,0:0:0:0:
223,146,105810,1,8,0:0:0:0:
134,174,105976,1,0,0:0:0:0:
223,146,106143,1,8,0:0:0:0:
170,38,106476,1,0,0:0:0:0:
141,104,106643,1,0,0:0:0:0:
110,97,106726,1,0,0:0:0:0:
141,104,106810,1,8,0:0:0:0:
118,146,106976,1,0,0:0:0:0:
204,111,107143,1,8,0:0:0:0:
209,104,107226,1,8,0:0:0:0:
204,111,107310,1,0,0:0:0:0:
168,60,107476,1,8,0:0:0:0:
234,139,107643,1,0,0:0:0:0:
234,139,107726,1,0,0:0:0:0:
234,139,107810,1,8,0:0:0:0:
194,163,107976,1,0,0:0:0:0:
97,137,108143,1,8,0:0:0:0:
194,136,108226,1,0,0:0:0:0:
194,136,108310,1,0,0:0:0:0:
194,136,108393,1,0,0:0:0:0:
194,136,108476,1,8,0:0:0:0:
164,80,108643,1,0,0:0:0:0:
164,80,108726,1,0,0:0:0:0:
188,64,108810,1,8,0:0:0:0:
188,66,108976,1,8,0:0:0:0:
188,66,109143,1,8,0:0:0:0:
188,179,109310,5,0,0:0:0:0:
188,179,109393,1,0,0:0:0:0:
188,179,109476,1,8,0:0:0:0:
234,135,109643,1,0,0:0:0:0:
243,111,109810,1,8,0:0:0:0:
174,60,109976,1,8,0:0:0:0:
174,60,110060,1,8,0:0:0:0:
174,60,110143,1,0,0:0:0:0:
243,157,110310,1,0,0:0:0:0:
243,157,110393,1,0,0:0:0:0:
243,157,110476,1,8,0:0:0:0:
243,157,110643,1,0,0:0:0:0:
243,157,110810,1,8,0:0:0:0:
243,157,110976,1,0,0:0:0:0:
243,157,111060,1,0,0:0:0:0:
243,157,111143,1,8,0:0:0:0:
154,141,111226,1,0,0:0:0:0:
81,154,111310,1,0,0:0:0:0:
154,141,111393,1,0,0:0:0:0:
243,157,111476,1,8,0:0:0:0:
296,190,111643,1,0,0:0:0:0:
296,190,111699,1,0,0:0:0:0:
157,48,111754,1,0,0:0:0:0:
296,190,111810,1,8,0:0:0:0:
243,157,111976,1,8,0:0:0:0:
177,39,112032,1,8,0:0:0:0:
198,137,112088,1,8,0:0:0:0:
198,137,112143,1,0,0:0:0:0:
198,137,112310,1,0,0:0:0:0:
198,137,112476,1,12,0:0:0:0:
198,137,112810,1,4,0:0:0:0:
201,149,113143,1,8,0:0:0:0:
162,60,113310,1,0,0:0:0:0:
192,147,113476,1,0,0:0:0:0:
248,67,113560,1,0,0:0:0:0:
192,147,113643,1,8,0:0:0:0:
192,147,113810,1,8,0:0:0:0:
106,69,113976,1,8,0:0:0:0:
109,81,114060,1,0,0:0:0:0:
210,146,114143,1,0,0:0:0:0:
123,76,114310,1,0,0:0:0:0:
210,146,114476,1,8,0:0:0:0:
196,3,114560,1,0,0:0:0:0:
174,46,114643,1,8,0:0:0:0:
210,147,114810,1,0,0:0:0:0:
155,51,114893,1,0,0:0:0:0:
210,146,114976,1,0,0:0:0:0:
105,126,115060,1,0,0:0:0:0:
210,146,115143,1,8,0:0:0:0:
190,302,115310,1,0,0:0:0:0:
228,85,115476,1,8,0:0:0:0:
178,170,115643,1,0,0:0:0:0:
103,145,115726,1,0,0:0:0:0:
178,170,115810,1,8,0:0:0:0:
178,170,115976,1,0,0:0:0:0:
178,170,116143,1,8,0:0:0:0:
178,170,116310,1,0,0:0:0:0:
116,133,116393,1,0,0:0:0:0:
181,108,116476,1,8,0:0:0:0:
181,108,116643,1,0,0:0:0:0:
223,89,116810,1,8,0:0:0:0:
223,89,116893,1,0,0:0:0:0:
223,89,116976,1,0,0:0:0:0:
223,89,117143,1,8,0:0:0:0:
223,89,117226,1,0,0:0:0:0:
223,89,117310,1,0,0:0:0:0:
223,89,117476,1,8,0:0:0:0:
223,89,117560,1,0,0:0:0:0:
223,89,117643,1,0,0:0:0:0:
175,83,117810,1,8,0:0:0:0:
261,129,117976,1,0,0:0:0:0:
174,57,118143,1,12,0:0:0:0:
212,159,118476,1,8,0:0:0:0:
183,47,118643,1,0,0:0:0:0:
182,47,118726,1,0,0:0:0:0:
167,212,118810,1,8,0:0:0:0:
248,109,118976,1,0,0:0:0:0:
248,109,119143,1,8,0:0:0:0:
165,79,119310,1,0,0:0:0:0:
148,55,119393,1,0,0:0:0:0:
248,109,119476,1,0,0:0:0:0:
187,62,119643,1,0,0:0:0:0:
248,109,119810,1,8,0:0:0:0:
107,77,119976,1,0,0:0:0:0:
248,109,120143,1,8,0:0:0:0:
143,97,120226,1,0,0:0:0:0:
248,109,120310,1,8,0:0:0:0:
103,106,120476,1,8,0:0:0:0:
248,109,120810,1,0,0:0:0:0:
195,58,120893,1,0,0:0:0:0:
195,58,120976,1,0,0:0:0:0:
195,58,121060,1,0,0:0:0:0:
170,91,121143,1,8,0:0:0:0:
135,68,121310,1,0,0:0:0:0:
183,67,121476,1,8,0:0:0:0:
183,67,121560,1,8,0:0:0:0:
183,67,121643,1,0,0:0:0:0:
183,67,121726,1,0,0:0:0:0:
183,67,121810,1,8,0:0:0:0:
195,62,121976,1,0,0:0:0:0:
105,139,122143,1,8,0:0:0:0:
105,139,122226,1,8,0:0:0:0:
105,139,122310,1,8,0:0:0:0:
105,139,122393,1,8,0:0:0:0:
105,139,122476,1,0,0:0:0:0:
174,76,122643,1,8,0:0:0:0:
170,82,122810,1,0,0:0:0:0:
170,82,122893,1,0,0:0:0:0:
170,82,122976,1,8,0:0:0:0:
170,82,123060,1,8,0:0:0:0:
170,82,123143,1,0,0:0:0:0:
235,84,123310,1,0,0:0:0:0:
235,84,123393,1,0,0:0:0:0:
235,84,123476,1,8,0:0:0:0:
201,149,123810,1,8,0:0:0:0:
162,60,123976,1,8,0:0:0:0:
192,147,124143,1,0,0:0:0:0:
192,147,124310,1,0,0:0:0:0:
248,67,124393,1,0,0:0:0:0:
192,147,124476,1,8,0:0:0:0:
106,69,124643,1,0,0:0:0:0:
210,146,124810,1,8,0:0:0:0:
57,173,124893,1,0,0:0:0:0:
123,76,124976,1,0,0:0:0:0:
210,146,125143,1,8,0:0:0:0:
174,46,125310,1,8,0:0:0:0:
196,3,125393,1,8,0:0:0:0:
210,147,125476,1,0,0:0:0:0:
210,146,125643,1,8,0:0:0:0:
105,126,125726,1,0,0:0:0:0:
210,146,125810,1,8,0:0:0:0:
141,145,125893,1,8,0:0:0:0:
232,114,125976,1,0,0:0:0:0:
228,85,126143,1,8,0:0:0:0:
190,302,126310,1,0,0:0:0:0:
170,92,126476,1,8,0:0:0:0:
170,101,126560,1,8,0:0:0:0:
170,91,126643,1,0,0:0:0:0:
171,93,126810,1,0,0:0:0:0:
226,93,126976,1,8,0:0:0:0:
97,108,127060,1,0,0:0:0:0:
181,108,127143,1,8,0:0:0:0:
181,108,127310,1,0,0:0:0:0:
223,89,127476,1,8,0:0:0:0:
223,89,127560,1,8,0:0:0:0:
223,89,127643,1,0,0:0:0:0:
149,171,127726,1,0,0:0:0:0:
223,89,127810,1,8,0:0:0:0:
223,89,127893,1,0,0:0:0:0:
223,89,127976,1,8,0:0:0:0:
101,91,128060,1,8,0:0:0:0:
223,89,128143,1,0,0:0:0:0:
223,89,128310,1,0,0:0:0:0:
175,83,128476,1,8,0:0:0:0:
115,117,128643,1,0,0:0:0:0:
174,57,128810,1,12,0:0:0:0:
141,120,129143,1,8,0:0:0:0:
105,89,129310,1,8,0:0:0:0:
195,78,129393,1,0,0:0:0:0:
149,135,129476,1,0,0:0:0:0:
149,135,129643,1,0,0:0:0:0:
149,135,129810,1,8,0:0:0:0:
183,49,129976,1,0,0:0:0:0:
183,58,130060,1,0,0:0:0:0:
156,81,130143,1,8,0:0:0:0:
183,58,130310,1,0,0:0:0:0:
156,81,130476,1,8,0:0:0:0:
56,131,130643,1,0,0:0:0:0:
90,126,130726,1,0,0:0:0:0:
156,81,130810,1,8,0:0:0:0:
156,81,130976,1,8,0:0:0:0:
98,102,131060,1,8,0:0:0:0:
98,102,131143,1,8,0:0:0:0:
98,102,131226,1,8,0:0:0:0:
156,81,131310,1,0,0:0:0:0:
187,158,131476,1,8,0:0:0:0:
189,292,131643,1,0,0:0:0:0:
187,158,131810,1,8,0:0:0:0:
168,72,131893,1,8,0:0:0:0:
244,87,131976,1,0,0:0:0:0:
187,158,132143,1,0,0:0:0:0:
187,158,132310,1,8,0:0:0:0:
148,74,132393,1,0,0:0:0:0:
187,158,132476,1,8,0:0:0:0:
140,89,132643,1,0,0:0:0:0:
188,151,132810,1,8,0:0:0:0:
205,86,132893,1,0,0:0:0:0:
188,151,132976,1,0,0:0:0:0:
188,151,133143,1,8,0:0:0:0:
147,112,133226,1,0,0:0:0:0:
188,151,133310,1,0,0:0:0:0:
188,151,133476,1,8,0:0:0:0:
131,85,133560,1,0,0:0:0:0:
46,164,133643,1,0,0:0:0:0:
131,85,133726,1,0,0:0:0:0:
115,156,133810,1,8,0:0:0:0:
169,128,133893,1,0,0:0:0:0:
130,140,133976,1,0,0:0:0:0:
130,140,134060,1,0,0:0:0:0:
130,140,134143,1,8,0:0:0:0:
130,140,134310,1,0,0:0:0:0:
484,183,134476,1,8,0:0:0:0:
121,78,134643,1,0,0:0:0:0:
142,124,134726,1,0,0:0:0:0:
188,62,134810,1,8,0:0:0:0:
255,109,134976,1,0,0:0:0:0:
152,138,135143,1,8,0:0:0:0:
81,162,135310,1,0,0:0:0:0:
81,162,135393,1,0,0:0:0:0:
81,162,135476,1,8,0:0:0:0:
184,185,135643,1,0,0:0:0:0:
184,185,135810,1,8,0:0:0:0:
196,153,136143,1,8,0:0:0:0:
196,153,136310,1,0,0:0:0:0:
196,153,136476,1,8,0:0:0:0:
216,115,136560,1,0,0:0:0:0:
216,115,136643,1,0,0:0:0:0:
216,115,136726,1,0,0:0:0:0:
216,115,136810,1,8,0:0:0:0:
206,138,136976,1,0,0:0:0:0:
206,138,137143,1,8,0:0:0:0:
210,106,137310,1,0,0:0:0:0:
324,215,137476,1,0,0:0:0:0:
237,141,137560,1,0,0:0:0:0:
237,141,137643,1,0,0:0:0:0:
218,102,137810,1,8,0:0:0:0:
185,118,137976,1,0,0:0:0:0:
182,176,138060,1,0,0:0:0:0:
185,118,138143,1,0,0:0:0:0:
185,118,138310,1,0,0:0:0:0:
185,118,138476,1,8,0:0:0:0:
197,95,138643,1,0,0:0:0:0:
171,146,138810,1,0,0:0:0:0:
171,146,138976,1,8,0:0:0:0:
262,169,139143,1,0,0:0:0:0:
182,109,139226,1,0,0:0:0:0:
179,146,139310,1,0,0:0:0:0:
179,146,139393,1,0,0:0:0:0:
179,146,139476,1,8,0:0:0:0:
179,86,139643,1,0,0:0:0:0:
179,86,139810,1,8,0:0:0:0:
181,77,139976,1,0,0:0:0:0:
181,77,140143,1,0,0:0:0:0:
181,77,140226,1,0,0:0:0:0:
181,77,140310,1,0,0:0:0:0:
181,78,140476,1,8,0:0:0:0:
181,78,140643,1,0,0:0:0:0:
181,78,140726,1,0,0:0:0:0:
181,78,140810,1,8,0:0:0:0:
200,160,140976,1,0,0:0:0:0:
200,160,141143,1,8,0:0:0:0:
197,122,141310,1,0,0:0:0:0:
197,122,141476,1,0,0:0:0:0:
197,122,141560,1,0,0:0:0:0:
197,122,141643,1,0,0:0:0:0:
197,122,141726,1,0,0:0:0:0:
197,122,141810,1,8,0:0:0:0:
197,122,141976,1,0,0:0:0:0:
197,122,142060,1,0,0:0:0:0:
197,122,142143,1,8,0:0:0:0:
197,122,142310,1,0,0:0:0:0:
197,122,142476,1,8,0:0:0:0:
259,197,142643,1,0,0:0:0:0:
271,146,142810,1,0,0:0:0:0:
271,146,142893,1,8,0:0:0:0:
271,146,142976,1,0,0:0:0:0:
271,146,143143,1,8,0:0:0:0:
259,175,143393,1,0,0:0:0:0:
226,202,143476,1,8,0:0:0:0:
229,108,143643,1,0,0:0:0:0:
229,108,143810,1,8,0:0:0:0:
145,112,143976,1,8,0:0:0:0:
133,95,144060,1,0,0:0:0:0:
145,112,144143,1,0,0:0:0:0:
117,56,144226,1,8,0:0:0:0:
117,56,144310,1,0,0:0:0:0:
113,60,144476,1,8,0:0:0:0:
257,137,144643,1,12,0:0:0:0:
278,215,144976,1,0,0:0:0:0:
209,106,145143,1,8,0:0:0:0:
209,106,145310,1,0,0:0:0:0:
209,106,145476,1,8,0:0:0:0:
209,106,145643,1,0,0:0:0:0:
209,106,145810,1,8,0:0:0:0:
209,106,145893,1,8,0:0:0:0:
209,106,145976,1,8,0:0:0:0:
146,117,146310,1,0,0:0:0:0:
146,117,146476,1,0,0:0:0:0:
146,117,146643,1,8,0:0:0:0:
146,117,146810,1,8,0:0:0:0:
183,86,146976,1,0,0:0:0:0:
183,86,147143,1,8,0:0:0:0:
123,178,147226,1,8,0:0:0:0:
173,88,147310,1,0,0:0:0:0:
173,88,147476,1,12,0:0:0:0:
213,200,147810,1,8,0:0:0:0:
213,200,147976,1,0,0:0:0:0:
92,88,148143,1,0,0:0:0:0:
210,168,148310,1,0,0:0:0:0:
174,152,148393,1,0,0:0:0:0:
174,152,148476,1,8,0:0:0:0:
140,131,148810,1,0,0:0:0:0:
140,131,148976,1,0,0:0:0:0:
137,71,149060,1,0,0:0:0:0:
140,131,149143,1,0,0:0:0:0:
140,131,149310,1,8,0:0:0:0:
140,131,149643,1,8,0:0:0:0:
157,117,149810,1,8,0:0:0:0:
185,111,149976,1,0,0:0:0:0:
106,99,150143,1,8,0:0:0:0:
199,146,150226,1,8,0:0:0:0:
253,37,150310,1,0,0:0:0:0:
199,146,150393,1,0,0:0:0:0:
181,51,150476,1,8,0:0:0:0:
191,152,150560,1,0,0:0:0:0:
191,152,150643,1,8,0:0:0:0:
191,152,150726,1,8,0:0:0:0:
191,152,150810,1,0,0:0:0:0:
190,151,150893,1,8,0:0:0:0:
191,152,150976,1,0,0:0:0:0:
191,152,151060,1,0,0:0:0:0:
190,151,151143,1,8,0:0:0:0:
191,152,151226,1,0,0:0:0:0:
190,152,151310,1,8,0:0:0:0:
190,152,151393,1,8,0:0:0:0:
191,152,151476,1,0,0:0:0:0:
183,93,151560,1,0,0:0:0:0:
183,93,151643,1,8,0:0:0:0:
183,93,151726,1,8,0:0:0:0:
183,93,151810,1,0,0:0:0:0:
183,93,151893,1,0,0:0:0:0:
183,93,151976,1,8,0:0:0:0:
183,93,152060,1,0,0:0:0:0:
190,151,152143,1,8,0:0:0:0:
163,122,152476,1,8,0:0:0:0:
163,122,152643,1,0,0:0:0:0:
163,122,152810,1,12,0:0:0:0:
188,96,152976,1,8,0:0:0:0:
188,96,153143,1,0,0:0:0:0:
184,140,153310,1,0,0:0:0:0:
65,143,153643,1,8,0:0:0:0:
176,120,153810,1,0,0:0:0:0:
184,140,153976,1,8,0:0:0:0:
121,67,154310,1,0,0:0:0:0:
159,119,154476,1,0,0:0:0:0:
184,140,154643,1,8,0:0:0:0:
131,65,154810,1,0,0:0:0:0:
103,89,154976,1,0,0:0:0:0:
160,147,155143,1,8,0:0:0:0:
168,322,155476,1,0,0:0:0:0:
168,43,155588,1,8,0:0:0:0:
188,48,155699,1,8,0:0:0:0:
190,48,155810,1,0,0:0:0:0:
147,58,155921,1,8,0:0:0:0:
126,86,156032,1,8,0:0:0:0:
140,41,156143,1,0,0:0:0:0:
139,106,156254,1,8,0:0:0:0:
89,125,156365,1,0,0:0:0:0:
133,111,156476,1,8,0:0:0:0:
134,118,156588,1,8,0:0:0:0:
134,118,156699,1,8,0:0:0:0:
143,109,156810,1,0,0:0:0:0:
176,100,156921,1,0,0:0:0:0:
176,100,157032,1,0,0:0:0:0:
176,100,157143,1,8,0:0:0:0:
176,100,157254,1,0,0:0:0:0:
176,100,157365,1,0,0:0:0:0:
361,323,157476,1,8,0:0:0:0:
112,128,157643,1,0,0:0:0:0:
112,128,157726,1,0,0:0:0:0:
229,202,157810,1,8,0:0:0:0:
231,67,158060,1,0,0:0:0:0:
208,145,158143,1,8,0:0:0:0:
195,74,158310,1,0,0:0:0:0:
142,118,158476,1,0,0:0:0:0:
193,145,158643,1,0,0:0:0:0:
201,98,158726,1,0,0:0:0:0:
231,125,158810,1,8,0:0:0:0:
231,125,158976,1,0,0:0:0:0:
193,145,159143,1,8,0:0:0:0:
226,120,159310,1,8,0:0:0:0:
226,120,159393,1,8,0:0:0:0:
177,124,159476,1,0,0:0:0:0:
254,108,159643,1,0,0:0:0:0:
175,216,159726,1,0,0:0:0:0:
254,108,159810,1,8,0:0:0:0:
41,124,159976,1,0,0:0:0:0:
193,100,160143,1,8,0:0:0:0:
182,171,160226,1,0,0:0:0:0:
182,171,160310,1,0,0:0:0:0:
179,177,160393,1,0,0:0:0:0:
192,102,160476,1,8,0:0:0:0:
193,100,160643,1,8,0:0:0:0:
193,100,160726,1,8,0:0:0:0:
193,100,160810,1,8,0:0:0:0:
193,100,160976,1,0,0:0:0:0:
193,100,161143,1,8,0:0:0:0:
192,102,161310,1,0,0:0:0:0:
192,102,161393,1,0,0:0:0:0:
192,102,161476,1,8,0:0:0:0:
206,181,161643,1,0,0:0:0:0:
193,100,161810,1,8,0:0:0:0:
193,100,161976,1,0,0:0:0:0:
193,100,162143,1,8,0:0:0:0:
180,199,162226,1,8,0:0:0:0:
222,162,162310,1,0,0:0:0:0:
222,162,162476,1,8,0:0:0:0:
222,162,162643,1,0,0:0:0:0:
222,162,162810,1,8,0:0:0:0:
155,157,162893,1,0,0:0:0:0:
223,146,162976,1,0,0:0:0:0:
223,146,163060,1,0,0:0:0:0:
223,146,163143,1,8,0:0:0:0:
134,174,163310,1,0,0:0:0:0:
223,146,163476,1,8,0:0:0:0:
170,38,163810,1,0,0:0:0:0:
141,104,163976,1,0,0:0:0:0:
110,97,164060,1,0,0:0:0:0:
141,104,164143,1,8,0:0:0:0:
118,146,164310,1,8,0:0:0:0:
204,111,164476,1,8,0:0:0:0:
209,104,164560,1,8,0:0:0:0:
204,111,164643,1,0,0:0:0:0:
168,60,164810,1,8,0:0:0:0:
234,139,164976,1,0,0:0:0:0:
234,139,165060,1,0,0:0:0:0:
234,139,165143,1,8,0:0:0:0:
194,163,165310,1,0,0:0:0:0:
97,137,165476,1,8,0:0:0:0:
194,136,165560,1,0,0:0:0:0:
194,136,165643,1,0,0:0:0:0:
194,136,165726,1,0,0:0:0:0:
194,136,165810,1,8,0:0:0:0:
164,80,165976,1,0,0:0:0:0:
164,80,166060,1,0,0:0:0:0:
188,64,166143,1,8,0:0:0:0:
188,66,166310,1,8,0:0:0:0:
188,66,166476,1,8,0:0:0:0:
188,179,166643,5,0,0:0:0:0:
188,179,166726,1,0,0:0:0:0:
188,179,166810,1,8,0:0:0:0:
234,135,166976,1,0,0:0:0:0:
243,111,167143,1,8,0:0:0:0:
174,60,167310,1,8,0:0:0:0:
174,60,167393,1,8,0:0:0:0:
174,60,167476,1,0,0:0:0:0:
243,157,167643,1,0,0:0:0:0:
243,157,167726,1,0,0:0:0:0:
243,157,167810,1,8,0:0:0:0:
96,124,167893,1,0,0:0:0:0:
243,157,167976,1,0,0:0:0:0:
144,168,168060,1,0,0:0:0:0:
243,157,168143,1,8,0:0:0:0:
243,157,168310,1,0,0:0:0:0:
243,157,168393,1,0,0:0:0:0:
243,157,168476,1,8,0:0:0:0:
81,154,168643,1,0,0:0:0:0:
243,157,168810,1,0,0:0:0:0:
175,88,168976,1,8,0:0:0:0:
275,226,169310,1,0,0:0:0:0:
275,226,169393,1,0,0:0:0:0:
275,226,169476,1,8,0:0:0:0:
101,140,169726,1,0,0:0:0:0:
94,124,169976,1,0,0:0:0:0:
250,198,170143,1,12,0:0:0:0:
263,200,175476,5,12,0:0:0:0:
259,171,176810,1,12,0:0:0:0:
168,125,178143,1,12,0:0:0:0:
263,193,179476,1,4,0:0:0:0:
246,198,180476,1,8,0:0:0:0:
266,179,180643,1,0,0:0:0:0:
266,179,180726,1,0,0:0:0:0:
266,179,180810,1,8,0:0:0:0:
186,148,181143,1,0,0:0:0:0:
180,97,181310,1,8,0:0:0:0:
186,148,181476,1,0,0:0:0:0:
182,107,181810,1,0,0:0:0:0:
188,118,181976,1,0,0:0:0:0:
182,107,182143,1,12,0:0:0:0:
168,80,182476,1,0,0:0:0:0:
168,127,182643,1,8,0:0:0:0:
168,80,182810,1,0,0:0:0:0:
168,80,183143,1,0,0:0:0:0:
168,80,183476,1,12,0:0:0:0:
181,79,183643,1,0,0:0:0:0:
175,122,183810,1,0,0:0:0:0:
175,122,184143,1,0,0:0:0:0:
179,35,184310,1,8,0:0:0:0:
175,122,184476,1,0,0:0:0:0:
175,122,184810,1,12,0:0:0:0:
168,60,184976,1,0,0:0:0:0:
175,122,185143,1,0,0:0:0:0:
168,60,185310,1,8,0:0:0:0:
175,122,185476,1,0,0:0:0:0:
205,143,185643,1,8,0:0:0:0:
205,143,185810,1,0,0:0:0:0:
205,143,185893,1,0,0:0:0:0:
205,143,185976,1,0,0:0:0:0:
205,143,186060,1,0,0:0:0:0:
205,143,186143,1,8,0:0:0:0:
234,215,186476,1,8,0:0:0:0:
168,60,186643,1,0,0:0:0:0:
186,130,186810,1,8,0:0:0:0:
194,60,186976,1,0,0:0:0:0:
186,130,187143,1,8,0:0:0:0:
107,98,187310,1,8,0:0:0:0:
210,139,187476,1,4,0:0:0:0:
234,75,187643,1,0,0:0:0:0:
210,139,187810,1,8,0:0:0:0:
234,75,187976,1,0,0:0:0:0:
210,139,188143,1,8,0:0:0:0:
165,98,188310,1,0,0:0:0:0:
244,115,188476,1,8,0:0:0:0:
80,119,188643,1,8,0:0:0:0:
244,115,188810,1,4,0:0:0:0:
244,115,189143,1,0,0:0:0:0:
244,115,189476,1,0,0:0:0:0:
125,109,189810,1,0,0:0:0:0:
232,165,190143,1,8,0:0:0:0:
174,82,190226,1,0,0:0:0:0:
232,165,190310,1,0,0:0:0:0:
232,165,190393,1,8,0:0:0:0:
232,165,190476,1,0,0:0:0:0:
232,165,190643,1,8,0:0:0:0:
150,133,190810,1,0,0:0:0:0:
150,133,190893,1,0,0:0:0:0:
150,133,190976,1,0,0:0:0:0:
150,133,191060,1,0,0:0:0:0:
150,133,191143,1,8,0:0:0:0:
150,133,191226,1,8,0:0:0:0:
150,133,191310,1,8,0:0:0:0:
150,133,191393,1,8,0:0:0:0:
150,133,191476,1,0,0:0:0:0:
201,149,191810,1,8,0:0:0:0:
161,61,191976,1,0,0:0:0:0:
192,147,192143,1,0,0:0:0:0:
248,67,192226,1,0,0:0:0:0:
192,147,192310,1,8,0:0:0:0:
192,147,192476,1,8,0:0:0:0:
106,69,192643,1,0,0:0:0:0:
109,81,192726,1,0,0:0:0:0:
210,146,192810,1,0,0:0:0:0:
123,76,192976,1,8,0:0:0:0:
210,146,193143,1,8,0:0:0:0:
196,3,193226,1,0,0:0:0:0:
174,46,193310,1,8,0:0:0:0:
210,147,193476,1,0,0:0:0:0:
152,53,193560,1,0,0:0:0:0:
210,146,193643,1,0,0:0:0:0:
105,126,193726,1,0,0:0:0:0:
210,146,193810,1,8,0:0:0:0:
185,83,193976,1,0,0:0:0:0:
228,85,194143,1,8,0:0:0:0:
133,112,194310,1,0,0:0:0:0:
170,92,194476,1,8,0:0:0:0:
170,101,194560,1,8,0:0:0:0:
170,91,194643,1,0,0:0:0:0:
171,93,194810,1,8,0:0:0:0:
226,93,194976,1,0,0:0:0:0:
177,61,195060,1,8,0:0:0:0:
181,108,195143,1,8,0:0:0:0:
181,108,195310,1,0,0:0:0:0:
223,89,195476,1,8,0:0:0:0:
223,89,195560,1,0,0:0:0:0:
223,89,195643,1,0,0:0:0:0:
223,89,195810,1,8,0:0:0:0:
223,89,195893,1,0,0:0:0:0:
223,89,195976,1,0,0:0:0:0:
223,89,196143,1,8,0:0:0:0:
185,120,196226,1,0,0:0:0:0:
164,135,196310,1,0,0:0:0:0:
175,83,196476,1,8,0:0:0:0:
261,129,196643,1,0,0:0:0:0:
174,57,196810,1,12,0:0:0:0:
212,159,197143,1,8,0:0:0:0:
183,47,197310,1,0,0:0:0:0:
182,47,197393,1,0,0:0:0:0:
167,212,197476,1,8,0:0:0:0:
248,109,197643,1,0,0:0:0:0:
248,109,197810,1,8,0:0:0:0:
165,79,197976,1,0,0:0:0:0:
148,55,198060,1,0,0:0:0:0:
248,109,198143,1,0,0:0:0:0:
187,62,198310,1,0,0:0:0:0:
248,109,198476,1,8,0:0:0:0:
107,77,198643,1,0,0:0:0:0:
248,109,198810,1,8,0:0:0:0:
143,97,198893,1,0,0:0:0:0:
248,109,198976,1,8,0:0:0:0:
103,106,199143,1,8,0:0:0:0:
248,109,199476,1,0,0:0:0:0:
195,58,199560,1,0,0:0:0:0:
195,58,199643,1,0,0:0:0:0:
195,58,199726,1,0,0:0:0:0:
170,91,199810,1,8,0:0:0:0:
135,68,199976,1,0,0:0:0:0:
183,67,200143,1,8,0:0:0:0:
183,67,200226,1,8,0:0:0:0:
183,67,200310,1,0,0:0:0:0:
183,67,200393,1,0,0:0:0:0:
183,67,200476,1,8,0:0:0:0:
195,62,200643,1,0,0:0:0:0:
105,139,200810,1,8,0:0:0:0:
105,139,200893,1,8,0:0:0:0:
105,139,200976,1,8,0:0:0:0:
105,139,201060,1,8,0:0:0:0:
105,139,201143,1,0,0:0:0:0:
174,76,201310,1,8,0:0:0:0:
170,82,201476,1,0,0:0:0:0:
170,82,201560,1,0,0:0:0:0:
170,82,201643,1,8,0:0:0:0:
170,82,201726,1,8,0:0:0:0:
170,82,201810,1,0,0:0:0:0:
156,24,201893,1,0,0:0:0:0:
235,84,201976,1,0,0:0:0:0:
235,84,202060,1,0,0:0:0:0:
235,84,202143,1,8,0:0:0:0:
201,149,202476,1,8,0:0:0:0:
162,60,202643,1,8,0:0:0:0:
192,147,202810,1,0,0:0:0:0:
192,147,202976,1,0,0:0:0:0:
248,67,203060,1,0,0:0:0:0:
192,147,203143,1,8,0:0:0:0:
106,69,203310,1,0,0:0:0:0:
210,146,203476,1,8,0:0:0:0:
57,173,203560,1,8,0:0:0:0:
123,76,203643,1,0,0:0:0:0:
210,146,203810,1,8,0:0:0:0:
174,46,203976,1,0,0:0:0:0:
196,3,204060,1,0,0:0:0:0:
210,147,204143,1,8,0:0:0:0:
210,146,204310,1,8,0:0:0:0:
105,126,204393,1,8,0:0:0:0:
210,146,204476,1,8,0:0:0:0:
141,145,204560,1,8,0:0:0:0:
232,114,204643,1,0,0:0:0:0:
228,85,204810,1,8,0:0:0:0:
301,102,204976,1,0,0:0:0:0:
170,92,205143,1,8,0:0:0:0:
170,101,205226,1,8,0:0:0:0:
170,91,205310,1,0,0:0:0:0:
132,98,205476,1,0,0:0:0:0:
226,93,205643,1,8,0:0:0:0:
97,108,205726,1,0,0:0:0:0:
181,108,205810,1,8,0:0:0:0:
181,108,205976,1,0,0:0:0:0:
223,89,206143,1,8,0:0:0:0:
223,89,206226,1,0,0:0:0:0:
223,89,206310,1,0,0:0:0:0:
223,89,206476,1,8,0:0:0:0:
223,89,206560,1,0,0:0:0:0:
223,89,206643,1,0,0:0:0:0:
223,89,206810,1,8,0:0:0:0:
223,89,206893,1,0,0:0:0:0:
223,89,206976,1,0,0:0:0:0:
154,68,207060,1,0,0:0:0:0:
175,83,207143,1,8,0:0:0:0:
115,117,207310,1,0,0:0:0:0:
174,57,207476,1,12,0:0:0:0:
141,120,207810,1,8,0:0:0:0:
105,89,207976,1,8,0:0:0:0:
195,78,208060,1,0,0:0:0:0:
149,135,208143,1,0,0:0:0:0:
149,135,208310,1,0,0:0:0:0:
82,129,208476,1,8,0:0:0:0:
183,49,208643,1,0,0:0:0:0:
183,58,208726,1,0,0:0:0:0:
156,81,208810,1,8,0:0:0:0:
183,58,208976,1,0,0:0:0:0:
156,81,209143,5,8,0:0:0:0:
56,131,209310,1,0,0:0:0:0:
90,126,209393,1,0,0:0:0:0:
156,81,209476,1,8,0:0:0:0:
156,81,209643,1,8,0:0:0:0:
98,102,209726,1,8,0:0:0:0:
98,102,209810,1,8,0:0:0:0:
98,102,209893,1,8,0:0:0:0:
156,81,209976,1,0,0:0:0:0:
187,158,210143,1,0,0:0:0:0:
112,86,210310,5,8,0:0:0:0:
187,158,210476,1,8,0:0:0:0:
168,72,210560,1,8,0:0:0:0:
244,87,210643,1,0,0:0:0:0:
187,158,210810,1,8,0:0:0:0:
187,158,210976,1,8,0:0:0:0:
148,74,211060,1,0,0:0:0:0:
187,158,211143,1,8,0:0:0:0:
140,89,211310,1,0,0:0:0:0:
188,151,211476,1,8,0:0:0:0:
188,151,211643,1,0,0:0:0:0:
205,86,211726,1,0,0:0:0:0:
188,151,211810,1,8,0:0:0:0:
188,151,211976,1,0,0:0:0:0:
147,112,212060,1,0,0:0:0:0:
188,151,212143,1,8,0:0:0:0:
46,164,212310,1,0,0:0:0:0:
131,85,212393,1,0,0:0:0:0:
115,156,212476,1,8,0:0:0:0:
131,85,212560,1,8,0:0:0:0:
130,140,212643,1,0,0:0:0:0:
130,140,212726,1,0,0:0:0:0:
130,140,212810,1,8,0:0:0:0:
130,140,212976,1,0,0:0:0:0:
130,140,213143,1,8,0:0:0:0:
121,78,213310,1,0,0:0:0:0:
118,146,213393,1,0,0:0:0:0:
188,62,213476,1,8,0:0:0:0:
255,109,213643,1,0,0:0:0:0:
165,97,213726,1,0,0:0:0:0:
152,138,213810,1,8,0:0:0:0:
205,127,213893,1,0,0:0:0:0:
81,162,213976,1,0,0:0:0:0:
81,162,214060,1,0,0:0:0:0:
81,162,214143,1,8,0:0:0:0:
249,189,215143,1,8,0:0:0:0:
159,133,215476,1,12,0:0:0:0:
171,88,215643,1,0,0:0:0:0:
121,130,215810,1,8,0:0:0:0:
197,86,215976,1,0,0:0:0:0:
115,98,216060,1,0,0:0:0:0:
201,93,216143,1,8,0:0:0:0:
183,120,216310,1,0,0:0:0:0:
175,122,216476,1,8,0:0:0:0:
185,106,216643,1,8,0:0:0:0:
243,150,216726,1,8,0:0:0:0:
185,108,216810,1,0,0:0:0:0:
223,73,216976,1,0,0:0:0:0:
215,88,217143,1,8,0:0:0:0:
174,74,217310,1,0,0:0:0:0:
119,171,217476,1,0,0:0:0:0:
194,82,217643,1,0,0:0:0:0:
194,82,217810,1,12,0:0:0:0:
231,140,218143,1,0,0:0:0:0:
171,88,218310,1,8,0:0:0:0:
121,130,218476,1,8,0:0:0:0:
197,86,218643,1,8,0:0:0:0:
115,98,218726,1,0,0:0:0:0:
201,93,218810,1,0,0:0:0:0:
183,120,218976,1,0,0:0:0:0:
175,122,219143,1,8,0:0:0:0:
185,106,219310,1,0,0:0:0:0:
185,108,219476,1,8,0:0:0:0:
223,73,219643,1,0,0:0:0:0:
164,113,219726,1,0,0:0:0:0:
215,88,219810,1,8,0:0:0:0:
244,111,219976,1,0,0:0:0:0:
208,78,220143,1,8,0:0:0:0:
148,129,220226,1,8,0:0:0:0:
148,129,220310,1,0,0:0:0:0:
208,136,220476,1,8,0:0:0:0:
142,109,220560,1,8,0:0:0:0:
140,102,220643,1,0,0:0:0:0:
95,44,220726,1,0,0:0:0:0:
225,155,220810,1,8,0:0:0:0:
171,88,220976,1,0,0:0:0:0:
121,130,221143,1,8,0:0:0:0:
197,86,221310,1,0,0:0:0:0:
115,98,221393,1,0,0:0:0:0:
201,93,221476,1,8,0:0:0:0:
183,120,221643,1,0,0:0:0:0:
175,122,221810,1,8,0:0:0:0:
185,106,221976,1,8,0:0:0:0:
243,150,222060,1,8,0:0:0:0:
185,108,222143,1,0,0:0:0:0:
223,73,222310,1,0,0:0:0:0:
215,88,222476,1,8,0:0:0:0:
174,74,222643,1,0,0:0:0:0:
215,103,222810,1,0,0:0:0:0:
194,82,222976,1,0,0:0:0:0:
194,82,223143,1,12,0:0:0:0:
231,140,223476,1,0,0:0:0:0:
171,88,223643,1,8,0:0:0:0:
121,130,223810,1,8,0:0:0:0:
197,86,223976,1,8,0:0:0:0:
115,98,224060,1,0,0:0:0:0:
201,93,224143,1,0,0:0:0:0:
183,120,224310,1,0,0:0:0:0:
175,122,224476,1,8,0:0:0:0:
185,106,224643,1,0,0:0:0:0:
185,108,224810,1,8,0:0:0:0:
223,73,224976,1,0,0:0:0:0:
172,65,225060,1,8,0:0:0:0:
215,88,225143,1,8,0:0:0:0:
244,111,225310,1,0,0:0:0:0:
208,78,225476,1,8,0:0:0:0:
148,129,225560,1,8,0:0:0:0:
148,129,225643,1,0,0:0:0:0:
131,139,225726,1,0,0:0:0:0:
208,136,225810,1,8,0:0:0:0:
142,109,225893,1,0,0:0:0:0:
140,102,225976,1,8,0:0:0:0:
179,106,226060,1,8,0:0:0:0:
225,155,226143,1,0,0:0:0:0:
171,88,226310,1,0,0:0:0:0:
121,130,226476,1,8,0:0:0:0:
197,86,226643,1,0,0:0:0:0:
115,98,226726,1,0,0:0:0:0:
201,93,226810,1,8,0:0:0:0:
183,120,226976,1,0,0:0:0:0:
175,122,227143,1,8,0:0:0:0:
185,106,227310,1,8,0:0:0:0:
243,150,227393,1,8,0:0:0:0:
185,108,227476,1,0,0:0:0:0:
223,73,227643,1,0,0:0:0:0:
215,88,227810,1,8,0:0:0:0:
174,74,227976,1,0,0:0:0:0:
119,171,228143,1,0,0:0:0:0:
196,133,228226,1,0,0:0:0:0:
194,82,228310,1,0,0:0:0:0:
57,179,228393,1,0,0:0:0:0:
194,82,228476,1,8,0:0:0:0:
257,137,228810,1,0,0:0:0:0:
171,88,228976,1,8,0:0:0:0:
121,130,229143,1,8,0:0:0:0:
197,86,229310,1,8,0:0:0:0:
115,98,229393,1,0,0:0:0:0:
201,93,229476,1,0,0:0:0:0:
183,120,229643,1,0,0:0:0:0:
175,122,229810,1,8,0:0:0:0:
185,106,229976,1,0,0:0:0:0:
185,108,230143,1,8,0:0:0:0:
223,73,230310,1,0,0:0:0:0:
164,113,230393,1,0,0:0:0:0:
215,88,230476,1,8,0:0:0:0:
244,111,230643,1,0,0:0:0:0:
208,78,230810,1,8,0:0:0:0:
148,129,230893,1,8,0:0:0:0:
148,129,230976,1,0,0:0:0:0:
208,136,231143,1,8,0:0:0:0:
142,109,231226,1,8,0:0:0:0:
140,102,231310,1,0,0:0:0:0:
95,44,231393,1,0,0:0:0:0:
225,155,231476,1,8,0:0:0:0:
171,88,231643,1,0,0:0:0:0:
121,130,231810,1,8,0:0:0:0:
197,86,231976,1,0,0:0:0:0:
115,98,232060,1,0,0:0:0:0:
201,93,232143,1,8,0:0:0:0:
183,120,232310,1,0,0:0:0:0:
175,122,232476,1,8,0:0:0:0:
185,106,232643,1,8,0:0:0:0:
243,150,232726,1,8,0:0:0:0:
185,108,232810,1,0,0:0:0:0:
223,73,232976,1,0,0:0:0:0:
215,88,233143,1,8,0:0:0:0:
174,74,233310,1,0,0:0:0:0:
215,103,233476,1,0,0:0:0:0:
219,125,233560,1,0,0:0:0:0:
194,82,233643,1,8,0:0:0:0:
194,82,233810,1,8,0:0:0:0:
186,85,233893,1,0,0:0:0:0:
186,85,233976,1,0,0:0:0:0:
186,85,234060,1,0,0:0:0:0:
231,140,234143,1,0,0:0:0:0:
171,88,234310,1,8,0:0:0:0:
121,130,234476,1,8,0:0:0:0:
197,86,234643,1,8,0:0:0:0:
115,98,234726,1,0,0:0:0:0:
201,93,234810,1,0,0:0:0:0:
150,121,234893,1,8,0:0:0:0:
183,120,234976,1,0,0:0:0:0:
175,122,235143,1,8,0:0:0:0:
228,92,235226,1,0,0:0:0:0:
185,106,235310,1,0,0:0:0:0:
185,108,235476,1,8,0:0:0:0:
305,108,235560,1,0,0:0:0:0:
223,73,235643,1,0,0:0:0:0:
215,88,235810,1,8,0:0:0:0:
244,111,235976,1,0,0:0:0:0:
179,58,236060,1,0,0:0:0:0:
208,78,236143,1,8,0:0:0:0:
148,129,236310,1,0,0:0:0:0:
323,163,236393,1,0,0:0:0:0:
208,136,236476,1,8,0:0:0:0:
142,109,236560,1,8,0:0:0:0:
140,102,236643,1,0,0:0:0:0:
179,106,236726,1,0,0:0:0:0:
225,155,236810,1,8,0:0:0:0:
210,128,238810,1,12,0:0:0:0:
187,121,238976,1,4,0:0:0:0:
266,90,239143,1,4,0:0:0:0:
266,90,239310,1,4,0:0:0:0:
