osu file format v14

[General]
AudioFilename: audio.mp3
AudioLeadIn: 0
PreviewTime: 160916
Countdown: 0
SampleSet: Soft
StackLeniency: 0.4
Mode: 0
LetterboxInBreaks: 0
WidescreenStoryboard: 0

[Editor]
Bookmarks: 5916,12916,41916,60916,66083,74250,87583,95250,135583,135916,136250,136416,136750,137083,137416,137750,137916,138250,138416,138583,138916,139083,139416,139750,139916,140083,140250,140916,148416,150250,162083
DistanceSpacing: 1.7
BeatDivisor: 4
GridSize: 32
TimelineZoom: 3.499999

[Metadata]
Title:Choose me
TitleUnicode:Choose me
Artist:BAND-MAID
ArtistUnicode:BAND-MAID
Creator:Yukiyo
Version:Choose me
Source:
Tags:j-rock j rock japanese Atalanta spoes Kowari NotEnough
BeatmapID:1820339
BeatmapSetID:871187

[Difficulty]
HPDrainRate:5.6
CircleSize:4
OverallDifficulty:9.1
ApproachRate:9.4
SliderMultiplier:1.76
SliderTickRate:1

[Events]
//Background and Video events
0,0,"915266.jpg",0,0
//Break Periods
//Storyboard Layer 0 (Background)
//Storyboard Layer 1 (Fail)
//Storyboard Layer 2 (Pass)
//Storyboard Layer 3 (Foreground)
//Storyboard Sound Samples

[TimingPoints]
917,333.333333333333,4,2,1,60,1,0
1250,-166.666666666667,4,2,1,60,0,0
11583,-100,4,2,1,80,0,0
23750,-111.111111111111,4,2,1,80,0,0
41916,-83.3333333333333,4,2,1,80,0,0
43583,-111.111111111111,4,2,1,80,0,0
45250,-200,4,2,1,80,0,0
52916,-100,4,2,1,80,0,0
53500,-83.3333333333333,4,2,1,80,0,0
53750,-90.9090909090909,4,2,1,80,0,0
54250,-100,4,2,1,80,0,0
55416,-83.3333333333333,4,2,1,100,0,1
66750,-100,4,2,1,100,0,1
67083,-125,4,2,1,100,0,1
67416,-83.3333333333333,4,2,1,100,0,1
67750,-100,4,2,1,100,0,1
68083,-111.111111111111,4,2,1,100,0,1
68416,-125,4,2,1,100,0,1
68750,-83.3333333333333,4,2,1,100,0,1
69084,-100,4,2,1,100,0,1
69417,-111.111111111111,4,2,1,100,0,1
69750,-125,4,2,1,100,0,1
70083,-83.3333333333333,4,2,1,100,0,1
70416,-100,4,2,1,100,0,1
71416,-83.3333333333333,4,2,1,100,0,1
73916,-222.222222222221,4,2,1,100,0,1
74250,-83.3333333333333,4,2,1,100,0,1
76916,-83.3333333333333,4,2,1,80,0,0
77250,-111.111111111111,4,2,1,80,0,0
95250,-83.3333333333333,4,2,1,80,0,0
96916,-111.111111111111,4,2,1,80,0,0
98583,-200,4,2,1,80,0,0
106250,-100,4,2,1,80,0,0
108750,-83.3333333333333,4,2,1,100,0,1
120083,-100,4,2,1,100,0,1
120416,-125,4,2,1,100,0,1
120749,-83.3333333333333,4,2,1,100,0,1
121083,-100,4,2,1,100,0,1
121416,-111.111111111111,4,2,1,100,0,1
121749,-125,4,2,1,100,0,1
122083,-83.3333333333333,4,2,1,100,0,1
122417,-100,4,2,1,100,0,1
122750,-111.111111111111,4,2,1,100,0,1
123083,-125,4,2,1,100,0,1
123416,-83.3333333333333,4,2,1,100,0,1
123749,-100,4,2,1,100,0,1
124749,-83.3333333333333,4,2,1,100,0,1
127249,-222.222222222221,4,2,1,100,0,1
127583,-83.3333333333333,4,2,1,100,0,1
130083,-71.4285714285714,4,2,1,80,0,0
131416,-58.8235294117647,4,2,1,80,0,0
131583,-43.4782608695652,4,2,1,80,0,0
132250,-66.6666666666667,4,2,1,80,0,0
142250,-55.5555555555556,4,2,1,80,0,0
142916,-45.4545454545455,4,2,1,80,0,0
144250,-62.5,4,2,1,80,0,0
144916,-32.258064516129,4,2,1,80,0,0
146083,-55.5555555555556,4,2,1,80,0,0
148416,-43.4782608695652,4,2,1,80,0,0
151583,-100,4,2,1,80,0,0
160583,-333.333333333333,4,2,1,80,0,0
160916,-100,4,2,1,80,0,0
162083,-66.6666666666667,4,2,1,100,0,1
172250,-83.3333333333333,4,2,1,100,0,1
173416,-100,4,2,1,100,0,1
173749,-125,4,2,1,100,0,1
174082,-83.3333333333333,4,2,1,100,0,1
174416,-100,4,2,1,100,0,1
174749,-111.111111111111,4,2,1,100,0,1
175082,-125,4,2,1,100,0,1
175416,-83.3333333333333,4,2,1,100,0,1
175750,-100,4,2,1,100,0,1
176083,-111.111111111111,4,2,1,100,0,1
176416,-125,4,2,1,100,0,1
176749,-83.3333333333333,4,2,1,100,0,1
177082,-100,4,2,1,100,0,1
178082,-83.3333333333333,4,2,1,100,0,1
180582,-222.222222222221,4,2,1,100,0,1
180916,-83.3333333333333,4,2,1,100,0,1
183416,-71.4285714285714,4,2,1,80,0,0
183916,-83.3333333333333,4,2,1,80,0,0
191416,-58.8235294117647,4,2,1,80,0,0
197041,-58.8235294117647,4,2,1,5,0,0
197083,-58.8235294117647,4,2,1,80,0,0
197208,-58.8235294117647,4,2,1,5,0,0
197250,-58.8235294117647,4,2,1,80,0,0
197375,-58.8235294117647,4,2,1,5,0,0
197416,-58.8235294117647,4,2,1,80,0,0
197541,-58.8235294117647,4,2,1,5,0,0
197583,-58.8235294117647,4,2,1,80,0,0
197708,-58.8235294117647,4,2,1,5,0,0
197750,-58.8235294117647,4,2,1,80,0,0
197875,-58.8235294117647,4,2,1,5,0,0
197916,-58.8235294117647,4,2,1,80,0,0
198041,-58.8235294117647,4,2,1,5,0,0
198083,-58.8235294117647,4,2,1,80,0,0
198750,-200,4,2,1,80,0,0
199583,-83.3333333333333,4,2,1,80,0,0
201916,-142.857142857143,4,2,1,80,0,0
202250,-83.3333333333333,4,2,1,80,0,0
204916,-125,4,2,1,80,0,0
207583,-142.857142857143,4,2,1,80,0,0
212916,-76.923076923077,4,2,1,80,0,0
215250,-76.923076923077,4,2,1,100,0,1
215333,-76.923076923077,4,2,1,80,0,0

[Colours]
Combo1 : 248,116,136
Combo2 : 192,129,129
Combo3 : 255,172,132

[HitObjects]
173,47,1250,6,0,P|195:81|198:120,1,79.1999975830079,0|0,0:2|0:2,0:0:0:0:
185,161,1583,2,0,P|159:153|133:152,1,52.7999983886719,0|0,0:2|0:2,0:0:0:0:
54,246,1916,2,0,P|76:232|101:224,1,52.7999983886719,0|0,0:2|0:2,0:0:0:0:
229,311,2250,5,2,0:2:0:0:
178,241,2416,1,2,0:2:0:0:
260,268,2583,1,2,0:2:0:0:
178,294,2750,1,2,0:2:0:0:
229,225,2916,6,0,L|288:217,1,52.7999983886719,2|0,0:2|0:2,0:0:0:0:
408,202,3250,2,0,L|349:194,1,52.7999983886719,2|0,0:2|0:2,0:0:0:0:
232,148,3583,5,2,0:2:0:0:
232,148,3916,2,0,P|155:121|136:117,1,79.1999975830079,0|0,0:2|0:2,0:0:0:0:
106,117,4250,2,0,P|116:162|115:192,1,52.7999983886719,0|0,0:2|0:2,0:0:0:0:
17,238,4583,2,0,P|26:213|40:190,1,52.7999983886719,0|0,0:2|0:2,0:0:0:0:
195,92,4916,5,2,0:2:0:0:
85,124,5083,1,2,0:2:0:0:
120,39,5250,1,2,0:2:0:0:
175,138,5416,1,2,0:2:0:0:
83,73,5583,1,2,0:2:0:0:
169,48,5750,1,2,0:2:0:0:
126,146,5916,6,0,L|135:198,1,52.7999983886719,2|0,0:2|0:2,0:0:0:0:
196,298,6250,2,0,P|208:242|223:211,1,79.1999975830079,2|0,0:2|0:2,0:0:0:0:
216,222,6583,6,0,P|228:259|228:299,1,79.1999975830079,0|0,0:2|0:2,0:0:0:0:
206,350,6916,2,0,P|180:354|156:363,1,52.7999983886719,0|0,0:2|0:2,0:0:0:0:
298,252,7250,2,0,P|324:254|347:265,1,52.7999983886719,0|0,0:2|0:2,0:0:0:0:
156,144,7583,5,2,0:2:0:0:
212,259,7750,1,2,0:2:0:0:
312,179,7916,1,2,0:2:0:0:
212,99,8083,1,2,0:2:0:0:
156,215,8250,1,2,0:2:0:0:
282,244,8416,1,2,0:2:0:0:
282,115,8583,6,0,L|276:45,1,52.7999983886719,2|0,0:2|0:2,0:0:0:0:
226,0,8916,1,2,0:2:0:0:
226,0,9583,6,0,L|179:9,1,26.399999194336,2|0,0:2|0:2,0:0:0:0:
102,44,9750,2,0,P|141:42|180:51,1,79.1999975830079,2|0,0:2|0:2,0:0:0:0:
180,51,10083,6,0,P|162:100|128:140,1,105.599996777344,2|0,0:2|0:2,0:0:0:0:
84,234,10583,2,0,P|91:223|100:213,1,26.399999194336,2|0,0:2|0:2,0:0:0:0:
282,185,10750,2,0,P|229:183|178:196,1,105.599996777344,2|0,0:2|0:2,0:0:0:0:
88,292,11250,2,0,P|90:278|94:266,1,26.399999194336,2|0,0:2|0:2,0:0:0:0:
145,194,11416,1,0,0:2:0:0:
118,369,11583,5,8,0:2:0:0:
65,149,11750,1,0,3:2:0:0:
190,284,11916,1,8,0:3:0:0:
1,205,12083,1,0,3:2:0:0:
206,125,12250,5,8,0:2:0:0:
362,144,12416,1,8,0:2:0:0:
467,280,12583,1,8,0:2:0:0:
262,172,12750,6,0,P|233:112|233:47,1,132,4|0,3:2|0:2,0:0:0:0:
245,10,13083,1,0,3:2:0:0:
345,214,13250,2,0,P|346:257|338:301,1,88,8|0,0:2|0:2,0:0:0:0:
201,332,13583,1,0,3:2:0:0:
201,332,13750,1,0,3:2:0:0:
410,265,13916,2,0,P|453:268|495:283,1,88,8|0,0:2|0:2,0:0:0:0:
185,303,14250,1,0,3:2:0:0:
185,303,14417,1,0,3:2:0:0:
343,149,14583,2,0,P|384:134|427:129,1,88,8|0,0:2|0:2,0:0:0:0:
322,352,14916,5,0,3:2:0:0:
237,82,15083,1,0,3:2:0:0:
174,246,15250,1,8,0:2:0:0:
394,34,15416,6,0,P|336:28|248:48,1,132,4|0,3:2|0:2,0:0:0:0:
237,82,15750,1,0,3:2:0:0:
329,265,15916,2,0,P|339:194|335:151,1,88,8|0,0:2|0:2,0:0:0:0:
130,95,16250,1,0,3:2:0:0:
130,95,16416,1,0,3:2:0:0:
236,266,16583,2,0,P|252:308|255:351,1,88,8|0,0:2|0:2,0:0:0:0:
191,19,16916,1,0,3:2:0:0:
191,19,17083,1,0,3:2:0:0:
135,228,17249,2,0,P|116:267|87:300,1,88,8|0,0:2|0:2,0:0:0:0:
112,50,17583,5,0,3:2:0:0:
227,259,17750,1,0,3:2:0:0:
18,98,17916,1,8,0:2:0:0:
297,204,18083,6,0,P|320:267|332:331,1,132,4|0,3:2|0:2,0:0:0:0:
332,362,18416,1,0,3:2:0:0:
424,134,18583,2,0,P|463:115|507:108,1,88,8|0,0:2|0:2,0:0:0:0:
304,99,18916,1,0,3:2:0:0:
304,99,19083,1,0,3:2:0:0:
440,231,19250,2,0,P|457:271|468:313,1,88,8|0,0:2|0:2,0:0:0:0:
384,47,19583,1,0,3:2:0:0:
384,47,19750,1,0,3:2:0:0:
366,300,19917,2,0,P|357:343|342:384,1,88,8|0,0:2|0:2,0:0:0:0:
236,141,20250,5,0,3:2:0:0:
315,377,20416,1,0,3:2:0:0:
359,115,20583,1,8,0:2:0:0:
190,229,20750,6,0,P|124:231|59:218,1,132,4|0,3:2|0:2,0:0:0:0:
27,201,21083,1,0,3:2:0:0:
141,13,21250,2,0,P|150:55|149:99,1,88,8|0,0:2|0:2,0:0:0:0:
124,284,21583,1,0,3:2:0:0:
124,284,21750,1,0,3:2:0:0:
244,94,21916,2,0,P|284:78|327:69,1,88,8|0,0:2|0:2,0:0:0:0:
33,266,22250,1,0,3:2:0:0:
33,266,22417,1,0,3:2:0:0:
314,169,22583,5,8,0:2:0:0:
356,178,22666,1,8,0:2:0:0:
397,196,22749,1,0,3:2:0:0:
136,320,22916,2,0,L|93:329,1,44,2|2,0:3|0:3,0:0:0:0:
307,203,23083,2,0,L|349:212,1,44,4|4,0:3|0:3,0:0:0:0:
173,110,23250,2,0,L|130:119,1,44,8|8,0:3|0:3,0:0:0:0:
274,4,23416,2,0,P|255:66|248:132,1,132,4|0,3:2|0:2,0:0:0:0:
247,132,23750,1,0,3:2:0:0:
107,45,23916,5,10,0:2:0:0:
101,183,24083,1,2,0:2:0:0:
192,37,24250,1,2,3:2:0:0:
55,117,24416,1,2,3:2:0:0:
183,197,24583,1,10,0:2:0:0:
115,296,24750,1,2,0:2:0:0:
118,61,24916,5,2,3:2:0:0:
121,220,25083,1,2,3:2:0:0:
206,65,25250,1,10,0:2:0:0:
54,150,25416,1,2,0:2:0:0:
166,278,25583,1,2,3:2:0:0:
101,381,25749,1,2,3:2:0:0:
66,169,25916,5,10,0:2:0:0:
159,294,26083,1,2,0:2:0:0:
299,149,26250,2,0,P|354:128|413:127,1,118.799996374512,2|0,3:2|0:0,0:0:0:0:
444,137,26583,5,10,0:2:0:0:
343,268,26750,1,2,0:2:0:0:
230,98,26916,2,0,P|174:77|115:76,1,118.799996374512,2|0,3:2|0:0,0:0:0:0:
82,85,27250,5,10,0:2:0:0:
147,210,27416,1,2,0:2:0:0:
315,54,27583,2,0,P|370:33|429:32,1,118.799996374512,2|0,3:2|0:0,0:0:0:0:
467,48,27916,5,10,0:2:0:0:
363,173,28083,1,2,0:2:0:0:
258,298,28250,2,0,L|249:376,1,79.1999975830079,2|0,3:2|3:2,0:0:0:0:
128,192,28583,2,0,L|119:113,1,79.1999975830079,10|0,0:2|0:2,0:0:0:0:
23,253,28916,5,2,3:2:0:0:
93,106,29083,1,2,0:2:0:0:
164,216,29250,1,10,0:2:0:0:
255,128,29416,1,2,0:2:0:0:
462,196,29583,2,0,P|405:181|346:179,1,118.799996374512,2|0,3:2|0:0,0:0:0:0:
346,179,29916,2,0,P|391:210|435:222,1,79.1999975830079,10|0,0:2|0:2,0:0:0:0:
358,61,30250,5,2,3:2:0:0:
315,205,30416,1,2,3:2:0:0:
215,92,30583,1,10,0:2:0:0:
129,173,30750,1,2,0:2:0:0:
0,141,30916,2,0,P|62:127|129:127,1,118.799996374512,2|0,3:2|0:0,0:0:0:0:
117,125,31250,2,0,P|87:151|50:166,1,79.1999975830079,10|0,0:2|0:2,0:0:0:0:
260,0,31583,5,2,3:2:0:0:
260,0,31750,1,0,3:2:0:0:
213,125,31916,2,0,L|243:37,1,79.1999975830079,8|0,0:0|0:0,0:0:0:0:
281,233,32250,1,2,3:2:0:0:
281,233,32416,1,0,3:2:0:0:
207,349,32583,2,0,L|258:263,1,79.1999975830079,8|0,0:0|0:0,0:0:0:0:
213,125,32916,5,2,3:2:0:0:
213,125,33083,1,0,3:2:0:0:
281,233,33250,2,0,L|226:137,1,79.1999975830079,8|0,0:0|0:0,0:0:0:0:
207,349,33583,1,2,3:2:0:0:
207,349,33750,1,0,3:2:0:0:
103,249,33916,2,0,P|64:238|25:241,1,79.1999975830079,8|0,0:2|0:2,0:0:0:0:
207,349,34250,6,0,P|265:343|324:301,1,118.799996374512,2|0,3:2|0:0,0:0:0:0:
315,311,34583,2,0,P|275:309|237:319,1,79.1999975830079,10|0,0:2|0:2,0:0:0:0:
299,220,34916,6,0,P|343:181|366:127,1,118.799996374512,2|0,3:2|0:0,0:0:0:0:
366,127,35249,2,0,P|332:148|307:178,1,79.1999975830079,10|0,0:2|0:2,0:0:0:0:
230,123,35583,6,0,P|234:64|211:9,1,118.799996374512,2|0,3:2|0:0,0:0:0:0:
211,9,35916,2,0,P|202:47|206:86,1,79.1999975830079,10|0,0:2|0:2,0:0:0:0:
99,125,36250,6,0,P|68:74|19:42,1,118.799996374512,2|0,3:2|0:0,0:0:0:0:
19,42,36583,2,0,P|34:78|59:108,1,79.1999975830079,10|0,0:2|0:2,0:0:0:0:
214,212,36916,6,0,P|154:209|95:240,1,118.799996374512,2|0,3:2|0:0,0:0:0:0:
80,255,37250,1,10,0:2:0:0:
248,301,37416,1,2,0:2:0:0:
115,281,37583,1,2,3:2:0:0:
259,137,37750,5,2,3:2:0:0:
218,277,37916,1,10,0:2:0:0:
117,171,38083,1,2,0:2:0:0:
274,124,38250,5,2,3:2:0:0:
217,265,38416,1,2,3:2:0:0:
65,254,38583,1,10,0:2:0:0:
28,106,38750,1,2,0:2:0:0:
157,24,38916,6,0,P|167:83|158:141,1,118.799996374512,2|0,3:2|0:0,0:0:0:0:
158,141,39250,2,0,P|142:105|137:66,1,79.1999975830079,8|0,0:2|0:2,0:0:0:0:
420,62,39583,6,0,P|360:64|299:87,1,118.799996374512,2|0,3:2|0:2,0:0:0:0:
279,102,39916,1,10,0:2:0:0:
438,146,40083,1,2,0:2:0:0:
225,50,40250,6,0,P|193:99|176:163,1,118.799996374512,2|0,3:2|0:0,0:0:0:0:
171,193,40583,1,10,0:2:0:0:
304,83,40750,1,2,0:2:0:0:
137,264,40916,1,2,3:2:0:0:
225,261,41083,2,0,P|281:277|334:304,1,118.799996374512,2|0,3:2|0:0,0:0:0:0:
361,328,41416,1,2,0:2:0:0:
72,257,41583,2,0,P|118:220|170:192,1,118.799996374512,2|0,3:2|0:0,0:0:0:0:
340,135,41916,6,0,B|309:146|286:128|286:128|259:150|259:150|242:113|198:94,1,158.399995166016,10|0,0:2|0:2,0:0:0:0:
87,103,42250,2,0,B|158:99|182:65|182:65|156:58|139:27,1,158.399995166016,2|0,3:2|0:0,0:0:0:0:
244,0,42583,2,0,B|185:22|235:60|236:58|288:9|294:6|345:22,1,158.399995166016,10|0,0:2|0:2,0:0:0:0:
408,75,42916,2,0,B|370:38|337:63|337:63|354:114|312:160,1,158.399995166016,2|0,3:2|0:0,0:0:0:0:
250,149,43250,2,0,B|231:105|245:73|245:73|267:91|275:119,1,105.599996777344,10|0,0:2|0:2,0:0:0:0:
343,347,43583,5,0,3:2:0:0:
343,347,43750,1,0,3:2:0:0:
202,241,43916,2,0,P|156:234|96:236,1,79.1999975830079,8|0,0:2|0:2,0:0:0:0:
414,158,44250,2,0,P|346:172|294:210,1,118.799996374512,2|0,3:2|0:0,0:0:0:0:
305,198,44583,2,0,P|366:202|414:188,1,79.1999975830079,10|4,0:2|0:3,0:0:0:0:
509,85,44833,1,8,0:3:0:0:
477,103,44916,6,0,P|464:161|467:221,1,118.799996374512,0|0,3:2|0:2,0:0:0:0:
483,251,45250,2,0,P|486:283|480:316,1,66,0|0,3:2|0:0,0:0:0:0:
446,338,45583,5,8,0:2:0:0:
446,338,45750,1,0,3:2:0:0:
207,211,45916,1,2,0:3:0:0:
207,211,46083,1,0,3:2:0:0:
360,384,46250,1,4,0:3:0:0:
360,384,46417,1,0,3:2:0:0:
253,114,46583,1,8,0:3:0:0:
253,114,46750,1,0,3:2:0:0:
256,327,46916,5,10,0:2:0:0:
258,338,47166,1,2,0:2:0:0:
416,271,47416,1,2,0:2:0:0:
430,251,47500,1,2,0:2:0:0:
434,224,47583,6,0,P|402:220|368:223,1,66,2|0,0:3|0:0,0:0:0:0:
322,247,47916,2,0,P|287:237|262:218,1,66,4|0,0:3|0:0,0:0:0:0:
238,148,48250,5,8,0:2:0:0:
238,148,48416,1,0,3:2:0:0:
306,363,48583,1,2,0:3:0:0:
306,363,48750,1,0,3:2:0:0:
373,127,48916,1,4,0:3:0:0:
373,127,49083,1,0,3:2:0:0:
207,302,49250,1,8,0:3:0:0:
207,302,49416,1,0,3:2:0:0:
480,200,49583,5,10,0:2:0:0:
489,196,49833,1,2,0:2:0:0:
406,62,50083,1,2,3:2:0:0:
393,45,50166,1,2,0:2:0:0:
373,31,50250,6,0,P|382:62|381:95,1,66,2|0,0:3|0:0,0:0:0:0:
316,130,50583,2,0,P|306:161|303:194,1,66,4|0,0:3|0:0,0:0:0:0:
336,270,50916,5,8,0:2:0:0:
336,270,51083,1,0,3:2:0:0:
162,61,51250,1,2,0:3:0:0:
162,61,51417,1,0,3:2:0:0:
180,247,51583,1,4,0:3:0:0:
180,247,51750,1,0,3:2:0:0:
300,17,51916,1,8,0:3:0:0:
300,17,52083,1,0,3:2:0:0:
96,222,52250,5,10,0:2:0:0:
51,127,52416,1,0,3:2:0:0:
32,301,52583,1,4,0:3:0:0:
39,333,52666,1,8,0:3:0:0:
46,365,52749,1,0,3:2:0:0:
131,130,52916,5,8,0:2:0:0:
163,101,52999,1,8,0:2:0:0:
202,81,53082,1,2,0:3:0:0:
245,72,53166,1,2,0:3:0:0:
285,71,53250,2,0,P|306:73|327:79,1,44,4|4,0:3|0:3,0:0:0:0:
319,243,53416,1,8,0:2:0:0:
311,206,53499,2,0,P|310:185|319:152,1,44,8|4,0:2|0:3,0:0:0:0:
440,39,53666,1,8,0:2:0:0:
460,65,53749,2,0,P|465:91|462:121,1,52.7999983886719,8|4,0:2|0:3,0:0:0:0:
447,296,53916,1,8,0:3:0:0:
416,279,53999,1,8,0:3:0:0:
389,270,54083,2,0,P|369:264|336:261,1,48.4000014770508,8|0,0:2|0:2,0:0:0:0:
150,244,54250,5,2,0:3:0:0:
135,257,54333,1,4,0:3:0:0:
113,265,54416,1,8,0:2:0:0:
90,268,54500,1,2,0:3:0:0:
63,263,54583,1,4,0:3:0:0:
41,237,54666,1,8,0:3:0:0:
40,188,54750,1,8,0:2:0:0:
73,146,54833,1,2,0:3:0:0:
126,120,54916,1,4,0:3:0:0:
189,123,55000,1,8,0:3:0:0:
245,154,55083,1,8,0:2:0:0:
312,192,55166,1,8,0:2:0:0:
398,194,55250,1,8,0:2:0:0:
460,131,55333,1,8,0:2:0:0:
452,42,55416,6,0,P|432:24|406:14,1,52.7999983886719,4|0,3:2|0:2,0:0:0:0:
161,260,55583,1,2,0:2:0:0:
292,80,55750,1,2,3:2:0:0:
292,303,55916,1,10,0:2:0:0:
161,123,56083,1,2,0:2:0:0:
372,192,56250,1,2,3:2:0:0:
372,192,56416,1,0,3:2:0:0:
186,36,56583,2,0,P|127:32|49:53,1,105.599996777344,10|0,0:2|0:2,0:0:0:0:
75,273,56916,2,0,P|101:198|93:120,1,158.399995166016,2|0,3:2|0:0,0:0:0:0:
93,120,57250,2,0,P|58:161|39:210,1,105.599996777344,10|0,0:2|0:2,0:0:0:0:
317,227,57583,5,2,3:2:0:0:
291,130,57750,1,2,3:2:0:0:
194,156,57916,1,10,0:2:0:0:
220,253,58083,1,2,0:2:0:0:
339,296,58250,5,2,3:2:0:0:
339,87,58416,1,2,3:2:0:0:
135,133,58583,1,10,0:2:0:0:
226,322,58750,1,2,0:2:0:0:
389,192,58916,1,2,3:2:0:0:
226,61,59083,1,2,3:2:0:0:
135,249,59250,2,0,P|79:306|7:336,1,158.399995166016,10|0,0:2|0:0,0:0:0:0:
7,336,59583,2,0,P|59:334|110:348,1,105.599996777344,2|0,3:2|3:2,0:0:0:0:
320,136,59916,5,10,0:2:0:0:
170,199,60083,1,2,0:2:0:0:
329,235,60250,1,2,3:2:0:0:
222,113,60416,1,2,3:2:0:0:
236,275,60583,1,10,0:2:0:0:
256,192,60750,5,6,3:2:0:0:
116,233,60916,5,2,0:2:0:0:
246,46,61082,1,2,3:2:0:0:
400,214,61249,1,10,0:2:0:0:
201,327,61416,1,2,0:2:0:0:
135,108,61582,1,2,3:2:0:0:
363,93,61749,1,2,3:2:0:0:
328,319,61916,2,0,P|284:253|217:213,1,158.399995166016,10|0,0:2|0:2,0:0:0:0:
217,213,62250,2,0,P|222:266|250:309,1,105.599996777344,2|0,3:2|3:2,0:0:0:0:
180,117,62583,2,0,P|112:157|69:222,1,158.399995166016,8|0,0:2|0:2,0:0:0:0:
69,222,62916,2,0,P|117:197|136:172,1,52.7999983886719,2|0,3:2|0:2,0:0:0:0:
180,117,63083,2,0,P|195:95|203:70,1,52.7999983886719,2|0,3:2|0:2,0:0:0:0:
48,86,63250,1,8,0:2:0:0:
276,246,63417,6,0,B|336:256|381:213|381:213|436:210|465:249,1,211.199993554688,2|0,0:2|3:0,0:0:0:0:
368,353,63833,1,2,0:0:0:0:
368,353,63916,2,0,P|385:333|408:320,1,52.7999983886719,8|0,0:2|0:2,0:0:0:0:
295,166,64084,2,0,B|274:108|214:91|214:91|184:45|203:0,1,211.199993554688,2|0,0:2|0:0,0:0:0:0:
339,14,64500,1,2,0:0:0:0:
339,14,64583,2,0,P|313:9|291:-4,1,52.7999983886719,8|0,0:2|0:2,0:0:0:0:
211,191,64750,2,0,B|171:238|186:298|186:298|161:347|113:353,1,211.199993554688,2|0,0:2|3:0,0:0:0:0:
60,208,65166,1,2,0:0:0:0:
60,208,65250,2,0,P|68:233|68:259,1,52.7999983886719,8|0,0:2|0:2,0:0:0:0:
275,260,65416,1,2,0:2:0:0:
178,95,65583,2,0,P|130:74|79:61,1,105.599996777344,2|0,3:2|3:2,0:0:0:0:
189,282,65916,1,10,0:2:0:0:
366,1,66083,5,4,3:2:0:0:
300,54,66250,2,0,P|292:106|295:158,1,105.599996777344,2|0,0:2|3:2,0:0:0:0:
386,320,66583,1,10,0:2:0:0:
286,288,66750,2,0,P|242:289|200:302,1,88,2|0,0:2|3:2,0:0:0:0:
107,342,67083,2,0,P|71:342|37:335,1,70.4,2|8,3:2|0:2,0:0:0:0:
203,0,67416,6,0,P|234:73|238:152,1,158.399995166016,2|0,0:2|0:0,0:0:0:0:
238,151,67750,2,0,P|213:115|200:73,1,88,2|8,3:2|0:2,0:0:0:0:
426,5,68083,2,0,P|427:44|417:82,1,79.1999975830079,2|0,0:2|3:2,0:0:0:0:
353,171,68416,2,0,P|351:206|358:240,1,70.4,2|8,3:2|0:2,0:0:0:0:
4,346,68750,6,0,P|92:316|160:326,1,158.399995166016,2|0,0:2|0:0,0:0:0:0:
155,324,69083,2,0,P|110:297|57:291,1,105.599996777344,2|8,3:2|0:2,0:0:0:0:
181,197,69416,2,0,P|223:186|267:187,1,88,2|0,0:2|3:2,0:0:0:0:
122,85,69750,2,0,P|88:75|53:72,1,70.4,2|8,3:2|0:2,0:0:0:0:
302,41,70083,6,0,P|380:35|458:50,1,158.399995166016,2|0,0:2|0:0,0:0:0:0:
458,50,70416,2,0,P|419:71|376:80,1,88,2|8,3:2|0:2,0:0:0:0:
225,65,70750,2,0,P|185:45|153:16,1,88,0|0,0:2|3:2,0:0:0:0:
302,41,71083,1,0,3:2:0:0:
261,321,71250,1,10,0:2:0:0:
152,16,71416,6,0,P|79:43|28:102,1,158.399995166016,4|0,3:2|0:0,0:0:0:0:
18,130,71750,1,0,3:2:0:0:
17,308,71916,1,10,0:2:0:0:
143,117,72083,2,0,P|158:67|152:15,1,105.599996777344,2|0,0:2|3:2,0:0:0:0:
0,286,72416,1,0,3:2:0:0:
180,206,72583,2,0,P|231:146|248:69,1,158.399995166016,10|0,0:2|0:2,0:0:0:0:
248,69,72916,6,0,P|254:122|272:171,1,105.599996777344,2|0,3:2|3:2,0:0:0:0:
389,281,73250,1,10,0:2:0:0:
379,0,73416,2,0,P|353:46|340:97,1,105.599996777344,2|0,0:2|3:2,0:0:0:0:
401,298,73750,1,0,3:2:0:0:
501,0,73916,6,0,P|476:17|459:41,1,59.3999981872559,8|0,0:2|0:2,0:0:0:0:
415,105,74250,5,8,0:2:0:0:
410,327,74416,1,0,3:2:0:0:
305,300,74583,1,2,0:3:0:0:
409,341,74750,1,0,3:2:0:0:
415,119,74916,5,8,0:2:0:0:
409,341,75083,1,0,3:2:0:0:
304,314,75250,1,4,0:3:0:0:
408,355,75417,1,0,3:2:0:0:
416,133,75583,5,8,0:2:0:0:
408,355,75750,1,0,3:2:0:0:
303,328,75917,1,8,0:3:0:0:
407,369,76084,1,0,3:2:0:0:
413,145,76250,6,0,L|388:86,1,52.7999983886719,8|0,0:2|0:2,0:0:0:0:
407,369,76417,1,0,3:2:0:0:
347,358,76500,1,0,3:2:0:0:
291,342,76583,2,0,L|238:335,1,52.7999983886719,8|0,0:2|0:2,0:0:0:0:
459,375,76750,2,0,L|407:382,1,52.7999983886719,8|0,0:2|0:2,0:0:0:0:
0,315,76916,6,0,P|76:298|154:309,1,158.399995166016,4|0,3:2|0:2,0:0:0:0:
154,309,77250,2,0,P|118:293|88:267,1,79.1999975830079,8|0,0:2|0:2,0:0:0:0:
387,384,77583,1,2,3:2:0:0:
297,354,77750,1,2,3:2:0:0:
297,261,77916,1,10,0:2:0:0:
387,232,78083,1,2,0:2:0:0:
441,307,78250,1,2,3:2:0:0:
365,307,78583,1,10,0:2:0:0:
365,307,78750,2,0,L|315:276,1,39.5999987915039,0|8,0:2|0:2,0:0:0:0:
134,384,78916,5,2,3:2:0:0:
229,352,79083,1,2,3:2:0:0:
229,252,79250,1,10,0:2:0:0:
134,221,79416,1,2,0:2:0:0:
75,301,79583,1,2,3:2:0:0:
158,297,79916,1,10,0:2:0:0:
158,297,80083,2,0,L|194:238,1,39.5999987915039,0|8,0:2|0:2,0:0:0:0:
472,217,80250,5,2,3:2:0:0:
381,249,80417,1,2,3:2:0:0:
323,171,80584,1,10,0:2:0:0:
378,91,80750,1,2,0:2:0:0:
470,121,80917,1,2,3:2:0:0:
406,172,81250,1,10,0:2:0:0:
406,172,81416,2,0,L|372:150,1,39.5999987915039,0|8,0:2|0:2,0:0:0:0:
39,217,81584,5,2,3:2:0:0:
130,249,81750,1,2,3:2:0:0:
189,171,81917,1,10,0:2:0:0:
134,91,82084,1,2,0:2:0:0:
126,241,82250,5,2,3:2:0:0:
40,120,82416,1,0,3:2:0:0:
254,0,82583,5,10,0:2:0:0:
202,172,82750,1,2,0:2:0:0:
254,7,82916,1,2,3:2:0:0:
312,170,83083,1,2,3:2:0:0:
165,67,83249,1,10,0:2:0:0:
345,64,83416,1,2,0:2:0:0:
202,172,83583,5,2,3:2:0:0:
339,68,83750,1,2,3:2:0:0:
207,168,83916,1,10,0:2:0:0:
254,7,84083,1,2,0:2:0:0:
312,170,84250,1,2,3:2:0:0:
253,93,84416,1,0,3:2:0:0:
256,243,84583,2,0,L|256:369,1,118.799996374512,10|0,0:2|0:2,0:0:0:0:
198,177,84916,6,0,P|253:157|309:175,1,118.799996374512,2|0,3:2|0:0,0:0:0:0:
165,253,85250,2,0,L|152:290,1,39.5999987915039,10|0,0:2|0:2,0:0:0:0:
340,252,85416,2,0,L|352:289,1,39.5999987915039,2|0,0:2|0:2,0:0:0:0:
174,366,85583,2,0,P|125:333|67:326,1,118.799996374512,2|0,3:2|0:0,0:0:0:0:
326,360,85916,2,0,P|375:327|434:321,1,118.799996374512,10|0,0:2|0:2,0:0:0:0:
256,384,86250,5,0,3:2:0:0:
256,384,86416,1,0,3:2:0:0:
256,192,86583,1,8,0:2:0:0:
253,361,86750,1,0,0:2:0:0:
187,239,86916,5,0,3:2:0:0:
304,261,87083,1,0,3:2:0:0:
324,144,87250,1,8,0:2:0:0:
208,123,87416,1,8,0:2:0:0:
196,311,87583,6,0,P|246:342|305:349,1,118.799996374512,2|0,3:2|0:0,0:0:0:0:
305,348,87916,2,0,P|274:322|237:308,1,79.1999975830079,10|0,0:2|0:2,0:0:0:0:
145,126,88249,6,0,P|168:180|213:220,1,118.799996374512,2|0,3:2|0:0,0:0:0:0:
213,220,88583,2,0,P|202:181|178:145,1,79.1999975830079,10|0,0:2|0:2,0:0:0:0:
300,9,88916,6,0,P|277:64|282:123,1,118.799996374512,2|0,3:2|0:0,0:0:0:0:
281,122,89249,2,0,P|301:88|308:47,1,79.1999975830079,10|0,0:2|0:2,0:0:0:0:
492,42,89583,6,0,P|443:74|413:125,1,118.799996374512,2|0,3:2|0:0,0:0:0:0:
412,125,89916,2,0,P|447:108|479:80,1,79.1999975830079,10|0,0:2|0:2,0:0:0:0:
299,265,90250,5,2,3:2:0:0:
371,192,90416,1,2,3:2:0:0:
299,119,90583,1,10,0:2:0:0:
226,192,90750,1,2,0:2:0:0:
268,258,90916,5,2,3:2:0:0:
232,161,91083,1,2,3:2:0:0:
329,125,91250,1,10,0:2:0:0:
364,222,91416,1,2,0:2:0:0:
322,93,91583,5,2,3:2:0:0:
394,223,91750,1,2,3:2:0:0:
292,331,91916,1,10,0:2:0:0:
157,268,92083,1,2,0:2:0:0:
176,120,92250,2,0,P|232:171|249:234,1,118.799996374512,2|0,3:2|0:0,0:0:0:0:
246,210,92583,2,0,P|210:195|181:167,1,79.1999975830079,8|0,0:2|0:2,0:0:0:0:
12,100,92916,6,0,P|69:85|127:95,1,118.799996374512,2|0,3:2|0:2,0:0:0:0:
175,119,93250,2,0,P|214:128|253:126,1,79.1999975830079,10|0,0:2|0:2,0:0:0:0:
492,0,93583,1,2,3:2:0:0:
420,30,93750,2,0,P|394:83|388:141,1,118.799996374512,2|0,3:2|0:0,0:0:0:0:
400,178,94083,1,2,0:2:0:0:
486,80,94250,1,2,3:2:0:0:
308,189,94416,2,0,P|336:240|381:279,1,118.799996374512,2|0,3:2|0:0,0:0:0:0:
412,295,94750,1,2,0:2:0:0:
290,160,94916,2,0,P|233:143|174:143,1,118.799996374512,2|0,3:2|0:0,0:0:0:0:
59,209,95250,6,0,B|74:216|110:188|110:188|128:212|160:217|160:217|117:229,1,158.399995166016,10|0,0:2|0:2,0:0:0:0:
54,318,95583,2,0,B|62:306|66:288|66:288|70:298|81:306,1,52.7999983886719,2|0,3:2|0:2,0:0:0:0:
182,339,95750,2,0,B|171:348|162:364|162:364|161:354|152:343,1,52.7999983886719,2|0,3:2|0:2,0:0:0:0:
200,203,95916,2,0,B|194:240|163:261|163:261|217:252|252:301,1,158.399995166016,10|0,0:2|0:2,0:0:0:0:
315,317,96250,2,0,B|365:270|335:213|335:213|311:230|301:259,1,158.399995166016,2|0,3:2|0:0,0:0:0:0:
333,96,96583,2,0,B|268:118|272:173|272:173|288:156|316:144,1,158.399995166016,10|0,0:2|0:2,0:0:0:0:
407,150,96916,5,0,3:2:0:0:
407,150,97083,1,0,3:2:0:0:
259,17,97250,2,0,P|219:12|180:13,1,79.1999975830079,8|0,0:2|0:2,0:0:0:0:
104,198,97583,2,0,P|119:133|96:67,1,118.799996374512,2|0,3:2|0:0,0:0:0:0:
106,83,97916,2,0,P|83:115|77:154,1,79.1999975830079,10|4,0:2|0:3,0:0:0:0:
70,304,98166,1,8,0:3:0:0:
58,278,98250,6,0,P|117:275|173:291,1,118.799996374512,0|0,3:2|0:2,0:0:0:0:
198,332,98583,2,0,P|230:335|263:333,1,66,0|0,3:2|0:2,0:0:0:0:
305,319,98916,5,8,0:2:0:0:
305,319,99083,1,0,3:2:0:0:
222,152,99250,1,2,0:3:0:0:
222,152,99417,1,0,3:2:0:0:
187,364,99583,1,4,0:3:0:0:
187,364,99750,1,0,3:2:0:0:
323,98,99916,1,8,0:3:0:0:
323,98,100083,1,0,3:2:0:0:
153,252,100250,5,10,0:2:0:0:
150,259,100500,1,2,0:2:0:0:
179,103,100750,1,2,0:2:0:0:
185,79,100833,1,2,0:2:0:0:
193,52,100916,6,0,P|225:43|258:44,1,66,4|0,0:3|0:0,0:0:0:0:
287,60,101250,2,0,P|317:71|350:72,1,66,4|0,0:3|0:0,0:0:0:0:
398,53,101583,5,8,0:2:0:0:
398,53,101750,1,0,3:2:0:0:
389,309,101916,1,2,0:3:0:0:
389,309,102083,1,0,3:2:0:0:
347,134,102250,1,4,0:3:0:0:
347,134,102417,1,0,3:2:0:0:
489,337,102583,1,8,0:3:0:0:
489,337,102750,1,0,3:2:0:0:
309,245,102916,5,10,0:2:0:0:
299,248,103166,1,2,0:2:0:0:
179,350,103416,1,2,0:2:0:0:
160,356,103500,1,2,0:2:0:0:
140,361,103583,6,0,P|153:330|157:298,1,66,4|0,0:3|0:0,0:0:0:0:
137,264,103916,2,0,P|123:233|119:201,1,66,8|0,0:3|0:0,0:0:0:0:
145,122,104250,5,8,0:2:0:0:
145,122,104416,1,0,3:2:0:0:
391,52,104583,1,2,0:3:0:0:
391,52,104749,1,0,3:2:0:0:
234,34,104916,1,4,0:3:0:0:
234,34,105082,1,0,3:2:0:0:
453,158,105250,1,8,0:3:0:0:
453,158,105416,1,0,3:2:0:0:
247,238,105583,5,10,0:2:0:0:
239,248,105833,1,2,0:2:0:0:
230,259,106083,1,2,0:2:0:0:
371,64,106250,5,8,0:2:0:0:
397,89,106333,1,8,0:2:0:0:
413,116,106416,1,2,0:3:0:0:
424,148,106499,1,2,0:3:0:0:
429,181,106583,2,0,P|428:207|423:228,1,44,0|4,0:2|0:3,0:0:0:0:
235,335,106750,1,8,0:2:0:0:
265,319,106833,2,0,P|307:317|348:321,1,44,8|4,0:2|0:3,0:0:0:0:
434,217,106999,1,8,0:2:0:0:
393,203,107083,2,0,P|340:198|313:200,1,44,8|4,0:2|0:3,0:0:0:0:
188,206,107250,1,8,0:3:0:0:
162,224,107333,1,8,0:3:0:0:
135,238,107416,2,0,P|107:246|63:245,1,44,8|0,0:2|0:2,0:0:0:0:
79,79,107583,5,4,0:3:0:0:
92,48,107666,1,4,0:3:0:0:
119,26,107750,1,8,0:3:0:0:
156,19,107833,1,8,0:3:0:0:
202,29,107916,1,8,0:2:0:0:
232,64,108000,1,2,0:3:0:0:
232,118,108083,1,4,0:3:0:0:
208,166,108166,1,4,0:3:0:0:
196,229,108250,1,8,0:3:0:0:
228,297,108333,1,8,0:3:0:0:
302,328,108416,1,8,0:2:0:0:
378,303,108500,1,8,0:2:0:0:
423,217,108583,1,8,0:2:0:0:
396,130,108666,1,8,0:2:0:0:
306,71,108750,6,0,L|246:51,1,52.7999983886719,4|0,3:2|0:2,0:0:0:0:
305,345,108916,1,2,0:2:0:0:
125,96,109083,1,2,3:2:0:0:
125,287,109250,1,10,0:2:0:0:
417,192,109416,1,2,0:2:0:0:
305,38,109583,1,2,3:2:0:0:
305,38,109750,1,0,3:2:0:0:
209,235,109916,2,0,P|209:287|218:339,1,105.599996777344,10|0,0:2|0:2,0:0:0:0:
512,313,110250,2,0,P|435:330|356:322,1,158.399995166016,2|0,3:2|0:0,0:0:0:0:
356,322,110583,2,0,P|401:295|453:287,1,105.599996777344,10|0,0:2|0:2,0:0:0:0:
203,250,110916,5,2,3:2:0:0:
314,244,111083,1,2,3:2:0:0:
197,139,111250,1,10,0:2:0:0:
308,133,111416,1,2,0:2:0:0:
347,306,111583,5,2,3:2:0:0:
124,255,111750,1,2,3:2:0:0:
223,334,111916,1,10,0:2:0:0:
124,128,112083,1,2,0:2:0:0:
347,77,112250,1,2,3:2:0:0:
223,49,112416,1,2,3:2:0:0:
402,192,112583,2,0,P|416:278|411:363,1,158.399995166016,10|0,0:2|0:2,0:0:0:0:
391,377,112916,5,2,3:2:0:0:
387,350,112999,1,2,0:2:0:0:
383,324,113082,1,2,3:2:0:0:
379,298,113165,1,2,0:2:0:0:
305,251,113250,5,10,0:2:0:0:
308,224,113333,1,2,0:2:0:0:
312,198,113416,1,2,0:2:0:0:
316,172,113499,1,2,0:2:0:0:
293,87,113583,5,2,3:2:0:0:
269,75,113666,1,2,0:2:0:0:
186,53,113750,5,2,3:2:0:0:
160,61,113833,1,2,0:2:0:0:
96,110,113916,5,10,2:2:0:0:
83,134,113999,1,2,2:2:0:0:
62,218,114083,6,0,P|67:243|79:272,1,52.7999983886719,4|0,3:2|0:2,0:0:0:0:
350,310,114250,5,2,0:2:0:0:
118,258,114416,1,2,3:2:0:0:
222,340,114583,1,10,0:2:0:0:
222,43,114750,1,2,0:2:0:0:
118,125,114916,1,2,3:2:0:0:
408,192,115083,1,2,3:2:0:0:
350,73,115250,2,0,P|314:134|308:256,1,158.399995166016,10|0,0:2|0:2,0:0:0:0:
301,219,115583,2,0,P|340:156|349:114,1,105.599996777344,2|0,3:2|3:2,0:0:0:0:
134,214,115916,2,0,P|151:294|203:366,1,158.399995166016,8|0,0:2|0:2,0:0:0:0:
193,357,116250,2,0,P|191:330|185:304,1,52.7999983886719,2|0,3:2|0:2,0:0:0:0:
134,214,116416,2,0,P|114:196|91:182,1,52.7999983886719,2|0,3:2|0:2,0:0:0:0:
41,349,116583,1,8,0:2:0:0:
272,276,116750,6,0,B|327:302|380:257|380:257|408:305|376:346,1,211.199993554688,2|0,0:2|3:2,0:0:0:0:
432,246,117166,1,2,0:0:0:0:
432,246,117250,2,0,P|406:254|380:257,1,52.7999983886719,8|0,0:2|0:2,0:0:0:0:
174,163,117416,2,0,B|125:198|137:266|137:266|82:267|62:219,1,211.199993554688,2|0,0:2|3:2,0:0:0:0:
121,317,117833,1,2,0:0:0:0:
121,317,117916,2,0,P|126:291|137:267,1,52.7999983886719,8|0,0:2|0:2,0:0:0:0:
321,135,118083,2,0,B|315:75|250:52|250:52|277:3|329:10,1,211.199993554688,2|0,0:2|3:2,0:0:0:0:
214,12,118500,1,2,0:0:0:0:
214,12,118583,2,0,P|234:30|250:51,1,52.7999983886719,8|0,0:2|0:2,0:0:0:0:
290,280,118750,1,2,0:2:0:0:
173,93,118916,2,0,P|88:78|23:85,1,105.599996777344,2|0,3:2|3:2,0:0:0:0:
270,289,119250,1,10,0:2:0:0:
458,0,119416,5,4,3:2:0:0:
386,45,119583,2,0,P|388:97|402:148,1,105.599996777344,2|0,0:2|3:2,0:0:0:0:
485,352,119916,1,10,0:2:0:0:
442,258,120083,2,0,P|401:241|357:235,1,88,2|0,0:2|3:2,0:0:0:0:
241,182,120416,2,0,P|273:167|307:162,1,70.4,2|8,3:2|0:2,0:0:0:0:
1,334,120750,6,0,P|78:349|156:338,1,158.399995166016,2|0,0:2|0:0,0:0:0:0:
156,338,121083,2,0,P|117:319|74:308,1,88,2|8,3:2|0:2,0:0:0:0:
164,253,121416,2,0,P|203:247|241:234,1,79.1999975830079,2|0,0:2|3:2,0:0:0:0:
380,212,121750,2,0,P|346:202|311:197,1,70.4,2|8,3:2|0:2,0:0:0:0:
59,7,122083,6,0,P|37:83|42:162,1,158.399995166016,2|0,0:2|0:0,0:0:0:0:
42,161,122416,2,0,P|74:121|90:71,1,105.599996777344,2|8,3:2|0:2,0:0:0:0:
134,263,122750,2,0,P|137:224|130:185,1,79.1999975830079,2|0,0:2|3:2,0:0:0:0:
39,370,123083,2,0,P|43:335|55:302,1,70.4,2|8,3:2|0:2,0:0:0:0:
346,304,123416,6,0,P|268:315|192:294,1,158.399995166016,2|0,0:2|0:0,0:0:0:0:
192,293,123750,2,0,P|234:280|277:275,1,88,2|8,3:2|0:2,0:0:0:0:
423,299,124083,2,0,P|461:319|496:347,1,88,0|0,0:2|3:2,0:0:0:0:
346,304,124416,1,0,3:2:0:0:
414,1,124583,1,10,0:2:0:0:
277,274,124750,6,0,P|200:294|122:287,1,158.399995166016,4|0,3:2|0:0,0:0:0:0:
87,273,125083,1,0,3:2:0:0:
195,33,125250,1,10,0:2:0:0:
179,200,125416,2,0,P|157:247|122:286,1,105.599996777344,2|0,0:2|3:2,0:0:0:0:
110,5,125750,1,2,3:2:0:0:
179,200,125916,2,0,P|256:209|346:186,1,158.399995166016,10|0,0:2|0:2,0:0:0:0:
333,191,126250,6,0,P|286:166|234:160,1,105.599996777344,2|0,3:2|3:2,0:0:0:0:
36,196,126583,1,10,0:2:0:0:
416,184,126750,2,0,P|391:137|352:102,1,105.599996777344,2|0,0:2|3:2,0:0:0:0:
133,68,127083,1,0,3:2:0:0:
495,215,127250,6,0,P|498:185|493:156,1,59.3999981872559,8|0,0:2|0:2,0:0:0:0:
456,87,127583,5,8,0:2:0:0:
293,196,127750,1,0,3:2:0:0:
278,293,127916,1,2,0:3:0:0:
281,190,128083,1,0,3:2:0:0:
444,81,128250,5,8,0:2:0:0:
281,190,128417,1,0,3:2:0:0:
266,287,128584,1,4,0:3:0:0:
269,184,128751,1,0,3:2:0:0:
432,75,128916,5,8,0:2:0:0:
269,184,129084,1,0,3:2:0:0:
254,281,129250,1,0,3:2:0:0:
418,71,129416,5,8,0:2:0:0:
258,179,129583,1,0,3:2:0:0:
239,274,129750,1,0,3:2:0:0:
399,62,129916,5,8,0:2:0:0:
305,91,130000,1,8,0:2:0:0:
249,172,130083,2,0,B|235:222|225:277|225:277|254:348,1,184.799994360352,2|0,3:2|0:2,0:0:0:0:
266,367,130416,1,0,3:2:0:0:
195,101,130583,2,0,P|134:33|48:3,1,184.799994360352,8|0,0:2|0:2,0:0:0:0:
55,112,130916,6,0,P|73:153|76:108,1,123.199996240234,2|0,3:2|3:2,0:0:0:0:
199,183,131166,2,0,P|191:228|215:189,1,123.199996240234,2|0,0:0|0:0,0:0:0:0:
214,344,131416,2,0,P|189:358|217:361,1,74.8000014266968,2|0,0:2|0:0,0:0:0:0:
0,287,131583,6,0,P|112:262|38:355,1,303.600005790711,2|0,3:2|0:0,0:0:0:0:
33,353,131916,1,8,0:2:0:0:
121,235,132083,1,0,0:2:0:0:
323,372,132250,6,0,P|292:362|260:358,1,66.0000025177003,2|0,3:2|0:2,0:0:0:0:
291,285,132416,2,0,P|271:258|247:236,1,66.0000025177003,2|0,3:2|0:2,0:0:0:0:
308,183,132583,2,0,P|307:150|300:117,1,66.0000025177003,10|0,0:2|0:2,0:0:0:0:
384,116,132750,6,0,P|401:88|414:57,1,66.0000025177003,2|0,0:2|0:2,0:0:0:0:
333,187,132916,2,0,P|363:174|391:156,1,66.0000025177003,2|0,3:2|0:2,0:0:0:0:
235,47,133083,2,0,P|214:22|189:0,1,66.0000025177003,2|0,3:2|0:2,0:0:0:0:
270,127,133250,2,0,P|267:94|259:62,1,66.0000025177003,10|0,0:2|0:2,0:0:0:0:
112,166,133417,2,0,P|81:178|53:196,1,66.0000025177003,2|0,0:2|0:2,0:0:0:0:
198,157,133583,2,0,P|166:149|133:148,1,66.0000025177003,2|0,3:2|0:2,0:0:0:0:
187,320,133750,2,0,P|189:353|197:385,1,66.0000025177003,2|0,3:2|0:2,0:0:0:0:
205,235,133916,2,0,P|188:263|176:294,1,66.0000025177003,10|0,0:2|0:2,0:0:0:0:
361,298,134083,6,0,B|420:330|472:305|472:305|485:264|405:222,1,198.000007553101,2|0,3:2|0:0,0:0:0:0:
224,348,134416,2,0,P|255:356|287:348,1,66.0000025177003,2|0,3:2|0:2,0:0:0:0:
78,238,134583,2,0,B|27:264|40:305|40:305|92:330|150:298,1,198.000007553101,10|0,0:2|0:2,0:0:0:0:
156,294,134916,1,0,3:2:0:0:
237,21,135083,5,2,3:2:0:0:
127,127,135250,1,10,0:2:0:0:
165,289,135416,1,6,3:2:0:0:
357,327,135583,6,0,P|325:336|292:337,1,66.0000025177003,2|0,0:2|0:2,0:0:0:0:
155,269,135750,1,0,3:2:0:0:
274,349,135916,2,0,P|198:318|176:288,1,66.0000025177003,10|0,0:2|0:2,0:0:0:0:
145,130,136083,1,0,0:2:0:0:
156,302,136250,2,0,P|142:273|136:241,1,66.0000025177003,2|0,3:2|0:2,0:0:0:0:
135,118,136416,2,0,P|165:73|222:45,1,66.0000025177003,2|0,3:2|0:2,0:0:0:0:
280,23,136583,2,0,P|343:19|400:32,1,66.0000025177003,10|0,0:2|0:2,0:0:0:0:
512,205,136750,2,0,P|486:112|409:51,1,198.000007553101,2|0,0:2|0:0,0:0:0:0:
409,51,137083,2,0,P|414:116|455:181,1,132.000005035401,2|8,3:2|0:2,0:0:0:0:
505,370,137416,5,2,0:2:0:0:
451,316,137500,1,2,0:2:0:0:
381,285,137583,1,2,3:2:0:0:
227,265,137750,1,2,3:2:0:0:
22,351,137916,2,0,P|87:341|142:305,1,132.000005035401,10|0,0:2|0:2,0:0:0:0:
340,47,138250,5,2,3:2:0:0:
114,218,138416,1,2,3:2:0:0:
137,101,138583,2,0,P|227:104|341:64,1,198.000007553101,10|0,0:2|0:2,0:0:0:0:
356,47,138916,1,2,3:2:0:0:
47,139,139083,2,0,P|22:202|21:279,1,132.000005035401,2|8,3:2|0:2,0:0:0:0:
304,93,139416,2,0,P|208:114|136:181,1,198.000007553101,2|0,0:2|0:0,0:0:0:0:
131,200,139750,1,2,3:2:0:0:
318,380,139916,1,10,0:2:0:0:
175,328,140083,1,2,0:2:0:0:
440,337,140250,5,2,3:2:0:0:
310,369,140416,1,0,3:2:0:0:
176,313,140583,1,8,0:2:0:0:
138,180,140750,2,0,P|139:148|148:116,1,66.0000025177003,4|8,3:2|0:2,0:0:0:0:
224,13,140916,5,0,0:2:0:0:
255,3,140999,1,0,0:2:0:0:
288,0,141082,1,0,3:2:0:0:
320,4,141166,1,0,0:2:0:0:
351,16,141249,1,8,0:2:0:0:
375,37,141333,1,0,0:2:0:0:
393,65,141416,1,0,0:2:0:0:
403,96,141500,1,0,0:2:0:0:
404,129,141583,5,0,3:2:0:0:
377,146,141666,1,0,0:2:0:0:
345,157,141749,1,0,3:2:0:0:
313,160,141833,1,0,0:2:0:0:
280,156,141916,1,8,0:2:0:0:
250,142,141999,1,0,0:2:0:0:
219,133,142082,1,0,0:2:0:0:
186,128,142166,1,8,0:2:0:0:
153,128,142249,5,0,3:2:0:0:
142,167,142333,1,0,0:2:0:0:
137,206,142416,1,0,3:2:0:0:
138,245,142500,1,0,0:2:0:0:
145,284,142583,1,8,0:2:0:0:
161,320,142666,1,0,0:2:0:0:
187,350,142749,1,0,0:2:0:0:
221,371,142833,1,0,0:2:0:0:
259,381,142916,5,0,3:2:0:0:
258,333,142999,1,0,0:2:0:0:
248,285,143082,1,0,3:2:0:0:
229,241,143166,1,0,0:2:0:0:
202,201,143249,1,8,0:2:0:0:
164,171,143333,1,0,0:2:0:0:
121,149,143416,1,0,0:2:0:0:
74,137,143500,1,8,0:2:0:0:
26,135,143583,5,0,3:2:0:0:
39,181,143666,1,0,0:2:0:0:
64,223,143749,1,0,3:2:0:0:
98,257,143833,1,0,0:2:0:0:
139,283,143916,1,8,0:2:0:0:
187,283,143999,1,0,0:2:0:0:
235,276,144082,1,0,0:2:0:0:
281,260,144166,1,0,0:2:0:0:
323,238,144250,5,0,3:2:0:0:
303,209,144333,1,0,0:2:0:0:
289,177,144416,1,0,3:2:0:0:
282,142,144500,1,0,0:2:0:0:
281,107,144583,1,8,0:2:0:0:
315,113,144666,1,0,0:2:0:0:
348,126,144749,1,0,0:2:0:0:
377,145,144833,1,8,0:2:0:0:
468,217,144916,5,0,3:2:0:0:
464,238,144999,1,8,0:2:0:0:
431,315,145082,5,0,3:2:0:0:
421,337,145166,1,0,0:2:0:0:
341,384,145250,5,8,0:2:0:0:
331,351,145334,1,0,0:2:0:0:
326,318,145417,1,0,0:2:0:0:
324,284,145500,1,8,0:2:0:0:
360,204,145583,5,0,3:2:0:0:
370,171,145667,1,8,0:2:0:0:
442,138,145750,5,0,3:2:0:0:
431,105,145834,1,0,0:2:0:0:
464,38,145916,5,8,0:2:0:0:
436,17,146000,1,8,0:2:0:0:
353,53,146083,6,0,P|239:78|131:35,1,237.599992749024,2|0,3:2|0:2,0:0:0:0:
26,146,146416,2,0,P|62:130|101:123,1,79.1999975830079,2|0,3:2|0:2,0:0:0:0:
293,112,146583,1,10,0:2:0:0:
375,138,146666,1,2,0:2:0:0:
375,226,146750,1,2,0:2:0:0:
293,252,146833,1,2,0:2:0:0:
240,182,146916,2,0,P|243:142|256:105,1,79.1999975830079,2|0,3:2|0:2,0:0:0:0:
315,12,147083,5,2,3:2:0:0:
377,122,147250,1,10,0:2:0:0:
273,291,147416,1,2,0:2:0:0:
64,315,147583,1,2,3:2:0:0:
151,30,147750,2,0,P|222:125|245:241,1,237.599992749024,2|0,3:2|0:0,0:0:0:0:
199,362,148083,1,2,0:2:0:0:
332,221,148250,2,0,P|371:224|409:236,1,79.1999975830079,0|0,3:2|0:2,0:0:0:0:
4,44,148416,2,0,B|58:26|134:40|91:64|179:84|224:63|224:63|284:14|228:-18|169:16|224:63|224:63|285:116|342:85,1,506.000009651184,2|0,3:2|0:2,0:0:0:0:
452,119,148916,5,2,3:2:0:0:
415,153,149028,1,4,0:3:0:0:
376,158,149139,1,8,0:3:0:0:
210,115,149250,1,10,0:2:0:0:
145,89,149361,1,4,0:3:0:0:
74,95,149472,1,8,0:3:0:0:
31,250,149583,1,2,3:2:0:0:
69,323,149694,1,4,0:3:0:0:
148,350,149805,1,8,0:3:0:0:
306,248,149916,1,10,0:2:0:0:
325,140,150028,1,4,0:3:0:0:
266,40,150139,1,8,0:3:0:0:
141,32,150250,5,8,0:2:0:0:
247,366,150416,1,0,3:2:0:0:
333,319,150583,5,8,0:2:0:0:
3,237,150750,1,0,3:2:0:0:
34,316,150916,5,8,0:2:0:0:
319,17,151083,1,0,3:2:0:0:
232,16,151250,5,8,0:2:0:0:
226,24,151583,6,0,L|52:53,1,176,6|2,0:2|0:2,0:0:0:0:
0,124,152083,1,2,0:2:0:0:
232,39,152250,6,0,P|193:60|166:94,1,88,2|0,0:2|0:2,0:0:0:0:
126,189,152583,2,0,P|90:214|47:224,1,88,2|0,0:2|0:2,0:0:0:0:
248,34,152916,5,2,0:2:0:0:
208,114,153083,1,2,0:2:0:0:
237,201,153250,1,2,0:2:0:0:
165,258,153416,1,2,0:2:0:0:
203,360,153583,1,2,0:2:0:0:
198,351,153916,1,2,0:2:0:0:
261,29,154250,6,0,P|301:81|328:142,1,132,2|0,0:2|0:2,0:0:0:0:
307,193,154583,2,0,P|323:238|360:271,1,88,2|0,0:2|0:2,0:0:0:0:
283,18,154916,6,0,L|381:58,1,88,2|0,0:2|0:2,0:0:0:0:
364,51,155250,2,0,L|283:18,1,88,2|0,0:2|0:2,0:0:0:0:
283,18,155583,2,0,L|364:51,1,88,2|0,0:2|0:2,0:0:0:0:
364,51,155916,2,0,L|283:18,1,88,2|0,0:2|0:2,0:0:0:0:
283,18,156250,2,0,L|364:51,1,88,2|0,0:2|0:2,0:0:0:0:
257,357,156916,5,2,3:2:0:0:
257,357,157083,1,0,0:2:0:0:
146,274,157250,5,2,3:2:0:0:
257,357,157416,1,2,0:2:0:0:
274,220,157583,1,2,3:2:0:0:
274,220,157750,1,0,0:2:0:0:
146,274,157916,5,2,3:2:0:0:
327,297,158083,1,2,0:2:0:0:
257,129,158250,1,2,3:2:0:0:
257,129,158416,1,0,0:2:0:0:
214,356,158583,5,2,3:2:0:0:
214,356,158750,1,0,0:2:0:0:
506,195,158916,1,2,3:2:0:0:
506,195,159083,1,0,0:2:0:0:
221,22,159250,1,2,3:2:0:0:
276,218,159416,5,2,0:2:0:0:
276,218,159500,1,2,0:2:0:0:
276,218,159583,2,2,L|371:204,1,88,0|0,3:2|0:2,0:1:0:0:
229,129,159916,2,2,B|148:110|51:154|51:154|104:184|103:257,1,264,0|0,0:2|0:2,0:1:0:0:
0,269,160500,1,2,0:2:0:0:
0,269,160583,2,2,L|18:226,1,39.5999987915039,0|0,0:2|0:2,0:1:0:0:
51,154,160916,5,8,0:2:0:0:
448,369,161083,1,0,3:2:0:0:
360,340,161250,5,8,0:2:0:0:
497,16,161416,1,0,3:2:0:0:
484,98,161583,5,8,0:2:0:0:
445,88,161666,1,8,0:2:0:0:
398,48,161750,1,8,0:2:0:0:
333,7,161833,1,8,0:2:0:0:
208,12,161916,1,8,0:2:0:0:
110,85,162000,1,8,0:2:0:0:
86,234,162083,2,0,P|90:267|102:298,1,66.0000025177003,4|0,3:2|0:2,0:0:0:0:
437,188,162250,5,2,0:2:0:0:
101,297,162416,1,2,3:2:0:0:
309,12,162583,1,10,0:2:0:0:
308,365,162750,1,2,0:2:0:0:
101,79,162916,1,2,3:2:0:0:
101,79,163083,1,0,3:2:0:0:
382,327,163250,2,0,P|446:345|512:343,1,132.000005035401,10|0,0:2|0:2,0:0:0:0:
180,115,163584,2,0,P|83:125|0:178,1,198.000007553101,2|0,3:2|0:0,0:0:0:0:
0,179,163917,2,0,P|34:122|44:57,1,132.000005035401,10|0,0:2|0:2,0:0:0:0:
332,147,164250,5,2,3:2:0:0:
211,115,164416,1,2,3:2:0:0:
179,236,164583,1,10,0:2:0:0:
300,268,164750,1,2,0:2:0:0:
91,112,164916,5,2,3:2:0:0:
370,50,165083,1,2,3:2:0:0:
369,334,165249,1,10,0:2:0:0:
91,271,165416,1,2,0:2:0:0:
215,14,165583,1,2,3:2:0:0:
438,192,165750,1,2,3:2:0:0:
215,369,165916,2,0,P|117:371|31:323,1,198.000007553101,10|0,0:2|0:2,0:0:0:0:
30,323,166250,2,0,P|89:293|154:291,1,132.000005035401,2|0,3:2|3:2,0:0:0:0:
288,90,166583,5,10,0:2:0:0:
362,192,166750,1,2,0:2:0:0:
169,254,166917,1,2,3:2:0:0:
169,129,167083,1,2,3:2:0:0:
288,293,167250,1,10,0:2:0:0:
256,192,167416,5,6,3:2:0:0:
66,200,167583,5,2,0:2:0:0:
307,375,167750,1,2,3:2:0:0:
422,101,167916,1,10,0:2:0:0:
289,4,168083,1,2,0:2:0:0:
430,266,168249,1,2,3:2:0:0:
144,346,168416,1,2,3:2:0:0:
131,48,168583,2,0,P|42:88|0:175,1,198.000007553101,10|0,0:2|0:0,0:0:0:0:
0,175,168916,2,0,P|64:167|116:128,1,132.000005035401,2|0,3:2|3:2,0:0:0:0:
129,380,169250,2,0,P|132:281|173:192,1,198.000007553101,8|0,0:2|0:2,0:0:0:0:
173,192,169583,2,0,P|182:224|186:256,1,66.0000025177003,2|0,3:2|0:2,0:0:0:0:
164,325,169750,2,0,P|149:354|128:379,1,66.0000025177003,2|0,3:2|0:2,0:0:0:0:
16,263,169916,1,8,0:2:0:0:
289,152,170083,6,0,B|349:117|451:146|451:146|486:195|471:255,1,264.000010070801,2|0,0:2|3:0,0:0:0:0:
414,94,170500,1,2,0:0:0:0:
414,94,170583,2,0,P|437:118|452:147,1,66.0000025177003,10|0,0:2|0:2,0:0:0:0:
273,237,170750,2,0,B|272:306|197:381|197:381|137:386|106:354,1,264.000010070801,2|0,0:2|3:0,0:0:0:0:
259,376,171166,1,2,0:0:0:0:
259,376,171250,2,0,P|227:384|194:383,1,66.0000025177003,10|0,0:2|0:2,0:0:0:0:
208,184,171416,2,0,B|149:148|121:46|121:46|147:-8|190:-19,1,264.000010070801,2|0,0:2|3:0,0:0:0:0:
96,106,171833,1,2,0:0:0:0:
96,106,171916,2,0,P|104:74|121:46,1,66.0000025177003,8|0,0:2|0:2,0:0:0:0:
288,0,172083,1,2,0:2:0:0:
165,254,172250,2,0,P|115:270|62:273,1,105.599996777344,2|0,3:2|3:2,0:0:0:0:
0,220,172583,1,10,0:2:0:0:
512,124,172750,5,4,3:2:0:0:
435,155,172916,2,0,P|418:205|417:257,1,105.599996777344,2|0,0:2|3:2,0:0:0:0:
463,353,173250,1,10,0:2:0:0:
346,280,173416,2,0,P|303:268|259:264,1,88,2|0,0:2|3:2,0:0:0:0:
170,334,173750,2,0,P|136:344|101:349,1,70.4,2|8,3:2|0:2,0:0:0:0:
501,169,174083,6,0,P|422:162|349:189,1,158.399995166016,2|0,0:2|0:0,0:0:0:0:
349,189,174416,2,0,P|361:147|361:103,1,88,2|8,3:2|0:2,0:0:0:0:
269,1,174750,2,0,P|268:41|278:79,1,79.1999975830079,2|0,0:2|3:2,0:0:0:0:
174,135,175083,2,0,P|185:101|188:66,1,70.4,2|8,3:2|0:2,0:0:0:0:
82,371,175416,6,0,P|57:296|73:219,1,158.399995166016,2|0,0:2|0:0,0:0:0:0:
72,220,175750,2,0,P|110:243|153:252,1,88,2|8,3:2|0:2,0:0:0:0:
233,210,176083,2,0,P|272:201|311:203,1,79.1999975830079,2|0,0:2|3:2,0:0:0:0:
389,252,176416,2,0,P|419:269|453:278,1,70.4,2|8,3:2|0:2,0:0:0:0:
104,344,176750,6,0,P|177:315|255:319,1,158.399995166016,2|0,0:2|0:0,0:0:0:0:
256,320,177083,2,0,P|237:280|230:236,1,88,2|8,3:2|0:2,0:0:0:0:
241,142,177416,2,0,P|256:101|282:66,1,88,0|0,0:2|3:2,0:0:0:0:
163,184,177750,1,0,3:2:0:0:
439,216,177916,1,10,0:2:0:0:
170,93,178083,6,0,P|92:79|15:94,1,158.399995166016,4|0,3:2|0:0,0:0:0:0:
0,104,178416,1,0,3:2:0:0:
235,27,178583,1,10,0:2:0:0:
64,157,178750,2,0,P|32:226|26:284,1,105.599996777344,2|0,0:2|3:2,0:0:0:0:
216,41,179083,1,0,3:2:0:0:
124,234,179250,2,0,P|138:312|186:374,1,158.399995166016,10|0,0:2|0:2,0:0:0:0:
186,374,179583,6,0,P|205:326|203:270,1,105.599996777344,2|0,3:2|3:2,0:0:0:0:
63,92,179916,1,10,0:2:0:0:
300,278,180083,2,0,P|288:228|251:186,1,105.599996777344,2|0,0:2|3:2,0:0:0:0:
39,101,180416,1,0,3:2:0:0:
317,138,180583,2,0,P|294:118|266:109,1,59.3999981872559,8|0,0:2|0:2,0:0:0:0:
188,103,180916,5,8,0:2:0:0:
349,138,181083,1,0,3:2:0:0:
482,91,181250,1,2,0:3:0:0:
349,152,181416,1,0,3:2:0:0:
172,105,181583,5,8,0:2:0:0:
349,152,181750,1,0,3:2:0:0:
462,258,181916,1,4,0:3:0:0:
349,138,182083,1,0,3:2:0:0:
145,100,182250,5,8,0:2:0:0:
349,138,182416,1,0,3:2:0:0:
512,173,182583,1,8,0:3:0:0:
349,152,182750,1,0,3:2:0:0:
130,98,182916,5,8,0:2:0:0:
69,108,183000,1,8,0:2:0:0:
23,146,183083,1,8,0:2:0:0:
10,208,183166,1,8,0:2:0:0:
27,264,183250,2,0,P|50:277|75:285,1,52.7999983886719,8|0,0:2|0:2,0:0:0:0:
377,257,183416,6,0,B|252:233|252:233|197:252,1,184.799994360352,4|0,3:2|0:2,0:0:0:0:
160,275,183750,1,0,3:2:0:0:
375,162,183916,2,0,P|426:170|475:203,1,105.599996777344,8|0,0:2|0:2,0:0:0:0:
234,352,184250,1,0,3:2:0:0:
234,352,184416,1,0,3:2:0:0:
295,96,184583,2,0,P|342:72|394:67,1,105.599996777344,8|0,0:2|0:2,0:0:0:0:
278,384,184916,1,0,3:2:0:0:
278,384,185082,1,0,3:2:0:0:
182,88,185250,2,0,P|207:41|246:7,1,105.599996777344,8|0,0:2|0:2,0:0:0:0:
304,381,185583,5,0,3:2:0:0:
75,264,185750,1,0,3:2:0:0:
390,111,185916,1,8,0:2:0:0:
459,55,186083,2,2,P|385:83|307:78,1,158.399995166016,2|0,3:1|0:2,0:1:0:0:
273,56,186416,6,0,P|249:44|223:38,1,52.7999983886719,2|0,3:2|0:2,0:0:0:0:
140,25,186583,2,0,P|114:31|90:42,1,52.7999983886719,10|0,0:2|0:2,0:0:0:0:
43,108,186750,2,0,P|27:128|14:151,1,52.7999983886719,2|0,0:2|0:2,0:0:0:0:
201,145,186916,6,2,P|224:133|250:127,1,52.7999983886719,2|0,3:1|0:2,0:1:0:0:
333,122,187083,2,0,P|358:128|382:139,1,52.7999983886719,2|0,3:2|0:2,0:0:0:0:
437,201,187250,2,0,P|453:221|466:244,1,52.7999983886719,10|0,0:2|0:2,0:0:0:0:
512,311,187416,2,0,P|513:337|510:363,1,52.7999983886719,2|0,0:2|0:2,0:0:0:0:
300,175,187583,6,2,P|278:159|254:149,1,52.7999983886719,2|0,3:1|0:2,0:1:0:0:
177,123,187750,2,0,P|150:122|125:128,1,52.7999983886719,2|0,3:2|0:2,0:0:0:0:
58,176,187916,2,0,P|36:190|18:210,1,52.7999983886719,10|0,0:2|0:2,0:0:0:0:
11,296,188083,2,0,P|1:320|0:346,1,52.7999983886719,2|0,0:2|0:2,0:0:0:0:
325,318,188250,6,0,P|313:341|295:360,1,52.7999983886719,2|0,3:1|0:2,0:0:0:0:
199,343,188416,2,0,P|184:321|176:295,1,52.7999983886719,2|0,3:2|0:2,0:0:0:0:
233,219,188583,2,0,P|259:217|284:223,1,52.7999983886719,10|0,0:2|0:2,0:0:0:0:
79,337,188750,6,2,P|157:344|229:315,1,158.399995166016,4|0,3:2|0:2,0:1:0:0:
246,301,189083,1,2,3:2:0:0:
370,70,189250,1,10,0:2:0:0:
380,159,189416,1,2,0:2:0:0:
332,149,189500,1,2,0:2:0:0:
303,120,189583,1,2,3:2:0:0:
315,5,189750,1,2,3:2:0:0:
472,157,189916,1,10,0:2:0:0:
433,286,190083,1,2,0:2:0:0:
123,274,190250,5,2,3:2:0:0:
174,249,190333,1,2,0:2:0:0:
231,259,190416,1,2,3:2:0:0:
292,371,190583,1,10,0:2:0:0:
191,342,190750,1,2,0:2:0:0:
164,82,190916,1,2,3:2:0:0:
285,237,191083,1,2,3:2:0:0:
493,235,191250,1,10,0:2:0:0:
211,171,191416,6,2,B|137:222|58:208|58:208|43:182|58:138,1,224.40000428009,2|0,0:2|0:0,0:1:0:0:
65,123,191750,1,2,3:2:0:0:
291,288,191916,1,10,0:2:0:0:
291,288,192083,1,2,0:2:0:0:
512,214,192250,1,2,3:2:0:0:
350,355,192416,1,2,3:2:0:0:
112,367,192583,1,10,0:2:0:0:
294,268,192750,1,2,0:2:0:0:
506,224,192916,1,2,3:2:0:0:
304,291,193083,1,2,3:2:0:0:
139,245,193250,1,10,0:2:0:0:
65,98,193416,2,2,B|107:95|136:52|136:52|203:108|297:72|297:72|288:46|245:36,1,299.200005706787,2|0,0:2|3:2,0:1:0:0:
38,182,193916,1,8,0:2:0:0:
335,143,194083,6,2,B|412:166|466:102|466:102|453:151|476:221,1,224.40000428009,6|0,3:2|0:2,0:1:0:0:
473,194,194416,1,2,3:2:0:0:
383,147,194583,1,10,0:2:0:0:
413,262,194750,1,2,0:2:0:0:
418,20,194916,1,2,3:2:0:0:
222,169,195083,1,2,3:2:0:0:
492,196,195250,1,10,0:2:0:0:
141,6,195416,6,2,B|194:62|162:169|162:169|125:99,1,224.40000428009,2|0,0:2|0:0,0:1:0:0:
27,122,195750,2,0,P|62:109|99:111,1,74.8000014266968,2|0,3:2|0:2,0:1:0:0:
217,240,195916,2,0,P|252:251|289:248,1,74.8000014266968,10|0,0:2|0:2,0:1:0:0:
477,172,196083,1,2,0:2:0:0:
146,89,196250,5,2,3:2:0:0:
311,64,196416,1,2,3:2:0:0:
428,115,196583,1,10,0:2:0:0:
482,182,196750,1,2,0:2:0:0:
487,194,196916,6,2,P|447:232|394:250,1,112.200002140045,2|0,3:2|0:2,0:1:0:0:
427,290,197083,2,2,P|372:298|319:282,1,112.200002140045,2|0,3:2|0:2,0:1:0:0:
320,331,197250,2,2,P|271:307|236:263,1,112.200002140045,10|0,0:2|0:2,0:1:0:0:
268,102,197416,6,2,P|214:87|159:96,1,112.200002140045,2|0,0:2|0:2,0:1:0:0:
153,64,197583,2,2,P|101:84|64:125,1,112.200002140045,2|0,3:2|0:2,0:1:0:0:
42,100,197750,2,2,P|9:145|0:200,1,112.200002140045,2|0,3:2|0:2,0:1:0:0:
87,370,197916,6,2,P|142:375|196:360,1,112.200002140045,10|0,0:2|0:2,0:1:0:0:
414,318,198083,2,2,B|389:293|389:293|358:300|358:300|321:289|261:307|261:307|229:290|229:290|207:284,1,224.40000428009,2|0,0:2|0:0,0:1:0:0:
108,263,198416,1,2,3:2:0:0:
42,273,198500,1,2,0:2:0:0:
0,323,198583,1,10,0:2:0:0:
199,49,198750,2,2,P|269:25|339:25,1,132,2|8,0:2|0:2,0:1:0:0:
512,77,199416,1,4,3:2:0:0:
180,72,199583,6,0,L|127:63,1,52.7999983886719,2|0,0:2|0:2,0:0:0:0:
52,189,199750,1,2,3:2:0:0:
92,234,199833,1,2,0:2:0:0:
67,287,199916,1,10,0:2:0:0:
82,316,200000,1,2,0:2:0:0:
98,368,200083,6,0,L|110:291,1,52.7999983886719,2|0,0:2|0:2,0:0:0:0:
173,100,200250,1,2,3:2:0:0:
216,137,200333,1,2,0:2:0:0:
266,104,200416,1,2,3:2:0:0:
313,131,200500,1,2,0:2:0:0:
353,113,200583,1,10,0:2:0:0:
313,131,200666,1,2,0:2:0:0:
266,104,200750,1,2,0:2:0:0:
216,137,200833,1,2,0:2:0:0:
173,100,200916,6,0,P|146:95|120:93,1,52.7999983886719,2|0,3:2|0:2,0:0:0:0:
387,26,201083,1,2,3:2:0:0:
389,72,201166,1,2,0:2:0:0:
353,113,201250,1,10,0:2:0:0:
378,167,201333,1,2,0:2:0:0:
351,201,201416,6,0,L|366:282,1,52.7999983886719,2|0,0:2|0:2,0:0:0:0:
134,339,201583,1,2,3:2:0:0:
184,319,201666,1,2,0:2:0:0:
239,352,201750,1,2,3:2:0:0:
289,316,201833,1,2,0:2:0:0:
335,345,201916,2,0,P|380:332|426:332,1,92.3999971801759,10|0,0:2|0:2,0:0:0:0:
466,212,202250,5,2,3:2:0:0:
460,210,202305,1,2,0:2:0:0:
454,209,202361,1,2,0:2:0:0:
448,208,202416,1,2,3:2:0:0:
443,206,202472,1,2,0:2:0:0:
437,205,202528,2,0,L|383:190,6,35.1999989257813,2|10|2|2|2|2|2,0:2|0:2|0:2|0:2|0:2|0:2|0:2,0:0:0:0:
336,125,202916,5,2,3:2:0:0:
330,126,202971,1,2,0:2:0:0:
324,127,203027,1,2,0:2:0:0:
318,128,203082,1,2,3:2:0:0:
313,130,203138,1,2,0:2:0:0:
306,133,203194,2,0,L|252:148,6,35.1999989257813,2|10|2|2|2|2|2,0:2|0:2|0:2|0:2|0:2|0:2|0:2,0:0:0:0:
205,212,203583,5,10,3:2:0:0:
199,211,203638,1,2,0:2:0:0:
193,210,203694,1,2,0:2:0:0:
187,209,203749,1,2,3:2:0:0:
182,207,203805,1,2,0:2:0:0:
175,205,203861,2,0,L|121:190,6,35.1999989257813,2|10|2|2|2|2|2,0:2|0:2|0:2|0:2|3:2|0:2|0:2,0:0:0:0:
70,111,204250,5,10,3:2:0:0:
64,112,204305,1,2,0:2:0:0:
58,113,204361,1,2,0:2:0:0:
52,114,204416,1,2,3:2:0:0:
47,116,204472,1,2,0:2:0:0:
39,118,204528,2,0,L|-15:133,6,35.1999989257813,2|10|2|2|2|2|2,0:2|0:2|0:2|0:2|3:2|0:2|0:2,0:0:0:0:
40,217,204916,6,2,B|99:254|105:353|105:353|176:293|176:293|236:339|236:339|290:275|290:275|347:304|470:276|479:199|488:139|472:74|419:20|351:20|293:7|247:52|196:114|214:164|227:210,1,1055.99996777344,4|2,3:1|0:1,0:1:0:0:
335,163,207583,6,0,P|340:108|321:64,1,92.3999971801759,4|0,0:3|0:0,0:0:0:0:
286,41,207916,2,0,P|241:53|196:46,1,92.3999971801759,8|0,0:3|0:0,0:0:0:0:
156,29,208250,1,8,0:2:0:0:
70,203,208416,1,0,3:2:0:0:
70,203,208583,1,2,0:3:0:0:
261,152,208750,1,0,3:2:0:0:
52,70,208916,5,4,0:3:0:0:
52,70,209083,1,0,3:2:0:0:
141,307,209250,1,8,0:3:0:0:
141,307,209416,1,0,3:2:0:0:
284,36,209583,5,10,0:2:0:0:
294,43,209833,1,2,0:2:0:0:
304,51,210083,1,2,3:2:0:0:
259,237,210250,6,0,P|248:282|244:328,1,92.3999971801759,4|0,0:3|0:0,0:0:0:0:
269,349,210583,2,0,P|313:335|359:334,1,92.3999971801759,8|0,0:3|0:0,0:0:0:0:
401,350,210916,5,8,0:2:0:0:
401,350,211083,1,0,3:2:0:0:
469,152,211250,1,2,0:3:0:0:
469,152,211416,1,0,3:2:0:0:
248,289,211583,5,4,0:3:0:0:
248,289,211750,1,0,3:2:0:0:
256,66,211916,1,8,0:3:0:0:
256,66,212083,1,0,3:2:0:0:
370,229,212250,1,8,0:2:0:0:
226,163,212416,1,0,3:2:0:0:
119,345,212583,1,4,0:3:0:0:
119,345,212750,1,0,3:2:0:0:
64,44,212916,5,8,0:2:0:0:
102,28,213000,1,8,0:2:0:0:
160,22,213083,1,2,0:3:0:0:
235,41,213166,1,2,0:3:0:0:
296,110,213250,2,0,P|310:134|319:161,1,57.1999973815919,4|4,0:3|0:3,0:0:0:0:
241,364,213416,1,8,0:2:0:0:
219,317,213500,2,0,P|226:289|240:264,1,57.1999973815919,8|4,0:2|0:3,0:0:0:0:
430,214,213666,1,8,0:2:0:0:
406,245,213750,2,0,P|377:251|349:251,1,57.1999973815919,8|4,0:2|0:3,0:0:0:0:
204,156,213916,5,8,0:3:0:0:
158,129,214000,1,8,0:3:0:0:
104,124,214083,1,8,0:2:0:0:
41,153,214166,1,0,0:2:0:0:
8,232,214250,5,8,0:3:0:0:
33,245,214333,1,8,0:3:0:0:
64,237,214416,1,8,0:2:0:0:
91,215,214500,1,4,0:3:0:0:
118,172,214583,1,8,0:3:0:0:
151,102,214666,1,8,0:3:0:0:
208,47,214750,1,8,0:2:0:0:
290,23,214833,1,8,0:2:0:0:
380,54,214916,1,8,0:2:0:0:
426,137,215000,1,8,0:2:0:0:
418,232,215083,1,8,0:2:0:0:
331,348,215166,1,8,0:2:0:0:
190,337,215250,1,8,0:2:0:0:
