osu file format v14

[General]
AudioFilename: audio.mp3
AudioLeadIn: 0
PreviewTime: 29712
Countdown: 0
SampleSet: Soft
StackLeniency: 0.7
Mode: 0
LetterboxInBreaks: 0
WidescreenStoryboard: 1

[Editor]
Bookmarks: 52059
DistanceSpacing: 1
BeatDivisor: 4
GridSize: 8
TimelineZoom: 1.9

[Metadata]
Title:CROSS (Cut Ver.)
TitleUnicode:CROSS (Cut Ver.)
Artist:BAND-MAID
ArtistUnicode:BAND-MAID
Creator:HabiHolic
Version:Normal
Source:
Tags:just bring it Rock Japanese j-rock jrock Miku Kobato 小鳩 ミク Kanami Tono 遠乃 歌波 Akane Hirose 廣瀬 茜 MISA Saiki Atsumi 厚見 彩姫 BANDMAID
BeatmapID:2427885
BeatmapSetID:1162273

[Difficulty]
HPDrainRate:3.5
CircleSize:3.2
OverallDifficulty:4
ApproachRate:5
SliderMultiplier:1.22
SliderTickRate:1

[Events]
//Background and Video events
0,0,"BG.jpg",0,0
//Break Periods
//Storyboard Layer 0 (Background)
//Storyboard Layer 1 (Fail)
//Storyboard Layer 2 (Pass)
//Storyboard Layer 3 (Foreground)
//Storyboard Layer 4 (Overlay)
//Storyboard Sound Samples

[TimingPoints]
265,315.789473684211,4,2,0,50,1,0
265,-100,4,2,0,50,0,0
10212,-100,4,2,1,75,0,0
20475,-100,4,2,1,65,0,0
28054,-100,4,2,1,75,0,0
30422,-100,4,2,1,85,0,0
65791,-100,4,2,1,65,0,0
75975,-100,4,2,1,20,0,0
81107,-100,4,2,1,10,0,0

[Colours]
Combo1 : 192,192,192
Combo2 : 247,153,247
Combo3 : 189,87,227
Combo4 : 255,0,128

[HitObjects]
38,40,265,6,0,P|19:96|40:152,1,122,2|0,0:0|0:0,0:0:0:0:
147,211,896,2,0,L|215:191,2,61,2|2|0,0:0|0:0|0:0,0:0:0:0:
118,265,1370,2,0,L|-3:235,2,122,2|2|2,0:0|0:0|0:0,0:0:0:0:
221,201,2317,1,2,0:0:0:0:
300,293,2633,1,2,0:0:0:0:
350,326,2791,6,0,L|369:200,1,122,2|0,0:0|0:0,0:0:0:0:
385,84,3422,2,0,L|449:68,2,61,2|0|2,0:0|0:0|0:0,0:0:0:0:
330,51,3896,2,0,P|272:44|225:81,1,122,2|2,0:0|0:0,0:0:0:0:
104,61,4528,2,0,L|128:180,1,122,2|2,0:0|0:0,0:0:0:0:
210,270,5159,1,2,0:0:0:0:
257,231,5317,6,0,P|317:231|371:258,1,122,2|0,0:0|0:0,0:0:0:0:
482,310,5949,2,0,L|463:379,2,61,2|2|0,0:0|0:0|0:0,0:0:0:0:
474,249,6422,2,0,L|500:123,1,122,2|2,0:0|0:0,0:0:0:0:
405,50,7054,2,0,P|347:65|289:49,1,122,2|2,0:0|0:0,0:0:0:0:
168,23,7686,1,2,0:0:0:0:
168,23,7843,6,0,L|186:155,1,122,2|0,0:0|0:0,0:0:0:0:
218,261,8475,2,0,L|157:245,2,61,2|2|0,0:0|0:0|0:0,0:0:0:0:
272,290,8949,2,0,L|403:267,2,122,2|2|2,0:0|0:0|0:0,0:0:0:0:
156,329,9896,1,2,0:0:0:0:
48,270,10212,6,0,L|29:141,1,122,4|0,0:1|1:0,0:0:0:0:
21,88,10686,1,8,0:0:0:0:
142,75,11001,2,0,L|132:13,2,61,2|0|8,1:2|1:0|0:0,0:0:0:0:
152,135,11475,2,0,P|205:108|265:114,1,122,2|2,1:2|1:2,0:0:0:0:
322,137,11949,1,8,0:0:0:0:
322,137,12107,2,0,L|303:16,1,122,2|0,1:2|1:0,0:0:0:0:
412,70,12738,1,2,0:0:0:0:
455,112,12896,6,0,L|431:248,1,122,0|8,1:0|0:0,0:0:0:0:
334,304,13528,2,0,L|345:368,2,61,2|0|8,1:2|1:0|0:0,0:0:0:0:
324,243,14001,2,0,P|269:267|210:259,1,122,2|0,1:2|1:0,0:0:0:0:
161,220,14475,1,10,0:0:0:0:
161,220,14633,2,0,L|179:351,1,122,2|2,0:0|1:2,0:0:0:0:
55,343,15265,1,4,0:1:0:0:
38,222,15580,6,0,L|31:161,1,61,0|8,1:0|0:0,0:0:0:0:
122,78,16054,2,0,L|115:17,2,61,2|0|8,1:2|1:0|0:0,0:0:0:0:
131,137,16528,2,0,P|185:111|245:117,1,122,10|2,0:0|1:2,0:0:0:0:
301,141,17001,1,8,0:0:0:0:
301,141,17159,2,0,L|283:16,1,122,2|2,0:0|1:2,0:0:0:0:
395,69,17791,1,0,1:0:0:0:
448,98,17949,6,0,L|427:221,1,122,2|8,1:2|0:0,0:0:0:0:
336,299,18580,2,0,L|346:366,2,61,2|0|8,1:2|1:0|0:0,0:0:0:0:
284,263,19054,2,0,P|230:288|171:278,1,122,10|0,0:0|1:0,0:0:0:0:
125,237,19528,1,8,0:0:0:0:
58,135,19843,2,0,L|73:68,2,61,8|8|4,0:0|3:0|3:0,0:0:0:0:
6,165,20317,1,2,1:2:0:0:
6,165,20475,6,0,L|21:291,1,122,4|0,0:1|1:0,0:0:0:0:
126,346,21107,2,0,P|176:315|236:320,1,122,10|0,0:0|1:0,0:0:0:0:
293,342,21580,1,10,0:0:0:0:
293,342,21738,2,0,L|357:330,2,61,2|8|0,1:2|0:0|1:0,0:0:0:0:
242,230,22370,2,0,P|223:173|219:112,1,122,10|2,0:0|1:2,0:0:0:0:
231,51,22843,1,8,0:0:0:0:
231,51,23001,6,0,L|107:69,2,122,2|0|10,1:2|1:0|0:0,0:0:0:0:
334,116,23949,1,0,1:0:0:0:
434,45,24265,2,0,L|497:31,2,61,2|8|0,1:2|0:0|1:0,0:0:0:0:
447,166,24896,2,0,P|430:223|449:280,1,122,10|8,0:0|0:0,0:0:0:0:
493,322,25370,1,8,0:0:0:0:
493,322,25528,6,0,L|368:302,1,122,2|0,1:2|1:0,0:0:0:0:
257,343,26159,2,0,L|132:323,1,122,0|0,1:0|1:0,0:0:0:0:
35,254,26791,2,0,P|20:195|31:135,1,122,0|0,1:0|1:0,0:0:0:0:
128,62,27422,2,0,P|142:120|131:180,1,122,0|0,1:0|1:0,0:0:0:0:
220,264,28054,6,0,L|346:243,1,122,8|0,0:0|1:0,0:0:0:0:
399,229,28528,2,0,P|376:173|377:113,1,122,8|0,0:0|1:0,0:0:0:0:
388,53,29001,2,0,L|319:63,1,61,8|8,0:0|0:0,0:0:0:0:
278,104,29317,2,0,L|212:114,2,61,4|8|0,3:0|0:0|1:0,0:0:0:0:
455,353,30422,6,0,L|478:226,1,122,4|0,0:1|1:0,0:0:0:0:
488,172,30896,1,10,0:0:0:0:
413,74,31212,2,0,P|355:89|297:73,1,122,2|10,1:2|0:0,0:0:0:0:
249,35,31686,1,0,0:0:0:0:
249,35,31843,2,0,L|264:161,1,122,2|8,1:2|0:0,0:0:0:0:
273,216,32317,1,2,1:2:0:0:
395,211,32633,2,0,L|382:282,1,61,0|10,1:0|0:0,0:0:0:0:
372,326,32949,6,0,P|315:308|257:325,1,122,4|0,0:1|1:0,0:0:0:0:
205,357,33422,1,10,0:0:0:0:
96,301,33738,2,0,L|76:171,1,122,2|10,1:2|0:0,0:0:0:0:
67,119,34212,1,0,0:0:0:0:
67,119,34370,2,0,P|124:134|177:107,1,122,2|10,1:2|0:0,0:0:0:0:
216,59,34843,1,0,0:0:0:0:
330,101,35159,2,0,L|320:166,1,61,0|10,1:0|0:0,0:0:0:0:
307,221,35475,6,0,P|255:191|196:204,1,122,4|0,0:1|1:0,0:0:0:0:
146,239,35949,1,10,0:0:0:0:
100,352,36265,2,0,L|223:331,1,122,2|10,1:2|0:0,0:0:0:0:
276,319,36738,1,0,0:0:0:0:
276,319,36896,2,0,P|327:348|393:346,1,122,2|8,1:2|0:0,0:0:0:0:
440,313,37370,1,2,1:2:0:0:
460,192,37686,2,0,L|471:129,1,61,0|8,1:0|0:0,0:0:0:0:
481,72,38001,6,0,P|423:85|371:56,1,122,4|0,0:1|1:0,0:0:0:0:
327,13,38475,1,10,0:0:0:0:
210,50,38791,2,0,L|227:177,1,122,2|10,1:2|0:0,0:0:0:0:
236,231,39265,2,0,P|183:200|123:201,1,122,2|0,1:2|1:0,0:0:0:0:
67,224,39738,1,10,0:0:0:0:
73,345,40054,2,0,L|9:332,2,61,2|0|8,1:2|1:0|0:0,0:0:0:0:
133,358,40528,6,0,L|261:338,1,122,4|0,0:1|1:0,0:0:0:0:
312,325,41001,1,8,0:0:0:0:
429,294,41317,2,0,P|414:236|426:177,1,122,2|10,1:2|0:0,0:0:0:0:
451,120,41791,2,0,P|391:129|336:104,1,122,4|0,0:1|1:0,0:0:0:0:
299,61,42265,1,8,0:0:0:0:
178,76,42580,2,0,L|166:8,2,61,2|0|10,1:2|1:0|0:0,0:0:0:0:
218,122,43054,6,0,L|197:253,1,122,4|0,0:1|1:0,0:0:0:0:
188,303,43528,1,8,0:0:0:0:
297,248,43843,2,0,P|355:236|412:258,1,122,2|8,1:2|0:0,0:0:0:0:
463,292,44317,5,2,1:2:0:0:
511,179,44633,1,2,1:2:0:0:
452,71,44949,1,2,1:2:0:0:
333,41,45265,1,2,1:2:0:0:
233,111,45580,6,0,L|110:87,1,122,4|0,0:1|1:0,0:0:0:0:
54,70,46054,1,10,0:0:0:0:
8,183,46370,2,0,P|24:236|8:302,1,122,2|10,1:2|0:0,0:0:0:0:
115,359,47001,2,0,L|239:342,1,122,2|10,1:2|0:0,0:0:0:0:
296,332,47475,1,0,0:0:0:0:
370,235,47791,2,0,P|400:235|429:244,1,61,2|10,1:2|0:0,0:0:0:0:
488,262,48107,6,0,L|467:136,1,122,4|2,0:1|1:2,0:0:0:0:
479,81,48580,1,10,0:0:0:0:
367,30,48896,2,0,P|310:50|253:30,1,122,2|10,1:2|0:0,0:0:0:0:
136,66,49528,2,0,L|155:195,1,122,2|10,1:2|0:0,0:0:0:0:
126,241,50001,1,0,0:0:0:0:
191,343,50317,2,0,P|219:335|250:337,1,61,2|10,1:2|0:0,0:0:0:0:
302,350,50633,6,0,L|278:218,1,122,4|0,0:1|1:0,0:0:0:0:
299,171,51107,1,10,0:0:0:0:
207,90,51422,2,0,P|151:109|93:92,1,122,2|10,1:2|0:0,0:0:0:0:
51,47,51896,1,0,0:0:0:0:
51,47,52054,2,0,L|68:174,1,122,2|10,1:2|0:0,0:0:0:0:
39,222,52528,1,0,0:0:0:0:
110,320,52843,2,0,L|174:306,1,61,2|10,1:2|0:0,0:0:0:0:
226,285,53159,6,0,P|200:231|202:171,1,122,4|0,0:1|1:0,0:0:0:0:
217,112,53633,1,10,0:0:0:0:
314,38,53949,2,0,L|250:17,2,61,2|0|10,1:2|1:0|0:0,0:0:0:0:
372,54,54422,2,0,P|351:111|370:169,1,122,0|0,0:0|1:0,0:0:0:0:
414,208,54896,1,10,0:0:0:0:
441,326,55212,2,0,L|506:313,2,61,2|0|10,1:2|1:0|0:0,0:0:0:0:
386,354,55686,6,0,L|259:334,1,122,4|0,0:1|1:0,0:0:0:0:
208,355,56159,1,8,0:0:0:0:
108,282,56475,2,0,P|122:224|109:164,1,122,2|10,1:2|0:0,0:0:0:0:
81,110,56949,2,0,P|137:129|195:111,1,122,4|0,0:1|1:0,0:0:0:0:
242,72,57422,1,8,0:0:0:0:
359,104,57738,2,0,L|373:43,2,61,2|2|10,1:2|1:2|0:0,0:0:0:0:
313,145,58212,6,0,L|333:277,1,122,4|0,0:1|1:0,0:0:0:0:
344,325,58686,1,8,0:0:0:0:
224,350,59001,2,0,P|166:331|108:348,1,122,2|10,1:2|0:0,0:0:0:0:
51,369,59475,2,0,L|32:234,1,122,4|0,0:1|0:0,0:0:0:0:
25,187,59949,1,8,0:0:0:0:
111,101,60265,1,2,1:2:0:0:
191,192,60580,1,10,0:0:0:0:
273,103,60896,6,0,P|331:84|388:104,1,122,8|8,0:0|0:0,0:0:0:0:
437,140,61370,1,0,1:0:0:0:
437,140,61528,2,0,L|410:262,1,122,10|10,0:0|0:0,0:0:0:0:
333,354,62159,2,0,P|276:333|218:350,1,122,8|8,0:0|0:0,0:0:0:0:
160,369,62633,1,0,1:0:0:0:
160,369,62791,2,0,L|134:244,1,122,10|10,0:0|0:0,0:0:0:0:
131,127,63422,6,0,P|186:148|243:128,1,122,8|8,0:0|0:0,0:0:0:0:
340,54,64054,2,0,L|360:176,1,122,10|10,0:0|0:0,0:0:0:0:
372,234,64528,1,2,1:2:0:0:
372,234,64686,6,0,B|227:239|296:306|149:315,1,244,8|8,0:0|0:0,0:0:0:0:
109,268,65475,1,0,1:0:0:0:
22,351,65791,6,0,L|-2:163,1,183,4|0,0:1|1:0,0:0:0:0:
72,71,66580,1,10,0:0:0:0:
157,157,66896,2,0,L|227:146,1,61,0|8,1:0|0:0,0:0:0:0:
277,137,67212,2,0,P|258:80|268:21,2,122,2|0|10,1:2|1:0|0:0,0:0:0:0:
396,161,68159,1,8,0:0:0:0:
447,127,68317,6,0,L|415:320,1,183,4|0,0:1|1:0,0:0:0:0:
297,336,69107,2,0,P|239:318|182:336,1,122,10|0,0:0|1:0,0:0:0:0:
123,353,69580,1,8,0:0:0:0:
123,353,69738,2,0,L|98:227,1,122,2|0,1:2|1:0,0:0:0:0:
122,113,70370,2,0,L|52:96,2,61,10|8|8,0:0|0:0|0:0,0:0:0:0:
176,140,70843,6,0,L|357:117,1,183,4|0,0:1|1:0,0:0:0:0:
460,182,71633,2,0,P|441:238|459:296,1,122,10|0,0:0|1:0,0:0:0:0:
499,343,72107,1,8,0:0:0:0:
499,343,72265,2,0,L|368:326,1,122,0|0,1:0|1:0,0:0:0:0:
279,255,72896,1,10,0:0:0:0:
167,305,73212,1,8,0:0:0:0:
116,339,73370,6,0,L|82:149,1,183,4|0,0:1|1:0,0:0:0:0:
144,52,74159,2,0,P|205:52|253:89,1,122,10|0,0:0|1:0,0:0:0:0:
299,126,74633,1,0,1:0:0:0:
299,126,74791,2,0,L|423:109,1,122,0|10,1:0|0:0,0:0:0:0:
434,230,75422,6,0,L|372:218,2,61,10|0|10,0:0|1:0|0:0,0:0:0:0:
489,204,75896,1,4,1:2:0:0:
256,192,75975,12,0,81107,0:0:0:0:
