osu file format v14

[General]
AudioFilename: audio.mp3
AudioLeadIn: 0
PreviewTime: 29712
Countdown: 0
SampleSet: Soft
StackLeniency: 0.7
Mode: 0
LetterboxInBreaks: 0
WidescreenStoryboard: 1

[Editor]
Bookmarks: 52059
DistanceSpacing: 1.2
BeatDivisor: 4
GridSize: 32
TimelineZoom: 1.9

[Metadata]
Title:CROSS (Cut Ver.)
TitleUnicode:CROSS (Cut Ver.)
Artist:BAND-MAID
ArtistUnicode:BAND-MAID
Creator:HabiHolic
Version:Insane
Source:
Tags:just bring it Rock Japanese j-rock jrock Miku Kobato 小鳩 ミク Kanami Tono 遠乃 歌波 Akane Hirose 廣瀬 茜 MISA Saiki Atsumi 厚見 彩姫 BANDMAID
BeatmapID:2426085
BeatmapSetID:1162273

[Difficulty]
HPDrainRate:6.5
CircleSize:4
OverallDifficulty:7
ApproachRate:9
SliderMultiplier:1.62
SliderTickRate:1

[Events]
//Background and Video events
0,0,"BG.jpg",0,0
//Break Periods
//Storyboard Layer 0 (Background)
//Storyboard Layer 1 (Fail)
//Storyboard Layer 2 (Pass)
//Storyboard Layer 3 (Foreground)
//Storyboard Layer 4 (Overlay)
//Storyboard Sound Samples

[TimingPoints]
265,315.789473684211,4,2,0,50,1,0
265,-133.333333333333,4,2,0,50,0,0
10212,-100,4,2,1,75,0,0
20475,-133.333333333333,4,2,1,65,0,0
28054,-100,4,2,1,75,0,0
30422,-100,4,2,1,85,0,0
65791,-133.333333333333,4,2,1,65,0,0
75975,-133.333333333333,4,2,1,20,0,0
81107,-133.333333333333,4,2,1,10,0,0

[Colours]
Combo1 : 192,192,192
Combo2 : 247,153,247
Combo3 : 189,87,227
Combo4 : 255,0,128

[HitObjects]
28,69,265,5,2,0:0:0:0:
28,69,422,2,0,B|98:60|78:99|146:85,1,121.500004634857,2|0,0:0|0:0,0:0:0:0:
243,57,896,2,0,L|233:120,1,60.7500023174287,2|2,0:0|0:0,0:0:0:0:
160,174,1212,1,0,0:0:0:0:
230,246,1370,6,0,P|279:214|339:219,1,121.500004634857,2|2,0:0|0:0,0:0:0:0:
418,269,1843,1,0,0:0:0:0:
418,269,2001,2,0,L|435:198,1,60.7500023174287,2|0,0:0|0:0,0:0:0:0:
367,79,2317,2,0,L|378:141,1,60.7500023174287,2|0,0:0|0:0,0:0:0:0:
461,95,2633,1,2,0:0:0:0:
283,125,2791,6,0,B|217:113|233:149|158:136,1,121.500004634857,2|0,0:0|0:0,0:0:0:0:
98,80,3265,1,0,0:0:0:0:
25,135,3422,2,0,L|37:198,1,60.7500023174287,2|0,0:0|0:0,0:0:0:0:
56,286,3738,1,2,0:0:0:0:
136,229,3896,6,0,B|176:217|176:217|256:235,1,121.500004634857,2|2,0:0|0:0,0:0:0:0:
332,191,4370,1,0,0:0:0:0:
332,191,4528,2,0,L|348:129,1,60.7500023174287,2|0,0:0|0:0,0:0:0:0:
248,28,4843,2,0,L|263:86,1,60.7500023174287,2|0,0:0|0:0,0:0:0:0:
203,158,5159,1,2,0:0:0:0:
351,108,5317,6,0,B|419:93|405:135|475:117,1,121.500004634857,2|0,0:0|0:0,0:0:0:0:
446,33,5791,1,0,0:0:0:0:
390,194,5949,2,0,L|403:262,1,60.7500023174287,2|2,0:0|0:0,0:0:0:0:
373,343,6265,1,0,0:0:0:0:
294,286,6422,6,0,B|229:274|242:312|172:302,1,121.500004634857,2|2,0:0|0:0,0:0:0:0:
101,244,6896,1,0,0:0:0:0:
101,244,7054,2,0,L|116:182,1,60.7500023174287,2|0,0:0|0:0,0:0:0:0:
11,114,7370,2,0,L|25:173,1,60.7500023174287,2|0,0:0|0:0,0:0:0:0:
43,332,7686,1,2,0:0:0:0:
43,332,7843,6,0,B|112:324|96:360|161:350,1,121.500004634857,2|0,0:0|0:0,0:0:0:0:
245,288,8317,1,0,0:0:0:0:
154,249,8475,2,0,L|139:191,1,60.7500023174287,2|2,0:0|0:0,0:0:0:0:
200,127,8791,1,0,0:0:0:0:
172,338,8949,5,2,0:0:0:0:
122,64,9265,1,2,0:0:0:0:
370,142,9580,1,2,0:0:0:0:
51,217,9896,1,2,0:0:0:0:
51,217,10212,6,0,P|128:203|189:252,1,162,4|0,0:1|1:0,0:0:0:0:
276,197,10686,2,0,P|284:158|293:117,1,81,8|0,0:0|0:0,0:0:0:0:
172,31,11001,1,2,1:2:0:0:
172,31,11159,2,0,P|180:70|188:110,1,81,0|8,1:0|0:0,0:0:0:0:
366,166,11475,6,0,P|443:158|497:215,1,162,2|2,1:2|1:2,0:0:0:0:
407,254,11949,1,8,0:0:0:0:
247,198,12107,2,0,P|260:152|268:117,1,81,2|0,1:2|0:0,0:0:0:0:
139,47,12422,2,0,P|148:86|159:125,1,81,0|10,1:0|0:0,0:0:0:0:
263,211,12738,1,2,0:0:0:0:
176,274,12896,6,0,B|87:260|117:308|17:290,1,162,0|8,1:0|0:0,0:0:0:0:
54,194,13370,1,0,0:0:0:0:
153,351,13528,2,0,P|166:305|176:271,1,81,2|0,1:2|1:0,0:0:0:0:
127,125,13843,1,8,0:0:0:0:
286,206,14001,6,0,P|364:221|426:173,1,162,2|0,1:2|1:0,0:0:0:0:
335,107,14475,1,10,0:0:0:0:
197,55,14633,2,0,P|206:98|211:136,1,81,2|0,0:0|1:0,0:0:0:0:
273,286,14949,2,0,P|278:245|286:206,1,81,2|8,1:2|0:0,0:0:0:0:
95,41,15265,6,0,P|114:117|126:205,1,162,4|0,0:1|1:0,0:0:0:0:
79,298,15738,1,8,0:0:0:0:
218,226,15896,1,0,0:0:0:0:
40,174,16054,1,2,1:2:0:0:
185,329,16212,2,0,P|228:320|269:313,1,81,0|8,1:0|0:0,0:0:0:0:
496,242,16528,6,0,B|452:260|452:260|335:230,1,162,10|2,0:0|1:2,0:0:0:0:
269,146,17001,1,8,0:0:0:0:
360,13,17159,2,0,P|352:54|350:94,1,81,2|0,0:0|1:0,0:0:0:0:
194,271,17475,2,0,P|191:230|183:190,1,81,2|10,1:2|0:0,0:0:0:0:
105,121,17791,1,0,1:0:0:0:
137,355,17949,6,0,P|201:308|281:312,1,162,2|8,1:2|0:0,0:0:0:0:
367,351,18422,1,0,0:0:0:0:
327,158,18580,2,0,P|333:204|340:241,1,81,2|0,1:2|1:0,0:0:0:0:
428,181,18896,1,8,0:0:0:0:
238,220,19054,1,10,0:0:0:0:
314,77,19212,6,0,P|321:116|326:157,1,81,0|0,0:0|1:0,0:0:0:0:
369,338,19528,2,0,P|374:297|382:258,1,81,8|2,0:0|1:2,0:0:0:0:
208,175,19843,1,8,0:0:0:0:
112,234,20001,1,8,3:0:0:0:
223,161,20159,1,4,3:0:0:0:
176,310,20317,1,2,1:2:0:0:
245,143,20475,6,0,L|263:269,1,121.500004634857,4|0,0:1|1:0,0:0:0:0:
276,365,20949,1,0,0:0:0:0:
468,290,21107,2,0,P|421:255|362:259,1,121.500004634857,10|0,0:0|1:0,0:0:0:0:
276,365,21580,1,10,0:0:0:0:
180,304,21738,6,0,P|172:272|163:244,1,60.7500023174287,2|8,1:2|0:0,0:0:0:0:
274,121,22054,2,0,L|257:251,1,121.500004634857,0|10,1:0|0:0,0:0:0:0:
171,161,22528,1,0,1:0:0:0:
122,50,22686,2,0,P|152:46|182:40,1,60.7500023174287,2|8,1:2|0:0,0:0:0:0:
363,21,23001,6,0,L|374:92,1,60.7500023174287,2|0,1:2|0:0,0:0:0:0:
472,182,23317,2,0,L|487:119,1,60.7500023174287,0|0,1:0|0:0,0:0:0:0:
309,160,23633,2,0,P|324:218|330:278,1,121.500004634857,10|0,0:0|1:0,0:0:0:0:
266,357,24107,1,8,0:0:0:0:
478,329,24265,6,0,P|484:297|492:267,1,60.7500023174287,2|8,1:2|0:0,0:0:0:0:
402,129,24580,2,0,L|415:197,1,60.7500023174287,0|0,1:0|1:0,0:0:0:0:
361,261,24896,1,10,0:0:0:0:
488,162,25054,1,8,3:0:0:0:
328,69,25212,2,0,L|296:80,3,30.3750011587143,8|8|8|8,0:0|0:0|0:0|0:0,0:0:0:0:
260,89,25528,5,2,1:2:0:0:
260,89,25843,2,0,L|191:74,1,60.7500023174287,0|0,1:0|1:0,0:0:0:0:
136,142,26159,2,0,L|67:127,1,60.7500023174287,0|0,1:0|1:0,0:0:0:0:
270,215,26475,2,0,L|201:200,1,60.7500023174287,0|0,1:0|1:0,0:0:0:0:
126,257,26791,5,0,1:0:0:0:
126,257,26949,1,0,1:0:0:0:
210,354,27107,2,0,L|280:342,1,60.7500023174287,0|0,1:0|1:0,0:0:0:0:
347,283,27422,2,0,L|417:271,1,60.7500023174287,0|0,1:0|1:0,0:0:0:0:
205,205,27738,2,0,L|275:193,1,60.7500023174287,0|0,1:0|1:0,0:0:0:0:
444,91,28054,6,0,L|451:52,4,40.5,8|8|8|8|0,0:0|0:0|0:0|0:0|1:0,0:0:0:0:
332,138,28528,2,0,L|325:99,4,40.5,8|8|8|8|0,0:0|0:0|0:0|0:0|1:0,0:0:0:0:
471,198,29001,2,0,P|465:240|462:280,1,81,8|8,0:0|0:0,0:0:0:0:
363,340,29317,5,4,3:0:0:0:
333,333,29396,1,0,1:0:0:0:
303,327,29475,1,8,0:0:0:0:
273,321,29554,1,0,1:0:0:0:
244,314,29633,1,0,1:0:0:0:
244,314,30422,6,0,P|252:227|269:151,1,162,4|0,0:1|1:0,0:0:0:0:
160,44,30896,2,0,P|171:82|176:123,1,81,10|0,0:0|0:0,0:0:0:0:
111,194,31212,1,2,1:2:0:0:
267,135,31370,1,0,1:0:0:0:
75,78,31528,1,10,0:0:0:0:
293,138,31686,1,0,0:0:0:0:
135,300,31843,6,0,L|49:284,1,81,2|0,1:2|1:0,0:0:0:0:
208,235,32159,1,8,0:0:0:0:
192,376,32317,1,2,1:2:0:0:
125,187,32475,1,0,0:0:0:0:
308,229,32633,2,0,P|315:184|325:149,1,81,0|10,1:0|0:0,0:0:0:0:
199,7,32949,6,0,P|214:81|219:171,1,162,4|0,0:1|1:0,0:0:0:0:
142,239,33422,1,10,0:0:0:0:
315,188,33580,1,0,0:0:0:0:
116,251,33738,2,0,P|108:208|96:168,1,81,2|0,1:2|1:0,0:0:0:0:
270,275,34054,2,0,P|258:313|251:353,1,81,10|0,0:0|0:0,0:0:0:0:
213,181,34370,5,2,1:2:0:0:
382,211,34528,2,0,P|393:249|400:289,1,81,0|10,1:0|0:0,0:0:0:0:
240,351,34843,2,0,B|174:339|174:339|149:342|149:342|73:324,1,162,0|0,0:0|1:0,0:0:0:0:
23,232,35317,1,10,0:0:0:0:
111,69,35475,6,0,P|129:147|134:228,1,162,4|0,0:1|1:0,0:0:0:0:
289,359,35949,2,0,P|296:319|307:277,1,81,10|0,0:0|0:0,0:0:0:0:
208,126,36265,2,0,P|218:165|225:205,1,81,2|0,1:2|1:0,0:0:0:0:
386,325,36580,2,0,P|393:285|404:243,1,81,10|0,0:0|0:0,0:0:0:0:
347,93,36896,5,2,1:2:0:0:
474,172,37054,1,0,1:0:0:0:
326,102,37212,1,8,0:0:0:0:
315,261,37370,2,0,P|253:210|174:209,1,162,2|0,1:2|1:0,0:0:0:0:
97,267,37843,1,8,0:0:0:0:
348,358,38001,6,0,P|361:274|380:198,1,162,4|0,0:1|1:0,0:0:0:0:
281,44,38475,2,0,P|292:90|297:127,1,81,10|0,0:0|0:0,0:0:0:0:
456,236,38791,2,0,P|460:195|470:156,1,81,2|0,1:2|1:0,0:0:0:0:
392,18,39107,1,10,0:0:0:0:
204,100,39265,6,0,B|113:103|148:147|52:151,1,162,2|0,1:2|1:0,0:0:0:0:
183,282,39738,2,0,P|192:233|200:197,1,81,10|0,0:0|0:0,0:0:0:0:
38,71,40054,2,0,P|46:110|53:150,1,81,2|0,1:2|1:0,0:0:0:0:
32,271,40370,1,8,0:0:0:0:
210,156,40528,6,0,B|293:166|267:212|355:219,1,162,4|0,0:1|1:0,0:0:0:0:
450,175,41001,2,0,P|460:131|471:92,1,81,8|0,0:0|0:0,0:0:0:0:
326,10,41317,2,0,L|343:94,1,81,2|0,1:2|1:0,0:0:0:0:
329,264,41633,1,10,0:0:0:0:
107,159,41791,6,0,P|163:104|242:104,1,162,4|0,0:1|1:0,0:0:0:0:
216,282,42265,2,0,P|204:244|199:204,1,81,8|0,0:0|0:0,0:0:0:0:
345,89,42580,2,0,L|332:172,1,81,2|0,1:2|1:0,0:0:0:0:
297,354,42896,1,10,0:0:0:0:
73,176,43054,6,0,B|159:165|129:221|229:198,1,162,4|0,0:1|1:0,0:0:0:0:
205,30,43528,2,0,P|197:76|194:114,1,81,8|0,0:0|0:0,0:0:0:0:
115,349,43843,2,0,P|111:308|104:268,1,81,2|2,1:2|1:2,0:0:0:0:
277,189,44159,2,0,L|272:229,1,40.5,8|8,0:0|0:0,0:0:0:0:
259,312,44317,5,2,1:2:0:0:
196,68,44633,1,2,1:2:0:0:
399,134,44949,1,2,1:2:0:0:
155,211,45265,1,2,1:2:0:0:
155,210,45580,6,0,P|147:130|129:51,1,162,4|0,0:1|1:0,0:0:0:0:
304,13,46054,2,0,P|298:52|297:93,1,81,10|0,0:0|0:0,0:0:0:0:
368,222,46370,1,2,1:2:0:0:
466,124,46528,1,0,1:0:0:0:
277,183,46686,1,10,0:0:0:0:
490,113,46843,1,0,0:0:0:0:
417,354,47001,6,0,P|425:307|434:271,1,81,2|0,1:2|1:0,0:0:0:0:
344,45,47317,1,10,0:0:0:0:
214,118,47475,2,0,P|231:201|234:281,1,162,0|2,0:0|1:2,0:0:0:0:
163,354,47949,1,10,0:0:0:0:
358,363,48107,6,0,P|361:282|378:202,1,162,4|2,0:1|1:2,0:0:0:0:
326,46,48580,1,10,0:0:0:0:
452,140,48738,1,0,0:0:0:0:
232,97,48896,2,0,P|223:47|223:10,1,81,2|0,1:2|1:0,0:0:0:0:
323,145,49212,1,10,0:0:0:0:
184,224,49370,1,0,0:0:0:0:
378,292,49528,6,0,P|333:280|298:270,1,81,2|0,1:2|1:0,0:0:0:0:
161,200,49843,1,10,0:0:0:0:
204,358,50001,1,0,0:0:0:0:
259,144,50159,1,0,1:0:0:0:
70,276,50317,2,0,P|67:236|55:190,1,81,2|10,1:2|0:0,0:0:0:0:
193,12,50633,6,0,P|176:95|173:175,1,162,4|0,0:1|1:0,0:0:0:0:
241,275,51107,1,10,0:0:0:0:
389,191,51265,1,0,0:0:0:0:
223,284,51422,1,2,1:2:0:0:
320,120,51580,1,0,1:0:0:0:
323,366,51738,2,0,P|331:320|339:284,1,81,10|0,0:0|0:0,0:0:0:0:
199,108,52054,6,0,P|207:147|214:187,1,81,2|0,1:2|1:0,0:0:0:0:
111,165,52370,1,10,0:0:0:0:
301,124,52528,1,0,0:0:0:0:
111,57,52686,1,0,1:0:0:0:
327,130,52843,2,0,P|337:88|349:50,1,81,2|10,1:2|0:0,0:0:0:0:
200,9,53159,6,0,L|224:178,1,162,4|0,0:1|1:0,0:0:0:0:
250,300,53633,1,10,0:0:0:0:
250,300,53791,1,0,0:0:0:0:
372,199,53949,1,2,1:2:0:0:
384,356,54107,1,0,1:0:0:0:
274,205,54265,1,10,0:0:0:0:
443,271,54422,6,0,L|473:101,1,162,0|0,0:0|1:0,0:0:0:0:
311,7,54896,2,0,L|325:98,1,81,10|0,0:0|0:0,0:0:0:0:
252,215,55212,1,2,1:2:0:0:
156,83,55370,1,0,1:0:0:0:
311,155,55528,1,10,0:0:0:0:
79,118,55686,6,0,P|94:193|101:285,1,162,4|0,0:1|1:0,0:0:0:0:
259,362,56159,2,0,P|264:317|273:271,1,81,8|0,0:0|0:0,0:0:0:0:
190,154,56475,1,2,1:2:0:0:
378,186,56633,2,0,P|385:225|389:266,1,81,0|10,1:0|0:0,0:0:0:0:
165,257,56949,6,0,P|86:266|26:215,1,162,4|0,0:1|1:0,0:0:0:0:
136,45,57422,2,0,L|117:126,1,81,8|0,0:0|0:0,0:0:0:0:
176,278,57738,1,2,1:2:0:0:
308,147,57896,2,0,P|270:130|230:125,1,81,2|10,1:2|0:0,0:0:0:0:
396,244,58212,6,0,L|428:84,1,162,4|0,0:1|1:0,0:0:0:0:
276,239,58686,2,0,P|284:280|288:320,1,81,8|0,0:0|0:0,0:0:0:0:
165,286,59001,1,2,1:2:0:0:
233,158,59159,2,0,P|237:117|245:78,1,81,2|10,1:2|0:0,0:0:0:0:
57,28,59475,6,0,L|84:193,1,162,4|0,0:1|0:0,0:0:0:0:
144,318,59949,1,8,0:0:0:0:
278,215,60107,1,0,0:0:0:0:
343,360,60265,2,0,P|297:346|259:338,1,81,2|2,1:2|1:2,0:0:0:0:
162,204,60580,1,10,0:0:0:0:
345,129,60738,1,0,1:0:0:0:
204,18,60896,6,0,P|217:56|220:96,1,81,8|0,0:0|1:0,0:0:0:0:
297,284,61212,2,0,P|299:243|313:205,1,81,8|0,0:0|1:0,0:0:0:0:
350,80,61528,1,10,0:0:0:0:
175,177,61686,1,2,1:2:0:0:
368,71,61843,1,10,0:0:0:0:
142,5,62001,1,2,1:2:0:0:
272,235,62159,6,0,P|283:184|293:143,1,81,8|0,0:0|1:0,0:0:0:0:
78,83,62475,2,0,P|87:122|95:162,1,81,8|0,0:0|1:0,0:0:0:0:
111,276,62791,1,10,0:0:0:0:
230,138,62949,1,2,1:2:0:0:
30,226,63107,1,10,0:0:0:0:
291,194,63265,1,2,1:2:0:0:
195,359,63422,6,0,P|205:307|214:278,1,81,8|0,0:0|1:0,0:0:0:0:
99,112,63738,2,0,P|110:150|117:190,1,81,8|0,0:0|1:0,0:0:0:0:
295,330,64054,2,0,P|301:291|313:252,1,81,10|2,0:0|1:2,0:0:0:0:
170,3,64370,2,0,P|181:42|188:82,1,81,10|2,0:0|1:2,0:0:0:0:
258,169,64686,5,8,0:0:0:0:
287,160,64765,1,8,3:0:0:0:
317,163,64843,1,8,3:0:0:0:
344,176,64922,1,8,3:0:0:0:
365,198,65001,5,4,3:0:0:0:
411,215,65080,1,4,3:0:0:0:
459,201,65159,1,4,3:0:0:0:
489,162,65238,1,4,3:0:0:0:
489,112,65317,1,8,0:0:0:0:
465,325,65475,1,0,1:0:0:0:
464,324,65791,6,0,P|375:315|296:358,1,182.250006952286,4|0,0:1|1:0,0:0:0:0:
183,232,66580,2,0,L|159:111,1,121.500004634857,10|0,0:0|1:0,0:0:0:0:
216,35,67054,1,8,0:0:0:0:
292,100,67212,6,0,P|349:113|401:84,2,121.500004634857,2|0|10,1:2|1:0|0:0,0:0:0:0:
45,127,68159,1,8,0:0:0:0:
72,31,68317,6,0,L|107:219,1,182.250006952286,4|0,0:1|1:0,0:0:0:0:
257,211,69107,2,0,P|316:204|371:228,1,121.500004634857,10|0,0:0|1:0,0:0:0:0:
432,307,69580,1,8,0:0:0:0:
492,234,69738,6,0,P|498:205|506:174,1,60.7500023174287,2|0,1:2|0:0,0:0:0:0:
388,106,70054,2,0,P|395:135|401:165,1,60.7500023174287,0|0,1:0|0:0,0:0:0:0:
483,76,70370,2,0,P|489:46|496:16,1,60.7500023174287,10|8,0:0|0:0,0:0:0:0:
400,7,70686,1,8,0:0:0:0:
258,53,70843,6,0,L|282:243,1,182.250006952286,4|0,0:1|1:0,0:0:0:0:
413,357,71633,2,0,P|419:291|431:236,1,121.500004634857,10|0,0:0|1:0,0:0:0:0:
316,104,72107,1,8,0:0:0:0:
316,104,72265,6,0,P|328:163|333:223,2,121.500004634857,0|0|10,1:0|1:0|0:0,0:0:0:0:
146,44,73212,5,8,0:0:0:0:
7,85,73370,2,0,B|107:77|69:148|177:125,1,182.250006952286,4|0,0:1|1:0,0:0:0:0:
322,62,74159,2,0,L|304:186,1,121.500004634857,10|0,0:0|1:0,0:0:0:0:
285,281,74633,1,0,1:0:0:0:
154,212,74791,2,0,P|147:173|141:150,1,60.7500023174287,0|0,1:0|1:0,0:0:0:0:
213,19,75107,2,0,L|205:79,1,60.7500023174287,10|0,0:0|0:0,0:0:0:0:
308,277,75422,5,10,0:0:0:0:
289,157,75580,1,0,1:0:0:0:
313,294,75738,1,10,0:0:0:0:
285,138,75896,1,4,1:2:0:0:
256,192,75975,12,0,81107,0:0:0:0:
