osu file format v14

[General]
AudioFilename: audio.mp3
AudioLeadIn: 0
PreviewTime: 29712
Countdown: 0
SampleSet: Soft
StackLeniency: 0.7
Mode: 0
LetterboxInBreaks: 0
WidescreenStoryboard: 1

[Editor]
Bookmarks: 52059
DistanceSpacing: 1.3
BeatDivisor: 4
GridSize: 32
TimelineZoom: 1.9

[Metadata]
Title:CROSS (Cut Ver.)
TitleUnicode:CROSS (Cut Ver.)
Artist:BAND-MAID
ArtistUnicode:BAND-MAID
Creator:HabiHolic
Version:Hard
Source:
Tags:just bring it Rock Japanese j-rock jrock Miku Kobato 小鳩 ミク Kanami Tono 遠乃 歌波 Akane Hirose 廣瀬 茜 MISA Saiki Atsumi 厚見 彩姫 BANDMAID
BeatmapID:2426156
BeatmapSetID:1162273

[Difficulty]
HPDrainRate:5
CircleSize:4
OverallDifficulty:6
ApproachRate:8
SliderMultiplier:1.42
SliderTickRate:1

[Events]
//Background and Video events
0,0,"BG.jpg",0,0
//Break Periods
//Storyboard Layer 0 (Background)
//Storyboard Layer 1 (Fail)
//Storyboard Layer 2 (Pass)
//Storyboard Layer 3 (Foreground)
//Storyboard Layer 4 (Overlay)
//Storyboard Sound Samples

[TimingPoints]
265,315.789473684211,4,2,0,50,1,0
265,-133.333333333333,4,2,0,50,0,0
10212,-100,4,2,1,75,0,0
20475,-133.333333333333,4,2,1,65,0,0
28054,-100,4,2,1,75,0,0
30422,-100,4,2,1,85,0,0
65791,-133.333333333333,4,2,1,65,0,0
75975,-133.333333333333,4,2,1,20,0,0
81107,-133.333333333333,4,2,1,10,0,0

[Colours]
Combo1 : 192,192,192
Combo2 : 247,153,247
Combo3 : 189,87,227
Combo4 : 255,0,128

[HitObjects]
87,48,265,5,2,0:0:0:0:
87,48,422,2,0,L|108:156,1,106.500004062653,2|0,0:0|0:0,0:0:0:0:
55,228,896,2,0,L|2:214,2,53.2500020313264,2|2|0,0:0|0:0|0:0,0:0:0:0:
125,291,1370,2,0,L|240:267,2,106.500004062653,2|2|2,0:0|0:0|0:0,0:0:0:0:
149,151,2317,2,0,L|138:98,1,53.2500020313264,2|0,0:0|0:0,0:0:0:0:
197,35,2633,1,2,0:0:0:0:
197,35,2791,6,0,P|253:34|298:62,1,106.500004062653,2|0,0:0|0:0,0:0:0:0:
370,111,3265,1,0,0:0:0:0:
370,111,3422,2,0,L|430:96,2,53.2500020313264,2|0|2,0:0|0:0|0:0,0:0:0:0:
301,177,3896,6,0,L|194:151,2,106.500004062653,2|2|2,0:0|0:0|0:0,0:0:0:0:
439,166,4843,2,0,P|435:192|440:218,1,53.2500020313264,2|0,0:0|0:0,0:0:0:0:
508,276,5159,1,2,0:0:0:0:
434,327,5317,6,0,L|321:307,1,106.500004062653,2|0,0:0|0:0,0:0:0:0:
171,254,5949,2,0,L|113:264,2,53.2500020313264,2|2|0,0:0|0:0|0:0,0:0:0:0:
239,188,6422,2,0,L|351:203,2,106.500004062653,2|2|2,0:0|0:0|0:0,0:0:0:0:
70,140,7370,6,0,L|81:195,1,53.2500020313264,2|0,0:0|0:0,0:0:0:0:
27,262,7686,1,2,0:0:0:0:
99,317,7843,2,0,P|142:286|199:288,1,106.500004062653,2|0,0:0|0:0,0:0:0:0:
270,339,8317,1,0,0:0:0:0:
351,299,8475,2,0,L|407:311,2,53.2500020313264,2|2|0,0:0|0:0|0:0,0:0:0:0:
275,253,8949,5,2,0:0:0:0:
125,318,9265,1,2,0:0:0:0:
19,199,9580,1,2,0:0:0:0:
87,65,9896,1,2,0:0:0:0:
87,65,10212,6,0,B|165:53|147:96|225:74,1,142,4|0,0:1|1:0,0:0:0:0:
319,48,10686,2,0,L|307:123,1,71,8|0,0:0|0:0,0:0:0:0:
236,234,11001,2,0,L|224:163,1,71,2|0,1:2|1:0,0:0:0:0:
140,216,11317,1,8,0:0:0:0:
196,318,11475,6,0,P|248:276|322:280,1,142,2|2,1:2|1:2,0:0:0:0:
384,350,11949,1,8,0:0:0:0:
450,282,12107,2,0,P|459:241|468:210,1,71,2|0,1:2|0:0,0:0:0:0:
364,136,12422,2,0,L|375:209,1,71,0|10,1:0|0:0,0:0:0:0:
425,54,12738,1,2,0:0:0:0:
328,35,12896,6,0,B|252:35|276:74|190:74,1,142,0|8,1:0|0:0,0:0:0:0:
119,19,13370,1,0,0:0:0:0:
46,80,13528,2,0,P|56:114|58:151,1,71,2|0,1:2|1:0,0:0:0:0:
1,233,13843,1,8,0:0:0:0:
51,313,14001,6,0,L|192:296,1,142,2|0,1:2|1:0,0:0:0:0:
262,229,14475,1,10,0:0:0:0:
341,279,14633,2,0,P|347:314|340:352,1,71,2|0,0:0|1:0,0:0:0:0:
262,229,14949,2,0,P|256:194|262:159,1,71,2|8,1:2|0:0,0:0:0:0:
341,110,15265,6,0,P|273:122|218:81,1,142,4|0,0:1|1:0,0:0:0:0:
297,26,15738,1,8,0:0:0:0:
476,100,16054,2,0,P|485:64|494:30,2,71,2|0|8,1:2|1:0|0:0,0:0:0:0:
374,86,16528,6,0,L|396:230,1,142,10|2,0:0|1:2,0:0:0:0:
417,323,17001,1,8,0:0:0:0:
329,359,17159,2,0,P|273:319|203:316,1,142,2|2,0:0|1:2,0:0:0:0:
116,359,17633,1,10,0:0:0:0:
31,325,17791,1,0,1:0:0:0:
104,266,17949,6,0,L|81:123,1,142,2|8,1:2|0:0,0:0:0:0:
151,48,18422,1,0,0:0:0:0:
218,117,18580,2,0,L|205:187,2,71,2|0|8,1:2|1:0|0:0,0:0:0:0:
301,54,19054,2,0,L|314:124,1,71,10|0,0:0|0:0,0:0:0:0:
407,183,19370,2,0,L|420:113,1,71,0|8,1:0|0:0,0:0:0:0:
316,226,19686,1,2,1:2:0:0:
403,283,19843,6,0,P|437:274|471:283,1,71,8|8,0:0|3:0,0:0:0:0:
313,325,20159,2,0,P|279:335|245:325,1,71,4|2,3:0|1:2,0:0:0:0:
173,252,20475,6,0,L|64:265,2,106.500004062653,4|0|10,0:1|1:0|0:0,0:0:0:0:
291,72,21422,2,0,P|299:98|304:124,1,53.2500020313264,0|10,1:0|0:0,0:0:0:0:
389,177,21738,6,0,P|393:150|401:125,2,53.2500020313264,2|8|0,1:2|0:0|1:0,0:0:0:0:
256,256,22370,2,0,L|140:235,1,106.500004062653,10|2,0:0|1:2,0:0:0:0:
69,278,22843,1,8,0:0:0:0:
3,211,23001,6,0,P|16:159|5:108,1,106.500004062653,2|0,1:2|1:0,0:0:0:0:
181,12,23633,2,0,P|167:63|178:114,1,106.500004062653,10|0,0:0|1:0,0:0:0:0:
244,175,24107,1,8,0:0:0:0:
323,129,24265,6,0,L|376:138,2,53.2500020313264,2|8|0,1:2|0:0|1:0,0:0:0:0:
244,175,24738,1,0,1:0:0:0:
326,223,24896,2,0,L|379:214,1,53.2500020313264,10|8,0:0|3:0,0:0:0:0:
241,270,25212,2,0,L|207:264,3,26.6250010156632,8|8|8|8,0:0|0:0|0:0|0:0,0:0:0:0:
169,290,25528,6,0,L|59:266,2,106.500004062653,2|0|0,1:2|1:0|1:0,0:0:0:0:
240,357,26317,1,0,1:0:0:0:
322,307,26475,2,0,P|325:278|331:252,1,53.2500020313264,0|0,1:0|1:0,0:0:0:0:
268,181,26791,6,0,L|161:192,2,106.500004062653,0|0|0,1:0|1:0|1:0,0:0:0:0:
336,116,27580,1,0,1:0:0:0:
336,116,27738,2,0,L|391:124,1,53.2500020313264,0|0,1:0|1:0,0:0:0:0:
488,57,28054,6,0,P|470:125|494:194,1,142,8|0,0:0|1:0,0:0:0:0:
431,265,28528,2,0,L|289:236,1,142,8|0,0:0|1:0,0:0:0:0:
227,156,29001,1,8,0:0:0:0:
209,289,29159,1,8,0:0:0:0:
111,206,29317,2,0,L|118:243,4,35.5,4|0|8|0|0,3:0|1:0|0:0|1:0|1:0,0:0:0:0:
111,207,30422,6,0,L|88:63,1,142,4|0,0:1|1:0,0:0:0:0:
171,15,30896,1,10,0:0:0:0:
242,77,31054,1,0,0:0:0:0:
312,15,31212,2,0,P|347:14|381:24,1,71,2|0,1:2|1:0,0:0:0:0:
456,83,31528,2,0,L|443:154,1,71,10|0,0:0|0:0,0:0:0:0:
347,163,31843,6,0,L|360:234,1,71,2|0,1:2|1:0,0:0:0:0:
440,294,32159,1,8,0:0:0:0:
357,344,32317,2,0,P|297:308|228:319,1,142,2|0,1:2|1:0,0:0:0:0:
146,363,32791,1,10,0:0:0:0:
64,315,32949,6,0,L|41:175,1,142,4|0,0:1|1:0,0:0:0:0:
125,33,33422,2,0,P|119:69|111:108,1,71,10|0,0:0|0:0,0:0:0:0:
196,163,33738,2,0,P|202:127|210:88,1,71,2|0,1:2|1:0,0:0:0:0:
312,43,34054,2,0,P|306:79|298:118,1,71,10|0,0:0|0:0,0:0:0:0:
356,191,34370,5,2,1:2:0:0:
356,191,34528,2,0,L|430:177,1,71,0|10,1:0|0:0,0:0:0:0:
276,250,34843,2,0,L|134:228,1,142,0|0,0:0|1:0,0:0:0:0:
68,155,35317,1,10,0:0:0:0:
150,100,35475,6,0,L|292:122,1,142,4|0,0:1|1:0,0:0:0:0:
376,85,35949,2,0,P|383:49|376:15,1,71,10|0,0:0|0:0,0:0:0:0:
290,121,36265,2,0,P|283:157|290:191,1,71,2|0,1:2|1:0,0:0:0:0:
363,247,36580,2,0,L|437:233,1,71,10|0,0:0|0:0,0:0:0:0:
273,291,36896,6,0,L|199:277,1,71,2|0,1:2|1:0,0:0:0:0:
121,221,37212,1,8,0:0:0:0:
34,279,37370,2,0,P|26:209|18:138,1,142,2|0,1:2|1:0,0:0:0:0:
73,54,37843,1,8,0:0:0:0:
151,105,38001,6,0,B|225:92|214:135|291:115,1,142,4|0,0:1|1:0,0:0:0:0:
390,82,38475,2,0,P|383:116|376:151,1,71,10|0,0:0|0:0,0:0:0:0:
465,204,38791,2,0,P|472:169|479:135,2,71,2|0|10,1:2|1:0|0:0,0:0:0:0:
377,260,39265,6,0,P|319:222|249:220,1,142,2|0,1:2|1:0,0:0:0:0:
168,268,39738,1,10,0:0:0:0:
93,216,39896,1,0,0:0:0:0:
24,284,40054,2,0,P|31:324|35:356,2,71,2|0|8,1:2|1:0|0:0,0:0:0:0:
93,216,40528,6,0,L|73:70,1,142,4|0,0:1|1:0,0:0:0:0:
148,21,41001,1,8,0:0:0:0:
224,75,41159,1,0,0:0:0:0:
299,21,41317,2,0,P|369:20|428:57,1,142,2|10,1:2|0:0,0:0:0:0:
489,130,41791,6,0,L|462:280,1,142,4|0,0:1|1:0,0:0:0:0:
388,326,42265,1,8,0:0:0:0:
320,254,42422,1,0,0:0:0:0:
243,311,42580,2,0,L|170:297,1,71,2|0,1:2|1:0,0:0:0:0:
96,354,42896,1,10,0:0:0:0:
22,292,43054,6,0,P|18:221|9:150,1,142,4|0,0:1|1:0,0:0:0:0:
85,37,43528,2,0,P|89:72|96:106,1,71,8|0,0:0|0:0,0:0:0:0:
187,164,43843,2,0,P|194:129|198:94,1,71,2|2,1:2|1:2,0:0:0:0:
276,32,44159,1,8,0:0:0:0:
276,32,44238,1,8,0:0:0:0:
276,32,44317,5,2,1:2:0:0:
459,55,44633,1,2,1:2:0:0:
506,233,44949,1,2,1:2:0:0:
378,366,45265,1,2,1:2:0:0:
378,366,45580,6,0,L|231:345,1,142,4|0,0:1|1:0,0:0:0:0:
163,277,46054,2,0,P|171:242|176:207,1,71,10|0,0:0|0:0,0:0:0:0:
65,146,46370,2,0,P|70:181|77:215,1,71,2|0,1:2|1:0,0:0:0:0:
151,95,46686,2,0,P|145:59|138:25,1,71,10|0,0:0|0:0,0:0:0:0:
256,108,47001,6,0,P|248:142|243:177,1,71,2|0,1:2|1:0,0:0:0:0:
170,243,47317,1,10,0:0:0:0:
237,311,47475,2,0,B|310:298|297:341|375:320,1,142,0|2,0:0|1:2,0:0:0:0:
453,266,47949,1,10,0:0:0:0:
369,217,48107,6,0,L|391:70,1,142,4|2,0:1|1:2,0:0:0:0:
278,18,48580,2,0,L|290:97,1,71,10|0,0:0|0:0,0:0:0:0:
228,162,48896,1,2,1:2:0:0:
154,103,49054,1,0,1:0:0:0:
142,195,49212,2,0,L|70:177,1,71,10|0,0:0|0:0,0:0:0:0:
220,255,49528,6,0,L|289:241,1,71,2|0,1:2|1:0,0:0:0:0:
373,285,49843,1,10,0:0:0:0:
460,244,50001,2,0,P|472:174|486:104,1,142,0|2,0:0|1:2,0:0:0:0:
432,24,50475,1,10,0:0:0:0:
353,80,50633,6,0,P|283:90|223:56,1,142,4|0,0:1|1:0,0:0:0:0:
128,22,51107,2,0,P|132:62|137:97,1,71,10|0,0:0|0:0,0:0:0:0:
25,159,51422,2,0,P|30:124|34:89,1,71,2|0,1:2|1:0,0:0:0:0:
114,195,51738,2,0,P|109:230|105:265,1,71,10|0,0:0|0:0,0:0:0:0:
160,348,52054,5,2,1:2:0:0:
234,287,52212,1,0,1:0:0:0:
299,353,52370,1,10,0:0:0:0:
376,291,52528,2,0,P|387:220|401:151,1,142,0|2,0:0|1:2,0:0:0:0:
347,74,53001,1,10,0:0:0:0:
267,121,53159,6,0,B|193:108|206:154|124:134,1,142,4|0,0:1|1:0,0:0:0:0:
47,89,53633,2,0,P|44:54|40:19,1,71,10|0,0:0|0:0,0:0:0:0:
128,135,53949,2,0,P|123:170|120:205,1,71,2|0,1:2|1:0,0:0:0:0:
49,270,54265,1,10,0:0:0:0:
119,340,54422,6,0,P|177:300|246:304,1,142,0|0,0:0|1:0,0:0:0:0:
325,356,54896,1,10,0:0:0:0:
433,206,55212,2,0,L|504:216,2,71,2|0|10,1:2|1:0|0:0,0:0:0:0:
372,127,55686,6,0,B|297:111|311:159|234:140,1,142,4|0,0:1|1:0,0:0:0:0:
160,79,56159,2,0,P|167:44|160:9,1,71,8|0,0:0|0:0,0:0:0:0:
80,129,56475,2,0,P|73:163|79:198,1,71,2|0,1:2|1:0,0:0:0:0:
146,260,56791,1,10,0:0:0:0:
146,260,56949,6,0,L|291:243,1,142,4|0,0:1|1:0,0:0:0:0:
364,188,57422,1,8,0:0:0:0:
441,250,57580,1,0,0:0:0:0:
453,154,57738,2,0,P|460:119|468:84,1,71,2|2,1:2|1:2,0:0:0:0:
406,19,58054,1,10,0:0:0:0:
330,72,58212,6,0,P|260:84|194:60,1,142,4|0,0:1|1:0,0:0:0:0:
100,26,58686,2,0,P|104:64|108:100,1,71,8|0,0:0|0:0,0:0:0:0:
184,152,59001,2,0,P|180:187|176:222,1,71,2|2,1:2|1:2,0:0:0:0:
104,286,59317,1,10,0:0:0:0:
177,349,59475,6,0,P|247:339|317:331,1,142,4|0,0:1|0:0,0:0:0:0:
389,268,59949,2,0,P|397:233|402:198,1,71,8|0,0:0|0:0,0:0:0:0:
291,137,60265,2,0,P|296:172|303:206,1,71,2|2,1:2|1:2,0:0:0:0:
379,86,60580,2,0,P|373:50|366:16,1,71,10|0,0:0|1:0,0:0:0:0:
216,69,60896,5,8,0:0:0:0:
216,68,61212,2,0,P|146:75|86:39,2,142,8|10|10,0:0|0:0|0:0,0:0:0:0:
298,21,62001,1,2,1:2:0:0:
371,80,62159,6,0,L|354:224,1,142,8|8,0:0|0:0,0:0:0:0:
343,313,62633,1,0,1:0:0:0:
263,262,62791,2,0,P|227:260|193:270,1,71,10|2,0:0|1:2,0:0:0:0:
118,215,63107,2,0,L|102:146,1,71,10|2,0:0|1:2,0:0:0:0:
223,32,63422,6,0,L|200:182,2,142,8|8|10,0:0|0:0|0:0,0:0:0:0:
324,21,64212,2,0,L|314:95,1,71,2|10,1:2|0:0,0:0:0:0:
377,168,64528,1,2,1:2:0:0:
302,227,64686,6,0,L|262:222,3,35.5,8|8|8|8,0:0|3:0|3:0|3:0,0:0:0:0:
226,246,65001,2,0,L|186:241,3,35.5,4|4|4|4,3:0|3:0|3:0|3:0,0:0:0:0:
155,256,65317,1,8,0:0:0:0:
110,131,65475,1,0,1:0:0:0:
110,131,65791,6,0,B|197:115|174:174|264:145,1,159.750006093979,4|0,0:1|1:0,0:0:0:0:
429,41,66580,2,0,P|418:93|412:146,1,106.500004062653,10|0,0:0|1:0,0:0:0:0:
327,205,67054,1,8,0:0:0:0:
327,205,67212,6,0,P|321:152|310:99,2,106.500004062653,2|0|10,1:2|1:0|0:0,0:0:0:0:
471,302,68159,1,8,0:0:0:0:
392,355,68317,2,0,L|227:337,1,159.750006093979,4|0,0:1|1:0,0:0:0:0:
48,245,69107,2,0,P|37:194|46:142,1,106.500004062653,10|0,0:0|1:0,0:0:0:0:
123,77,69580,1,8,0:0:0:0:
194,139,69738,6,0,P|188:164|182:190,1,53.2500020313264,2|0,1:2|0:0,0:0:0:0:
260,270,70054,2,0,P|265:244|271:218,1,53.2500020313264,0|0,1:0|0:0,0:0:0:0:
377,169,70370,2,0,P|371:194|365:220,2,53.2500020313264,10|8|8,0:0|0:0|0:0,0:0:0:0:
458,83,70843,6,0,P|469:162|480:241,1,159.750006093979,4|0,0:1|1:0,0:0:0:0:
336,345,71633,2,0,P|292:318|239:321,1,106.500004062653,10|0,0:0|1:0,0:0:0:0:
159,358,72107,1,8,0:0:0:0:
77,324,72265,6,0,L|62:212,1,106.500004062653,0|0,1:0|1:0,0:0:0:0:
181,33,72896,2,0,L|195:138,1,106.500004062653,10|8,0:0|0:0,0:0:0:0:
265,206,73370,6,0,P|325:155|404:158,1,159.750006093979,4|0,0:1|1:0,0:0:0:0:
487,332,74159,2,0,L|381:317,1,106.500004062653,10|0,0:0|1:0,0:0:0:0:
297,352,74633,1,0,1:0:0:0:
227,285,74791,6,0,P|194:288|172:291,1,53.2500020313264,0|0,1:0|1:0,0:0:0:0:
42,237,75107,2,0,P|75:234|97:231,1,53.2500020313264,10|0,0:0|0:0,0:0:0:0:
154,157,75422,1,10,0:0:0:0:
154,157,75580,1,0,1:0:0:0:
242,196,75738,1,10,0:0:0:0:
330,160,75896,1,4,1:2:0:0:
256,192,75975,12,0,81107,0:0:0:0:
