osu file format v14

[General]
AudioFilename: audio.mp3
AudioLeadIn: 0
PreviewTime: 29712
Countdown: 0
SampleSet: Soft
StackLeniency: 0.7
Mode: 0
LetterboxInBreaks: 0
WidescreenStoryboard: 0

[Editor]
DistanceSpacing: 1.2
BeatDivisor: 4
GridSize: 32
TimelineZoom: 1.9

[Metadata]
Title:CROSS (Cut Ver.)
TitleUnicode:CROSS (Cut Ver.)
Artist:BAND-MAID
ArtistUnicode:BAND-MAID
Creator:HabiHolic
Version:Ex
Source:
Tags:just bring it Rock Japanese j-rock jrock Miku Kobato 小鳩 ミク Kanami Tono 遠乃 歌波 Akane Hirose 廣瀬 茜 MISA Saiki Atsumi 厚見 彩姫 BANDMAID
BeatmapID:2424572
BeatmapSetID:1162273

[Difficulty]
HPDrainRate:7
CircleSize:4
OverallDifficulty:9
ApproachRate:9.3
SliderMultiplier:1.82
SliderTickRate:1

[Events]
//Background and Video events
0,0,"BG.jpg",0,0
//Break Periods
//Storyboard Layer 0 (Background)
//Storyboard Layer 1 (Fail)
//Storyboard Layer 2 (Pass)
//Storyboard Layer 3 (Foreground)
//Storyboard Layer 4 (Overlay)
//Storyboard Sound Samples

[TimingPoints]
265,315.789473684211,4,2,0,50,1,0
265,-133.333333333333,4,2,0,50,0,0
10212,-100,4,2,1,75,0,0
20475,-133.333333333333,4,2,1,65,0,0
28054,-100,4,2,1,75,0,0
30422,-100,4,2,1,85,0,0
65791,-133.333333333333,4,2,1,65,0,0
75975,-133.333333333333,4,2,1,20,0,0
81107,-133.333333333333,4,2,1,10,0,0

[Colours]
Combo1 : 192,192,192
Combo2 : 247,153,247
Combo3 : 189,87,227
Combo4 : 255,0,128

[HitObjects]
40,68,265,5,2,0:0:0:0:
39,68,422,2,0,P|107:68|163:104,1,136.500005207062,2|0,0:0|0:0,0:0:0:0:
263,123,896,2,0,L|280:57,1,68.250002603531,2|2,0:0|0:0,0:0:0:0:
202,6,1212,1,0,0:0:0:0:
190,175,1370,6,0,B|264:160|241:203|328:180,1,136.500005207062,2|2,0:0|0:0,0:0:0:0:
402,123,1843,1,0,0:0:0:0:
479,191,2001,2,0,P|470:232|465:262,1,68.250002603531,2|0,0:0|0:0,0:0:0:0:
382,330,2317,2,0,P|376:296|368:263,1,68.250002603531,2|0,0:0|0:0,0:0:0:0:
408,141,2633,1,2,0:0:0:0:
283,203,2791,6,0,P|216:204|169:157,1,136.500005207062,2|0,0:0|0:0,0:0:0:0:
253,107,3265,1,0,0:0:0:0:
384,70,3422,2,0,P|375:109|370:143,1,68.250002603531,2|0,0:0|0:0,0:0:0:0:
298,217,3738,1,2,0:0:0:0:
359,296,3896,6,0,B|434:279|419:327|494:304,1,136.500005207062,2|2,0:0|0:0,0:0:0:0:
459,215,4370,1,0,0:0:0:0:
298,217,4528,2,0,L|313:145,1,68.250002603531,2|0,0:0|0:0,0:0:0:0:
208,37,4843,2,0,L|221:103,1,68.250002603531,2|0,0:0|0:0,0:0:0:0:
154,176,5159,1,2,0:0:0:0:
226,256,5317,6,0,B|300:242|279:283|365:260,1,136.500005207062,2|0,0:0|0:0,0:0:0:0:
430,203,5791,1,0,0:0:0:0:
328,101,5949,2,0,L|340:178,1,68.250002603531,2|2,0:0|0:0,0:0:0:0:
420,221,6265,1,0,0:0:0:0:
391,53,6422,6,0,B|317:36|332:81|253:64,1,136.500005207062,2|2,0:0|0:0,0:0:0:0:
178,20,6896,1,0,0:0:0:0:
117,84,7054,2,0,P|123:126|127:161,1,68.250002603531,2|0,0:0|0:0,0:0:0:0:
214,188,7370,2,0,P|209:221|204:255,1,68.250002603531,2|0,0:0|0:0,0:0:0:0:
133,322,7686,1,2,0:0:0:0:
282,336,7843,6,0,B|356:320|342:364|415:345,1,136.500005207062,2|0,0:0|0:0,0:0:0:0:
486,275,8317,1,0,0:0:0:0:
371,194,8475,2,0,L|387:270,1,68.250002603531,2|2,0:0|0:0,0:0:0:0:
496,257,8791,1,0,0:0:0:0:
295,315,8949,5,2,0:0:0:0:
329,16,9265,1,2,0:0:0:0:
65,174,9580,1,2,0:0:0:0:
393,93,9896,1,2,0:0:0:0:
393,93,10212,6,0,P|376:177|370:275,1,182,4|0,0:1|1:0,0:0:0:0:
184,361,10686,2,0,P|177:309|167:270,1,91,8|0,0:0|0:0,0:0:0:0:
231,116,11001,1,2,1:2:0:0:
82,228,11159,1,0,1:0:0:0:
299,170,11317,1,8,0:0:0:0:
52,48,11475,6,0,L|82:232,1,182,2|2,1:2|1:2,0:0:0:0:
25,312,11949,1,8,0:0:0:0:
221,129,12107,2,0,B|319:107|291:179|395:143,1,182,2|0,1:2|1:0,0:0:0:0:
348,61,12580,1,10,0:0:0:0:
387,248,12738,1,2,0:0:0:0:
460,94,12896,6,0,P|466:46|478:4,1,91,0|0,1:0|1:0,0:0:0:0:
208,105,13212,2,0,P|220:148|225:193,1,91,8|0,0:0|0:0,0:0:0:0:
126,169,13528,1,2,1:2:0:0:
310,128,13686,1,0,1:0:0:0:
117,64,13843,1,8,0:0:0:0:
289,240,14001,6,0,B|386:215|366:286|465:250,1,182,2|0,1:2|1:0,0:0:0:0:
423,158,14475,1,10,0:0:0:0:
250,116,14633,2,0,P|257:73|268:24,1,91,2|0,0:0|1:0,0:0:0:0:
88,118,14949,2,0,P|97:162|105:207,1,91,2|8,1:2|0:0,0:0:0:0:
311,360,15265,6,0,P|324:261|344:179,1,182,4|0,0:1|1:0,0:0:0:0:
221,37,15738,1,8,0:0:0:0:
425,124,15896,1,0,0:0:0:0:
156,209,16054,2,0,P|153:157|143:114,1,91,2|0,1:2|1:0,0:0:0:0:
241,15,16370,1,8,0:0:0:0:
343,181,16528,6,0,P|296:169|252:158,1,91,10|0,0:0|1:0,0:0:0:0:
33,23,16843,2,0,P|80:35|124:46,1,91,2|8,1:2|0:0,0:0:0:0:
331,29,17159,1,2,0:0:0:0:
205,243,17317,1,0,1:0:0:0:
143,12,17475,1,2,1:2:0:0:
208,273,17633,1,10,0:0:0:0:
247,83,17791,1,0,1:0:0:0:
5,153,17949,6,0,B|103:123|76:196|181:156,1,182,2|8,1:2|0:0,0:0:0:0:
321,27,18422,1,0,0:0:0:0:
245,266,18580,1,2,1:2:0:0:
164,66,18738,2,0,P|174:110|180:155,1,91,0|8,1:0|0:0,0:0:0:0:
471,184,19054,6,0,P|402:128|316:146,1,182,10|0,0:0|1:0,0:0:0:0:
231,292,19528,1,8,0:0:0:0:
359,327,19686,2,0,P|366:277|376:236,1,91,2|8,1:2|0:0,0:0:0:0:
169,111,20001,2,0,P|179:155|185:200,1,91,8|4,3:0|3:0,0:0:0:0:
83,173,20317,1,2,1:2:0:0:
146,22,20475,6,0,B|221:11|208:59|281:39,1,136.500005207062,4|0,0:1|1:0,0:0:0:0:
354,100,20949,1,0,0:0:0:0:
451,48,21107,2,0,L|433:189,1,136.500005207062,10|0,0:0|1:0,0:0:0:0:
360,258,21580,1,10,0:0:0:0:
205,148,21738,6,0,L|277:139,1,68.250002603531,2|8,1:2|0:0,0:0:0:0:
161,245,22054,2,0,L|20:215,1,136.500005207062,0|10,1:0|0:0,0:0:0:0:
126,104,22528,1,0,1:0:0:0:
126,103,22686,2,0,P|123:69|117:36,1,68.250002603531,2|8,1:2|0:0,0:0:0:0:
277,106,23001,6,0,P|264:177|259:248,1,136.500005207062,2|0,1:2|1:0,0:0:0:0:
94,365,23633,2,0,P|88:296|76:229,1,136.500005207062,10|0,0:0|1:0,0:0:0:0:
139,141,24107,1,8,0:0:0:0:
260,241,24265,2,0,L|192:225,1,68.250002603531,2|8,1:2|0:0,0:0:0:0:
375,171,24580,2,0,L|307:155,1,68.250002603531,0|0,1:0|1:0,0:0:0:0:
229,79,24896,5,10,0:0:0:0:
387,21,25054,1,8,3:0:0:0:
136,32,25212,5,8,0:0:0:0:
139,57,25291,1,8,0:0:0:0:
143,82,25370,1,8,0:0:0:0:
147,107,25449,1,8,0:0:0:0:
152,134,25528,6,0,L|138:207,1,68.250002603531,2|0,1:2|1:0,0:0:0:0:
205,311,25843,2,0,L|218:244,1,68.250002603531,0|0,1:0|1:0,0:0:0:0:
299,52,26159,2,0,L|285:125,1,68.250002603531,0|0,1:0|1:0,0:0:0:0:
315,365,26475,2,0,L|327:297,1,68.250002603531,0|0,1:0|1:0,0:0:0:0:
201,80,26791,5,0,1:0:0:0:
223,221,26949,1,0,1:0:0:0:
195,48,27107,5,0,1:0:0:0:
185,297,27265,1,0,1:0:0:0:
286,119,27422,5,0,1:0:0:0:
104,243,27580,1,0,1:0:0:0:
363,161,27738,5,0,1:0:0:0:
104,112,27896,1,0,1:0:0:0:
227,301,28054,5,8,0:0:0:0:
259,282,28133,1,8,0:0:0:0:
295,272,28212,1,8,0:0:0:0:
333,273,28291,1,8,0:0:0:0:
369,285,28370,1,0,1:0:0:0:
399,307,28449,1,0,1:0:0:0:
422,337,28528,2,0,L|442:287,5,45.5,8|8|8|8|0|0,0:0|0:0|0:0|0:0|1:0|1:0,0:0:0:0:
420,151,29001,2,0,L|403:198,1,45.5,8|8,0:0|0:0,0:0:0:0:
340,78,29159,2,0,L|357:31,1,45.5,8|8,0:0|0:0,0:0:0:0:
223,21,29317,5,4,3:0:0:0:
228,66,29396,1,0,1:0:0:0:
234,111,29475,1,8,0:0:0:0:
240,156,29554,1,0,1:0:0:0:
246,201,29633,1,0,1:0:0:0:
258,305,30422,6,0,P|268:214|291:126,1,182,4|0,0:1|1:0,0:0:0:0:
144,21,30896,2,0,P|154:71|157:114,1,91,10|0,0:0|0:0,0:0:0:0:
119,256,31212,1,2,1:2:0:0:
258,90,31370,1,0,1:0:0:0:
59,182,31528,1,10,0:0:0:0:
334,134,31686,1,0,0:0:0:0:
132,39,31843,5,2,1:2:0:0:
238,264,32001,2,0,P|246:213|258:166,1,91,0|8,1:0|0:0,0:0:0:0:
3,107,32317,2,0,P|20:197|24:288,1,182,2|0,1:2|1:0,0:0:0:0:
101,364,32791,1,10,0:0:0:0:
271,169,32949,6,0,P|184:184|112:133,1,182,4|0,0:1|1:0,0:0:0:0:
210,68,33422,1,10,0:0:0:0:
168,291,33580,1,0,0:0:0:0:
355,216,33738,1,2,1:2:0:0:
121,151,33896,1,0,1:0:0:0:
314,40,34054,1,10,0:0:0:0:
297,283,34212,1,0,0:0:0:0:
190,20,34370,6,0,P|202:65|205:110,1,91,2|0,1:2|1:0,0:0:0:0:
124,247,34686,1,10,0:0:0:0:
303,136,34843,1,0,0:0:0:0:
78,66,35001,1,0,1:0:0:0:
336,141,35159,2,0,P|344:95|357:49,1,91,0|10,1:0|0:0,0:0:0:0:
31,176,35475,6,0,B|129:156|108:218|208:186,1,182,4|0,0:1|1:0,0:0:0:0:
149,5,35949,2,0,P|165:48|163:93,1,91,10|0,0:0|0:0,0:0:0:0:
65,273,36265,1,2,1:2:0:0:
287,156,36422,1,0,1:0:0:0:
69,63,36580,1,10,0:0:0:0:
139,343,36738,1,0,0:0:0:0:
172,18,36896,6,0,P|182:62|188:107,1,91,2|0,1:2|1:0,0:0:0:0:
65,244,37212,1,8,0:0:0:0:
335,94,37370,2,0,P|313:181|305:272,1,182,2|0,1:2|1:0,0:0:0:0:
224,346,37843,1,8,0:0:0:0:
13,149,38001,6,0,P|79:90|167:102,1,182,4|0,0:1|1:0,0:0:0:0:
287,264,38475,1,10,0:0:0:0:
252,25,38633,1,0,0:0:0:0:
279,295,38791,1,2,1:2:0:0:
334,77,38949,1,0,1:0:0:0:
154,148,39107,1,10,0:0:0:0:
411,232,39265,6,0,L|438:53,1,182,2|0,1:2|1:0,0:0:0:0:
223,13,39738,2,0,P|234:56|238:102,1,91,10|0,0:0|0:0,0:0:0:0:
169,304,40054,1,2,1:2:0:0:
315,145,40212,1,0,1:0:0:0:
89,211,40370,1,8,0:0:0:0:
344,246,40528,6,0,L|380:50,1,182,4|0,0:1|1:0,0:0:0:0:
154,10,41001,2,0,L|171:104,1,91,8|0,0:0|0:0,0:0:0:0:
154,284,41317,1,2,1:2:0:0:
284,129,41475,1,0,1:0:0:0:
84,207,41633,1,10,0:0:0:0:
233,44,41791,6,0,P|321:39|377:106,1,182,4|0,0:1|1:0,0:0:0:0:
168,196,42265,2,0,P|165:140|159:106,1,91,8|0,0:0|0:0,0:0:0:0:
305,257,42580,2,0,P|297:301|295:347,1,91,2|0,1:2|1:0,0:0:0:0:
123,290,42896,1,10,0:0:0:0:
269,124,43054,6,0,B|369:114|336:189|442:171,1,182,4|0,0:1|1:0,0:0:0:0:
416,69,43528,1,8,0:0:0:0:
292,229,43686,1,0,0:0:0:0:
230,32,43843,1,2,1:2:0:0:
386,174,44001,1,2,1:2:0:0:
128,128,44159,2,0,L|134:176,1,45.5,8|8,0:0|0:0,0:0:0:0:
146,273,44317,5,2,1:2:0:0:
365,68,44633,1,2,1:2:0:0:
268,365,44949,1,2,1:2:0:0:
221,16,45265,1,2,1:2:0:0:
221,16,45580,6,0,B|210:114|277:84|259:188,1,182,4|0,0:1|1:0,0:0:0:0:
168,157,46054,1,10,0:0:0:0:
314,35,46212,1,0,0:0:0:0:
328,227,46370,1,2,1:2:0:0:
152,144,46528,1,0,1:0:0:0:
393,126,46686,2,0,P|402:76|412:36,1,91,10|0,0:0|0:0,0:0:0:0:
210,64,47001,5,2,1:2:0:0:
274,319,47159,1,0,1:0:0:0:
63,231,47317,1,10,0:0:0:0:
298,117,47475,1,0,0:0:0:0:
170,348,47633,2,0,P|161:304|154:259,1,91,0|2,1:0|1:2,0:0:0:0:
229,53,47949,1,10,0:0:0:0:
479,268,48107,6,0,B|440:279|440:279|301:253,1,182,4|2,0:1|1:2,0:0:0:0:
137,97,48580,1,10,0:0:0:0:
216,341,48738,1,0,0:0:0:0:
266,59,48896,2,0,P|255:103|249:148,1,91,2|0,1:2|1:0,0:0:0:0:
60,258,49212,2,0,P|53:212|43:168,1,91,10|0,0:0|0:0,0:0:0:0:
151,63,49528,5,2,1:2:0:0:
212,324,49686,1,0,1:0:0:0:
368,132,49843,1,10,0:0:0:0:
126,205,50001,1,0,0:0:0:0:
447,203,50159,2,0,P|456:158|467:114,1,91,0|2,1:0|1:2,0:0:0:0:
398,22,50475,1,10,0:0:0:0:
218,104,50633,6,0,L|247:288,1,182,4|0,0:1|1:0,0:0:0:0:
188,357,51107,1,10,0:0:0:0:
312,135,51265,1,0,0:0:0:0:
127,284,51422,1,2,1:2:0:0:
388,197,51580,1,0,1:0:0:0:
191,45,51738,1,10,0:0:0:0:
276,323,51896,1,0,0:0:0:0:
332,108,52054,6,0,P|344:65|349:20,1,91,2|0,1:2|1:0,0:0:0:0:
166,32,52370,1,10,0:0:0:0:
219,240,52528,1,0,0:0:0:0:
266,11,52686,1,0,1:0:0:0:
65,79,52843,2,0,P|76:123|80:168,1,91,2|10,1:2|0:0,0:0:0:0:
176,337,53159,6,0,B|276:314|252:383|352:351,1,182,4|0,0:1|1:0,0:0:0:0:
428,224,53633,2,0,P|435:179|446:135,1,91,10|0,0:0|0:0,0:0:0:0:
289,33,53949,2,0,P|300:77|308:121,1,91,2|0,1:2|1:0,0:0:0:0:
237,218,54265,1,10,0:0:0:0:
392,72,54422,1,0,0:0:0:0:
157,151,54580,5,2,1:2:0:0:
409,204,54738,1,0,1:0:0:0:
132,161,54896,2,0,P|126:115|117:71,1,91,10|0,0:0|0:0,0:0:0:0:
242,247,55212,2,0,P|232:291|227:336,1,91,2|0,1:2|1:0,0:0:0:0:
119,281,55528,1,10,0:0:0:0:
228,100,55686,6,0,B|330:109|281:162|388:175,1,182,4|0,0:1|1:0,0:0:0:0:
385,79,56159,1,8,0:0:0:0:
237,202,56317,1,0,0:0:0:0:
310,14,56475,1,2,1:2:0:0:
331,285,56633,1,0,1:0:0:0:
121,163,56791,1,10,0:0:0:0:
416,236,56949,6,0,P|427:145|446:56,1,182,4|0,0:1|1:0,0:0:0:0:
192,15,57422,2,0,P|203:58|208:104,1,91,8|0,0:0|0:0,0:0:0:0:
151,273,57738,1,2,1:2:0:0:
304,151,57896,1,2,1:2:0:0:
85,195,58054,1,10,0:0:0:0:
373,250,58212,6,0,L|407:71,1,182,4|0,0:1|1:0,0:0:0:0:
178,6,58686,2,0,L|191:106,1,91,8|0,0:0|0:0,0:0:0:0:
224,318,59001,1,2,1:2:0:0:
304,128,59159,1,2,1:2:0:0:
132,258,59317,1,10,0:0:0:0:
258,46,59475,6,0,P|345:44|397:115,1,182,4|0,0:1|0:0,0:0:0:0:
210,212,59949,2,0,P|203:156|194:119,1,91,8|0,0:0|0:0,0:0:0:0:
318,255,60265,2,0,P|308:299|302:344,1,91,2|2,1:2|1:2,0:0:0:0:
164,300,60580,1,10,0:0:0:0:
306,158,60738,1,0,1:0:0:0:
75,197,60896,5,8,0:0:0:0:
336,148,61054,1,0,1:0:0:0:
135,33,61212,5,8,0:0:0:0:
174,337,61370,1,0,1:0:0:0:
248,78,61528,5,10,0:0:0:0:
184,364,61686,1,2,1:2:0:0:
104,113,61843,5,10,0:0:0:0:
363,201,62001,1,2,1:2:0:0:
109,261,62159,5,8,0:0:0:0:
390,196,62317,1,0,1:0:0:0:
183,35,62475,5,8,0:0:0:0:
256,347,62633,1,0,1:0:0:0:
294,94,62791,5,10,0:0:0:0:
245,372,62949,1,2,1:2:0:0:
194,133,63107,5,10,0:0:0:0:
406,214,63265,1,2,1:2:0:0:
111,247,63422,5,8,0:0:0:0:
370,143,63580,1,0,1:0:0:0:
125,33,63738,5,8,0:0:0:0:
194,336,63896,1,0,1:0:0:0:
245,68,64054,5,10,0:0:0:0:
181,360,64212,1,2,1:2:0:0:
77,129,64370,5,10,0:0:0:0:
342,215,64528,1,2,1:2:0:0:
6,240,64686,5,8,0:0:0:0:
38,230,64765,1,8,3:0:0:0:
72,230,64843,1,8,3:0:0:0:
104,240,64922,1,8,3:0:0:0:
132,260,65001,5,4,3:0:0:0:
197,272,65080,1,4,3:0:0:0:
250,232,65159,1,4,3:0:0:0:
255,166,65238,1,4,3:0:0:0:
209,118,65317,5,8,0:0:0:0:
262,352,65475,1,0,1:0:0:0:
262,352,65791,6,0,P|361:355|430:284,1,204.750007810593,4|0,0:1|1:0,0:0:0:0:
350,24,66580,2,0,L|375:167,1,136.500005207062,10|0,0:0|1:0,0:0:0:0:
311,230,67054,1,8,0:0:0:0:
146,128,67212,6,0,P|196:84|262:85,1,136.500005207062,2|0,1:2|1:0,0:0:0:0:
161,234,67843,2,0,P|95:223|52:172,1,136.500005207062,10|8,0:0|0:0,0:0:0:0:
113,49,68317,6,0,B|166:10|166:10|138:152,1,204.750007810593,4|0,0:1|1:0,0:0:0:0:
69,323,69107,2,0,B|144:307|130:356|207:332,1,136.500005207062,10|0,0:0|1:0,0:0:0:0:
275,271,69580,1,8,0:0:0:0:
194,199,69738,6,0,L|174:63,1,136.500005207062,2|0,1:2|1:0,0:0:0:0:
351,41,70370,1,10,0:0:0:0:
372,142,70528,1,8,0:0:0:0:
446,72,70686,1,8,0:0:0:0:
277,106,70843,6,0,L|310:314,1,204.750007810593,4|0,0:1|1:0,0:0:0:0:
37,234,71633,2,0,P|84:188|150:186,1,136.500005207062,10|0,0:0|1:0,0:0:0:0:
233,243,72107,1,8,0:0:0:0:
305,180,72265,6,0,L|283:43,1,136.500005207062,0|0,1:0|1:0,0:0:0:0:
485,150,72896,2,0,L|463:284,1,136.500005207062,10|8,0:0|0:0,0:0:0:0:
255,223,73370,6,0,P|312:188|382:197,1,136.500005207062,4|0,0:1|1:0,0:0:0:0:
334,285,73843,1,0,1:0:0:0:
146,349,74159,2,0,L|117:212,1,136.500005207062,10|0,0:0|1:0,0:0:0:0:
94,105,74633,1,0,1:0:0:0:
258,111,74791,6,0,P|255:74|250:43,1,68.250002603531,0|0,1:0|1:0,0:0:0:0:
350,161,75107,2,0,P|344:194|342:228,1,68.250002603531,10|0,0:0|0:0,0:0:0:0:
277,325,75422,5,10,0:0:0:0:
448,229,75580,1,0,1:0:0:0:
213,152,75738,1,10,0:0:0:0:
477,236,75896,1,4,1:2:0:0:
256,192,75975,12,0,81107,0:0:0:0:
