osu file format v14

[General]
AudioFilename: audio.mp3
AudioLeadIn: 0
PreviewTime: 54565
Countdown: 0
SampleSet: Soft
StackLeniency: 0.7
Mode: 0
LetterboxInBreaks: 0
WidescreenStoryboard: 0

[Editor]
DistanceSpacing: 1
BeatDivisor: 4
GridSize: 8
TimelineZoom: 1

[Metadata]
Title:METAMORISER(TV Size)
TitleUnicode:METAMORISER(TV Size)
Artist:BAND JA NAIMON!
ArtistUnicode:バンドじゃないもん!
Creator:wcx19911123
Version:Normal
Source:つぐもも
Tags:Tsugumomo opening 铃姫みさこ Suzuki Misako 恋汐りんご Koishio Ringo 七星ぐみ Nanase Gumi 望月みゆ Mochidsuki Miyu 甘夏ゆず Amanatsu Yuzu 大桃子サンライズ Omomoko Sunrise
BeatmapID:1256879
BeatmapSetID:591607

[Difficulty]
HPDrainRate:3.5
CircleSize:3
OverallDifficulty:4.5
ApproachRate:5.2
SliderMultiplier:1.12
SliderTickRate:1

[Events]
//Background and Video events
0,0,"bg.jpg",0,0
Video,0,"video.flv"
//Break Periods
//Storyboard Layer 0 (Background)
//Storyboard Layer 1 (Fail)
//Storyboard Layer 2 (Pass)
//Storyboard Layer 3 (Foreground)
//Storyboard Sound Samples

[TimingPoints]
-439,373.831775700935,4,2,1,50,1,0
121,-120.048019207683,4,2,1,50,0,0
8265,306.122448979592,4,2,1,60,1,0
8877,306.122448979592,4,2,1,70,1,0
14081,-100,4,2,1,60,0,0
24030,-100,4,2,1,45,0,0
24183,-100,4,2,1,60,0,0
25254,-100,4,2,1,45,0,0
25407,-100,4,2,1,60,0,0
37499,-100,4,2,1,45,0,0
37652,-100,4,2,1,60,0,0
42550,-100,4,2,1,45,0,0
42856,-100,4,2,1,60,0,0
50050,-100,4,2,1,45,0,0
50356,-100,4,2,1,60,0,0
53111,-100,4,2,1,55,0,0
53417,-100,4,2,1,60,0,0
53723,-100,4,2,1,65,0,0
54030,-100,4,2,1,70,0,0
55254,-100,4,2,1,70,0,1
63519,-100,4,2,1,50,0,1
63825,-100,4,2,1,70,0,1
64973,-100,4,2,1,70,0,0
65050,-100,4,2,1,70,0,1
72703,-100,4,2,1,50,0,1
73009,-100,4,2,1,60,0,1
73315,-100,4,2,1,70,0,1
74846,-100,4,2,1,70,0,0
86402,-100,4,2,1,50,0,0
88468,-100,4,2,1,45,0,0

[Colours]
Combo1 : 255,128,233
Combo2 : 47,177,255
Combo3 : 21,232,37

[HitObjects]
352,88,121,5,0,0:0:0:0:
296,88,308,2,0,P|248:80|208:88,2,69.9719998825543,0|0|0,0:0|0:0|0:0,0:0:0:0:
328,136,1056,5,2,0:0:0:0:
312,304,1617,1,0,0:0:0:0:
360,280,1803,2,0,P|392:288|432:288,2,69.9719998825543,2|0|0,0:0|0:0|0:0,0:0:0:0:
312,248,2551,5,2,0:0:0:0:
160,176,3112,1,0,0:0:0:0:
120,216,3299,2,0,P|96:224|64:264,2,69.9719998825543,2|0|0,0:0|0:0|0:0,0:0:0:0:
176,232,4046,6,0,P|208:264|248:280,2,69.9719998825543,2|0|0,0:0|0:0|0:0,0:0:0:0:
160,176,4794,2,0,P|160:152|192:104,2,69.9719998825543,2|0|0,0:0|0:0|0:0,0:0:0:0:
216,192,5542,6,0,P|256:240|336:264,1,139.943999765109,2|0,0:0|0:0,0:0:0:0:
384,248,6289,2,0,P|408:216|416:160,1,93.2959998434058,2|0,0:0|0:0,0:0:0:0:
384,56,7037,5,2,0:0:0:0:
384,56,8265,2,0,L|440:32,2,56,8|8|8,0:0|0:0|0:0,0:0:0:0:
336,80,8724,6,0,P|312:88|216:72,1,112,4|0,0:0|0:0,0:0:0:0:
176,56,9183,1,8,0:0:0:0:
80,112,9489,1,0,0:0:0:0:
176,168,9795,5,8,0:0:0:0:
176,168,9948,2,0,P|216:216|224:296,1,112,4|0,0:0|0:0,0:0:0:0:
224,320,10407,1,8,0:0:0:0:
328,272,10713,1,0,0:0:0:0:
400,184,11019,5,8,0:0:0:0:
400,184,11172,2,0,P|408:120|384:64,1,112,4|0,0:0|0:0,0:0:0:0:
360,32,11632,1,8,0:0:0:0:
248,48,11938,2,0,L|184:40,2,56,0|0|8,0:0|0:0|0:0,0:0:0:0:
288,88,12397,5,8,0:0:0:0:
208,160,12703,1,8,0:0:0:0:
288,240,13009,1,8,0:0:0:0:
208,312,13315,2,0,P|112:312|40:240,1,168,8|4,0:0|0:0,0:0:0:0:
24,160,14081,5,0,0:0:0:0:
80,64,14387,2,0,P|120:40|144:32,1,56,0|0,0:0|0:0,0:0:0:0:
184,24,14693,1,2,0:0:0:0:
232,128,14999,5,2,0:0:0:0:
344,104,15305,2,0,P|384:104|416:112,1,56,0|2,0:0|0:0,0:0:0:0:
456,120,15611,1,0,0:0:0:0:
504,224,15917,1,8,0:0:0:0:
432,312,16223,6,0,P|368:344|312:344,1,112,4|8,0:0|0:0,0:0:0:0:
288,304,16683,2,0,P|232:272|176:264,1,112,8|8,0:0|0:0,0:0:0:0:
72,280,17295,5,4,0:0:0:0:
112,176,17601,1,8,0:0:0:0:
112,176,17754,1,8,0:0:0:0:
185,263,18060,1,8,0:0:0:0:
288,224,18366,2,0,P|304:192|288:176,1,56,2|0,0:0|0:0,0:0:0:0:
272,128,18672,6,0,P|280:72|320:24,1,112,4|8,0:0|0:0,0:0:0:0:
368,16,19132,1,8,0:0:0:0:
472,56,19438,1,8,0:0:0:0:
384,128,19744,5,4,0:0:0:0:
376,240,20050,1,8,0:0:0:0:
376,240,20203,1,8,0:0:0:0:
296,320,20509,2,0,P|240:344|184:336,1,112,0|8,0:0|0:0,0:0:0:0:
168,288,20968,6,0,P|104:232|64:224,1,112,4|0,0:0|0:0,0:0:0:0:
56,176,21428,1,8,0:0:0:0:
56,176,21581,2,0,P|64:120|144:40,1,168,2|8,0:0|0:0,0:0:0:0:
192,32,22193,5,2,0:0:0:0:
264,120,22499,1,0,0:0:0:0:
264,120,22652,1,8,0:0:0:0:
376,112,22958,2,0,P|440:144|464:184,1,112,2|2,0:0|0:0,0:0:0:0:
472,232,23417,2,0,L|472:288,1,56,2|4,0:0|0:0,0:0:0:0:
376,352,23877,6,0,P|320:360|256:328,1,112,8|0,0:0|0:0,0:0:0:0:
232,296,24336,1,2,0:0:0:0:
232,296,24489,2,0,P|184:256|120:248,1,112,8|2,0:0|0:0,0:0:0:0:
24,264,25101,5,8,0:0:0:0:
72,160,25407,2,0,P|104:144|144:144,1,56,0|2,0:0|0:0,0:0:0:0:
176,152,25713,1,8,0:0:0:0:
256,72,26019,5,4,0:0:0:0:
288,176,26325,1,8,0:0:0:0:
288,176,26479,1,8,0:0:0:0:
384,232,26785,1,8,0:0:0:0:
496,224,27091,6,0,P|512:160|496:112,1,112,2|8,0:0|0:0,0:0:0:0:
456,80,27550,1,8,0:0:0:0:
344,56,27856,1,8,0:0:0:0:
272,144,28162,2,0,P|240:152|224:128,1,56,2|0,0:0|0:0,0:0:0:0:
192,96,28468,6,0,P|136:72|80:80,1,112,2|8,0:0|0:0,0:0:0:0:
40,112,28928,1,0,0:0:0:0:
48,224,29234,1,8,0:0:0:0:
128,304,29540,6,0,P|192:320|248:304,1,112,4|8,0:0|0:0,0:0:0:0:
272,272,29999,1,8,0:0:0:0:
272,272,30152,2,0,P|328:240|384:240,1,112,4|0,0:0|0:0,0:0:0:0:
424,264,30611,5,8,0:0:0:0:
424,264,30764,2,0,P|464:216|472:168,1,112,4|0,0:0|0:0,0:0:0:0:
464,112,31223,1,8,0:0:0:0:
368,56,31530,1,0,0:0:0:0:
288,136,31836,5,8,0:0:0:0:
288,136,31989,1,4,0:0:0:0:
200,64,32295,1,8,0:0:0:0:
96,104,32601,1,8,0:0:0:0:
96,104,32754,2,0,P|64:160|64:224,1,112,8|8,0:0|0:0,0:0:0:0:
112,304,33366,6,0,P|168:328|224:320,1,112,4|0,0:0|0:0,0:0:0:0:
264,296,33825,2,0,P|296:280|320:280,1,56,2|8,0:0|0:0,0:0:0:0:
368,296,34132,1,2,0:0:0:0:
464,240,34438,5,2,0:0:0:0:
464,240,34591,2,0,P|480:160|464:120,1,112,0|0,0:0|0:0,0:0:0:0:
440,88,35050,2,0,P|416:72|376:64,1,56,2|8,0:0|0:0,0:0:0:0:
336,64,35356,1,2,0:0:0:0:
248,136,35662,5,2,0:0:0:0:
248,136,35815,2,0,P|232:192|184:240,1,112,4|0,0:0|0:0,0:0:0:0:
144,248,36274,2,0,P|96:248|80:240,1,56,0|8,0:0|0:0,0:0:0:0:
48,208,36581,1,2,0:0:0:0:
72,96,36887,5,2,0:0:0:0:
176,56,37193,1,8,0:0:0:0:
272,112,37499,2,0,P|288:152|288:176,1,56,8|8,0:0|0:0,0:0:0:0:
272,216,37805,2,0,P|264:256|264:280,1,56,8|8,0:0|0:0,0:0:0:0:
352,344,38264,6,0,P|416:328|456:288,1,112,4|2,0:0|0:0,0:0:0:0:
472,248,38723,2,0,P|472:224|464:192,1,56,0|8,0:0|0:0,0:0:0:0:
440,144,39030,1,2,0:0:0:0:
328,160,39336,5,0,0:0:0:0:
328,160,39489,2,0,P|248:152|200:112,1,112,2|0,0:0|0:0,0:0:0:0:
176,104,39948,1,2,0:0:0:0:
176,104,40101,2,0,P|136:96|104:104,1,56,8|0,0:0|0:0,0:0:0:0:
72,120,40407,1,8,0:0:0:0:
48,168,40560,6,0,P|40:216|56:280,1,112,4|0,0:0|0:0,0:0:0:0:
88,320,41019,1,8,0:0:0:0:
200,304,41325,1,0,0:0:0:0:
240,200,41632,5,8,0:0:0:0:
240,200,41785,2,0,P|272:144|320:120,1,112,2|0,0:0|0:0,0:0:0:0:
368,120,42244,1,12,0:0:0:0:
464,176,42550,1,8,0:0:0:0:
464,176,42703,1,8,0:0:0:0:
464,176,42856,1,8,0:0:0:0:
424,280,43162,6,0,P|368:320|304:320,1,112,4|8,0:0|0:0,0:0:0:0:
272,312,43621,1,0,0:0:0:0:
272,312,43774,2,0,P|216:304|160:320,1,112,8|8,0:0|0:0,0:0:0:0:
64,368,44387,5,10,0:0:0:0:
80,256,44693,2,0,P|80:224|72:200,1,56,8|0,0:0|0:0,0:0:0:0:
48,152,44999,2,0,P|56:80|80:48,1,112,8|8,0:0|0:0,0:0:0:0:
184,16,45611,5,10,0:0:0:0:
272,88,45917,1,8,0:0:0:0:
216,184,46223,1,8,0:0:0:0:
264,288,46530,2,0,P|304:312|328:312,1,56,8|0,0:0|0:0,0:0:0:0:
368,320,46836,6,0,P|424:304|464:264,1,112,10|8,0:0|0:0,0:0:0:0:
480,216,47295,1,0,0:0:0:0:
480,216,47448,2,0,P|480:176|472:144,2,56,8|0|8,0:0|0:0|0:0,0:0:0:0:
368,232,48060,6,0,P|312:216|272:160,1,112,4|2,0:0|0:0,0:0:0:0:
288,64,48672,2,0,P|344:80|384:136,1,112,4|2,0:0|0:0,0:0:0:0:
368,232,49285,5,4,0:0:0:0:
224,320,49744,2,0,P|192:320|168:312,1,56,2|2,0:0|0:0,0:0:0:0:
120,288,50050,2,0,P|96:264|88:240,1,56,8|8,0:0|0:0,0:0:0:0:
80,192,50356,6,0,P|80:152|120:88,1,112,4|2,0:0|0:0,0:0:0:0:
160,56,50815,1,8,0:0:0:0:
160,56,50968,2,0,P|208:96|272:104,1,112,4|2,0:0|0:0,0:0:0:0:
312,104,51428,5,8,0:0:0:0:
312,104,51581,2,0,P|392:112|464:168,1,168,4|8,0:0|0:0,0:0:0:0:
488,272,52346,1,0,0:0:0:0:
400,344,52652,5,8,0:0:0:0:
400,344,52805,2,0,P|336:360|280:344,1,112,4|8,0:0|0:0,0:0:0:0:
248,320,53264,2,0,P|232:288|232:256,1,56,8|8,0:0|0:0,0:0:0:0:
248,216,53570,2,0,P|264:176|264:144,2,56,8|8|8,0:0|0:0|0:0,0:0:0:0:
192,232,54030,5,8,0:0:0:0:
96,176,54336,1,8,0:0:0:0:
328,24,55101,1,8,0:0:0:0:
376,48,55254,6,0,P|416:88|432:144,1,112,4|0,0:0|0:0,0:0:0:0:
424,192,55713,1,8,0:0:0:0:
336,264,56019,1,0,0:0:0:0:
256,184,56325,5,8,0:0:0:0:
256,184,56479,2,0,P|184:152|144:152,1,112,2|0,0:0|0:0,0:0:0:0:
96,160,56938,1,8,0:0:0:0:
8,232,57244,2,0,P|64:272|120:272,1,112,0|8,0:0|0:0,0:0:0:0:
160,264,57703,6,0,P|224:256|272:272,1,112,2|0,0:0|0:0,0:0:0:0:
312,304,58162,1,8,0:0:0:0:
424,320,58468,2,0,P|472:288|480:272,1,56,2|0,0:0|0:0,0:0:0:0:
496,240,58774,1,8,0:0:0:0:
480,128,59081,6,0,P|440:72|392:48,1,112,2|8,0:0|0:0,0:0:0:0:
352,40,59540,1,0,0:0:0:0:
352,40,59693,2,0,P|288:40|224:80,1,112,2|8,0:0|0:0,0:0:0:0:
208,104,60152,6,0,P|152:128|88:120,1,112,4|0,0:0|0:0,0:0:0:0:
48,144,60611,2,0,P|32:168|24:200,1,56,8|0,0:0|0:0,0:0:0:0:
40,248,60917,1,2,0:0:0:0:
120,328,61223,5,8,0:0:0:0:
120,328,61377,2,0,P|184:320|232:280,1,112,4|0,0:0|0:0,0:0:0:0:
256,248,61836,2,0,P|280:208|304:192,1,56,8|0,0:0|0:0,0:0:0:0:
336,176,62142,1,2,0:0:0:0:
448,184,62448,5,8,0:0:0:0:
448,184,62601,2,0,P|480:232|480:296,1,112,4|0,0:0|0:0,0:0:0:0:
464,336,63060,1,8,0:0:0:0:
352,352,63366,1,8,0:0:0:0:
264,280,63672,5,8,0:0:0:0:
264,280,63825,1,2,0:0:0:0:
280,168,64132,1,10,0:0:0:0:
200,88,64438,1,8,0:0:0:0:
200,88,64591,1,8,0:0:0:0:
200,88,64744,1,8,0:0:0:0:
88,96,65050,6,0,P|40:136|24:248,1,168,4|8,0:0|0:0,0:0:0:0:
40,288,65662,1,2,0:0:0:0:
40,288,65815,2,0,P|104:328|152:328,1,112,0|8,0:0|0:0,0:0:0:0:
184,296,66274,6,0,P|240:272|296:272,1,112,2|0,0:0|0:0,0:0:0:0:
344,288,66734,1,8,0:0:0:0:
440,232,67040,1,0,0:0:0:0:
360,152,67346,5,8,0:0:0:0:
360,152,67499,2,0,P|256:136|208:152,1,112,2|0,0:0|0:0,0:0:0:0:
200,160,67958,1,8,0:0:0:0:
104,216,68264,1,2,0:0:0:0:
32,128,68570,1,8,0:0:0:0:
112,48,68877,6,0,P|176:24|240:40,1,112,4|8,0:0|0:0,0:0:0:0:
264,64,69336,1,10,0:0:0:0:
264,64,69489,2,0,P|336:88|384:80,1,112,4|8,0:0|0:0,0:0:0:0:
424,72,69948,6,0,P|472:104|496:160,1,112,4|2,0:0|0:0,0:0:0:0:
488,208,70407,1,8,0:0:0:0:
416,296,70713,1,8,0:0:0:0:
304,296,71019,5,8,0:0:0:0:
304,296,71172,2,0,P|264:280|240:256,1,56,0|8,0:0|0:0,0:0:0:0:
184,184,71632,1,8,0:0:0:0:
72,176,71938,1,8,0:0:0:0:
72,176,72091,2,0,P|40:208|24:240,1,56,2|8,0:0|0:0,0:0:0:0:
32,272,72397,6,0,P|72:328|136:352,1,112,4|8,0:0|0:0,0:0:0:0:
168,344,72856,1,8,0:0:0:0:
256,280,73162,1,8,0:0:0:0:
216,176,73468,2,0,P|216:128|224:104,1,56,8|0,0:0|0:0,0:0:0:0:
248,72,73774,6,0,P|312:64|312:112,1,112,4|4,0:0|0:0,0:0:0:0:
304,152,74234,1,0,0:0:0:0:
304,152,74387,2,0,P|336:232|448:272,1,168,2|8,0:0|0:0,0:0:0:0:
312,336,75152,5,2,0:0:0:0:
312,336,75305,2,0,P|240:352|152:320,1,168,2|2,0:0|0:0,0:0:0:0:
80,232,76070,5,8,0:0:0:0:
80,232,76223,2,0,P|64:176|72:120,1,112,8|10,0:0|0:0,0:0:0:0:
96,72,76683,1,8,0:0:0:0:
208,48,76989,1,8,0:0:0:0:
168,152,77295,6,0,P|176:208|208:256,1,112,4|8,0:0|0:0,0:0:0:0:
256,280,77754,1,8,0:0:0:0:
344,352,78060,2,0,P|400:320|416:288,1,56,2|8,0:0|0:0,0:0:0:0:
432,288,78366,5,8,0:0:0:0:
432,288,78519,2,0,P|448:224|432:176,1,112,4|8,0:0|0:0,0:0:0:0:
400,136,78979,2,0,P|384:80|392:24,1,112,8|8,0:0|0:0,0:0:0:0:
296,88,79591,5,8,0:0:0:0:
296,88,79744,2,0,P|232:104|168:80,1,112,4|0,0:0|0:0,0:0:0:0:
136,72,80203,1,8,0:0:0:0:
48,144,80509,1,0,0:0:0:0:
152,192,80815,5,8,0:0:0:0:
152,192,80968,2,0,P|184:240|192:296,1,112,4|0,0:0|0:0,0:0:0:0:
168,344,81428,1,8,0:0:0:0:
280,352,81734,1,0,0:0:0:0:
376,296,82040,5,8,0:0:0:0:
376,296,82193,2,0,P|400:224|392:184,1,112,4|0,0:0|0:0,0:0:0:0:
360,144,82652,1,8,0:0:0:0:
264,88,82958,2,0,L|208:96,2,56,0|8|8,0:0|0:0|0:0,0:0:0:0:
304,48,83417,5,4,0:0:0:0:
400,104,83723,2,0,L|456:96,2,56,2|8|0,0:0|0:0|0:0,0:0:0:0:
400,216,84336,2,0,P|368:256|336:272,1,56,0|8,0:0|0:0,0:0:0:0:
264,304,84795,5,8,0:0:0:0:
264,304,84948,1,8,0:0:0:0:
160,340,85254,1,8,0:0:0:0:
84,256,85560,1,8,0:0:0:0:
148,164,85866,1,12,0:0:0:0:
256,192,86172,5,8,0:0:0:0:
256,192,86325,1,12,0:0:0:0:
256,192,86402,12,8,88621,0:0:0:0:
