osu file format v14

[General]
AudioFilename: audio.mp3
AudioLeadIn: 0
PreviewTime: 54565
Countdown: 0
SampleSet: Soft
StackLeniency: 0.7
Mode: 0
LetterboxInBreaks: 0
WidescreenStoryboard: 0

[Editor]
DistanceSpacing: 1
BeatDivisor: 2
GridSize: 8
TimelineZoom: 1

[Metadata]
Title:METAMORISER(TV Size)
TitleUnicode:METAMORISER(TV Size)
Artist:BAND JA NAIMON!
ArtistUnicode:バンドじゃないもん!
Creator:wcx19911123
Version:Beginner
Source:つぐもも
Tags:Tsugumomo opening 铃姫みさこ Suzuki Misako 恋汐りんご Koishio Ringo 七星ぐみ Nanase Gumi 望月みゆ Mochidsuki Miyu 甘夏ゆず Amanatsu Yuzu 大桃子サンライズ Omomoko Sunrise
BeatmapID:1257357
BeatmapSetID:591607

[Difficulty]
HPDrainRate:0
CircleSize:3
OverallDifficulty:0
ApproachRate:1
SliderMultiplier:0.64
SliderTickRate:1

[Events]
//Background and Video events
0,0,"bg.jpg",0,0
Video,0,"video.flv"
//Break Periods
//Storyboard Layer 0 (Background)
//Storyboard Layer 1 (Fail)
//Storyboard Layer 2 (Pass)
//Storyboard Layer 3 (Foreground)
//Storyboard Sound Samples

[TimingPoints]
-439,373.831775700935,4,2,1,50,1,0
121,-120.048019207683,4,2,1,50,0,0
8265,306.122448979592,4,2,1,60,1,0
8571,-100,4,2,2,60,0,0
8724,-100,4,2,1,60,0,0
8877,306.122448979592,4,2,1,70,1,0
9795,-100,4,2,2,70,0,0
9948,-100,4,2,1,70,0,0
11019,-100,4,2,2,70,0,0
11172,-100,4,2,1,70,0,0
12244,-100,4,2,2,70,0,0
12397,-100,4,2,1,70,0,0
13315,-100,4,2,2,70,0,0
13621,-100,4,2,1,70,0,0
14081,-100,4,2,1,60,0,0
16530,-100,4,2,2,60,0,0
16683,-100,4,2,1,60,0,0
17601,-100,4,2,2,60,0,0
17754,-100,4,2,1,60,0,0
18979,-100,4,2,2,60,0,0
19132,-100,4,2,1,60,0,0
20050,-100,4,2,2,60,0,0
20203,-100,4,2,1,60,0,0
20815,-100,4,2,2,60,0,0
20968,-100,4,2,1,60,0,0
21428,-100,4,2,2,60,0,0
21581,-100,4,2,1,60,0,0
23877,-100,4,2,2,60,0,0
24183,-100,4,2,1,60,0,0
25101,-100,4,2,2,60,0,0
25407,-100,4,2,1,60,0,0
26325,-100,4,2,2,60,0,0
26479,-100,4,2,1,60,0,0
27397,-100,4,2,2,60,0,0
27550,-100,4,2,1,60,0,0
28774,-100,4,2,2,60,0,0
28928,-100,4,2,1,60,0,0
29846,-100,4,2,2,60,0,0
30152,-100,4,2,1,60,0,0
31836,-100,4,2,2,60,0,0
31989,-100,4,2,1,60,0,0
32601,-100,4,2,2,60,0,0
32754,-100,4,2,1,60,0,0
36428,-100,4,2,2,60,0,0
36581,-100,4,2,1,60,0,0
37652,-100,4,2,2,60,0,0
37805,-100,4,2,1,60,0,0
40407,-100,4,2,2,60,0,0
40560,-100,4,2,1,60,0,0
42550,-100,4,2,2,45,0,0
43162,-100,4,2,1,60,0,0
44081,-100,4,2,2,60,0,0
44387,-100,4,2,1,60,0,0
45305,-100,4,2,2,60,0,0
45611,-100,4,2,1,60,0,0
47142,-100,4,2,2,60,0,0
47448,-100,4,2,1,60,0,0
50050,-100,4,2,1,45,0,0
50356,-100,4,2,1,60,0,0
52652,-100,4,2,2,50,0,0
52805,-100,4,2,1,60,0,0
54030,-100,4,2,1,70,0,0
55254,-100,4,2,1,70,0,1
56325,-100,4,2,2,70,0,1
56479,-100,4,2,1,70,0,1
57550,-100,4,2,2,70,0,1
57703,-100,4,2,1,70,0,1
59387,-100,4,2,2,70,0,1
59693,-100,4,2,1,70,0,1
59999,-100,4,2,2,70,0,1
60152,-100,4,2,1,70,0,1
61223,-100,4,2,2,70,0,1
61377,-100,4,2,1,70,0,1
62448,-100,4,2,2,70,0,1
62601,-100,4,2,1,70,0,1
63672,-100,4,2,2,60,0,1
63825,-100,4,2,1,70,0,1
64973,-100,4,2,1,70,0,0
65050,-100,4,2,1,70,0,1
66121,-100,4,2,2,70,0,1
66274,-100,4,2,1,70,0,1
67346,-100,4,2,2,70,0,1
67499,-100,4,2,1,70,0,1
69183,-100,4,2,2,70,0,1
69489,-100,4,2,1,70,0,1
69795,-100,4,2,2,70,0,1
69948,-100,4,2,1,70,0,1
72244,-100,4,2,2,70,0,1
72397,-100,4,2,1,70,0,1
72703,-100,4,2,1,50,0,1
73009,-100,4,2,1,60,0,1
73315,-100,4,2,1,70,0,1
74846,-100,4,2,1,70,0,0
76070,-100,4,2,2,70,0,0
76223,-100,4,2,1,70,0,0
76377,-100,4,2,2,70,0,0
76683,-100,4,2,1,70,0,0
77601,-100,4,2,2,70,0,0
77754,-100,4,2,1,70,0,0
78366,-100,4,2,2,70,0,0
78519,-100,4,2,1,70,0,0
78825,-100,4,2,2,70,0,0
78979,-100,4,2,1,70,0,0
79591,-100,4,2,2,70,0,0
79744,-100,4,2,1,70,0,0
80815,-100,4,2,2,70,0,0
80968,-100,4,2,1,70,0,0
82040,-100,4,2,2,70,0,0
82193,-100,4,2,1,70,0,0
83264,-100,4,2,2,70,0,0
83417,-100,4,2,1,70,0,0
86402,-100,4,2,1,50,0,0
88468,-100,4,2,1,45,0,0

[Colours]
Combo1 : 255,128,233
Combo2 : 47,177,255
Combo3 : 21,232,37

[HitObjects]
192,56,308,6,0,P|144:80|112:128,1,106.623999821035,0|2,0:0|0:0,0:0:0:0:
112,248,1803,2,0,P|136:296|192:328,1,106.623999821035,2|2,0:0|0:0,0:0:0:0:
304,328,3299,6,0,P|336:312|376:248,1,106.623999821035,2|2,0:0|0:0,0:0:0:0:
384,128,4794,1,2,0:0:0:0:
272,64,5542,6,0,P|224:56|152:80,1,106.623999821035,2|2,0:0|0:0,0:0:0:0:
72,152,7037,1,2,0:0:0:0:
248,344,8265,6,0,P|304:320|336:272,2,96,8|4|8,0:0|0:0|0:0,0:0:0:0:
104,280,9948,2,0,P|88:224|104:160,1,96,4|8,0:0|0:0,0:0:0:0:
176,48,11172,6,0,P|216:32|296:40,1,96,4|8,0:0|0:0,0:0:0:0:
416,96,12397,2,0,P|448:136|392:360,1,288,8|4,0:0|0:0,0:0:0:0:
280,368,14387,5,2,0:0:0:0:
152,352,14999,2,0,P|96:304|72:248,1,128,2|0,0:0|0:0,0:0:0:0:
88,128,16223,6,0,P|168:56|280:48,1,224,4|4,0:0|0:0,0:0:0:0:
416,136,18060,1,8,0:0:0:0:
392,264,18672,6,0,P|312:336|200:344,1,224,4|4,0:0|0:0,0:0:0:0:
64,256,20509,2,0,P|40:160|88:48,1,224
208,96,22193,2,0,P|216:184|184:256,1,160,2|2,0:0|0:0,0:0:0:0:
272,344,23570,6,0,P|312:320|360:248,1,128,4|2,0:0|0:0,0:0:0:0:
336,128,24795,2,0,P|264:72|224:64,1,128,2|0,0:0|0:0,0:0:0:0:
104,88,26019,6,0,P|56:136|40:288,1,224,4|2,0:0|0:0,0:0:0:0:
184,352,27856,1,8,0:0:0:0:
304,336,28468,6,0,P|376:288|424:152,2,224,2|4|8,0:0|0:0|0:0,0:0:0:0:
176,320,31223,6,0,P|120:264|104:176,2,160,8|4|8,0:0|0:0|0:0,0:0:0:0:
304,320,33366,6,0,L|352:200,1,128,4|8,0:0|0:0,0:0:0:0:
472,160,34591,2,0,L|416:40,1,128,0|8,0:0|0:0,0:0:0:0:
288,32,35815,6,0,P|176:56|104:144,2,224,4|2|8,0:0|0:0|0:0,0:0:0:0:
448,136,38877,6,0,L|408:264,1,128,8|2,0:0|0:0,0:0:0:0:
304,328,40101,2,0,P|224:344|120:296,1,192,8|8,0:0|0:0,0:0:0:0:
64,192,41632,5,8,0:0:0:0:
128,80,42244,2,0,P|216:40|328:48,1,192,12|4,0:0|0:0,0:0:0:0:
400,128,43774,6,0,L|360:264,1,128,8|10,0:0|0:0,0:0:0:0:
248,200,44999,2,0,P|160:208|112:240,1,128,8|10,0:0|0:0,0:0:0:0:
88,352,46223,5,8,0:0:0:0:
216,344,46836,2,0,P|280:328|336:280,1,128,10|8,0:0|0:0,0:0:0:0:
368,168,48060,5,4,0:0:0:0:
344,40,48672,1,4,0:0:0:0:
248,128,49285,1,4,0:0:0:0:
32,72,50356,6,0,L|184:48,2,128,4|4|4,0:0|0:0|0:0,0:0:0:0:
120,200,52346,6,0,P|120:272|104:312,2,96,0|4|8,0:0|0:0|0:0,0:0:0:0:
256,112,54030,2,0,L|344:128,1,64,8|8,0:0|0:0,0:0:0:0:
512,152,55254,6,0,P|504:208|472:256,1,96,4|8,0:0|0:0,0:0:0:0:
344,320,56479,2,0,P|272:320|232:296,1,96,2|8,0:0|0:0,0:0:0:0:
120,224,57703,6,0,P|104:184|104:128,1,96,2|8,0:0|0:0,0:0:0:0:
272,40,59081,2,0,L|400:72,1,128,2|2,0:0|0:0,0:0:0:0:
464,136,60152,6,0,P|480:184|472:232,1,96,4|8,0:0|0:0,0:0:0:0:
344,320,61377,2,0,P|272:320|232:296,1,96,4|8,0:0|0:0,0:0:0:0:
144,192,62601,6,0,P|144:136|168:88,1,96,4|8,0:0|0:0,0:0:0:0:
312,40,63825,2,0,L|384:64,1,64,2|10,0:0|0:0,0:0:0:0:
464,88,64591,1,8,0:0:0:0:
464,184,65050,6,0,P|448:224|392:272,1,96,4|8,0:0|0:0,0:0:0:0:
312,136,66274,2,0,P|248:112|200:120,1,96,2|8,0:0|0:0,0:0:0:0:
88,208,67499,6,0,P|80:256|96:312,1,96,2|8,0:0|0:0,0:0:0:0:
272,352,68877,2,0,L|384:288,1,128,4|4,0:0|0:0,0:0:0:0:
432,208,69948,6,0,P|424:160|392:120,1,96,4|8,0:0|0:0,0:0:0:0:
232,120,71172,2,0,P|184:112|136:72,1,96,2|8,0:0|0:0,0:0:0:0:
8,168,72397,6,0,L|32:264,1,96,4|8,0:0|0:0,0:0:0:0:
192,368,73774,2,0,L|208:304,1,64,4|4,0:0|0:0,0:0:0:0:
240,152,74846,5,8,0:0:0:0:
384,32,75764,2,0,P|448:32|488:56,2,96,2|8|8,0:0|0:0|0:0,0:0:0:0:
280,104,77295,6,0,P|208:112|120:64,1,160,4|2,0:0|0:0,0:0:0:0:
48,128,78519,2,0,P|104:176|200:208,1,160,4|8,0:0|0:0,0:0:0:0:
280,200,79744,6,0,P|320:200|376:232,1,96,4|8,0:0|0:0,0:0:0:0:
280,360,80968,2,0,L|176:344,1,96,4|8,0:0|0:0,0:0:0:0:
32,312,82193,6,0,P|72:256|80:216,1,96,4|8,0:0|0:0,0:0:0:0:
48,72,83417,2,0,P|128:56|224:104,1,192,4|2,0:0|0:0,0:0:0:0:
256,192,84795,1,8,0:0:0:0:
256,192,85101,12,8,88621,0:0:0:0:
