osu file format v14

[General]
AudioFilename: audio.mp3
AudioLeadIn: 0
PreviewTime: 54565
Countdown: 0
SampleSet: Soft
StackLeniency: 0.7
Mode: 0
LetterboxInBreaks: 0
WidescreenStoryboard: 0

[Editor]
DistanceSpacing: 1.2
BeatDivisor: 4
GridSize: 8
TimelineZoom: 1.3

[Metadata]
Title:METAMORISER(TV Size)
TitleUnicode:METAMORISER(TV Size)
Artist:BAND JA NAIMON!
ArtistUnicode:バンドじゃないもん!
Creator:wcx19911123
Version:Insane
Source:つぐもも
Tags:Tsugumomo opening 铃姫みさこ Suzuki Misako 恋汐りんご Koishio Ringo 七星ぐみ Nanase Gumi 望月みゆ Mochidsuki Miyu 甘夏ゆず Amanatsu Yuzu 大桃子サンライズ Omomoko Sunrise
BeatmapID:1255796
BeatmapSetID:591607

[Difficulty]
HPDrainRate:6
CircleSize:4
OverallDifficulty:8
ApproachRate:9
SliderMultiplier:1.92
SliderTickRate:1

[Events]
//Background and Video events
0,0,"bg.jpg",0,0
Video,0,"video.flv"
//Break Periods
//Storyboard Layer 0 (Background)
//Storyboard Layer 1 (Fail)
//Storyboard Layer 2 (Pass)
//Storyboard Layer 3 (Foreground)
//Storyboard Sound Samples

[TimingPoints]
-439,373.831775700935,4,2,1,50,1,0
121,-120.048019207683,4,2,1,50,0,0
8265,306.122448979592,4,2,1,60,1,0
8877,306.122448979592,4,2,1,70,1,0
9183,-100,4,2,1,50,0,0
9489,-100,4,2,1,70,0,0
10407,-100,4,2,1,50,0,0
10713,-100,4,2,1,70,0,0
11632,-100,4,2,1,50,0,0
11938,-100,4,2,1,70,0,0
13621,-100,4,2,1,50,0,0
13774,-100,4,2,1,70,0,0
14081,-100,4,2,1,60,0,0
24030,-100,4,2,1,45,0,0
24183,-100,4,2,1,60,0,0
25254,-100,4,2,1,45,0,0
25407,-100,4,2,1,60,0,0
37499,-100,4,2,1,45,0,0
37652,-100,4,2,1,60,0,0
42550,-100,4,2,1,45,0,0
42856,-100,4,2,1,60,0,0
50050,-100,4,2,1,45,0,0
50356,-100,4,2,1,60,0,0
53111,-100,4,2,1,55,0,0
53417,-100,4,2,1,60,0,0
53723,-100,4,2,1,65,0,0
54030,-100,4,2,1,70,0,0
55254,-100,4,2,1,70,0,1
63519,-100,4,2,1,50,0,1
63825,-100,4,2,1,70,0,1
64973,-100,4,2,1,70,0,0
65050,-100,4,2,1,70,0,1
72703,-100,4,2,1,50,0,1
73009,-100,4,2,1,60,0,1
73315,-100,4,2,1,70,0,1
74846,-100,4,2,1,70,0,0
80203,-100,4,2,1,50,0,0
80509,-100,4,2,1,70,0,0
81428,-100,4,2,1,50,0,0
81734,-100,4,2,1,70,0,0
82652,-100,4,2,1,50,0,0
82958,-100,4,2,1,70,0,0
86402,-100,4,2,1,50,0,0
88392,-100,4,2,1,5,0,0
88468,-100,4,2,1,45,0,0

[Colours]
Combo1 : 255,128,233
Combo2 : 47,177,255
Combo3 : 21,232,37

[HitObjects]
64,96,121,5,0,0:0:0:0:
152,56,308,2,0,P|232:40|304:56,1,119.951999798665,0|0,0:0|0:0,0:0:0:0:
400,104,869,1,0,0:0:0:0:
448,256,1056,5,2,0:0:0:0:
376,192,1243,1,0,0:0:0:0:
288,152,1430,1,0,0:0:0:0:
192,144,1617,1,0,0:0:0:0:
96,152,1803,2,0,P|112:200|104:272,1,119.951999798665,2|0,0:0|0:0,0:0:0:0:
0,368,2364,1,0,0:0:0:0:
0,216,2551,5,2,0:0:0:0:
56,136,2738,1,0,0:0:0:0:
144,96,2925,1,0,0:0:0:0:
240,80,3112,1,0,0:0:0:0:
336,88,3299,2,0,P|320:128|328:208,1,119.951999798665,2|0,0:0|0:0,0:0:0:0:
408,320,3860,1,0,0:0:0:0:
256,264,4046,6,0,P|184:288|144:328,2,119.951999798665,2|0|0,0:0|0:0|0:0,0:0:0:0:
136,184,4794,2,0,P|96:224|16:240,2,119.951999798665,2|0|0,0:0|0:0|0:0,0:0:0:0:
160,40,5542,5,2,0:0:0:0:
256,24,5729,1,0,0:0:0:0:
352,32,5916,1,0,0:0:0:0:
440,72,6103,1,0,0:0:0:0:
296,112,6289,1,2,0:0:0:0:
200,120,6476,1,0,0:0:0:0:
112,152,6663,1,0,0:0:0:0:
48,224,6850,1,0,0:0:0:0:
192,224,7037,6,0,L|232:224,1,39.9839999328882,2|0,0:0|0:0,0:0:0:0:
192,224,8265,1,8,0:0:0:0:
48,224,8418,1,8,0:0:0:0:
160,152,8571,1,8,0:0:0:0:
248,272,8724,6,0,B|296:320|368:304|368:304|352:280|352:240,1,192,4|0,0:0|0:0,0:0:0:0:
472,264,9183,2,0,L|504:272,2,32,8|2|0,0:0|0:0|0:0,0:0:0:0:
472,264,9336,1,0,0:0:0:0:
424,160,9489,2,0,P|384:136|320:136,1,96,0|0,0:0|0:0,0:0:0:0:
248,208,9795,1,8,0:0:0:0:
56,192,9948,6,0,B|120:192|160:240|160:240|176:280|216:296,1,192,4|0,0:0|0:0,0:0:0:0:
336,288,10407,2,0,L|380:284,2,32,8|2|0,0:0|0:0|0:0,0:0:0:0:
336,288,10560,1,0,0:0:0:0:
352,152,10713,1,0,0:0:0:0:
248,208,10866,1,0,0:0:0:0:
408,224,11019,1,8,0:0:0:0:
408,80,11172,6,0,B|352:48|296:80|296:80|264:64|224:72,1,192,4|0,0:0|0:0,0:0:0:0:
264,176,11632,2,0,L|288:224,2,32,8|2|0,0:0|0:0|0:0,0:0:0:0:
264,176,11785,1,0,0:0:0:0:
168,240,11938,1,0,0:0:0:0:
312,272,12091,1,0,0:0:0:0:
184,328,12244,1,8,0:0:0:0:
96,200,12397,6,0,P|32:176|-8:176,1,96,8|0,0:0|0:0,0:0:0:0:
232,136,12703,2,0,P|168:112|128:112,1,96,8|0,0:0|0:0,0:0:0:0:
368,72,13009,2,0,P|304:48|264:48,1,96,8|0,0:0|0:0,0:0:0:0:
192,224,13315,2,0,B|240:240|280:208|280:208|304:224|304:256,1,144,8|0,0:0|0:0,0:0:0:0:
288,292,13621,2,0,P|264:312|240:320,3,32,0|2|0|4,0:0|0:0|0:0|0:0,0:0:0:0:
368,48,14081,5,0,0:0:0:0:
288,128,14234,1,2,0:0:0:0:
184,176,14387,2,0,P|120:192|64:184,1,96,0|0,0:0|0:0,0:0:0:0:
72,80,14693,2,0,P|136:64|192:72,1,96,2|0,0:0|0:0,0:0:0:0:
280,232,14999,6,0,B|256:276|204:284|204:284|176:336|128:344,1,192,2|0,0:0|0:0,0:0:0:0:
16,320,15458,1,2,0:0:0:0:
96,232,15611,2,0,P|120:176|120:136,1,96,0|0,0:0|0:0,0:0:0:0:
88,32,15917,1,8,0:0:0:0:
216,304,16223,6,0,P|304:336|352:328,1,144,4|0,0:0|0:0,0:0:0:0:
392,312,16530,1,8,0:0:0:0:
344,208,16683,2,0,L|328:104,1,96,8|0,0:0|0:0,0:0:0:0:
224,200,16989,2,0,L|208:96,1,96,8|0,0:0|0:0,0:0:0:0:
400,24,17295,6,0,P|440:88|432:160,1,144,4|0,0:0|0:0,0:0:0:0:
416,192,17601,1,8,0:0:0:0:
312,240,17754,1,8,0:0:0:0:
112,32,18060,1,8,0:0:0:0:
24,272,18366,2,0,P|48:320|88:304,1,96,2|0,0:0|0:0,0:0:0:0:
272,280,18672,6,0,P|176:280|136:248,1,144,4|0,0:0|0:0,0:0:0:0:
120,216,18979,1,8,0:0:0:0:
224,168,19132,2,0,L|216:72,1,96,8|0,0:0|0:0,0:0:0:0:
344,184,19438,2,0,L|336:88,1,96,8|0,0:0|0:0,0:0:0:0:
120,8,19744,6,0,P|104:96|136:156,1,144,4|0,0:0|0:0,0:0:0:0:
160,168,20050,1,8,0:0:0:0:
96,264,20203,1,8,0:0:0:0:
368,352,20509,1,0,0:0:0:0:
384,240,20662,1,2,0:0:0:0:
448,336,20815,1,8,0:0:0:0:
304,256,20968,6,0,P|280:192|304:72,1,192,4|0,0:0|0:0,0:0:0:0:
400,8,21428,1,8,0:0:0:0:
368,152,21581,2,0,P|312:168|176:144,1,192,2|0,0:0|0:0,0:0:0:0:
80,88,22040,1,8,0:0:0:0:
40,224,22193,6,0,P|128:216|224:256,1,192,2|0,0:0|0:0,0:0:0:0:
288,352,22652,1,8,0:0:0:0:
336,248,22805,1,0,0:0:0:0:
272,152,22958,1,2,0:0:0:0:
222,254,23111,1,8,0:0:0:0:
360,320,23264,2,0,P|400:328|424:328,3,48,2|0|2|0,0:0|0:0|0:0|0:0,0:0:0:0:
452,328,23570,5,4,0:0:0:0:
496,48,23877,2,0,P|440:24|384:24,1,96,8|8,0:0|0:0,0:0:0:0:
376,48,24106,1,8,0:0:0:0:
344,72,24183,2,0,P|280:88|224:80,1,96,0|2,0:0|0:0,0:0:0:0:
144,48,24489,1,8,0:0:0:0:
8,280,24795,6,0,P|56:304|104:304,1,96,2|0,0:0|0:0,0:0:0:0:
208,288,25101,1,8,0:0:0:0:
288,208,25254,1,8,0:0:0:0:
329,195,25331,1,8,0:0:0:0:
370,203,25407,2,0,P|418:227|450:267,1,96,0|2,0:0|0:0,0:0:0:0:
496,360,25713,1,8,0:0:0:0:
208,288,26019,6,0,P|176:200|208:128,1,144,4|0,0:0|0:0,0:0:0:0:
216,120,26325,1,8,0:0:0:0:
328,88,26479,2,0,L|432:88,1,96,8|0,0:0|0:0,0:0:0:0:
296,208,26785,2,0,L|400:208,1,96,8|0,0:0|0:0,0:0:0:0:
216,120,27091,6,0,P|168:88|80:80,1,144,2|0,0:0|0:0,0:0:0:0:
48,104,27397,1,8,0:0:0:0:
0,208,27550,1,8,0:0:0:0:
64,304,27703,1,0,0:0:0:0:
112,200,27856,1,8,0:0:0:0:
352,32,28162,2,0,P|400:40|400:80,1,96,2|0,0:0|0:0,0:0:0:0:
464,232,28468,6,0,P|400:176|336:168,1,144,2|0,0:0|0:0,0:0:0:0:
304,184,28774,1,8,0:0:0:0:
216,280,28928,2,0,L|184:184,1,96,0|0,0:0|0:0,0:0:0:0:
88,256,29234,2,0,L|56:160,1,96,8|0,0:0|0:0,0:0:0:0:
192,32,29540,6,0,P|264:48|312:112,1,144,4|0,0:0|0:0,0:0:0:0:
312,144,29846,1,8,0:0:0:0:
264,248,29999,1,8,0:0:0:0:
104,312,30152,2,0,P|32:224|24:144,1,192,4|0,0:0|0:0,0:0:0:0:
64,40,30611,1,8,0:0:0:0:
136,176,30764,6,0,P|184:216|312:240,1,192,4|0,0:0|0:0,0:0:0:0:
368,80,31223,2,0,P|312:56|272:56,1,96,8|2,0:0|0:0,0:0:0:0:
168,96,31530,1,0,0:0:0:0:
304,160,31683,1,0,0:0:0:0:
336,16,31836,1,8,0:0:0:0:
236,128,31989,5,4,0:0:0:0:
504,208,32295,1,8,0:0:0:0:
256,352,32601,1,8,0:0:0:0:
144,320,32754,1,8,0:0:0:0:
48,256,32907,2,0,P|24:216|16:160,2,96,2|8|2,0:0|0:0|0:0,0:0:0:0:
224,240,33366,5,4,0:0:0:0:
304,152,33519,1,0,0:0:0:0:
192,128,33672,1,0,0:0:0:0:
304,232,33825,2,0,P|352:240|400:232,1,96,2|8,0:0|0:0,0:0:0:0:
496,168,34132,1,2,0:0:0:0:
280,352,34438,2,0,L|232:352,1,48,2|0,0:0|0:0,0:0:0:0:
192,352,34591,6,0,P|136:336|104:304,1,96,0|8,0:0|0:0,0:0:0:0:
80,200,34897,1,0,0:0:0:0:
128,96,35050,1,2,0:0:0:0:
192,192,35203,1,8,0:0:0:0:
56,128,35356,1,2,0:0:0:0:
320,24,35662,1,2,0:0:0:0:
416,120,35815,6,0,P|344:112|232:152,1,192,4|0,0:0|0:0,0:0:0:0:
168,256,36274,1,0,0:0:0:0:
276,216,36428,1,8,0:0:0:0:
160,144,36581,1,2,0:0:0:0:
16,360,36887,5,2,0:0:0:0:
288,288,37193,1,8,0:0:0:0:
176,256,37346,1,0,0:0:0:0:
256,176,37499,1,8,0:0:0:0:
298,173,37575,1,8,0:0:0:0:
340,183,37652,1,8,0:0:0:0:
400,280,37805,1,8,0:0:0:0:
440,152,37958,2,0,P|416:104|376:80,1,96,8|2,0:0|0:0,0:0:0:0:
184,40,38264,5,4,0:0:0:0:
280,112,38417,1,0,0:0:0:0:
280,112,38494,1,0,0:0:0:0:
280,112,38570,1,2,0:0:0:0:
176,160,38723,1,0,0:0:0:0:
176,160,38800,1,0,0:0:0:0:
176,160,38877,1,8,0:0:0:0:
80,96,39030,1,2,0:0:0:0:
24,360,39336,1,0,0:0:0:0:
120,296,39489,5,2,0:0:0:0:
16,248,39642,1,8,0:0:0:0:
96,368,39795,1,0,0:0:0:0:
200,312,39948,1,2,0:0:0:0:
200,312,40024,1,0,0:0:0:0:
200,312,40101,1,8,0:0:0:0:
152,208,40254,1,0,0:0:0:0:
48,256,40407,1,8,0:0:0:0:
120,136,40560,6,0,P|192:96|304:96,1,192,4|0,0:0|0:0,0:0:0:0:
408,136,41019,1,8,0:0:0:0:
424,248,41172,1,2,0:0:0:0:
320,208,41325,1,0,0:0:0:0:
228,276,41479,1,0,0:0:0:0:
336,320,41632,1,8,0:0:0:0:
240,200,41785,6,0,P|160:176|48:192,1,192,2|0,0:0|0:0,0:0:0:0:
56,352,42244,2,0,P|112:312|128:280,1,96,12|0,0:0|0:0,0:0:0:0:
144,128,42550,1,8,0:0:0:0:
144,128,42627,1,8,0:0:0:0:
144,128,42703,1,8,0:0:0:0:
72,40,42856,1,8,0:0:0:0:
304,208,43162,6,0,P|400:200|488:144,1,192,4|8,0:0|0:0,0:0:0:0:
512,40,43621,1,0,0:0:0:0:
400,40,43774,2,0,P|360:56|320:96,1,96,8|0,0:0|0:0,0:0:0:0:
304,208,44081,1,8,0:0:0:0:
304,208,44234,1,0,0:0:0:0:
216,280,44387,6,0,P|136:288|96:272,1,96,10|0,0:0|0:0,0:0:0:0:
24,224,44693,1,8,0:0:0:0:
24,224,44846,1,0,0:0:0:0:
48,112,44999,1,8,0:0:0:0:
104,224,45152,1,0,0:0:0:0:
104,224,45305,1,8,0:0:0:0:
104,224,45458,1,0,0:0:0:0:
168,128,45611,6,0,P|224:96|288:88,1,96,10|0,0:0|0:0,0:0:0:0:
296,96,45841,1,0,0:0:0:0:
296,96,45917,2,0,P|272:152|272:208,1,96,8|0,0:0|0:0,0:0:0:0:
296,224,46147,1,0,0:0:0:0:
296,224,46223,2,0,L|400:200,1,96,8|0,0:0|0:0,0:0:0:0:
504,176,46530,1,8,0:0:0:0:
424,96,46683,1,0,0:0:0:0:
456,240,46836,6,0,P|448:288|416:336,1,96,10|0,0:0|0:0,0:0:0:0:
312,360,47142,1,8,0:0:0:0:
208,312,47295,1,0,0:0:0:0:
72,288,47448,2,0,P|120:248|136:208,1,96,8|0,0:0|0:0,0:0:0:0:
144,104,47754,1,8,0:0:0:0:
416,24,48060,6,0,P|440:104|408:216,1,192,4|2,0:0|0:0,0:0:0:0:
96,360,48672,2,0,P|72:280|104:168,1,192,4|2,0:0|0:0,0:0:0:0:
400,32,49285,5,4,0:0:0:0:
256,360,49744,1,2,0:0:0:0:
256,360,49820,1,0,0:0:0:0:
256,360,49897,1,2,0:0:0:0:
152,304,50050,1,8,0:0:0:0:
160,264,50127,1,8,0:0:0:0:
168,224,50203,1,8,0:0:0:0:
40,152,50356,6,0,P|88:152|208:80,1,192,4|2,0:0|0:0,0:0:0:0:
224,40,50739,1,0,0:0:0:0:
224,40,50815,1,8,0:0:0:0:
368,40,50968,2,0,P|328:88|312:216,1,192,4|2,0:0|0:0,0:0:0:0:
328,256,51351,1,0,0:0:0:0:
328,256,51428,1,8,0:0:0:0:
256,368,51581,6,0,P|208:280|128:232,1,192,4|2,0:0|0:0,0:0:0:0:
16,216,52040,1,8,0:0:0:0:
88,128,52193,1,0,0:0:0:0:
200,104,52346,2,0,P|256:104|312:128,1,96,0|2,0:0|0:0,0:0:0:0:
376,200,52652,1,8,0:0:0:0:
336,336,52805,6,0,P|224:320|160:264,1,192,4|8,0:0|0:0,0:0:0:0:
128,160,53264,1,8,0:0:0:0:
192,64,53417,1,8,0:0:0:0:
248,168,53570,1,8,0:0:0:0:
120,88,53723,1,8,0:0:0:0:
272,88,53877,1,8,0:0:0:0:
184,240,54030,5,8,0:0:0:0:
448,128,54336,1,8,0:0:0:0:
448,128,55101,1,8,0:0:0:0:
312,80,55254,6,0,P|248:72|120:128,1,192,4|0,0:0|0:0,0:0:0:0:
72,216,55713,1,8,0:0:0:0:
192,296,55866,1,2,0:0:0:0:
256,200,56019,1,0,0:0:0:0:
144,192,56172,1,2,0:0:0:0:
264,272,56325,1,8,0:0:0:0:
296,136,56479,6,0,P|336:88|456:48,1,192,2|0,0:0|0:0,0:0:0:0:
504,152,56938,1,8,0:0:0:0:
368,192,57091,2,0,P|296:136|192:120,1,192,2|2,0:0|0:0,0:0:0:0:
96,168,57550,1,8,0:0:0:0:
136,312,57703,6,0,P|184:272|320:256,1,192,2|0,0:0|0:0,0:0:0:0:
408,312,58162,1,8,0:0:0:0:
296,328,58315,1,0,0:0:0:0:
328,176,58468,1,2,0:0:0:0:
424,240,58621,1,0,0:0:0:0:
360,368,58774,1,8,0:0:0:0:
80,320,59081,6,0,P|56:232|80:136,1,192,2|8,0:0|0:0,0:0:0:0:
152,48,59540,1,0,0:0:0:0:
192,160,59693,2,0,P|264:192|320:184,1,96,2|2,0:0|0:0,0:0:0:0:
392,160,59999,1,8,0:0:0:0:
288,304,60152,6,0,P|176:328|104:304,1,192,4|0,0:0|0:0,0:0:0:0:
16,232,60611,1,8,0:0:0:0:
80,136,60764,1,0,0:0:0:0:
128,240,60917,1,2,0:0:0:0:
8,160,61070,1,2,0:0:0:0:
104,64,61223,1,8,0:0:0:0:
184,184,61377,6,0,P|256:216|384:208,1,192,4|0,0:0|0:0,0:0:0:0:
472,152,61836,1,8,0:0:0:0:
352,140,61989,1,0,0:0:0:0:
444,224,62142,1,2,0:0:0:0:
416,100,62295,1,2,0:0:0:0:
367,213,62448,1,8,0:0:0:0:
288,96,62601,6,0,P|232:72|80:80,1,192,4|0,0:0|0:0,0:0:0:0:
48,224,63060,2,0,P|96:208|144:160,1,96,8|2,0:0|0:0,0:0:0:0:
192,16,63366,1,8,0:0:0:0:
248,136,63519,1,8,0:0:0:0:
248,136,63596,1,8,0:0:0:0:
248,136,63672,1,8,0:0:0:0:
376,88,63825,5,2,0:0:0:0:
432,344,64132,1,10,0:0:0:0:
376,88,64438,1,8,0:0:0:0:
344,228,64591,1,8,0:0:0:0:
432,344,64744,1,8,0:0:0:0:
248,136,65050,6,0,P|176:112|56:128,1,192,4|0,0:0|0:0,0:0:0:0:
0,224,65509,1,8,0:0:0:0:
112,232,65662,1,2,0:0:0:0:
224,200,65815,2,0,P|264:168|288:128,1,96,0|2,0:0|0:0,0:0:0:0:
304,16,66121,1,8,0:0:0:0:
376,152,66274,6,0,P|336:224|248:288,1,192,2|0,0:0|0:0,0:0:0:0:
136,312,66734,1,8,0:0:0:0:
56,232,66887,1,2,0:0:0:0:
168,200,67040,1,0,0:0:0:0:
204,344,67193,1,2,0:0:0:0:
64,304,67346,1,8,0:0:0:0:
96,168,67499,6,0,P|128:112|240:56,1,192,2|0,0:0|0:0,0:0:0:0:
312,184,67958,2,0,P|368:184|416:160,1,96,8|0,0:0|0:0,0:0:0:0:
472,72,68264,1,2,0:0:0:0:
360,64,68417,1,0,0:0:0:0:
480,152,68570,1,8,0:0:0:0:
280,352,68877,6,0,P|168:352|80:288,1,192,4|8,0:0|0:0,0:0:0:0:
24,224,69336,1,10,0:0:0:0:
192,240,69489,2,0,P|256:224|288:192,1,96,4|2,0:0|0:0,0:0:0:0:
328,104,69795,1,8,0:0:0:0:
200,16,69948,6,0,P|160:64|144:192,1,192,4|2,0:0|0:0,0:0:0:0:
184,312,70407,1,8,0:0:0:0:
296,336,70560,1,0,0:0:0:0:
376,256,70713,1,8,0:0:0:0:
264,224,70866,1,2,0:0:0:0:
368,328,71019,1,8,0:0:0:0:
440,216,71172,6,0,P|448:168|432:112,2,96,0|8|2,0:0|0:0|0:0,0:0:0:0:
304,288,71632,1,8,0:0:0:0:
216,216,71785,1,0,0:0:0:0:
320,176,71938,1,8,0:0:0:0:
232,288,72091,2,0,P|184:312|120:312,1,96,2|8,0:0|0:0,0:0:0:0:
64,136,72397,6,0,P|112:88|232:64,1,192,4|8,0:0|0:0,0:0:0:0:
336,104,72856,1,8,0:0:0:0:
368,216,73009,1,8,0:0:0:0:
280,288,73162,1,8,0:0:0:0:
304,176,73315,1,8,0:0:0:0:
352,288,73468,1,8,0:0:0:0:
232,344,73621,1,0,0:0:0:0:
112,264,73774,6,0,P|64:264|64:304,1,96,4|0,0:0|0:0,0:0:0:0:
168,144,74081,2,0,P|192:192|144:200,1,96,4|0,0:0|0:0,0:0:0:0:
56,168,74387,1,2,0:0:0:0:
128,80,74540,1,0,0:0:0:0:
165,207,74693,1,0,0:0:0:0:
56,96,74846,1,8,0:0:0:0:
56,96,75152,5,2,0:0:0:0:
152,160,75305,1,2,0:0:0:0:
48,208,75458,1,0,0:0:0:0:
128,88,75611,1,0,0:0:0:0:
216,200,75764,1,2,0:0:0:0:
216,200,76070,5,8,0:0:0:0:
104,156,76223,1,8,0:0:0:0:
232,64,76377,1,8,0:0:0:0:
296,208,76530,1,10,0:0:0:0:
168,112,76683,1,8,0:0:0:0:
464,72,76989,1,8,0:0:0:0:
336,320,77295,6,0,P|224:360|120:328,1,192,4|8,0:0|0:0,0:0:0:0:
56,288,77754,1,8,0:0:0:0:
208,168,78060,2,0,P|176:240|144:256,1,96,2|8,0:0|0:0,0:0:0:0:
56,288,78366,1,8,0:0:0:0:
120,120,78519,6,0,P|160:80|296:120,1,192,4|8,0:0|0:0,0:0:0:0:
312,216,78979,1,8,0:0:0:0:
208,168,79132,1,8,0:0:0:0:
344,144,79285,1,8,0:0:0:0:
368,280,79438,1,2,0:0:0:0:
240,240,79591,1,8,0:0:0:0:
88,296,79744,6,0,B|120:264|168:280|168:280|200:328|260:320,1,192,4|0,0:0|0:0,0:0:0:0:
320,224,80203,2,0,L|344:184,2,32,8|2|0,0:0|0:0|0:0,0:0:0:0:
320,224,80356,1,0,0:0:0:0:
240,144,80509,2,0,P|232:88|256:40,1,96,0|0,0:0|0:0,0:0:0:0:
352,0,80815,1,8,0:0:0:0:
456,112,80968,6,0,B|448:164|396:192|396:192|412:240|384:276,1,192,4|0,0:0|0:0,0:0:0:0:
272,304,81428,2,0,L|216:320,2,32,8|2|0,0:0|0:0|0:0,0:0:0:0:
272,304,81581,1,0,0:0:0:0:
160,272,81734,1,0,0:0:0:0:
184,160,81887,1,0,0:0:0:0:
272,232,82040,1,8,0:0:0:0:
128,208,82193,6,0,B|72:176|72:112|72:112|112:112|144:88,1,192,4|0,0:0|0:0,0:0:0:0:
232,24,82652,2,0,L|264:0,2,32,8|2|0,0:0|0:0|0:0,0:0:0:0:
232,24,82805,1,0,0:0:0:0:
288,128,82958,1,0,0:0:0:0:
176,160,83111,1,8,0:0:0:0:
304,60,83264,1,8,0:0:0:0:
392,184,83417,5,4,0:0:0:0:
112,328,83723,1,2,0:0:0:0:
112,328,83877,1,8,0:0:0:0:
48,232,84030,1,0,0:0:0:0:
304,48,84336,1,0,0:0:0:0:
280,160,84489,1,8,0:0:0:0:
488,352,84795,5,8,0:0:0:0:
472,312,84871,1,8,0:0:0:0:
456,272,84948,1,8,0:0:0:0:
192,152,85254,1,8,0:0:0:0:
448,48,85560,1,8,0:0:0:0:
144,80,85866,1,12,0:0:0:0:
312,296,86172,5,8,0:0:0:0:
256,192,86325,1,12,0:0:0:0:
256,192,86402,12,0,88392,0:0:0:0:
176,240,88468,6,0,L|168:304,2,48,8|8|8,0:0|0:0|0:0,0:0:0:0:
