osu file format v14

[General]
AudioFilename: audio.mp3
AudioLeadIn: 0
PreviewTime: 54565
Countdown: 0
SampleSet: Soft
StackLeniency: 0.7
Mode: 0
LetterboxInBreaks: 0
WidescreenStoryboard: 0

[Editor]
DistanceSpacing: 1
BeatDivisor: 4
GridSize: 8
TimelineZoom: 1.5

[Metadata]
Title:METAMORISER(TV Size)
TitleUnicode:METAMORISER(TV Size)
Artist:BAND JA NAIMON!
ArtistUnicode:バンドじゃないもん!
Creator:wcx19911123
Version:Extra
Source:つぐもも
Tags:Tsugumomo opening 铃姫みさこ Suzuki Misako 恋汐りんご Koishio Ringo 七星ぐみ Nanase Gumi 望月みゆ Mochidsuki Miyu 甘夏ゆず Amanatsu Yuzu 大桃子サンライズ Omomoko Sunrise
BeatmapID:1253228
BeatmapSetID:591607

[Difficulty]
HPDrainRate:6.5
CircleSize:4
OverallDifficulty:8.4
ApproachRate:9.4
SliderMultiplier:1.92
SliderTickRate:1

[Events]
//Background and Video events
0,0,"bg.jpg",0,0
Video,0,"video.flv"
//Break Periods
//Storyboard Layer 0 (Background)
//Storyboard Layer 1 (Fail)
//Storyboard Layer 2 (Pass)
//Storyboard Layer 3 (Foreground)
//Storyboard Sound Samples

[TimingPoints]
-439,373.831775700935,4,2,1,50,1,0
121,-120.048019207683,4,2,1,50,0,0
8265,306.122448979592,4,2,1,60,1,0
8877,306.122448979592,4,2,1,70,1,0
9183,-100,4,2,1,50,0,0
9489,-100,4,2,1,70,0,0
10407,-100,4,2,1,50,0,0
10713,-100,4,2,1,70,0,0
11632,-100,4,2,1,50,0,0
11938,-100,4,2,1,70,0,0
13621,-100,4,2,1,50,0,0
13774,-100,4,2,1,70,0,0
14081,-100,4,2,1,60,0,0
24030,-100,4,2,1,45,0,0
24183,-100,4,2,1,60,0,0
25254,-100,4,2,1,45,0,0
25407,-100,4,2,1,60,0,0
37499,-100,4,2,1,45,0,0
37652,-100,4,2,1,60,0,0
42550,-100,4,2,1,45,0,0
42856,-100,4,2,1,60,0,0
50050,-100,4,2,1,45,0,0
50356,-100,4,2,1,60,0,0
53111,-100,4,2,1,55,0,0
53417,-100,4,2,1,60,0,0
53723,-100,4,2,1,65,0,0
54030,-100,4,2,1,70,0,0
55254,-100,4,2,1,70,0,1
63519,-100,4,2,1,50,0,1
63825,-100,4,2,1,70,0,1
64973,-100,4,2,1,70,0,0
65050,-100,4,2,1,70,0,1
72703,-100,4,2,1,50,0,1
73009,-100,4,2,1,60,0,1
73315,-100,4,2,1,70,0,1
74846,-100,4,2,1,70,0,0
80203,-100,4,2,1,50,0,0
80509,-100,4,2,1,70,0,0
81428,-100,4,2,1,50,0,0
81734,-100,4,2,1,70,0,0
82652,-100,4,2,1,50,0,0
82958,-100,4,2,1,70,0,0
86402,-100,4,2,1,50,0,0
88392,-100,4,2,1,5,0,0
88468,-100,4,2,1,45,0,0

[Colours]
Combo1 : 255,128,233
Combo2 : 47,177,255
Combo3 : 21,232,37

[HitObjects]
80,136,121,5,0,0:0:0:0:
168,96,308,2,0,P|240:88|304:104,1,119.951999798665
392,184,869,1,0,0:0:0:0:
320,8,1056,5,2,0:0:0:0:
286,97,1243,1,0,0:0:0:0:
224,168,1430,1,0,0:0:0:0:
136,208,1617,1,0,0:0:0:0:
40,216,1803,2,0,P|80:240|152:248,1,119.951999798665,2|0,0:0|0:0,0:0:0:0:
296,216,2364,1,0,0:0:0:0:
136,344,2551,5,2,0:0:0:0:
151,248,2738,1,0,0:0:0:0:
192,160,2925,1,0,0:0:0:0:
256,88,3112,1,0,0:0:0:0:
344,48,3299,2,0,P|312:88|248:120,1,119.951999798665,2|0,0:0|0:0,0:0:0:0:
112,144,3860,1,0,0:0:0:0:
288,208,4046,6,0,P|328:248|344:288,1,79.9679998657764,2|0,0:0|0:0,0:0:0:0:
416,352,4327,2,0,P|408:304|432:224,1,119.951999798665
496,80,4794,2,0,P|464:104|416:112,1,79.9679998657764,2|0,0:0|0:0,0:0:0:0:
296,64,5075,2,0,P|344:112|360:168,1,119.951999798665
320,352,5542,5,2,0:0:0:0:
304,256,5729,1,0,0:0:0:0:
248,176,5916,1,0,0:0:0:0:
160,136,6103,1,0,0:0:0:0:
112,312,6289,1,2,0:0:0:0:
144,224,6476,1,0,0:0:0:0:
200,144,6663,1,0,0:0:0:0:
280,88,6850,1,0,0:0:0:0:
448,208,7037,6,0,L|480:232,1,39.9839999328882,2|0,0:0|0:0,0:0:0:0:
448,208,8265,1,8,0:0:0:0:
280,88,8418,1,8,0:0:0:0:
384,304,8571,1,8,0:0:0:0:
240,176,8724,6,0,B|200:160|188:124|188:124|176:160|176:160|144:136|96:152,1,192,4|0,0:0|0:0,0:0:0:0:
333,204,9183,2,0,L|360:176,2,32,8|2|0,0:0|0:0|0:0,0:0:0:0:
248,272,9336,1,0,0:0:0:0:
280,88,9489,1,0,0:0:0:0:
448,176,9642,1,0,0:0:0:0:
376,16,9795,1,8,0:0:0:0:
240,176,9948,6,0,B|204:196|164:184|164:184|216:232|220:288,1,192,4|0,0:0|0:0,0:0:0:0:
194,96,10407,2,0,L|234:80,2,32,8|2|0,0:0|0:0|0:0,0:0:0:0:
72,136,10560,1,0,0:0:0:0:
240,176,10713,1,0,0:0:0:0:
120,296,10866,1,0,0:0:0:0:
352,272,11019,1,8,0:0:0:0:
194,96,11172,6,0,B|184:56|218:32|218:32|256:72|328:72,1,192,4|0,0:0|0:0,0:0:0:0:
256,216,11632,2,0,L|216:240,2,32,8|2|0,0:0|0:0|0:0,0:0:0:0:
360,168,11785,1,0,0:0:0:0:
304,336,11938,1,0,0:0:0:0:
440,192,12091,1,0,0:0:0:0:
224,136,12244,1,8,0:0:0:0:
392,296,12397,6,0,P|440:304|496:288,1,96,8|0,0:0|0:0,0:0:0:0:
200,256,12703,2,0,P|248:264|304:248,1,96,8|0,0:0|0:0,0:0:0:0:
8,216,13009,2,0,P|56:224|112:208,1,96,8|0,0:0|0:0,0:0:0:0:
485,293,13315,2,0,B|442:314|392:296|392:296|376:328|344:344,1,144,8|0,0:0|0:0,0:0:0:0:
272,344,13621,2,0,L|224:328,3,32,0|2|0|4,0:0|0:0|0:0|0:0,0:0:0:0:
376,8,14081,6,0,P|408:56|416:104,1,96,0|2,0:0|0:0,0:0:0:0:
408,208,14387,1,0,0:0:0:0:
512,160,14540,1,0,0:0:0:0:
312,144,14693,2,0,P|256:144|216:160,1,96,2|0,0:0|0:0,0:0:0:0:
384,336,14999,6,0,P|312:360|192:344,1,192,2|0,0:0|0:0,0:0:0:0:
104,280,15458,1,2,0:0:0:0:
112,144,15611,1,0,0:0:0:0:
200,264,15764,1,0,0:0:0:0:
16,184,15917,2,0,P|8:120|24:80,1,96,8|0,0:0|0:0,0:0:0:0:
368,24,16223,6,0,P|400:88|400:160,1,144,4|0,0:0|0:0,0:0:0:0:
384,200,16530,1,8,0:0:0:0:
224,272,16683,2,0,L|112:264,1,96,8|0,0:0|0:0,0:0:0:0:
256,128,16989,2,0,L|144:120,1,96,8|0,0:0|0:0,0:0:0:0:
240,368,17295,6,0,P|304:328|320:256,1,144,4|0,0:0|0:0,0:0:0:0:
312,224,17601,1,8,0:0:0:0:
128,265,17754,1,8,0:0:0:0:
288,24,18060,1,8,0:0:0:0:
424,312,18366,2,0,P|464:328|480:272,1,96,2|0,0:0|0:0,0:0:0:0:
272,144,18672,6,0,P|176:152|136:176,1,144,4|0,0:0|0:0,0:0:0:0:
112,208,18979,1,8,0:0:0:0:
40,64,19132,2,0,L|24:160,1,96,8|0,0:0|0:0,0:0:0:0:
224,264,19438,2,0,L|208:360,1,96,8|0,0:0|0:0,0:0:0:0:
176,112,19744,6,0,P|224:64|304:56,1,144,4|0,0:0|0:0,0:0:0:0:
336,72,20050,1,8,0:0:0:0:
224,264,20203,1,8,0:0:0:0:
496,144,20509,1,0,0:0:0:0:
328,176,20662,1,2,0:0:0:0:
448,56,20815,1,8,0:0:0:0:
424,232,20968,6,0,P|408:280|336:344,1,144,4|0,0:0|0:0,0:0:0:0:
296,344,21274,1,0,0:0:0:0:
184,320,21428,1,8,0:0:0:0:
104,160,21581,2,0,P|176:136|248:152,1,144,2|0,0:0|0:0,0:0:0:0:
272,176,21887,1,0,0:0:0:0:
304,288,22040,1,8,0:0:0:0:
56,280,22193,6,0,P|16:200|16:144,1,144,2|0,0:0|0:0,0:0:0:0:
24,104,22499,1,0,0:0:0:0:
168,232,22652,2,0,P|224:248|264:240,1,96,8|0,0:0|0:0,0:0:0:0:
368,200,22958,1,2,0:0:0:0:
224,128,23111,1,8,0:0:0:0:
336,336,23264,2,0,P|368:352|392:352,1,48,2|0,0:0|0:0,0:0:0:0:
424,352,23417,2,0,P|432:352|456:344,2,32,2|0|0,0:0|0:0|0:0,0:0:0:0:
488,320,23570,5,4,0:0:0:0:
312,48,23877,1,8,0:0:0:0:
248,160,24030,1,8,0:0:0:0:
206,183,24106,1,8,0:0:0:0:
161,200,24183,2,0,P|113:212|62:205,1,96,0|2,0:0|0:0,0:0:0:0:
240,312,24489,2,0,P|280:336|336:344,1,96,8|0,0:0|0:0,0:0:0:0:
472,296,24795,5,2,0:0:0:0:
320,224,24948,1,0,0:0:0:0:
384,64,25101,1,8,0:0:0:0:
248,160,25254,1,8,0:0:0:0:
206,183,25330,1,8,0:0:0:0:
161,200,25407,2,0,P|113:212|62:205,1,96,0|2,0:0|0:0,0:0:0:0:
240,312,25713,2,0,P|280:336|336:344,1,96,8|2,0:0|0:0,0:0:0:0:
448,56,26019,6,0,P|402:28|303:14,1,144,4|0,0:0|0:0,0:0:0:0:
272,24,26325,1,8,0:0:0:0:
376,176,26479,2,0,L|272:160,1,96,8|0,0:0|0:0,0:0:0:0:
256,328,26785,2,0,L|152:312,1,96,8|0,0:0|0:0,0:0:0:0:
464,120,27091,6,0,P|480:176|440:256,1,144,2|0,0:0|0:0,0:0:0:0:
408,272,27397,1,8,0:0:0:0:
281,161,27550,1,8,0:0:0:0:
392,40,27703,1,0,0:0:0:0:
445,251,27856,1,8,0:0:0:0:
120,88,28162,2,0,P|64:96|72:128,1,96,2|0,0:0|0:0,0:0:0:0:
192,312,28468,6,0,P|240:272|256:192,1,144,2|0,0:0|0:0,0:0:0:0:
248,152,28774,1,8,0:0:0:0:
136,208,28928,2,0,L|40:200,1,96
296,56,29234,2,0,L|200:48,1,96,8|0,0:0|0:0,0:0:0:0:
272,288,29540,6,0,P|320:320|416:320,1,144,4|0,0:0|0:0,0:0:0:0:
440,304,29846,1,8,0:0:0:0:
472,192,29999,1,8,0:0:0:0:
248,152,30152,2,0,P|192:174|144:240,1,144,4|0,0:0|0:0,0:0:0:0:
144,284,30458,1,0,0:0:0:0:
232,360,30611,1,8,0:0:0:0:
360,176,30764,6,0,P|352:104|296:48,1,144,4|0,0:0|0:0,0:0:0:0:
264,40,31070,1,0,0:0:0:0:
288,272,31223,2,0,P|336:296|384:296,1,96,8|2,0:0|0:0,0:0:0:0:
512,216,31530,1,0,0:0:0:0:
408,56,31683,1,0,0:0:0:0:
248,152,31836,1,8,0:0:0:0:
480,120,31989,5,4,0:0:0:0:
216,352,32295,1,8,0:0:0:0:
24,24,32601,1,8,0:0:0:0:
24,24,32754,1,8,0:0:0:0:
144,104,32907,1,2,0:0:0:0:
144,104,33060,1,8,0:0:0:0:
144,104,33213,1,2,0:0:0:0:
336,32,33366,5,4,0:0:0:0:
280,272,33519,1,0,0:0:0:0:
96,216,33672,1,0,0:0:0:0:
304,120,33825,2,0,P|360:120|416:144,1,96,2|8,0:0|0:0,0:0:0:0:
496,304,34132,1,2,0:0:0:0:
32,160,34438,2,0,L|32:112,1,48,2|0,0:0|0:0,0:0:0:0:
32,72,34591,5,0,0:0:0:0:
144,224,34744,1,8,0:0:0:0:
280,32,34897,1,0,0:0:0:0:
320,264,35050,2,0,P|344:312|376:344,1,96,2|8,0:0|0:0,0:0:0:0:
496,112,35356,1,2,0:0:0:0:
32,72,35662,1,2,0:0:0:0:
232,152,35815,6,0,B|168:160|120:120|120:120|104:152|64:168,1,192,4|0,0:0|0:0,0:0:0:0:
208,24,36274,1,0,0:0:0:0:
144,264,36428,1,8,0:0:0:0:
368,96,36581,2,0,P|424:80|472:88,1,96,2|0,0:0|0:0,0:0:0:0:
432,256,36887,5,2,0:0:0:0:
67,166,37193,1,8,0:0:0:0:
232,152,37346,1,0,0:0:0:0:
144,264,37499,1,8,0:0:0:0:
144,264,37575,1,8,0:0:0:0:
144,264,37652,1,8,0:0:0:0:
192,72,37805,1,8,0:0:0:0:
280,288,37958,2,0,P|320:336|352:352,1,96,8|2,0:0|0:0,0:0:0:0:
360,48,38264,5,4,0:0:0:0:
480,160,38417,1,0,0:0:0:0:
472,208,38494,1,0,0:0:0:0:
464,256,38570,1,2,0:0:0:0:
248,192,38723,1,0,0:0:0:0:
288,168,38800,1,0,0:0:0:0:
328,144,38877,1,8,0:0:0:0:
456,304,39030,1,2,0:0:0:0:
88,352,39336,1,0,0:0:0:0:
16,208,39489,5,2,0:0:0:0:
176,136,39642,1,8,0:0:0:0:
168,320,39795,1,0,0:0:0:0:
24,256,39948,1,2,0:0:0:0:
16,208,40024,1,0,0:0:0:0:
8,160,40101,1,8,0:0:0:0:
184,48,40254,1,0,0:0:0:0:
0,112,40407,1,8,0:0:0:0:
168,232,40560,6,0,P|224:264|352:264,1,192,4|0,0:0|0:0,0:0:0:0:
440,192,41019,1,8,0:0:0:0:
472,80,41172,1,2,0:0:0:0:
280,92,41325,1,0,0:0:0:0:
328,196,41479,1,0,0:0:0:0:
372,20,41632,1,8,0:0:0:0:
168,40,41785,6,0,P|112:72|56:184,1,192,2|0,0:0|0:0,0:0:0:0:
88,296,42244,1,12,0:0:0:0:
184,360,42397,1,0,0:0:0:0:
288,240,42550,1,8,0:0:0:0:
280,192,42627,1,8,0:0:0:0:
272,144,42703,1,8,0:0:0:0:
384,8,42856,1,8,0:0:0:0:
480,304,43162,6,0,P|408:352|296:352,1,192,4|8,0:0|0:0,0:0:0:0:
200,304,43621,1,0,0:0:0:0:
360,216,43774,1,8,0:0:0:0:
392,104,43928,1,0,0:0:0:0:
168,192,44081,1,8,0:0:0:0:
136,80,44234,1,0,0:0:0:0:
360,32,44387,5,10,0:0:0:0:
464,72,44540,1,0,0:0:0:0:
208,120,44693,1,8,0:0:0:0:
96,152,44846,1,0,0:0:0:0:
304,272,44999,1,8,0:0:0:0:
408,312,45152,1,0,0:0:0:0:
408,312,45305,1,8,0:0:0:0:
408,312,45458,1,0,0:0:0:0:
208,336,45611,6,0,L|112:352,1,96,10|0,0:0|0:0,0:0:0:0:
64,248,45841,1,0,0:0:0:0:
64,248,45917,2,0,L|176:280,1,96,8|0,0:0|0:0,0:0:0:0:
208,176,46147,1,0,0:0:0:0:
208,176,46223,2,0,P|144:192|104:184,1,96,8|0,0:0|0:0,0:0:0:0:
24,120,46530,1,8,0:0:0:0:
16,8,46683,1,0,0:0:0:0:
224,104,46836,5,10,0:0:0:0:
280,200,46989,1,0,0:0:0:0:
368,352,47142,1,8,0:0:0:0:
392,240,47295,1,0,0:0:0:0:
504,64,47448,1,8,0:0:0:0:
488,176,47601,1,0,0:0:0:0:
440,8,47754,1,8,0:0:0:0:
240,328,48060,6,0,P|144:344|56:304,1,192,4|2,0:0|0:0,0:0:0:0:
272,56,48672,2,0,P|368:40|456:80,1,192,4|2,0:0|0:0,0:0:0:0:
232,344,49285,5,4,0:0:0:0:
8,96,49744,1,2,0:0:0:0:
8,96,49820,1,0,0:0:0:0:
8,96,49897,1,2,0:0:0:0:
192,120,50050,1,8,0:0:0:0:
152,144,50127,1,8,0:0:0:0:
112,168,50203,1,8,0:0:0:0:
296,48,50356,6,0,P|352:48|472:112,1,192,4|2,0:0|0:0,0:0:0:0:
488,152,50739,1,0,0:0:0:0:
496,200,50815,1,8,0:0:0:0:
192,264,50968,2,0,P|120:176|112:96,1,192,4|2,0:0|0:0,0:0:0:0:
120,56,51351,1,0,0:0:0:0:
144,16,51428,1,8,0:0:0:0:
440,280,51581,6,0,P|376:336|264:360,1,192,4|2,0:0|0:0,0:0:0:0:
160,336,52040,1,8,0:0:0:0:
88,248,52193,1,0,0:0:0:0:
248,128,52346,1,0,0:0:0:0:
240,240,52499,1,2,0:0:0:0:
56,136,52652,1,8,0:0:0:0:
256,16,52805,6,0,P|352:8|440:40,1,192,4|8,0:0|0:0,0:0:0:0:
496,248,53264,1,8,0:0:0:0:
288,168,53417,1,8,0:0:0:0:
424,120,53570,1,8,0:0:0:0:
296,312,53723,1,8,0:0:0:0:
112,136,53877,1,8,0:0:0:0:
368,16,54030,5,8,0:0:0:0:
144,368,54336,1,8,0:0:0:0:
448,168,55101,1,8,0:0:0:0:
256,80,55254,6,0,P|160:88|80:144,1,192,4|0,0:0|0:0,0:0:0:0:
24,312,55713,1,8,0:0:0:0:
176,232,55866,1,2,0:0:0:0:
8,104,56019,1,0,0:0:0:0:
112,296,56172,1,2,0:0:0:0:
192,88,56325,1,8,0:0:0:0:
256,272,56479,6,0,P|328:336|432:344,1,192,2|0,0:0|0:0,0:0:0:0:
504,224,56938,1,8,0:0:0:0:
320,152,57091,1,2,0:0:0:0:
208,336,57244,1,0,0:0:0:0:
392,232,57397,1,2,0:0:0:0:
256,56,57550,1,8,0:0:0:0:
56,160,57703,6,0,P|32:224|56:344,1,192,2|0,0:0|0:0,0:0:0:0:
248,368,58162,1,8,0:0:0:0:
272,160,58315,1,0,0:0:0:0:
160,296,58468,1,2,0:0:0:0:
352,240,58621,1,0,0:0:0:0:
152,176,58774,2,0,P|120:144|104:96,1,96,8|0,0:0|0:0,0:0:0:0:
352,16,59081,6,0,P|424:40|496:136,1,192,2|8,0:0|0:0,0:0:0:0:
456,288,59540,1,0,0:0:0:0:
264,200,59693,1,2,0:0:0:0:
168,352,59846,1,2,0:0:0:0:
344,280,59999,1,8,0:0:0:0:
240,80,60152,6,0,P|104:72|40:104,1,192,4|0,0:0|0:0,0:0:0:0:
16,248,60611,1,8,0:0:0:0:
168,352,60764,1,0,0:0:0:0:
96,184,60917,1,2,0:0:0:0:
16,360,61070,1,2,0:0:0:0:
0,144,61223,1,8,0:0:0:0:
176,256,61377,6,0,P|272:264|360:224,1,192,4|0,0:0|0:0,0:0:0:0:
440,72,61836,1,8,0:0:0:0:
440,256,61989,1,0,0:0:0:0:
240,104,62142,1,2,0:0:0:0:
424,160,62295,1,2,0:0:0:0:
288,24,62448,1,8,0:0:0:0:
80,96,62601,6,0,P|48:144|56:296,1,192,4|0,0:0|0:0,0:0:0:0:
176,368,63060,1,8,0:0:0:0:
144,176,63213,1,2,0:0:0:0:
8,344,63366,1,8,0:0:0:0:
176,272,63519,1,8,0:0:0:0:
224,280,63596,1,8,0:0:0:0:
272,288,63672,1,8,0:0:0:0:
112,160,63825,5,2,0:0:0:0:
496,32,64132,1,10,0:0:0:0:
112,160,64438,1,8,0:0:0:0:
352,216,64591,1,8,0:0:0:0:
496,32,64744,1,8,0:0:0:0:
40,88,65050,6,0,P|16:152|32:272,1,192,4|0,0:0|0:0,0:0:0:0:
184,360,65509,1,8,0:0:0:0:
200,184,65662,1,2,0:0:0:0:
96,336,65815,1,0,0:0:0:0:
288,296,65968,1,2,0:0:0:0:
112,160,66121,1,8,0:0:0:0:
272,32,66274,6,0,P|352:16|472:56,1,192,2|0,0:0|0:0,0:0:0:0:
504,192,66734,1,8,0:0:0:0:
400,288,66887,1,2,0:0:0:0:
200,96,67040,1,0,0:0:0:0:
296,248,67193,1,2,0:0:0:0:
408,160,67346,1,8,0:0:0:0:
120,168,67499,6,0,P|64:216|32:336,1,192,2|0,0:0|0:0,0:0:0:0:
192,312,67958,1,8,0:0:0:0:
208,144,68111,1,0,0:0:0:0:
88,40,68264,1,2,0:0:0:0:
240,232,68417,1,0,0:0:0:0:
432,112,68570,1,8,0:0:0:0:
96,352,68877,6,0,P|40:288|24:184,1,192,4|8,0:0|0:0,0:0:0:0:
88,40,69336,1,10,0:0:0:0:
184,248,69489,2,0,P|208:184|208:144,1,96,4|2,0:0|0:0,0:0:0:0:
184,32,69795,1,8,0:0:0:0:
256,312,69948,6,0,P|296:216|296:128,1,192,4|2,0:0|0:0,0:0:0:0:
64,240,70407,1,8,0:0:0:0:
24,352,70560,1,0,0:0:0:0:
160,152,70713,1,8,0:0:0:0:
120,40,70866,1,2,0:0:0:0:
272,216,71019,1,8,0:0:0:0:
448,56,71172,6,0,P|392:64|360:88,2,96,0|8|2,0:0|0:0|0:0,0:0:0:0:
440,184,71632,1,8,0:0:0:0:
272,216,71785,1,0,0:0:0:0:
288,40,71938,1,8,0:0:0:0:
368,272,72091,1,2,0:0:0:0:
136,288,72244,1,8,0:0:0:0:
224,72,72397,6,0,P|288:40|408:48,1,192,4|8,0:0|0:0,0:0:0:0:
480,176,72856,1,8,0:0:0:0:
272,216,73009,1,8,0:0:0:0:
405,47,73162,1,8,0:0:0:0:
392,264,73315,1,8,0:0:0:0:
120,184,73468,1,8,0:0:0:0:
304,56,73621,1,0,0:0:0:0:
288,320,73774,6,0,P|264:360|216:336,1,96,4|0,0:0|0:0,0:0:0:0:
24,72,74081,2,0,P|48:32|96:56,1,96,4|0,0:0|0:0,0:0:0:0:
208,168,74387,1,2,0:0:0:0:
64,152,74540,1,0,0:0:0:0:
264,48,74693,1,0,0:0:0:0:
320,240,74846,1,8,0:0:0:0:
312,248,75152,5,2,0:0:0:0:
328,96,75305,1,2,0:0:0:0:
216,200,75458,1,0,0:0:0:0:
368,312,75611,1,0,0:0:0:0:
408,128,75764,1,2,0:0:0:0:
400,136,76070,5,8,0:0:0:0:
200,280,76223,1,8,0:0:0:0:
152,56,76377,1,8,0:0:0:0:
328,232,76530,1,10,0:0:0:0:
40,336,76683,1,8,0:0:0:0:
504,176,76989,1,8,0:0:0:0:
24,128,77295,6,0,P|96:144|240:96,1,192,4|8,0:0|0:0,0:0:0:0:
352,16,77754,1,8,0:0:0:0:
256,240,78060,2,0,P|304:208|328:168,1,96,2|8,0:0|0:0,0:0:0:0:
352,16,78366,1,8,0:0:0:0:
152,240,78519,6,0,P|184:320|280:344,1,192,4|8,0:0|0:0,0:0:0:0:
432,272,78979,1,8,0:0:0:0:
216,136,79132,1,8,0:0:0:0:
336,264,79285,1,8,0:0:0:0:
320,48,79438,1,2,0:0:0:0:
112,112,79591,1,8,0:0:0:0:
40,296,79744,6,0,B|24:240|64:192|64:192|24:168|20:120,1,192,4|0,0:0|0:0,0:0:0:0:
168,248,80203,2,0,L|128:264,2,32,8|2|0,0:0|0:0|0:0,0:0:0:0:
280,216,80356,1,0,0:0:0:0:
192,344,80509,1,0,0:0:0:0:
368,272,80662,1,0,0:0:0:0:
176,160,80815,1,8,0:0:0:0:
376,64,80968,6,0,B|416:112|400:168|400:168|424:200|472:208,1,192,4|0,0:0|0:0,0:0:0:0:
296,168,81428,2,0,L|304:128,2,32,8|2|0,0:0|0:0|0:0,0:0:0:0:
280,280,81581,1,0,0:0:0:0:
104,328,81734,1,0,0:0:0:0:
80,144,81887,1,0,0:0:0:0:
0,304,82040,1,8,0:0:0:0:
8,88,82193,6,0,B|48:48|96:56|96:56|104:40|104:40|128:72|168:80,1,192,4|0,0:0|0:0,0:0:0:0:
360,64,82652,2,0,L|400:48,2,32,8|2|0,0:0|0:0|0:0,0:0:0:0:
253,99,82805,1,0,0:0:0:0:
184,216,82958,1,0,0:0:0:0:
224,16,83111,1,8,0:0:0:0:
288,200,83264,1,8,0:0:0:0:
56,240,83417,5,4,0:0:0:0:
408,320,83723,1,2,0:0:0:0:
408,320,83877,1,8,0:0:0:0:
208,240,84030,1,0,0:0:0:0:
488,24,84336,1,0,0:0:0:0:
488,24,84489,1,8,0:0:0:0:
144,120,84795,5,8,0:0:0:0:
136,72,84871,1,8,0:0:0:0:
128,24,84948,1,8,0:0:0:0:
16,336,85254,1,8,0:0:0:0:
360,296,85560,1,8,0:0:0:0:
88,96,85866,1,12,0:0:0:0:
432,120,86172,5,8,0:0:0:0:
256,192,86325,1,12,0:0:0:0:
256,192,86402,12,0,88392,0:0:0:0:
176,232,88468,5,8,0:0:0:0:
184,280,88545,1,8,0:0:0:0:
192,328,88621,1,8,0:0:0:0:
