osu file format v14

[General]
AudioFilename: audio.mp3
AudioLeadIn: 0
PreviewTime: 325739
Countdown: 0
SampleSet: Soft
StackLeniency: 0.2
Mode: 0
LetterboxInBreaks: 0
WidescreenStoryboard: 1

[Editor]
Bookmarks: 598,18566,36450,71972,117443,178028,239283,265729,284018,300306,325812
DistanceSpacing: 1.8
BeatDivisor: 4
GridSize: 32
TimelineZoom: 2.2

[Metadata]
Title:IV
TitleUnicode:IV
Artist:BADBADNOTGOOD
ArtistUnicode:BADBADNOTGOOD
Creator:olc
Version:RESONATE >>
Source:
Tags:bbng four 4 over loadcode over_loadcode jazz fusion instrumental
BeatmapID:3338221
BeatmapSetID:1635639

[Difficulty]
HPDrainRate:4
CircleSize:4.4
OverallDifficulty:8.4
ApproachRate:9.4
SliderMultiplier:1.8
SliderTickRate:1

[Events]
//Background and Video events
0,0,"wallhaven-eyelqr.jpg",0,0
//Break Periods
//Storyboard Layer 0 (Background)
//Storyboard Layer 1 (Fail)
//Storyboard Layer 2 (Pass)
//Storyboard Layer 3 (Foreground)
//Storyboard Layer 4 (Overlay)
//Storyboard Sound Samples

[TimingPoints]
601,384.615384615385,4,2,0,60,1,0
1177,-66.6666666666667,4,2,0,60,0,1
1274,-66.6666666666667,4,2,0,10,0,1
1370,-66.6666666666667,4,2,0,60,0,0
2139,379.746835443038,4,2,0,60,1,0
2708,-66.6666666666667,4,2,0,60,0,1
2803,-66.6666666666667,4,2,0,10,0,1
2898,-66.6666666666667,4,2,0,60,0,0
3657,379.14691943128,4,2,0,60,1,0
4225,-66.6666666666667,4,2,0,60,0,1
4320,-66.6666666666667,4,2,0,10,0,1
4415,-66.6666666666667,4,2,0,60,0,0
5173,380.952380952381,4,2,0,60,1,0
5553,-66.6666666666667,4,2,0,60,0,0
5744,-66.6666666666667,4,2,0,50,0,1
5934,-66.6666666666667,4,2,0,50,0,0
6315,-66.6666666666667,4,2,0,52,0,0
6411,-66.6666666666667,4,2,0,54,0,0
6506,-66.6666666666667,4,2,0,56,0,0
6601,-66.6666666666667,4,2,0,58,0,0
6696,374.414976599064,4,2,0,60,1,0
6696,-66.6666666666667,4,2,0,60,0,0
6789,-66.6666666666667,4,2,0,60,0,0
8193,372.093023255814,4,2,0,60,1,0
8193,-66.6666666666667,4,2,0,60,0,0
10228,365.296803652968,4,2,0,60,1,1
10228,-66.6666666666667,4,2,0,60,0,1
10320,-66.6666666666667,4,2,0,10,0,1
10410,-66.6666666666667,4,2,0,60,0,0
11385,362.537764350453,4,2,0,60,1,0
11547,-66.6666666666667,4,2,0,60,0,0
11656,-66.6666666666667,4,2,0,60,0,1
11747,-66.6666666666667,4,2,0,10,0,1
11838,-66.6666666666667,4,2,0,50,0,0
12247,-66.6666666666667,4,2,0,48,0,0
12307,-66.6666666666667,4,2,0,46,0,0
12368,-66.6666666666667,4,2,0,44,0,0
12429,-66.6666666666667,4,2,0,46,0,0
12490,-66.6666666666667,4,2,0,48,0,0
12592,373.250388802488,4,2,0,60,1,0
12592,-58.8235294117647,4,2,0,60,0,0
12947,-66.6666666666667,4,2,0,60,0,0
13505,-83.3333333333333,4,2,0,60,0,0
13691,-74.0740740740741,4,2,0,60,0,0
13877,-66.6666666666667,4,2,0,60,0,0
14088,381.558028616852,4,2,0,60,1,0
14088,-66.6666666666667,4,2,0,60,0,0
15614,369.230769230769,4,2,0,60,1,0
16167,-66.6666666666667,4,2,0,60,0,1
16352,-66.6666666666667,4,2,0,60,0,0
17090,367.534456355283,4,2,0,60,1,0
17641,-66.6666666666667,4,2,0,60,0,1
17825,-66.6666666666667,4,2,0,60,0,0
18376,-66.6666666666667,4,2,0,50,0,0
18559,373.250388802488,4,2,0,50,1,0
18559,-66.6666666666667,4,2,0,50,0,0
21547,376.175548589341,4,2,0,50,1,0
21547,-66.6666666666667,4,2,0,50,0,0
22957,-65.5722197208403,4,2,0,50,0,0
23051,366.972477064219,4,2,0,50,1,0
23509,-66.6666666666667,4,2,0,50,0,0
24518,365.853658536585,4,2,0,50,1,0
24518,-66.6666666666667,4,2,0,50,0,0
25985,369.230769230769,4,2,0,50,1,0
25985,-66.6666666666667,4,2,0,50,0,0
27465,370.37037037037,4,2,0,50,1,0
27465,-66.6666666666667,4,2,0,50,0,0
30427,376.175548589341,4,2,0,50,1,0
30427,-58.8235294117647,4,2,0,50,0,0
30803,-66.6666666666667,4,2,0,50,0,0
31367,-66.6666666666667,4,2,0,38,0,0
31461,-66.6666666666667,4,2,0,40,0,0
31555,-66.6666666666667,4,2,0,42,0,0
31649,-66.6666666666667,4,2,0,44,0,0
31743,-66.6666666666667,4,2,0,46,0,0
31837,-66.6666666666667,4,2,0,48,0,0
31931,376.766091051805,4,2,0,50,1,0
31931,-66.6666666666667,4,2,0,50,0,0
33438,377.952755905511,4,2,0,50,1,0
33438,-66.6666666666667,4,2,0,50,0,0
34949,376.175548589341,4,2,0,50,1,0
36124,-58.8235294117647,4,2,0,50,0,0
36829,-66.6666666666667,4,2,0,50,0,0
37957,371.517027863776,4,2,0,50,1,0
37957,-66.6666666666667,4,2,0,50,0,0
39443,372.093023255813,4,2,0,50,1,0
39443,-66.6666666666667,4,2,0,50,0,0
39815,-83.3333333333333,4,2,0,50,0,0
40187,-100,4,2,0,50,0,0
40559,-76.9230769230769,4,2,0,50,0,0
40838,-66.6666666666667,4,2,0,50,0,0
40931,370.942812982998,4,2,0,50,1,0
40931,-66.6666666666667,4,2,0,50,0,0
42043,-60.6060606060606,4,2,0,50,0,0
42229,-66.6666666666667,4,2,0,50,0,0
42414,370.37037037037,4,2,0,50,1,0
42414,-60.6060606060606,4,2,0,50,0,0
43525,-71.4285714285714,4,2,0,50,0,0
43895,352.941176470588,4,2,0,50,1,0
43895,-66.6666666666667,4,2,0,50,0,0
44475,-66.6666666666667,4,2,0,50,0,0
44669,340.909090909091,4,2,0,50,1,0
44669,-66.6666666666667,4,2,0,50,0,0
45009,372.670807453416,4,2,0,50,1,0
45195,416.666666666667,4,2,0,50,1,0
45195,-66.6666666666667,4,2,0,50,0,0
45405,319.148936170212,4,2,0,50,1,0
45405,-66.6666666666667,4,2,0,50,0,0
45830,-76.9230769230769,4,2,0,50,0,0
46042,384.615384615384,4,2,0,50,1,0
46165,-111.111111111111,4,2,0,50,0,0
46810,373.831775700934,4,2,0,50,1,0
47075,-66.6666666666667,4,2,0,50,0,0
47559,378.548895899053,4,2,0,50,1,0
48299,381.558028616852,4,2,0,50,1,0
48299,-66.6666666666667,4,2,0,50,0,0
49826,356.612184249628,4,2,0,50,1,0
49826,-66.6666666666667,4,2,0,50,0,0
50519,404.721753794266,4,2,0,50,1,0
50519,-57.1428571428571,4,2,0,50,0,0
51328,369.79969183359,4,2,0,50,1,0
51697,-66.6666666666667,4,2,0,50,0,0
52437,-58.749345284674,4,2,0,50,0,0
52807,365.296803652967,4,2,0,50,1,0
53172,-76.9230769230769,4,2,0,50,0,0
53537,360.902255639097,4,2,0,50,1,0
53597,-100,4,2,0,44,0,0
53657,-100,4,2,0,37,0,0
53717,-100,4,2,0,30,0,0
53897,-76.9230769230769,4,2,0,35,0,0
54018,-66.6666666666667,4,2,0,40,0,0
54138,-58.8235294117647,4,2,0,45,0,0
54255,376.766091051805,4,2,0,50,1,0
54255,-50,4,2,0,50,0,1
55008,358.744394618834,4,2,0,50,1,1
55366,-66.6666666666667,4,2,0,50,0,1
55725,367.534456355283,4,2,0,50,1,1
55725,-66.6666666666667,4,2,0,50,0,1
55908,-50,4,2,0,50,0,1
56368,-66.6666666666667,4,2,0,50,0,1
56643,-50,4,2,0,50,0,1
57195,371.517027863777,4,2,0,50,1,1
57195,-50,4,2,0,50,0,1
58309,-66.6666666666667,4,2,0,50,0,1
58681,364.741641337386,4,2,0,50,1,1
58681,-66.6666666666667,4,2,0,50,0,1
59045,369.230769230769,4,2,0,50,1,1
59785,347.826086956521,4,2,0,50,1,1
60133,383.386581469648,4,2,0,50,1,1
60324,-66.6666666666667,4,2,0,50,0,1
60516,-60.6060606060606,4,2,0,50,0,1
60803,-68.5619068542483,4,2,0,50,0,1
60899,353.982300884955,4,2,0,50,1,1
61252,-66.6666666666667,4,2,0,50,0,1
61606,380.95238095238,4,2,0,50,1,1
61606,-60.6060606060606,4,2,0,50,0,1
62367,361.990950226244,4,2,0,50,1,1
63093,365.853658536585,4,2,0,50,1,1
63093,-60.6060606060606,4,2,0,50,0,1
64557,370.942812982998,4,2,0,50,1,1
64678,-66.6666666666667,4,2,0,50,0,1
64923,-66.6666666666667,4,2,0,35,0,1
65045,-66.6666666666667,4,2,0,39,0,1
65167,-66.6666666666667,4,2,0,43,0,1
65289,-66.6666666666667,4,2,0,47,0,1
65411,-66.6666666666667,4,2,0,51,0,1
65534,-66.6666666666667,4,2,0,55,0,1
65669,351.390922401171,4,2,0,50,1,1
65669,-66.6666666666667,4,2,0,50,0,1
66022,382.775119617224,4,2,0,50,1,1
66022,-58.8235294117647,4,2,0,50,0,1
66787,-66.6666666666667,4,2,0,50,0,1
67553,377.952755905511,4,2,0,50,1,1
67553,-50,4,2,0,50,0,1
68119,-58.8235294117647,4,2,0,50,0,1
68497,-66.6666666666667,4,2,0,50,0,1
68686,-83.3333333333333,4,2,0,50,0,1
68875,-111.111111111111,4,2,0,50,0,1
69064,390.243902439024,4,2,0,50,1,1
69454,366.412213740458,4,2,0,50,1,1
69637,-66.6666666666667,4,2,0,50,0,1
69698,-66.6666666666667,4,2,0,10,0,1
69820,-66.6666666666667,4,2,0,50,0,1
70548,390.879478827361,4,2,0,50,1,1
70938,345.821325648415,4,2,0,50,1,1
70938,-66.6666666666667,4,2,0,50,0,1
71283,-83.3333333333333,4,2,0,50,0,1
71399,-100,4,2,0,50,0,1
71514,-125,4,2,0,50,0,1
71629,-166.666666666667,4,2,0,50,0,1
71744,-250,4,2,0,50,0,1
71860,-333.333333333333,4,2,0,50,0,1
71972,441.988950276242,4,2,0,50,1,0
72192,-250,4,2,0,25,0,0
72634,-166.666666666667,4,2,0,25,0,0
72855,448.59813084112,4,2,0,25,1,0
74648,477.137176938368,4,2,0,25,1,0
75602,480.961923847694,4,2,0,25,1,0
75842,-333.333333333333,4,2,0,25,0,0
76323,-333.333333333333,4,2,0,18,0,0
76563,477.137176938368,4,2,0,18,1,0
76563,-500,4,2,0,18,0,0
78471,458.89101338432,4,2,0,25,1,0
78929,-166.666666666667,4,2,0,25,0,0
79388,487.804878048779,4,2,0,25,1,0
79617,-166.666666666667,4,2,0,25,0,0
80363,483.870967741934,4,2,0,25,1,0
80363,-166.666666666667,4,2,0,25,0,0
82297,479.041916167663,4,2,0,25,1,0
83255,481.927710843372,4,2,0,25,1,0
83495,-125,4,2,0,25,0,0
83897,-125,4,2,0,18,0,0
84218,485.829959514169,4,2,0,18,1,0
84218,-125,4,2,0,18,0,0
86161,461.538461538462,4,2,0,25,1,0
87084,482.897384305835,4,2,0,25,1,0
87217,-133.333333333333,4,2,0,30,0,0
87697,-100,4,2,0,30,0,0
88177,-117.647058823529,4,2,0,30,0,0
88536,-142.857142857143,4,2,0,30,0,0
89136,-181.818181818182,4,2,0,30,0,0
89555,-330.948158247885,4,2,0,30,0,0
89739,-333.333333333333,4,2,0,30,0,0
89987,463.320463320462,4,2,0,30,1,0
90210,-333.333333333333,4,2,0,30,0,0
90916,484.848484848483,4,2,0,30,1,0
91158,-133.333333333333,4,2,0,30,0,0
91522,-100,4,2,0,30,0,0
92000,-117.647058823529,4,2,0,30,0,0
92478,-142.857142857143,4,2,0,30,0,0
92956,-181.818181818182,4,2,0,30,0,0
93434,-333.333333333333,4,2,0,30,0,0
93824,486.815415821499,4,2,0,30,1,0
94797,492.813141683776,4,2,0,30,1,0
95043,-133.333333333333,4,2,0,30,0,0
95413,-100,4,2,0,30,0,0
95536,-99.0233333333338,4,2,0,30,0,0
95782,479.999999999998,4,2,0,30,1,0
95876,-117.647058823529,4,2,0,30,0,0
96354,-142.857142857143,4,2,0,30,0,0
96832,-181.818181818182,4,2,0,30,0,0
97310,-333.333333333333,4,2,0,30,0,0
97703,481.927710843372,4,2,0,30,1,0
98666,471.512770137523,4,2,0,30,1,0
98896,-133.333333333333,4,2,0,30,0,0
99368,-90.9090909090909,4,2,0,30,0,0
99839,-105.263157894737,4,2,0,30,0,0
100299,-125,4,2,0,30,0,0
100552,474.308300395255,4,2,0,30,1,0
100785,-153.846153846154,4,2,0,30,0,0
101270,-250,4,2,0,30,0,0
101500,481.927710843372,4,2,0,30,1,0
102474,469.667318982386,4,2,0,30,1,0
102708,-133.333333333333,4,2,0,30,0,0
103883,-166.666666666667,4,2,0,30,0,0
104352,-200,4,2,0,30,0,0
104822,-285.714285714286,4,2,0,30,0,0
105292,477.137176938368,4,2,0,30,1,0
106246,489.795918367345,4,2,0,30,1,0
107225,485.829959514168,4,2,0,30,1,0
107225,-83.3333333333333,4,2,0,30,0,0
107710,-100,4,2,0,30,0,0
108196,-125,4,2,0,30,0,0
108682,473.186119873817,4,2,0,30,1,0
109510,-83.3333333333333,4,2,0,30,0,0
110101,485.829959514169,4,2,0,30,1,0
110847,2000,4,2,0,30,1,0
110847,-500,4,2,0,30,0,0
111513,-500,4,2,0,5,0,0
113596,502.092050209203,4,2,0,30,1,0
113722,502.092050209203,4,2,0,30,1,0
114475,2000,4,2,0,30,1,0
114475,-500,4,2,0,30,0,0
115766,-500,4,2,0,5,0,0
117413,482.897384305835,4,2,0,30,1,0
117413,-1000,4,2,0,30,0,0
119586,-1000,4,2,0,20,0,0
119827,480.961923847695,4,2,0,20,1,0
121270,480.961923847695,4,2,0,20,1,0
124155,445.269016697588,4,2,0,20,1,0
124600,462.42774566474,4,2,0,20,1,0
125062,503.14465408805,4,2,0,20,1,0
125565,-1000,4,2,0,20,0,0
126068,-1000,4,2,0,20,0,0
127710,509.554140127388,4,2,0,20,1,0
128008,-1000,4,2,0,20,0,0
128602,488.798370672098,4,2,0,20,1,0
128602,-1000,4,2,0,20,0,0
129579,469.667318982387,4,2,0,20,1,0
130988,-1000,4,2,0,20,0,0
131457,484.457004440856,4,2,0,20,1,0
131578,-500,4,2,0,20,0,0
132304,508.474576271186,4,2,0,20,1,0
132304,-500,4,2,0,20,0,0
133066,413.793103448276,4,2,0,20,1,0
133066,-500,4,2,0,20,0,0
133997,419.580419580419,4,2,0,20,1,0
133997,-500,4,2,0,20,0,0
134626,437.956204379561,4,2,0,20,1,0
134626,-500,4,2,0,20,0,0
135063,458.015267175571,4,2,0,20,1,0
135063,-333.333333333333,4,2,0,20,0,0
135980,521.739130434782,4,2,0,20,1,0
136720,499.999999999999,4,2,0,20,1,0
136720,-333.333333333333,4,2,0,20,0,0
136968,483.870967741935,4,2,0,20,1,0
137129,-500,4,2,0,20,0,0
138419,530.973451327433,4,2,0,20,1,0
138419,-76.9230769230769,4,2,0,20,0,0
138664,-500,4,2,0,29,0,0
138949,461.538461538461,4,2,0,29,1,0
139179,-166.666666666667,4,2,0,29,0,0
139410,508.474576271186,4,2,0,29,1,0
139533,-1000,4,2,0,29,0,0
140401,495.867768595041,4,2,0,29,1,0
140900,483.870967741935,4,2,0,29,1,0
141867,-200,4,2,0,29,0,0
142109,-1000,4,2,0,29,0,0
142835,491.803278688524,4,2,0,29,1,0
143080,-1000,4,2,0,29,0,0
143818,454.545454545454,4,2,0,29,1,0
143818,-83.3333333333333,4,2,0,29,0,0
143931,-1000,4,2,0,29,0,0
144778,468.749999999999,4,2,0,29,1,0
145595,-250,4,2,0,29,0,0
145715,476.190476190475,4,2,0,29,1,0
145834,-500,4,2,0,29,0,0
146667,-166.666666666667,4,2,0,29,0,0
146905,-62.5,4,2,0,37,0,0
147381,-62.5,4,2,0,29,0,0
147619,468.749999999999,4,2,0,29,1,0
148536,461.538461538461,4,2,0,29,1,0
148536,-71.4285714285714,4,2,0,29,0,0
148997,-125,4,2,0,43,0,0
149530,458.015267175572,4,2,0,43,1,0
149530,-250,4,2,0,43,0,0
149759,-500,4,2,0,43,0,0
150446,458.015267175572,4,2,0,43,1,0
151018,425.531914893616,4,2,0,43,1,0
151018,-62.5,4,2,0,43,0,0
151443,451.127819548871,4,2,0,43,1,0
151443,-100,4,2,0,43,0,0
151781,-200,4,2,0,43,0,0
152345,461.538461538461,4,2,0,43,1,0
153268,470.588235294117,4,2,0,43,1,0
153856,-166.666666666667,4,2,0,43,0,0
154444,-117.647058823529,4,2,0,43,0,0
154915,-83.3333333333333,4,2,0,43,0,0
155150,463.320463320462,4,2,0,43,1,0
155381,-66.6666666666667,4,2,0,43,0,0
156076,470.588235294117,4,2,0,43,1,0
157487,-117.647058823529,4,2,0,43,0,0
157723,-153.846153846154,4,2,0,43,0,0
157958,463.320463320463,4,2,0,43,1,0
159811,458.015267175572,4,2,0,43,1,0
160383,-83.3333333333333,4,2,0,43,0,0
162269,451.127819548871,4,2,0,43,1,0
163868,448.598130841121,4,2,0,43,1,0
163868,-66.6666666666667,4,2,0,43,0,0
164765,445.269016697588,4,2,0,43,1,0
164765,-58.8235294117647,4,2,0,43,0,0
165655,468.75,4,2,0,43,1,0
167064,465.116279069766,4,2,0,43,1,0
167064,-166.666666666667,4,2,0,43,0,0
167219,-142.857142857143,4,2,0,43,0,0
167374,-125,4,2,0,43,0,0
167529,-111.111111111111,4,2,0,43,0,0
167684,-100,4,2,0,43,0,0
167839,-90.9090909090909,4,2,0,43,0,0
167994,-83.3333333333333,4,2,0,43,0,0
168149,-76.9230769230769,4,2,0,43,0,0
168304,-71.4285714285714,4,2,0,43,0,0
168459,-66.6666666666667,4,2,0,43,0,0
168614,-62.5,4,2,0,43,0,0
168769,-58.8235294117647,4,2,0,43,0,0
168925,458.015267175572,4,2,0,43,1,0
168925,-66.6666666666667,4,2,0,43,0,0
169077,-76.9230769230769,4,2,0,43,0,0
169230,-90.9090909090909,4,2,0,43,0,0
169383,-111.111111111111,4,2,0,43,0,0
169535,-125,4,2,0,43,0,0
169688,-142.857142857143,4,2,0,43,0,0
169841,428.571428571428,4,2,0,43,1,0
169985,-66.6666666666667,4,2,0,43,0,0
171414,-71.4285714285714,4,2,0,43,0,0
171483,434.782608695652,4,2,0,43,1,0
171483,-71.4285714285714,4,2,0,43,0,0
172048,-66.6666666666667,4,2,0,43,0,0
173012,444.444444444444,4,2,0,43,1,0
173901,451.127819548872,4,2,0,43,1,0
174352,-66.6666666666667,4,2,0,43,0,0
175028,-100,4,2,0,43,0,0
175259,454.545454545454,4,2,0,43,1,0
175259,-76.9230769230769,4,2,0,43,0,0
176168,472.440944881889,4,2,0,43,1,0
176875,447.76119402985,4,2,0,43,1,0
176875,-166.666666666667,4,2,0,43,0,0
178732,487.80487804878,4,2,0,30,1,0
178732,-100,4,2,0,30,0,0
178976,-133.333333333333,4,2,0,30,0,0
181903,497.92531120332,4,2,0,30,1,0
182566,-66.6666666666667,4,2,0,30,0,0
182898,474.308300395257,4,2,0,30,1,0
182898,-66.6666666666667,4,2,0,30,0,0
183846,500,4,2,0,30,1,0
184846,491.803278688524,4,2,0,30,1,0
184846,-142.857142857143,4,2,0,30,0,0
185829,487.80487804878,4,2,0,30,1,0
185829,-83.3333333333333,4,2,0,30,0,0
187536,-100.586666666667,4,2,0,30,0,0
187780,497.925311203319,4,2,0,30,1,0
188028,-125,4,2,0,30,0,0
189771,494.845360824742,4,2,0,30,1,0
189771,-333.333333333333,4,2,0,30,0,0
191750,495.867768595041,4,2,0,30,1,0
193733,500,4,2,0,30,1,0
194233,-133.333333333333,4,2,0,30,0,0
194733,-200,4,2,0,30,0,0
195733,495.867768595041,4,2,0,30,1,0
196228,-133.333333333333,4,2,0,30,0,0
196724,-200,4,2,0,30,0,0
197220,-333.333333333333,4,2,0,30,0,0
198460,500,4,2,0,30,1,0
198460,-100,4,2,0,30,0,0
199709,481.927710843373,4,2,0,30,1,0
200182,-83.3333333333333,4,2,0,30,0,0
200666,-83.3333333333333,4,2,0,37,0,0
201150,-66.6666666666667,4,2,0,37,0,0
201636,-100,4,2,0,37,0,0
202117,-66.6666666666667,4,2,0,37,0,0
202601,487.80487804878,4,2,0,37,1,0
203576,-66.6666666666667,4,2,0,37,0,0
204918,-100,4,2,0,37,0,0
205527,479.999999999999,4,2,0,37,1,0
206167,-83.3333333333333,4,2,0,37,0,0
207127,-71.4285714285714,4,2,0,37,0,0
207447,461.538461538461,4,2,0,37,1,0
207447,-71.4285714285714,4,2,0,37,0,0
209293,483.870967741935,4,2,0,37,1,0
209293,-58.8235294117647,4,2,0,37,0,0
209776,-55.5555555555556,4,2,0,43,0,0
210744,464.576074332172,4,2,0,43,1,0
211440,-83.3333333333333,4,2,0,43,0,0
212137,491.803278688524,4,2,0,43,1,0
212137,-62.5,4,2,0,43,0,0
212259,-62.5,4,2,0,43,0,0
212382,-62.5,4,2,0,43,0,0
212751,-62.5,4,2,0,43,0,0
212874,-62.5,4,2,0,43,0,0
213120,483.870967741935,4,2,0,43,1,0
213361,-62.5,4,2,0,43,0,0
213845,-76.9230769230769,4,2,0,43,0,0
214329,-83.3333333333333,4,2,0,43,0,0
215055,458.015267175572,4,2,0,43,1,0
215742,-83.3333333333333,4,2,0,43,0,0
216887,472.440944881889,4,2,0,43,1,0
216887,-71.4285714285714,4,2,0,43,0,0
218776,479.999999999999,4,2,0,43,1,0
220696,468.749999999999,4,2,0,48,1,0
220696,-83.3333333333333,4,2,0,48,0,0
220930,-71.4285714285714,4,2,0,48,0,0
221164,-58.8235294117647,4,2,0,48,0,0
222453,-59.2313714192711,4,2,0,48,0,0
222571,474.308300395256,4,2,0,48,1,0
223282,-71.4285714285714,4,2,0,48,0,0
224468,441.176470588234,4,2,0,48,1,0
224468,-62.5,4,2,0,48,0,0
225690,-100,4,2,0,48,0,0
226028,441.176470588234,4,2,0,48,1,0
226028,-62.6523707418482,4,2,0,48,0,0
226259,489.795918367346,4,2,0,48,1,0
227238,466.92607003891,4,2,0,48,1,0
228054,-71.4285714285714,4,2,0,48,0,0
228171,466.92607003891,4,2,0,48,1,0
229027,-50,4,2,0,48,0,0
229571,-100,4,2,0,48,0,0
229960,-49.0441666666667,4,2,0,48,0,0
230038,454.545454545454,4,2,0,48,1,0
231628,-51.0400000000001,4,2,0,48,0,0
231856,472.440944881889,4,2,0,48,1,0
232800,-50,4,2,0,48,0,0
233273,-100,4,2,0,48,0,0
233509,-43.4782608695652,4,2,0,48,0,0
233978,466.92607003891,4,2,0,48,1,0
234095,-50,4,2,0,48,0,0
234562,-66.6666666666667,4,2,0,48,0,0
235379,-83.3333333333333,4,2,0,48,0,0
235612,451.127819548872,4,2,0,48,1,0
237416,478.08764940239,4,2,0,37,1,0
238362,459.770114942529,4,2,0,37,1,0
238362,-200,4,2,0,37,0,0
239283,458.015267175572,4,2,0,30,1,0
239970,2000,4,2,0,30,1,0
239970,-500,4,2,0,30,0,0
242303,-500,4,2,0,5,0,0
242919,474.308300395256,4,2,0,30,1,0
243630,2142.85714285714,4,2,0,30,1,0
243630,-500,4,2,0,30,0,0
245772,-500,4,2,0,5,0,0
246744,491.803278688524,4,2,0,30,1,0
247481,2000,4,2,0,30,1,0
247481,-500,4,2,0,30,0,0
249814,-500,4,2,0,5,0,0
250615,521.739130434782,4,2,0,30,1,0
251397,2000,4,2,0,30,1,0
251397,-400,4,2,0,30,0,0
253063,-400,4,2,0,5,0,0
254288,594.059405940594,4,2,0,30,1,0
254288,-142.857142857143,4,2,0,10,0,0
254882,504.201680672269,4,2,0,10,1,0
254882,-250,4,2,0,14,0,0
255386,-142.857142857143,4,2,0,10,0,0
255890,-250,4,2,0,8,0,0
256394,481.927710843373,4,2,0,10,1,0
256394,-142.857142857143,4,2,0,18,0,0
256875,493.827160493827,4,2,0,14,1,0
256875,-250,4,2,0,12,0,0
257368,-333.333333333333,4,2,0,10,0,0
257862,-500,4,2,0,10,0,0
258353,465.116279069767,4,2,0,12,1,0
258353,-250,4,2,0,12,0,0
258818,-250,4,2,0,14,0,0
259283,476.190476190476,4,2,0,14,1,0
259283,-142.857142857143,4,2,0,18,0,0
259759,-250,4,2,0,15,0,0
260235,465.116279069767,4,2,0,10,1,0
260235,-333.333333333333,4,2,0,15,0,0
260390,-333.333333333333,4,2,0,17,0,0
260545,-333.333333333333,4,2,0,19,0,0
260700,-333.333333333333,4,2,0,21,0,0
260855,-333.333333333333,4,2,0,23,0,0
261010,-333.333333333333,4,2,0,25,0,0
261165,-333.333333333333,4,2,0,27,0,0
261320,-333.333333333333,4,2,0,29,0,0
261475,-333.333333333333,4,2,0,31,0,0
261630,-333.333333333333,4,2,0,33,0,0
261785,-333.333333333333,4,2,0,35,0,0
261940,-333.333333333333,4,2,0,37,0,0
262119,487.80487804878,4,2,0,27,1,0
262444,-100,4,2,0,23,0,0
262606,468.75,4,2,0,21,1,0
263191,-100,4,2,0,19,0,0
263250,-100,4,2,0,14,0,0
263309,-100,4,2,0,10,0,0
263367,-100,4,2,0,6,0,0
263426,-100,4,2,0,5,0,0
264604,500,4,2,0,35,1,0
264729,500,4,2,0,35,1,0
265229,-66.6666666666667,4,2,0,40,0,0
265312,-66.6666666666667,4,2,3,50,0,0
265479,-66.6666666666667,4,2,2,30,0,0
265562,-66.6666666666667,4,2,1,20,0,0
265729,402.684563758389,4,2,0,60,1,0
266333,-66.6666666666667,4,2,0,60,0,1
266433,-66.6666666666667,4,2,0,10,0,1
266534,-66.6666666666667,4,2,0,60,0,0
267923,389.61038961039,4,2,0,60,1,1
267923,-66.6666666666667,4,2,0,60,0,1
268018,-66.6666666666667,4,2,0,10,0,1
268118,400,4,2,0,60,1,0
269497,387.096774193548,4,2,0,60,1,1
269497,-66.6666666666667,4,2,0,60,0,1
269594,-66.6666666666667,4,2,0,10,0,1
269690,-66.6666666666667,4,2,0,60,0,0
270077,379.746835443038,4,2,0,60,1,0
270077,-66.6666666666667,4,2,0,60,0,0
270939,-66.6666666666667,4,2,0,60,0,0
271034,379.746835443038,4,2,0,60,1,1
271034,-66.6666666666667,4,2,0,60,0,1
271223,-66.6666666666667,4,2,0,60,0,0
271983,376.175548589342,4,2,0,60,1,0
271983,-66.6666666666667,4,2,0,60,0,0
273487,370.37037037037,4,2,0,60,1,0
273487,-66.6666666666667,4,2,0,60,0,0
273579,-66.6666666666667,4,2,0,5,0,0
273672,-66.6666666666667,4,2,0,60,0,0
274135,-68.3999973907469,4,2,0,60,0,0
274227,394.736842105263,4,2,0,60,1,0
274555,-58.8235294117647,4,2,0,60,0,0
275016,376.175548589342,4,2,0,60,1,0
275392,380.952380952381,4,2,0,60,1,0
275392,-66.6666666666667,4,2,0,60,0,0
275582,-66.6666666666667,4,2,0,60,0,1
275677,-66.6666666666667,4,2,0,10,0,1
275772,-66.6666666666667,4,2,0,60,0,0
276539,361.44578313253,4,2,0,60,1,0
277081,-66.6666666666667,4,2,0,60,0,1
277261,-153.846153846154,4,2,0,60,0,0
277296,-153.846153846154,4,2,0,20,0,0
277342,-86.9565217391303,4,2,0,60,0,0
277387,-86.9565217391303,4,2,0,20,0,0
277433,-68.9655172413794,4,2,0,60,0,0
277478,-68.9655172413794,4,2,0,20,0,0
277524,-58.8235294117647,4,2,0,60,0,0
277569,-58.8235294117647,4,2,0,20,0,0
277614,-105.263157894737,4,2,0,60,0,0
277660,-105.263157894737,4,2,0,20,0,0
277705,-133.333333333333,4,2,0,60,0,0
277751,-133.333333333333,4,2,0,20,0,0
277796,-153.846153846154,4,2,0,60,0,0
277842,-153.846153846154,4,2,0,20,0,0
277887,-181.818181818182,4,2,0,60,0,0
277933,-181.818181818182,4,2,0,20,0,0
277984,-66.6666666666667,4,2,0,50,0,0
278516,-58.8235294117647,4,2,0,50,0,0
278696,-52.6315789473684,4,2,0,50,0,0
278977,-52.6315789473684,4,2,0,10,0,0
279055,-66.6666666666667,4,2,0,50,0,0
279430,392.156862745098,4,2,0,50,1,0
279430,-66.6666666666667,4,2,0,50,0,0
279724,-58.8235294117647,4,2,0,50,0,0
279920,-66.6666666666667,4,2,0,50,0,0
280802,-58.8235294117647,4,2,0,50,0,0
280998,387.096774193548,4,2,0,50,1,0
281578,-66.6666666666667,4,2,0,50,0,1
281772,379.746835443038,4,2,0,50,1,0
281772,-66.6666666666667,4,2,0,50,0,0
283098,368.098159509202,4,2,0,50,1,0
283098,-66.6666666666667,4,2,0,50,0,0
283558,-66.6666666666667,4,2,0,40,0,0
283650,-66.6666666666667,4,2,0,42,0,0
283742,-66.6666666666667,4,2,0,44,0,0
283834,-66.6666666666667,4,2,0,46,0,0
283924,-66.6666666666667,4,2,0,48,0,0
284018,373.250388802488,4,2,0,50,1,0
284018,-66.6666666666667,4,2,0,50,0,0
285511,382.165605095541,4,2,0,50,1,0
285606,-66.6666666666667,4,2,0,50,0,0
286179,-66.6666666666667,4,2,0,50,0,0
287039,375,5,2,0,50,1,1
287039,-66.6666666666667,5,2,0,50,0,1
287601,-66.6666666666667,5,2,0,50,0,1
288915,385.232744783306,5,2,0,50,1,1
288915,-62.5,5,2,0,50,0,1
290070,375.586854460094,5,2,0,50,1,1
290070,-62.5,5,2,0,50,0,1
290822,388.978930307941,5,2,0,50,1,1
290822,-60.6060606060606,5,2,0,50,0,1
291991,361.990950226244,5,2,0,50,1,1
292715,379.746835443037,5,2,0,50,1,1
292715,-55.5555555555556,5,2,0,50,0,1
294613,379.146919431279,5,2,0,50,1,1
294613,-54.054054054054,5,2,0,50,0,1
296508,384.615384615384,5,2,0,50,1,1
296508,-50,5,2,0,50,0,1
298431,376.175548589341,5,2,0,50,1,1
298431,-46.5116279069767,5,2,0,50,0,1
298995,-55.5555555555556,5,2,0,50,0,1
299371,-66.6666666666667,5,2,0,50,0,1
299559,359.281437125748,5,2,0,50,1,1
300277,384.615384615384,4,2,0,50,1,0
300565,-100,4,2,0,35,0,0
301819,390.243902439024,4,2,0,35,1,0
303384,398.671096345514,4,2,0,35,1,0
303782,775.193798449612,4,2,0,35,1,0
303782,-481.389617283744,4,2,0,35,0,0
306495,402.684563758389,4,2,0,35,1,0
308105,400,4,2,0,35,1,0
309694,781.758957654723,4,2,0,35,1,0
309694,-500,4,2,0,35,0,0
311853,400,4,2,0,35,1,0
312856,408.163265306122,4,2,0,35,1,0
316121,390.879478827361,4,2,0,35,1,0
316707,784.313725490196,4,2,0,35,1,0
316707,-500,4,2,0,35,0,0
318470,393.442622950819,4,2,0,35,1,0
319257,412.371134020618,4,2,0,45,1,0
320081,-100,4,2,0,35,0,0
320494,418.118466898954,4,2,0,35,1,0
320912,412.371134020618,4,2,0,35,1,0
322561,401.33779264214,4,2,0,35,1,0
322895,-200,4,2,0,35,0,0
324166,393.442622950819,4,2,0,35,1,0
325739,-500,4,2,0,35,0,1
325788,-500,4,2,0,5,0,0

[Colours]
Combo1 : 222,217,152
Combo2 : 210,94,81
Combo3 : 200,132,91
Combo4 : 152,202,98

[HitObjects]
0,0,601,5,6,0:3:0:0:
4,4,729,5,6,0:3:0:0:
8,8,857,5,6,0:3:0:0:
230,384,1177,2,0,P|245:288|256:260,1,90.0000034332277,4|0,0:0|0:0,0:0:0:0:
284,236,1370,2,0,P|276:214|266:194,3,45.0000017166138,2|0|0|0,3:3|0:0|0:0|0:0,0:0:0:0:
207,310,1658,1,8,1:3:0:0:
146,266,1754,1,8,0:3:0:0:
95,290,1851,1,8,0:3:0:0:
65,277,1947,1,8,0:3:0:0:
0,0,2139,5,6,0:3:0:0:
4,4,2265,5,6,0:3:0:0:
8,8,2392,5,6,0:3:0:0:
146,367,2708,2,0,P|236:331|266:327,1,90.0000034332277,4|0,0:0|0:0,0:0:0:0:
300,346,2898,2,0,P|323:350|344:356,3,45.0000017166138,2|0|0|0,3:0|0:0|0:0|0:0,0:0:0:0:
333,262,3183,1,8,1:3:0:0:
394,211,3278,1,8,0:3:0:0:
443,227,3373,1,8,0:3:0:0:
478,199,3468,1,8,0:3:0:0:
500,0,3657,5,6,0:3:0:0:
504,4,3783,5,6,0:3:0:0:
508,8,3909,5,6,0:3:0:0:
416,384,4225,2,0,P|401:288|390:260,1,90.0000034332277,4|0,0:0|0:0,0:0:0:0:
342,256,4415,2,0,P|324:240|305:228,3,45.0000017166138,2|0|0|0,3:0|0:0|0:0|0:0,0:0:0:0:
232,251,4699,1,8,1:3:0:0:
180,197,4794,1,8,0:3:0:0:
206,148,4889,1,8,0:3:0:0:
202,108,4984,1,8,0:3:0:0:
500,0,5173,5,6,0:3:0:0:
504,4,5299,5,6,0:3:0:0:
508,8,5426,5,6,0:3:0:0:
335,166,5744,2,0,P|276:180|231:202,1,67.5000025749208,4|0,0:0|0:0,0:0:0:0:
115,133,5934,2,2,P|103:95|118:129,1,135.000005149842,2|0,0:3|0:0,0:0:0:0:
201,144,6220,5,8,0:3:0:0:
193,172,6315,1,8,3:3:0:0:
164,202,6411,1,4,3:3:0:0:
174,244,6506,1,4,3:3:0:0:
189,295,6601,1,4,3:3:0:0:
116,320,6696,6,0,P|203:336|354:390,1,202.500007724762,4|0,1:0|0:0,0:0:0:0:
387,355,7070,2,0,P|408:353|385:348,1,67.5000025749208,2|0,1:2|0:0,0:0:0:0:
296,256,7257,1,4,0:3:0:0:
296,256,7351,2,0,P|275:212|280:260,1,135.000005149842,4|0,0:3|0:0,0:0:0:0:
309,332,7632,1,4,0:3:0:0:
512,92,7819,6,0,P|469:120|441:157,1,67.5000025749208,2|0,1:2|0:0,0:0:0:0:
374,14,8006,2,0,P|400:58|410:103,1,67.5000025749208,2|0,1:2|0:0,0:0:0:0:
408,189,8193,6,0,P|435:84|465:22,1,135.000005149842,4|0,0:3|0:0,0:0:0:0:
508,17,8472,1,10,0:3:0:0:
497,3,8565,1,10,1:3:0:0:
497,3,8658,2,0,P|501:-17|505:5,1,67.5000025749208,8|0,0:3|0:0,0:0:0:0:
288,107,8844,6,0,P|306:63|300:110,1,135.000005149842,4|0,0:3|1:0,0:0:0:0:
210,134,9123,2,0,P|163:109|106:98,1,67.5000025749208,4|4,0:3|0:3,0:0:0:0:
66,33,9309,1,4,1:3:0:0:
66,20,9402,1,4,0:3:0:0:
57,29,9495,1,4,0:3:0:0:
0,375,9681,5,6,0:3:0:0:
4,379,9805,5,6,0:3:0:0:
8,383,9929,5,6,0:3:0:0:
61,156,10228,2,0,P|153:188|179:203,1,90.0000034332277,4|0,0:2|0:2,0:2:0:0:
184,246,10411,2,0,P|199:263|211:282,3,45.0000017166138,2|0|0|0,3:3|0:2|0:2|0:2,0:2:0:0:
227,366,10685,1,8,1:3:0:0:
291,337,10776,1,8,0:3:0:0:
289,291,10868,1,8,0:3:0:0:
312,264,10959,1,8,0:3:0:0:
0,375,11141,5,6,0:3:0:0:
4,379,11263,5,6,0:3:0:0:
8,383,11384,5,6,0:3:0:0:
456,302,11687,2,0,P|361:325|334:338,1,90.0000034332277,4|0,0:2|0:2,0:2:0:0:
321,260,11868,2,0,P|309:239|295:221,4,45.0000017166138,10|0|0|0|0,0:3|0:2|0:2|0:2|0:2,0:2:0:0:
445,220,12230,5,4,1:3:0:0:
454,162,12291,5,4,0:3:0:0:
422,135,12351,5,4,0:3:0:0:
384,138,12412,5,4,0:3:0:0:
360,124,12472,5,4,0:3:0:0:
356,110,12533,5,4,0:3:0:0:
366,97,12593,6,0,B|422:129|422:198|394:169|390:247|444:311,1,229.500004377365,4|0,0:2|0:2,0:2:0:0:
496,361,12965,2,0,P|510:377|506:352,1,67.5000025749208,2|0,1:2|0:2,0:2:0:0:
333,269,13151,1,4,0:3:0:0:
333,269,13245,2,0,P|354:225|349:273,1,135.000005149842,4|0,0:3|0:2,0:2:0:0:
329,349,13525,6,0,P|280:371|245:399,1,53.9999983520508,2|0,3:1|0:2,0:2:0:0:
241,237,13711,6,0,P|213:284|208:329,1,60.7500002317429,2|0,3:1|0:2,0:2:0:0:
31,139,13898,6,0,P|36:193|65:230,1,67.5000025749208,2|0,1:1|0:2,0:2:0:0:
37,384,14088,6,0,B|139:372|101:311|231:284,1,202.500007724762,4|4,1:2|0:3,0:2:0:0:
154,227,14469,1,2,1:2:0:0:
152,213,14564,1,4,0:3:0:0:
160,221,14660,1,4,0:3:0:0:
112,294,14755,2,0,P|95:309|102:284,1,67.5000025749208,6|0,0:3|0:2,0:2:0:0:
300,178,14946,1,0,1:2:0:0:
300,178,15041,2,0,P|280:190|293:168,1,67.5000025749208,6|0,0:3|0:2,0:2:0:0:
352,118,15232,1,8,0:3:0:0:
366,67,15328,1,8,0:3:0:0:
340,44,15423,1,4,0:3:0:0:
502,362,15614,5,6,0:3:0:0:
506,366,15737,5,6,0:3:0:0:
510,370,15860,5,6,0:3:0:0:
272,86,16167,2,0,P|182:50|152:46,1,90.0000034332277,4|0,0:2|0:2,0:2:0:0:
142,112,16352,2,0,P|153:132|162:152,3,45.0000017166138,2|0|0|0,3:3|0:2|0:2|0:2,0:2:0:0:
340,44,16629,1,8,1:3:0:0:
382,105,16721,1,8,0:3:0:0:
438,100,16814,1,8,0:3:0:0:
463,123,16906,1,8,0:3:0:0:
502,362,17090,5,6,0:3:0:0:
506,366,17212,5,6,0:3:0:0:
510,370,17335,5,6,0:3:0:0:
429,238,17641,2,0,P|418:201|387:136,1,67.5000025749208,4|0,0:2|0:2,0:2:0:0:
442,27,17825,5,8,0:3:0:0:
457,12,17916,1,4,0:3:0:0:
468,25,18008,1,8,0:3:0:0:
479,20,18100,1,4,0:3:0:0:
482,36,18192,1,8,0:3:0:0:
327,115,18376,5,8,0:0:0:0:
302,183,18468,1,8,0:0:0:0:
222,215,18559,2,2,B|144:219|105:151|8:171,1,202.500007724762,4|0,0:2|0:2,0:0:0:0:
3,96,18932,2,0,P|-8:78|6:96,1,67.5000025749208,2|0,1:2|0:2,0:2:0:0:
42,269,19118,1,6,0:3:0:0:
42,269,19212,2,0,P|21:313|26:265,1,135.000005149842,4|0,0:3|0:2,0:2:0:0:
71,199,19492,1,4,0:3:0:0:
291,264,19678,6,0,P|305:247|288:262,1,67.5000025749208,2|0,1:2|0:2,0:2:0:0:
160,139,19865,2,0,P|200:188|214:221,1,67.5000025749208,2|0,0:2|0:2,0:2:0:0:
188,344,20052,6,0,P|279:300|375:269,1,202.500007724762,2|0,0:2|0:2,0:2:0:0:
451,286,20425,2,0,P|468:291|450:283,1,67.5000025749208,2|0,1:2|0:2,0:2:0:0:
354,108,20611,1,6,0:3:0:0:
354,108,20705,2,0,P|372:63|372:111,1,135.000005149842,4|0,0:3|0:2,0:2:0:0:
343,181,20985,1,4,0:3:0:0:
444,371,21171,5,2,1:2:0:0:
444,358,21265,1,8,0:3:0:0:
453,367,21358,2,0,P|484:337|539:299,1,67.5000025749208,8|0,0:3|0:2,0:2:0:0:
422,61,21547,6,0,P|384:155|358:252,1,202.500007724762,4|0,0:2|0:2,0:2:0:0:
282,273,21923,2,0,P|262:281|282:270,1,67.5000025749208,2|0,1:2|0:2,0:2:0:0:
472,141,22111,1,4,0:3:0:0:
472,141,22205,2,0,P|516:159|468:159,1,135.000005149842,2|0,1:2|0:2,0:2:0:0:
395,117,22487,2,0,P|381:68|361:23,1,67.5000025749208,4|0,0:3|0:2,0:2:0:0:
497,0,22675,5,0,1:2:0:0:
512,19,22800,5,4,0:3:0:0:
80,27,22957,6,0,B|63:50|19:61|36:-17|126:17,1,135.000005149842,2|2,0:2|0:2,0:2:0:0:
232,50,23326,5,2,0:2:0:0:
131,142,23540,2,0,B|78:138|99:176|37:211|-72:174|39:-20|233:-2|233:56,1,382.500014591218,4|0,0:2|0:2,0:2:0:0:
204,118,24151,5,10,0:3:0:0:
233,148,24243,1,4,0:3:0:0:
223,189,24335,1,4,0:3:0:0:
208,241,24427,1,4,0:3:0:0:
274,272,24518,6,0,B|183:268|147:332|20:330,1,202.500007724762,4|0,0:2|0:2,0:2:0:0:
33,265,24883,2,0,P|21:257|41:262,1,67.5000025749208,2|0,1:2|0:2,0:2:0:0:
229,374,25066,1,4,0:3:0:0:
229,374,25158,2,0,P|246:380|230:361,1,67.5000025749208,4|0,0:3|0:2,0:2:0:0:
122,230,25341,5,0,1:2:0:0:
129,192,25432,1,4,0:3:0:0:
91,154,25524,1,4,0:3:0:0:
33,161,25615,2,0,P|53:91|64:69,1,67.5000025749208,2|0,1:2|0:2,0:2:0:0:
239,199,25798,2,0,P|224:171|211:137,1,67.5000025749208,2|0,0:2|0:2,0:2:0:0:
321,25,25985,6,0,P|421:50|565:116,1,202.500007724762,6|0,0:2|0:2,0:2:0:0:
407,10,26354,2,0,P|393:4|414:5,1,67.5000025749208,2|0,1:2|0:2,0:2:0:0:
489,165,26538,1,2,1:2:0:0:
489,165,26631,2,0,P|480:176|497:165,1,67.5000025749208,4|0,0:3|0:2,0:2:0:0:
469,53,26815,1,2,0:3:0:0:
504,51,26908,1,4,0:3:0:0:
512,59,27000,1,4,0:3:0:0:
508,83,27092,1,2,1:2:0:0:
469,79,27185,1,0,1:2:0:0:
424,108,27277,1,0,1:2:0:0:
405,159,27369,1,0,1:2:0:0:
338,101,27465,6,0,P|368:182|401:317,1,202.500007724762,4|0,1:2|0:2,0:2:0:0:
486,305,27835,6,0,B|571:362|562:283|438:259|407:334,1,202.500007724762,2|0,0:2|0:2,0:2:0:0:
358,376,28205,2,0,B|367:345|418:371|460:277|272:291|267:365,1,202.500007724762,2|0,0:2|0:2,0:2:0:0:
259,333,28576,2,2,B|223:289|198:238|256:217|279:288|264:351,1,202.500007724762,2|0,0:2|0:2,0:2:0:0:
191,378,28946,2,2,B|178:389|101:369|161:277|35:244,1,202.500007724762,2|0,0:2|0:2,0:2:0:0:
2,312,29316,5,2,1:2:0:0:
116,55,29502,1,0,1:2:0:0:
349,124,29687,5,4,0:3:0:0:
346,170,29779,1,4,0:3:0:0:
307,203,29872,1,4,1:3:0:0:
248,168,29964,1,0,1:2:0:0:
185,135,30057,1,8,1:3:0:0:
159,163,30150,1,8,0:3:0:0:
173,186,30242,1,8,0:3:0:0:
177,176,30335,1,8,0:3:0:0:
165,226,30427,6,0,B|241:191|221:74|378:133,1,229.500004377365,4|0,0:2|0:2,0:2:0:0:
388,57,30803,2,0,P|405:44|384:54,1,67.5000025749208,2|0,1:2|0:2,0:2:0:0:
407,188,30991,1,4,0:3:0:0:
407,188,31085,1,4,0:3:0:0:
474,156,31179,2,0,P|489:141|476:160,1,67.5000025749208,2|4,1:2|0:3,0:2:0:0:
287,369,31367,5,4,3:3:0:0:
278,362,31461,1,4,3:3:0:0:
273,330,31555,1,4,3:3:0:0:
304,299,31649,1,4,3:3:0:0:
306,247,31743,1,4,3:3:0:0:
249,214,31837,1,4,3:3:0:0:
218,281,31931,6,0,B|194:192|288:170|281:90,1,202.500007724762,4|0,1:1|0:2,0:2:0:0:
153,46,32307,2,0,P|111:24|148:54,1,135.000005149842,2|0,1:2|0:2,0:2:0:0:
235,132,32590,2,0,P|234:108|228:131,1,67.5000025749208,4|0,0:3|0:2,0:2:0:0:
297,5,32778,1,2,1:2:0:0:
297,5,32872,2,0,P|225:33|199:52,1,67.5000025749208,4|0,0:3|0:2,0:2:0:0:
86,237,33061,5,4,1:3:0:0:
62,241,33155,1,4,1:3:0:0:
20,224,33249,1,4,1:3:0:0:
0,162,33343,1,4,1:3:0:0:
33,117,33438,2,2,B|141:167|53:304|175:388|212:344,1,270.000010299683,6|0,1:1|0:2,0:1:0:0:
68,369,34004,5,4,0:3:0:0:
68,369,34099,2,0,P|48:377|67:364,1,67.5000025749208,4|0,0:3|0:2,0:2:0:0:
178,200,34288,1,2,1:2:0:0:
202,271,34382,2,0,P|234:280|265:293,1,67.5000025749208,4|0,0:3|0:2,0:2:0:0:
338,318,34571,2,0,B|386:322|342:249|481:239|535:337,1,202.500007724762,4|0,0:2|0:2,0:2:0:0:
434,378,34949,5,12,0:3:0:0:
424,370,35043,1,12,0:3:0:0:
429,348,35137,1,12,0:3:0:0:
445,358,35231,1,12,0:3:0:0:
400,186,35466,5,8,1:3:0:0:
396,180,35513,1,8,0:3:0:0:
472,35,35701,1,8,1:3:0:0:
477,22,35748,1,8,0:3:0:0:
334,127,35936,1,4,1:3:0:0:
326,122,35983,1,4,0:3:0:0:
406,100,36171,2,0,P|443:107|479:118,2,76.5000014591217,4|0|0,0:3|0:2|0:2,0:2:0:0:
194,75,36453,6,0,B|164:17|46:42|105:110|85:158|-14:164,1,229.500004377365,4|0,1:0|0:2,0:2:0:0:
6,83,36829,2,0,B|47:63|143:92|85:178|121:228,1,202.500007724762,2|0,1:2|3:2,0:2:0:0:
157,280,37206,1,6,0:3:0:0:
169,279,37300,1,4,0:3:0:0:
173,264,37394,1,4,0:3:0:0:
1,304,37582,2,0,B|-43:248|23:170|128:178|132:250,1,202.500007724762,2|0,1:2|0:2,0:2:0:0:
81,295,37957,6,0,B|150:280|194:367|249:368|300:330,1,202.500007724762,6|0,0:3|0:2,0:2:0:0:
284,272,38328,2,0,B|311:230|387:250|393:341,1,135.000005149842,2|0,1:2|0:2,0:2:0:0:
439,384,38607,1,4,0:3:0:0:
439,384,38700,2,2,B|460:307|500:354|523:222,1,135.000005149842,2|0,0:3|0:2,0:2:0:0:
512,0,39071,2,2,B|434:84|414:18|337:94,1,202.500007724762,2|0,1:2|0:2,0:2:0:0:
306,166,39443,6,0,B|247:202|177:105|110:92,1,202.500007724762,6|0,0:3|0:2,0:2:0:0:
60,147,39815,2,0,B|45:99|-24:70|6:-4,1,161.999995056153,2|0,1:2|0:2,0:2:0:0:
80,30,40187,2,0,P|128:11|144:7,1,45,10|0,0:3|3:2,0:2:0:0:
125,96,40373,1,4,0:3:0:0:
190,289,40559,2,0,B|235:258|230:228|275:179,1,116.999994644165,2|0,1:2|0:2,0:2:0:0:
260,115,40838,1,8,0:3:0:0:
330,150,40931,6,0,B|421:190|361:279|454:333,1,202.500007724762,6|0,0:3|0:2,0:2:0:0:
392,383,41301,2,0,B|451:369|452:326|516:315,1,135.000005149842,2|0,1:2|0:2,0:2:0:0:
507,317,41580,1,8,0:3:0:0:
376,71,41765,5,0,1:2:0:0:
376,71,41858,2,0,P|419:54|450:45,1,67.5000025749208,4|0,0:3|0:2,0:2:0:0:
512,63,42043,2,0,B|527:28|527:28|464:-42,1,74.2500007081032,0|0,1:2|0:2,0:2:0:0:
350,148,42229,1,4,0:3:0:0:
350,148,42322,1,4,0:3:0:0:
290,199,42414,6,2,B|203:164|164:257|82:269,1,222.75000212431,6|0,0:2|0:2,0:2:0:0:
34,329,42784,2,2,B|-25:297|-7:149|163:177|211:297|265:279|295:272,1,371.250003540516,6|0,0:0|0:2,0:2:0:0:
280,274,43339,1,4,0:3:0:0:
487,51,43525,6,0,B|482:81|474:73|465:132,1,62.9999980773926,0|0,1:2|0:2,0:2:0:0:
317,195,43710,2,0,B|347:190|338:181|397:173,1,62.9999980773926,2|0,0:0|0:2,0:2:0:0:
477,203,43895,2,0,B|377:183|391:86|226:86,1,270.000010299683,6|0,0:3|0:2,0:2:0:0:
31,0,44512,6,0,B|38:34|56:23|60:87,1,67.5000025749208,10|0,0:3|0:2,0:2:0:0:
0,174,44669,2,0,B|34:38|168:41|216:139|111:155,1,270.000010299683,4|0,0:3|0:2,0:2:0:0:
130,272,45195,6,0,B|120:237|100:240|96:189,1,67.5000025749208,6|0,0:3|0:2,0:2:0:0:
32,0,45405,2,0,B|88:116|-29:168|39:292,1,270.000010299683,4|0,0:2|0:2,0:2:0:0:
19,361,45883,6,0,P|55:338|113:326,1,58.4999973220826,8|0,0:3|0:2,0:2:0:0:
204,244,46042,2,0,P|242:261|267:284,1,45,6|0,0:3|0:2,0:2:0:0:
281,329,46234,2,0,P|327:315|348:314,1,40.4999987640381,4|0,0:3|0:2,0:2:0:0:
333,309,46426,2,2,B|407:334|360:362|461:385,1,121.499996292114,2|0,0:2|0:2,0:1:0:0:
479,318,46811,1,8,0:3:0:0:
473,307,46903,1,8,0:3:0:0:
458,308,46996,1,8,0:3:0:0:
226,123,47183,6,0,P|213:73|199:40,1,67.5000025749208,2|0,3:3|0:2,0:2:0:0:
276,8,47370,2,0,P|292:63|305:89,1,67.5000025749208,2|0,3:3|0:2,0:2:0:0:
307,264,47559,5,4,3:3:0:0:
295,271,47622,5,4,3:3:0:0:
305,284,47685,5,4,3:3:0:0:
292,293,47748,5,8,3:3:0:0:
247,355,47937,5,4,3:3:0:0:
259,362,48000,5,4,3:3:0:0:
249,375,48063,5,4,3:3:0:0:
262,384,48126,5,8,3:3:0:0:
185,252,48299,6,0,P|112:224|23:198,1,135.000005149842,4|0,3:1|0:2,0:2:0:0:
0,155,48584,1,4,0:3:0:0:
136,105,48679,2,0,P|77:129|49:143,1,67.5000025749208,0|0,1:2|0:2,0:2:0:0:
99,259,48870,2,0,B|84:222|61:235|40:167,1,67.5000025749208,2|0,0:2|0:2,0:2:0:0:
182,0,49062,5,6,0:3:0:0:
231,54,49189,5,2,0:2:0:0:
299,23,49316,5,2,0:2:0:0:
352,107,49443,5,2,1:3:0:0:
359,92,49570,5,2,0:2:0:0:
367,105,49698,5,2,0:2:0:0:
449,45,49826,6,0,B|437:109|496:105|468:200,1,135.000005149842,6|0,0:3|0:2,0:2:0:0:
512,0,50182,5,2,0:2:0:0:
448,155,50301,2,0,B|409:166|396:194|341:190,1,90.0000034332277,2|0,1:2|0:2,0:2:0:0:
234,129,50519,2,2,B|308:280|457:159|510:382,1,393.750003755093,0|0,1:2|0:2,0:1:0:0:
483,242,51126,5,8,0:3:0:0:
476,236,51193,1,8,0:3:0:0:
486,226,51260,5,8,0:3:0:0:
289,0,51451,1,4,1:1:0:0:
212,149,51697,6,0,P|139:170|57:202,1,135.000005149842,0|0,1:2|0:2,0:2:0:0:
29,242,51975,2,0,B|-1:218|-1:218|14:174,1,67.5000025749208,4|0,0:3|0:2,0:2:0:0:
103,99,52160,1,0,1:2:0:0:
11,50,52252,2,0,P|27:99|37:140,1,67.5000025749208,4|0,0:3|0:2,0:2:0:0:
0,330,52437,6,2,B|114:328|160:251|86:122|194:60|332:76|373:128,1,459.00000875473,6|0,0:1|0:2,0:1:0:0:
338,103,53080,1,0,1:2:0:0:
480,150,53172,2,0,P|494:96|504:73,1,58.4999973220826,8|8,0:3|0:3,0:2:0:0:
512,25,53354,2,0,P|487:12|460:2,1,58.4999973220826,8|8,0:3|0:3,0:2:0:0:
406,57,53537,2,0,P|411:71|416:86,5,30,4|4|4|4|4|4,0:3|0:3|0:3|0:3|0:3|0:3,0:2:0:0:
337,8,53897,6,0,P|301:27|304:54,1,38.9999982147218,6|0,0:1|0:1,0:1:0:0:
234,55,54018,6,0,P|266:93|295:96,1,45.0000017166138,6|0,0:1|0:1,0:1:0:0:
316,181,54138,6,0,P|276:215|253:211,1,51.0000009727478,6|0,0:1|0:1,0:1:0:0:
228,374,54255,6,2,L|322:-59,2,360,4|4|4,0:2|0:2|0:3,0:1:0:0:
232,378,55097,1,0,1:2:0:0:
162,320,55187,5,4,0:3:0:0:
23,54,55366,2,0,P|41:110|50:146,1,67.5000025749208,0|0,1:2|0:2,0:2:0:0:
53,260,55546,2,0,B|21:277|21:277|-12:240,1,67.5000025749208,4|0,0:3|0:2,0:2:0:0:
64,121,55725,2,0,P|45:176|39:208,1,67.5000025749208,4|0,0:3|0:2,0:2:0:0:
93,371,55908,6,0,L|51:121,1,180,2|2,1:1|0:1,0:2:0:0:
158,245,56276,1,4,0:3:0:0:
158,245,56368,2,0,P|165:181|173:139,1,67.5000025749208,8|0,0:3|0:2,0:2:0:0:
333,384,56551,1,4,1:3:0:0:
405,352,56643,6,2,L|499:-39,1,360,2|4,1:1|0:3,0:1:0:0:
490,2,57103,1,0,0:2:0:0:
441,127,57195,6,0,L|401:21,1,90,2|2,3:1|0:1,0:2:0:0:
264,382,57566,2,2,L|230:-26,1,360,0|0,1:2|0:2,0:1:0:0:
234,23,58030,1,8,0:3:0:0:
318,92,58123,2,0,L|336:-11,1,90,0|0,1:2|0:2,0:2:0:0:
340,18,58309,6,0,B|405:29|369:64|440:78,2,90.0000034332277,8|4|0,0:3|0:3|0:2,0:2:0:0:
174,211,58681,6,0,L|149:131,1,67.5000025749208,2|0,1:1|0:2,0:2:0:0:
127,75,58863,2,0,L|102:-5,1,67.5000025749208,2|0,3:1|0:2,0:2:0:0:
106,10,59045,1,4,0:3:0:0:
26,296,59229,6,0,L|33:241,1,45,2|0,1:1|0:2,0:2:0:0:
45,178,59414,2,0,L|52:123,1,45,2|0,3:1|0:2,0:2:0:0:
50,133,59598,1,4,0:3:0:0:
271,384,59785,5,0,1:2:0:0:
262,314,59871,1,0,1:2:0:0:
257,246,59958,1,0,1:2:0:0:
250,179,60045,1,0,1:2:0:0:
244,111,60132,1,0,1:2:0:0:
512,0,60324,6,0,B|484:0|473:21|417:32,1,67.5000025749208,4|0,0:2|0:2,0:2:0:0:
282,3,60516,2,2,B|365:16|331:86|417:91,1,148.500001416206,2|0,1:2|0:2,0:0:0:0:
427,195,60803,2,2,B|489:160|441:114|509:85,1,125.999996154785,10|0,0:3|0:2,0:2:0:0:
493,93,61075,1,4,0:3:0:0:
417,217,61252,2,0,P|426:249|433:282,1,67.5000025749208,0|0,1:2|0:2,0:2:0:0:
481,374,61429,5,2,3:3:0:0:
468,368,61488,5,2,3:2:0:0:
461,381,61547,5,2,3:2:0:0:
449,369,61606,6,2,B|333:373|336:248|228:280,1,222.75000212431,2|0,0:2|0:2,0:2:0:0:
184,308,61986,2,2,B|131:326|158:360|58:385,1,148.500001416206,0|0,1:2|0:2,0:2:0:0:
2,267,62272,2,0,P|36:281|68:300,1,74.2500007081032,0|0,1:2|0:2,0:2:0:0:
259,384,62457,1,0,1:2:0:0:
196,328,62547,1,4,0:3:0:0:
26,89,62728,6,0,L|74:72,1,30,8|0,0:3|0:2,0:2:0:0:
123,110,62849,6,0,L|153:80,1,30,8|0,0:3|0:2,0:2:0:0:
185,2,62970,6,0,L|201:40,1,30,8|0,0:3|0:2,0:2:0:0:
269,56,63093,6,0,L|246:147,1,74.2500007081032,2|2,0:1|0:1,0:2:0:0:
250,127,63275,1,6,0:3:0:0:
59,74,63458,5,2,1:3:0:0:
137,85,63580,5,2,0:2:0:0:
194,31,63702,5,2,0:2:0:0:
303,72,63824,5,6,0:3:0:0:
307,76,63946,1,2,0:2:0:0:
311,80,64068,1,2,0:2:0:0:
254,131,64190,5,2,1:3:0:0:
305,189,64312,1,2,0:2:0:0:
279,261,64434,1,2,0:2:0:0:
312,335,64556,5,0,1:2:0:0:
316,339,64679,2,2,B|352:342|346:360|414:385,1,90.0000034332277,4|0,0:3|0:2,0:2:0:0:
496,224,64927,5,6,1:2:0:0:
445,178,65051,5,6,1:2:0:0:
379,207,65175,5,6,1:2:0:0:
316,146,65298,5,6,1:2:0:0:
229,201,65422,5,6,1:2:0:0:
157,119,65546,5,6,1:2:0:0:
60,211,65669,6,0,P|45:161|29:128,1,67.5000025749208,6|0,3:2|3:2,0:2:0:0:
208,23,65844,2,0,P|223:73|239:106,1,67.5000025749208,4|8,3:3|3:3,0:2:0:0:
113,344,66022,6,2,L|156:118,1,229.500004377365,4|0,0:2|0:2,0:1:0:0:
107,62,66404,1,2,1:2:0:0:
87,89,66500,1,2,0:2:0:0:
52,82,66596,1,2,0:2:0:0:
11,137,66691,1,6,0:3:0:0:
11,137,66787,2,0,B|3:90|37:104|34:30,1,67.5000025749208,4|0,0:3|0:2,0:2:0:0:
257,79,66978,2,0,B|175:81|211:-19|116:-1,2,135.000005149842,2|2|2,0:1|0:1|1:1,0:2:0:0:
366,151,67457,5,4,0:3:0:0:
264,0,67553,2,0,L|320:380,1,360,4|0,0:2|0:2,0:0:0:0:
455,0,68119,6,2,B|389:-4|327:63|396:118|305:186,1,255.000004863739,2|0,0:2|0:2,0:2:0:0:
240,122,68497,2,0,B|227:98|217:104|195:54,1,67.5000025749208,2|4,1:2|0:3,0:2:0:0:
145,203,68686,2,0,B|139:228|126:226|117:276,1,53.9999983520508,2|4,1:2|0:3,0:2:0:0:
66,183,68875,2,0,B|54:170|36:179|10:146,1,40.4999987640381,2|4,1:2|0:3,0:2:0:0:
0,0,69064,5,6,0:3:0:0:
4,4,69194,5,6,0:3:0:0:
8,8,69324,5,6,0:3:0:0:
230,370,69637,2,0,P|245:297|259:257,1,90.0000034332277,4|0,0:2|0:2,0:2:0:0:
243,272,69820,1,8,0:3:0:0:
317,248,69912,1,8,0:3:0:0:
357,310,70003,2,0,P|410:289|456:277,1,67.5000025749208,4|0,0:3|0:2,0:2:0:0:
459,216,70186,5,12,0:3:0:0:
449,204,70247,5,12,0:3:0:0:
464,197,70308,5,12,0:3:0:0:
455,183,70370,5,12,0:3:0:0:
500,0,70548,5,6,0:3:0:0:
504,4,70678,5,6,0:3:0:0:
508,8,70808,5,6,0:3:0:0:
262,384,71110,2,0,P|253:321|244:293,1,67.5000025749208,4|0,0:2|0:2,0:2:0:0:
295,250,71283,6,0,L|285:202,1,35.9999989013672,8|0,1:3|0:2,0:2:0:0:
212,239,71399,6,0,L|218:190,1,30,8|0,1:3|0:2,0:2:0:0:
141,202,71514,6,0,L|152:180,1,24,8|0,1:3|0:2,0:2:0:0:
85,144,71629,6,0,L|103:127,1,17.9999994506836,4|0,1:3|0:2,0:2:0:0:
50,74,71744,6,0,L|61:69,1,12,4|0,1:3|0:2,0:2:0:0:
43,3,71860,6,0,L|49:0,1,8.99999972534181,4|0,1:3|0:2,0:2:0:0:
43,3,71972,5,4,0:1:0:0:
115,19,72192,2,2,P|142:14|162:14,1,36,2|0,0:2|0:2,0:2:0:0:
224,70,72634,2,2,P|247:58|267:53,1,26.9999991760254,2|2,0:2|0:2,0:2:0:0:
307,9,72855,6,2,P|322:21|325:40,1,30,2|2,0:3|0:3,0:2:0:0:
331,10,73004,6,2,P|340:26|337:45,1,30,2|2,0:3|0:2,0:2:0:0:
353,19,73154,6,2,P|356:37|346:54,1,30,2|2,0:3|0:2,0:2:0:0:
371,35,73303,6,2,P|368:53|353:66,1,30,2|2,0:3|0:2,0:2:0:0:
382,56,73453,6,2,P|372:72|354:79,1,30,2|2,0:3|0:2,0:2:0:0:
385,78,73602,6,2,P|370:90|351:90,1,30,2|2,0:3|0:2,0:2:0:0:
381,101,73752,6,2,P|363:107|345:101,1,30,2|2,0:3|0:2,0:2:0:0:
368,122,73901,6,2,P|348:122|334:109,1,30,2|2,0:3|0:2,0:2:0:0:
348,137,74051,6,2,P|329:130|320:114,1,30,2|2,0:3|0:2,0:2:0:0:
325,145,74200,6,2,P|310:133|307:114,1,30,2|2,0:3|0:2,0:2:0:0:
300,142,74350,6,2,P|290:125|293:106,1,30,2|2,0:3|0:2,0:2:0:0:
278,131,74499,6,2,P|274:111|283:94,1,30,2|2,0:3|0:2,0:2:0:0:
291,98,74648,5,8,1:2:0:0:
285,100,74886,1,8,0:3:0:0:
295,91,75125,1,8,0:3:0:0:
297,103,75363,1,8,0:3:0:0:
444,321,75602,5,4,0:3:0:0:
510,345,75842,2,2,P|504:357|500:369,1,26.9999991760254,2|0,0:2|0:2,0:2:0:0:
361,285,76323,2,0,L|359:277,2,8.99999972534181,2|2|2,0:2|0:2|0:2,0:2:0:0:
376,353,76563,6,2,P|373:356|368:357,1,6,2|2,0:3|0:2,0:2:0:0:
376,358,76722,2,2,P|372:360|367:359,1,6,2|2,0:3|0:2,0:2:0:0:
374,364,76881,2,2,P|369:364|365:362,1,6,2|2,0:3|0:2,0:2:0:0:
370,369,77040,2,2,P|365:368|362:364,1,6,2|2,0:3|0:2,0:2:0:0:
365,371,77199,2,2,P|361:368|359:363,1,6,2|2,0:3|0:2,0:2:0:0:
359,372,77358,2,2,P|356:368|356:363,1,6,2|2,0:3|0:2,0:2:0:0:
353,371,77517,2,2,P|351:366|353:362,1,6,2|2,0:3|0:2,0:2:0:0:
348,368,77676,2,2,P|348:362|351:359,1,6,2|2,0:3|0:2,0:2:0:0:
345,363,77835,2,2,P|346:358|350:356,1,6,2|2,0:3|0:2,0:2:0:0:
343,357,77994,2,2,P|346:353|350:352,1,6,2|2,0:3|0:2,0:2:0:0:
343,351,78153,2,2,P|347:348|352:349,1,6,2|2,0:3|0:2,0:2:0:0:
346,345,78312,2,2,P|350:344|354:346,1,6,2|2,0:3|0:2,0:2:0:0:
353,347,78471,5,8,1:2:0:0:
361,354,78700,1,4,0:3:0:0:
264,330,78929,5,0,3:2:0:0:
259,315,79044,1,0,3:2:0:0:
248,326,79159,1,2,3:3:0:0:
207,324,79274,1,0,3:2:0:0:
179,366,79388,1,4,3:3:0:0:
37,384,79631,6,2,P|27:358|14:335,1,53.9999983520508,4|8,0:3|0:3,0:2:0:0:
139,279,80120,1,2,0:2:0:0:
147,273,80201,2,0,L|149:251,1,17.9999994506836,2|2,0:2|0:2,0:2:0:0:
203,202,80363,6,2,P|194:190|179:187,1,17.9999994506836,2|2,0:3|0:2,0:2:0:0:
203,183,80524,2,2,P|191:175|176:178,1,17.9999994506836,2|2,0:3|0:2,0:2:0:0:
196,165,80685,2,2,P|182:162|169:170,1,17.9999994506836,2|2,0:3|0:2,0:2:0:0:
183,151,80846,2,2,P|169:153|159:165,1,17.9999994506836,2|2,0:3|0:2,0:2:0:0:
166,142,81008,2,2,P|154:149|148:164,1,17.9999994506836,2|2,0:3|0:2,0:2:0:0:
149,140,81169,2,2,P|140:151|140:166,1,17.9999994506836,2|2,0:3|0:2,0:2:0:0:
131,143,81330,2,2,P|127:157|131:171,1,17.9999994506836,2|2,0:3|0:2,0:2:0:0:
114,153,81492,2,2,P|114:168|125:179,1,17.9999994506836,2|2,0:3|0:2,0:2:0:0:
103,169,81653,2,2,P|109:183|122:191,1,17.9999994506836,2|2,0:3|0:2,0:2:0:0:
96,187,81814,2,2,P|106:198|121:201,1,17.9999994506836,2|2,0:3|0:2,0:2:0:0:
99,207,81975,2,2,P|113:214|128:212,1,17.9999994506836,2|2,0:3|0:2,0:2:0:0:
107,224,82137,2,2,P|123:227|137:220,1,17.9999994506836,2|2,0:3|0:2,0:2:0:0:
137,216,82297,5,8,1:2:0:0:
8,76,82536,1,4,0:3:0:0:
37,10,82776,1,8,0:3:0:0:
130,52,83015,2,0,P|164:57|214:69,1,45,0|0,3:2|3:2,0:2:0:0:
379,0,83255,5,4,0:3:0:0:
222,1,83495,2,0,P|259:19|308:48,1,72,4|0,0:3|0:2,0:2:0:0:
429,158,83977,1,2,0:2:0:0:
439,154,84058,2,0,P|442:133|446:118,1,24,2|2,0:2|0:2,0:2:0:0:
494,76,84218,6,2,P|481:65|464:65,1,24,2|2,0:3|0:2,0:2:0:0:
489,54,84379,2,2,P|473:49|456:55,1,24,2|2,0:3|0:2,0:2:0:0:
478,36,84541,2,2,P|461:37|448:48,1,24,2|2,0:3|0:2,0:2:0:0:
460,23,84703,2,2,P|445:28|436:44,1,24,2|2,0:3|0:2,0:2:0:0:
440,17,84865,2,2,P|427:28|424:45,1,24,2|2,0:3|0:2,0:2:0:0:
420,17,85027,2,2,P|411:33|414:50,1,24,2|2,0:3|0:2,0:2:0:0:
400,25,85189,2,2,P|397:42|406:57,1,24,2|2,0:3|0:2,0:2:0:0:
384,39,85351,2,2,P|387:57|401:67,1,24,2|2,0:3|0:2,0:2:0:0:
373,59,85513,2,2,P|382:75|398:80,1,24,2|2,0:3|0:2,0:2:0:0:
369,81,85675,2,2,P|382:92|400:92,1,24,2|2,0:3|0:2,0:2:0:0:
376,102,85837,2,2,P|393:109|410:103,1,24,2|2,0:3|0:2,0:2:0:0:
389,120,85999,2,2,P|407:121|421:110,1,24,2|2,0:3|0:2,0:2:0:0:
425,119,86161,5,8,1:2:0:0:
486,178,86391,1,8,0:3:0:0:
474,181,86507,1,8,0:3:0:0:
473,195,86622,1,4,0:3:0:0:
411,227,86737,1,8,0:3:0:0:
396,262,86853,1,4,0:3:0:0:
386,256,86968,1,4,0:3:0:0:
386,271,87084,1,4,0:3:0:0:
469,340,87325,6,0,P|474:298|483:246,1,67.5000025749208,14|2,0:3|0:3,0:2:0:0:
37,208,87808,6,2,P|105:217|127:274,1,135,2|0,3:3|0:2,0:2:0:0:
155,362,88291,6,2,P|112:322|126:272,1,114.750002188683,2|0,3:3|0:2,0:2:0:0:
151,199,88774,6,2,P|159:245|126:272,1,94.499997116089,2|0,3:3|0:2,0:2:0:0:
71,313,89257,6,2,P|92:280|132:273,1,74.2500022659302,2|0,3:3|0:2,0:2:0:0:
137,345,89739,6,2,L|129:387,1,40.4999987640381,14|0,3:3|0:2,0:0:0:0:
0,360,90218,1,4,0:3:0:0:
54,315,90450,5,0,3:2:0:0:
69,323,90566,1,0,3:2:0:0:
67,303,90681,1,2,3:3:0:0:
96,275,90797,1,0,3:2:0:0:
40,233,90913,1,4,3:3:0:0:
68,116,91158,6,0,P|58:61|51:34,1,67.5000025749208,14|2,0:3|0:3,0:2:0:0:
512,81,91643,6,2,P|446:81|378:26,1,135,2|0,3:3|0:2,0:2:0:0:
323,0,92128,2,2,P|314:50|347:111,1,114.750002188683,2|0,3:3|0:2,0:2:0:0:
342,184,92612,2,2,P|293:166|257:107,1,94.499997116089,2|0,3:3|0:2,0:2:0:0:
210,86,93097,2,2,P|192:134|197:164,1,74.2500022659302,2|0,3:3|0:2,0:2:0:0:
137,199,93582,1,6,0:3:0:0:
390,43,93824,1,8,1:2:0:0:
481,87,94067,1,0,3:2:0:0:
497,0,94310,1,0,3:2:0:0:
474,29,94431,1,0,3:2:0:0:
469,65,94553,1,0,3:2:0:0:
397,45,94797,5,4,0:3:0:0:
487,89,95043,2,2,P|477:144|470:171,1,67.5000025749208,10|0,0:3|0:2,0:2:0:0:
299,363,95536,6,2,P|367:354|389:297,1,135,2|0,3:3|0:2,0:2:0:0:
508,314,96022,2,2,P|492:261|441:242,1,114.750002188683,2|0,3:3|0:2,0:2:0:0:
443,360,96502,2,2,P|398:339|397:278,1,94.499997116089,2|0,3:3|0:2,0:2:0:0:
275,290,96982,2,2,P|297:258|331:247,1,74.2500022659302,2|0,3:3|0:2,0:2:0:0:
388,298,97462,1,6,0:3:0:0:
152,370,97703,1,8,1:2:0:0:
165,278,97943,5,0,3:2:0:0:
157,293,98064,1,0,3:2:0:0:
177,291,98184,1,0,3:2:0:0:
212,319,98305,1,4,3:3:0:0:
258,262,98425,1,4,3:3:0:0:
10,384,98666,5,4,3:3:0:0:
0,381,98783,1,0,3:2:0:0:
41,320,98901,2,2,P|51:265|58:238,1,67.5000025749208,4|0,3:3|0:2,0:2:0:0:
0,0,99373,6,2,P|66:0|138:60,1,148.50000453186,2|0,3:3|0:2,0:2:0:0:
80,190,99844,2,2,P|80:124|32:63,1,128.249996575356,2|0,3:3|0:2,0:2:0:0:
145,40,100316,2,2,P|195:82|208:149,1,108,2|0,3:3|0:2,0:2:0:0:
80,190,100789,2,2,P|122:139|128:99,1,87.749995983124,2|0,3:3|0:2,0:2:0:0:
224,70,101263,5,8,0:3:0:0:
255,43,101382,1,8,0:3:0:0:
283,56,101500,1,8,0:3:0:0:
334,6,101620,1,8,0:3:0:0:
351,17,101740,1,8,0:3:0:0:
356,2,101861,1,8,0:3:0:0:
423,16,101981,1,4,0:3:0:0:
512,128,102222,1,4,0:3:0:0:
351,0,102474,5,4,3:3:0:0:
479,236,102708,2,2,P|457:189|441:159,1,67.5000025749208,0|0,0:2|0:2,0:2:0:0:
512,15,103178,2,0,P|508:58|508:67,1,33.7500012874604,2|0,0:2|0:2,0:2:0:0:
445,92,103413,6,0,P|423:73|413:67,1,22.5000008583069,14|0,1:2|0:2,0:2:0:0:
358,45,103569,2,0,P|350:68|344:81,1,22.5000008583069,2|0,0:2|0:2,0:2:0:0:
297,122,103726,2,0,P|277:114|265:114,1,22.5000008583069,2|0,0:2|0:2,0:2:0:0:
223,62,103883,2,0,P|209:70|194:77,1,17.9999994506836,2|0,0:2|0:2,0:2:0:0:
142,110,104039,2,0,P|133:89|127:82,1,17.9999994506836,2|0,0:2|0:2,0:2:0:0:
65,70,104196,2,0,P|48:78|35:83,1,17.9999994506836,2|0,0:2|0:2,0:2:0:0:
1,137,104352,2,0,P|15:144|23:148,1,15,2|0,0:2|0:2,0:2:0:0:
68,87,104509,2,0,P|70:75|75:64,1,15,2|0,0:2|0:2,0:2:0:0:
134,118,104665,2,0,P|150:125|156:130,1,15,2|0,0:2|0:2,0:2:0:0:
202,72,104822,2,0,P|209:68|217:64,1,10.4999996795654,2|0,0:2|0:2,0:2:0:0:
274,105,104978,2,0,P|281:105|288:108,1,10.4999996795654,2|0,0:2|0:2,0:2:0:0:
352,78,105135,2,0,P|361:75|367:73,1,10.4999996795654,2|0,0:2|0:2,0:2:0:0:
429,100,105292,1,14,1:2:0:0:
131,7,105530,5,0,3:2:0:0:
135,22,105769,1,0,3:2:0:0:
0,197,106007,1,2,0:3:0:0:
45,294,106246,2,2,L|56:251,1,45,2|0,0:3|0:2,0:2:0:0:
56,250,106980,2,0,P|91:231|108:227,1,45,2|0,0:2|0:2,0:2:0:0:
167,145,107225,6,0,P|186:187|190:201,1,35.9999989013672,14|0,1:2|0:2,0:2:0:0:
206,303,107386,2,0,P|224:260|228:253,1,35.9999989013672,2|0,0:2|0:2,0:2:0:0:
294,202,107548,2,0,P|316:175|329:166,1,35.9999989013672,2|0,0:2|0:2,0:2:0:0:
342,278,107710,2,0,P|357:307|368:319,1,30,2|0,0:2|0:2,0:2:0:0:
414,223,107872,2,0,P|427:218|449:214,1,30,2|0,0:2|0:2,0:2:0:0:
474,299,108034,2,0,P|492:308|504:319,1,30,2|0,0:2|0:2,0:2:0:0:
495,288,108196,2,0,P|501:270|509:253,1,24,2|0,0:2|0:2,0:2:0:0:
424,238,108358,2,0,P|420:226|415:215,1,24,2|0,0:2|0:2,0:2:0:0:
362,280,108520,2,0,P|342:262|332:257,1,24,2|0,0:2|0:2,0:2:0:0:
281,234,108682,1,2,0:0:0:0:
367,138,108918,5,4,0:3:0:0:
205,356,109155,1,8,1:2:0:0:
13,338,109391,6,0,L|1:305,2,30,2|0|0,3:2|3:2|3:2,0:2:0:0:
77,381,109628,2,0,L|86:328,2,35.9999989013672,2|0|0,3:2|3:2|3:2,0:2:0:0:
136,292,109864,2,0,L|108:205,1,53.9999983520508,2|8,3:2|0:3,0:0:0:0:
194,334,110101,5,6,0:3:0:0:
256,192,110343,1,10,0:3:0:0:
318,50,110586,1,10,0:3:0:0:
468,22,110847,6,2,L|504:-9,1,45,4|0,0:2|0:2,0:0:0:0:
312,330,113637,1,0,3:2:0:0:
318,334,113722,5,6,0:3:0:0:
256,192,113973,1,10,0:3:0:0:
194,50,114224,1,10,0:3:0:0:
48,352,114475,6,2,L|14:388,1,45,4|0,0:2|0:2,0:2:0:0:
256,124,117413,6,0,L|256:40,1,81,4|0,0:2|0:2,0:2:0:0:
267,45,119827,1,2,0:2:0:0:
273,31,120068,1,2,0:2:0:0:
296,21,120308,1,2,0:2:0:0:
321,43,120549,1,2,0:2:0:0:
357,37,120789,1,2,0:3:0:0:
400,68,121030,1,2,0:2:0:0:
467,8,121270,1,2,0:3:0:0:
489,15,121510,1,2,0:2:0:0:
506,81,121750,1,2,0:3:0:0:
510,85,121991,1,2,0:3:0:0:
256,192,122231,12,8,124377,0:3:0:0:
256,192,124600,5,8,0:3:0:0:
224,256,124831,1,8,0:3:0:0:
294,380,125062,1,4,0:3:0:0:
290,379,125565,6,0,L|292:364,1,13.5,2|0,0:2|0:2,0:2:0:0:
348,314,126068,2,2,L|328:274,1,45,2|0,0:2|0:2,0:2:0:0:
322,275,127710,1,2,0:2:0:0:
375,204,127965,1,2,0:2:0:0:
385,198,128093,2,2,L|388:190,1,9,2|0,0:2|0:2,0:2:0:0:
426,73,128602,2,2,L|457:62,1,31.5,2|0,0:2|0:2,0:2:0:0:
455,52,129579,5,2,0:2:0:0:
422,35,129735,5,2,0:2:0:0:
412,13,129892,5,2,0:2:0:0:
356,64,130048,1,2,0:3:0:0:
288,46,130205,1,2,0:2:0:0:
219,114,130361,1,2,0:2:0:0:
151,55,130518,1,2,0:3:0:0:
101,40,130674,1,2,0:2:0:0:
73,14,130831,1,2,0:2:0:0:
11,48,130988,2,0,L|7:54,1,6,2|8,0:2|0:3,0:2:0:0:
95,170,131301,2,0,L|97:176,1,6,2|8,0:2|0:3,0:2:0:0:
44,255,131618,6,0,L|57:265,1,15,2|4,0:2|0:3,0:2:0:0:
3,378,132062,1,2,1:2:0:0:
3,378,132304,2,2,L|31:362,1,27,2|0,0:2|0:2,0:2:0:0:
96,343,132812,2,0,L|98:328,1,9,2|0,0:2|0:2,0:2:0:0:
191,293,133066,5,4,1:2:0:0:
191,293,133169,2,0,L|176:289,1,9,2|0,0:1|0:2,0:2:0:0:
268,312,133376,2,0,L|252:313,1,9,2|0,0:2|0:2,0:2:0:0:
353,335,133583,2,0,L|342:325,1,9,2|0,0:2|0:2,0:2:0:0:
447,357,133790,2,0,L|431:361,1,9,2|0,0:2|0:2,0:2:0:0:
378,214,133997,2,0,L|388:211,1,9,2|0,0:1|0:2,0:2:0:0:
286,235,134206,2,0,L|297:228,1,9,2|0,0:2|0:2,0:2:0:0:
207,255,134416,2,0,L|219:256,1,9,2|0,0:2|0:2,0:2:0:0:
149,182,134626,6,0,L|137:193,1,9,2|0,0:0|0:2,0:2:0:0:
286,83,134844,6,0,L|292:94,1,9,2|0,0:0|0:2,0:2:0:0:
238,23,135063,6,0,L|241:10,7,13.4999995880127,2|0|0|0|0|0|0|0,0:1|0:2|0:2|0:2|0:2|0:2|0:2|0:2,0:2:0:0:
241,9,135980,5,2,0:1:0:0:
243,14,136111,5,2,0:1:0:0:
236,9,136241,5,2,0:1:0:0:
246,6,136372,5,2,0:1:0:0:
237,15,136502,5,2,0:1:0:0:
389,68,136720,2,0,L|394:60,2,8.99999972534181,2|0|0,0:0|0:2|0:2,0:2:0:0:
335,123,136968,5,2,0:2:0:0:
324,138,137048,1,2,0:2:0:0:
332,149,137129,1,2,0:2:0:0:
337,142,137209,1,2,0:2:0:0:
441,237,137451,2,2,L|475:224,1,36,2|4,0:2|1:2,0:2:0:0:
483,226,138298,5,2,0:2:0:0:
398,347,138419,2,2,L|327:330,1,58.4999973220826,2|0,0:1|0:2,0:1:0:0:
263,358,138684,2,0,L|257:344,1,9,2|0,0:2|0:2,0:2:0:0:
252,345,138949,1,2,0:2:0:0:
147,290,139179,6,2,L|101:316,1,40.4999987640381,6|0,0:3|0:2,0:2:0:0:
111,309,139410,1,2,0:0:0:0:
28,381,139664,2,2,L|22:363,1,18,2|0,0:2|0:2,0:2:0:0:
39,239,140401,5,2,0:2:0:0:
58,231,140524,1,2,0:2:0:0:
99,252,140648,1,2,0:2:0:0:
133,193,140772,1,2,0:2:0:0:
159,207,140896,1,6,0:3:0:0:
171,198,141020,1,2,0:2:0:0:
234,224,141141,1,2,0:2:0:0:
238,228,141262,1,2,0:2:0:0:
252,214,141383,1,6,0:3:0:0:
288,203,141504,1,2,0:2:0:0:
331,256,141625,1,2,0:2:0:0:
398,247,141746,1,2,0:2:0:0:
446,320,141867,2,0,L|455:287,1,22.5,4|0,1:2|0:2,0:2:0:0:
346,114,142109,2,2,L|343:94,1,18,2|2,0:2|0:3,0:2:0:0:
445,16,142835,5,2,0:2:0:0:
443,23,142916,2,0,L|396:41,1,30,2|0,0:2|0:2,0:2:0:0:
283,167,143080,2,0,L|277:184,1,18,6|0,0:2|0:2,0:2:0:0:
85,309,143818,6,0,L|68:237,1,53.9999983520508,2|0,1:3|0:2,0:2:0:0:
189,99,144045,2,0,L|203:106,1,13.5,4|0,0:2|0:2,0:2:0:0:
263,63,144499,1,2,0:2:0:0:
292,85,144613,1,2,0:2:0:0:
43,238,145012,5,2,0:2:0:0:
87,157,145129,1,2,0:3:0:0:
95,171,145246,1,2,0:2:0:0:
127,178,145363,1,2,0:2:0:0:
179,227,145481,1,2,0:3:0:0:
217,194,145598,2,0,L|206:174,1,18,2|4,0:2|1:2,0:2:0:0:
311,152,145834,1,2,0:2:0:0:
333,165,145953,2,0,L|346:157,1,9,2|2,0:2|0:2,0:2:0:0:
438,243,146191,5,8,0:3:0:0:
434,246,146270,5,10,0:3:0:0:
431,249,146349,5,10,0:3:0:0:
428,252,146429,5,10,0:3:0:0:
425,256,146508,5,10,0:3:0:0:
422,259,146587,5,10,0:3:0:0:
419,263,146667,6,0,L|423:284,1,17.9999994506836,10|0,0:3|0:2,0:2:0:0:
439,358,146826,1,4,0:3:0:0:
439,358,146905,2,2,L|477:81,1,240,2|0,0:1|0:2,0:1:0:0:
482,49,147381,5,2,0:2:0:0:
483,32,147460,5,2,0:2:0:0:
486,16,147539,5,2,0:2:0:0:
489,0,147619,5,2,0:2:0:0:
252,187,148087,1,8,0:3:0:0:
256,192,148204,1,4,0:3:0:0:
0,384,148536,6,0,L|203:330,1,188.999994232178,4|0,0:1|0:2,0:2:0:0:
235,273,148997,2,0,L|279:297,1,36,2|0,0:2|0:2,0:2:0:0:
411,249,149305,1,2,0:2:0:0:
420,324,149530,2,0,L|425:351,1,18,2|0,0:2|0:2,0:2:0:0:
509,350,149759,2,2,L|486:384,1,36,2|6,0:2|0:3,0:2:0:0:
346,195,150446,5,0,3:2:0:0:
354,185,150560,1,0,3:2:0:0:
359,196,150675,1,6,0:3:0:0:
248,79,150904,1,0,3:2:0:0:
292,12,151018,6,2,L|259:257,1,216,2|0,0:1|0:2,0:1:0:0:
206,286,151443,2,0,L|259:363,1,60,2|2,1:2|0:2,0:2:0:0:
207,313,151781,2,0,L|248:296,1,45,2|0,0:2|0:2,0:2:0:0:
0,235,152232,5,0,3:2:0:0:
10,243,152345,1,4,3:3:0:0:
13,231,152460,1,0,3:2:0:0:
80,263,152575,2,0,L|100:317,1,45,2|0,0:3|0:2,0:2:0:0:
245,84,153037,2,0,L|263:43,1,45,2|0,0:3|0:2,0:2:0:0:
263,43,153268,5,2,1:2:0:0:
280,38,153385,1,2,0:2:0:0:
313,49,153503,1,2,0:2:0:0:
328,98,153620,1,2,0:2:0:0:
382,138,153738,1,2,0:2:0:0:
445,98,153856,2,2,L|509:75,1,53.9999983520508,2|0,0:2|0:2,0:2:0:0:
501,85,154209,1,2,0:0:0:0:
374,300,154444,6,0,L|421:239,1,76.5000014591217,2|0,3:2|0:2,0:2:0:0:
429,244,154797,1,2,0:2:0:0:
276,359,154915,2,0,L|302:229,1,107.999996704102,2|0,3:2|0:2,0:2:0:0:
310,247,155265,1,2,0:2:0:0:
436,354,155381,2,0,L|377:197,1,135.000005149842,2|8,3:2|0:3,0:2:0:0:
329,174,155729,1,0,1:2:0:0:
351,137,155844,1,0,1:2:0:0:
113,341,156076,6,0,L|65:352,1,45,6|0,0:2|0:2,0:2:0:0:
69,351,156546,1,2,0:2:0:0:
0,324,156664,1,2,0:2:0:0:
28,253,156781,1,2,0:2:0:0:
75,241,156899,1,2,0:2:0:0:
91,264,157017,2,0,L|138:271,1,45,0|0,1:2|0:2,0:2:0:0:
38,172,157252,2,0,L|15:118,1,45,4|0,0:3|0:2,0:2:0:0:
84,81,157487,2,0,L|101:35,1,38.2500007295609,8|0,0:3|0:2,0:2:0:0:
27,15,157723,2,0,L|-4:3,1,29.2499986610413,8|0,0:3|0:2,0:2:0:0:
0,19,157958,6,0,L|36:2,2,30,2|2|2,0:3|0:3|0:2,0:2:0:0:
77,82,158266,2,0,L|90:44,3,30,2|2|2|2,0:3|0:2|0:2|0:2,0:2:0:0:
124,148,158652,2,0,L|235:110,1,90,6|0,0:3|1:2,0:2:0:0:
251,52,159000,1,0,3:2:0:0:
233,32,159116,2,0,L|193:13,2,30,0|0|0,3:2|0:2|0:2,0:2:0:0:
292,116,159347,2,0,L|317:199,1,45,4|0,0:3|0:2,0:2:0:0:
427,192,159579,5,0,1:2:0:0:
418,207,159695,1,0,3:2:0:0:
401,197,159811,1,0,3:2:0:0:
387,222,159925,1,0,3:2:0:0:
430,280,160040,2,2,L|543:331,1,90,6|0,0:3|0:2,0:2:0:0:
473,383,160383,1,8,0:3:0:0:
446,309,160498,2,2,L|303:345,1,107.999996704102,4|0,0:3|0:2,0:2:0:0:
269,370,160841,5,2,0:2:0:0:
251,356,160955,1,2,0:2:0:0:
243,325,161070,1,2,0:2:0:0:
259,290,161184,1,2,0:2:0:0:
321,264,161299,1,2,0:2:0:0:
350,197,161413,1,2,0:2:0:0:
295,148,161528,1,2,0:1:0:0:
293,140,161642,1,2,3:1:0:0:
292,131,161757,1,2,3:1:0:0:
291,124,161871,1,2,3:1:0:0:
142,69,162269,5,2,3:1:0:0:
147,60,162381,1,2,3:1:0:0:
151,52,162494,1,2,3:1:0:0:
75,272,162945,5,2,3:1:0:0:
47,209,163058,1,2,3:1:0:0:
21,143,163171,1,2,3:1:0:0:
70,351,163396,5,4,1:2:0:0:
59,354,163509,1,4,1:2:0:0:
48,357,163622,1,4,1:2:0:0:
37,360,163735,1,4,1:2:0:0:
26,364,163868,2,0,L|182:191,1,202.500007724762,4|0,1:2|0:2,0:2:0:0:
265,243,164317,5,0,1:2:0:0:
281,170,164429,1,0,1:2:0:0:
346,135,164541,1,0,1:2:0:0:
414,160,164653,1,0,1:2:0:0:
477,116,164765,1,0,1:2:0:0:
481,41,164876,1,0,1:2:0:0:
400,66,164987,1,2,1:3:0:0:
345,8,165098,2,2,L|402:232,1,229.500004377365,2|0,0:1|0:2,0:1:0:0:
457,286,165544,1,2,0:2:0:0:
438,355,165655,1,2,0:2:0:0:
459,381,165772,2,2,L|124:208,1,360,2|0,0:2|0:2,0:2:0:0:
72,260,166826,2,0,L|18:282,1,45,2|0,0:2|0:2,0:2:0:0:
0,193,167064,6,0,P|8:175|8:169,1,17.9999994506836,6|0,0:3|0:2,0:2:0:0:
7,176,167219,6,0,P|26:192|30:197,1,20.9999993591309,2|0,0:3|0:2,0:2:0:0:
24,189,167374,6,0,P|28:169|27:163,1,24,2|0,0:3|0:2,0:2:0:0:
27,165,167529,6,0,P|48:177|53:181,1,26.9999991760254,2|0,0:3|0:2,0:2:0:0:
50,178,167684,6,0,P|51:155|49:149,1,30,2|0,0:3|0:2,0:2:0:0:
48,148,167839,6,0,P|74:157|80:161,1,33.0000010070801,2|0,0:3|0:2,0:2:0:0:
78,159,167994,6,0,P|74:129|70:122,1,35.9999989013672,2|0,1:3|0:2,0:2:0:0:
71,124,168149,6,0,P|106:128|116:133,1,38.9999982147218,2|0,0:3|0:2,0:2:0:0:
109,129,168304,6,0,P|99:96|92:88,1,41.9999987182618,2|0,0:3|0:2,0:2:0:0:
94,90,168459,6,0,P|134:94|147:101,1,45.0000017166138,2|0,0:3|0:2,0:2:0:0:
137,95,168614,6,0,P|133:57|127:47,1,48,2|0,0:3|1:2,0:2:0:0:
128,49,168769,6,0,P|173:54|187:61,1,51.0000009727478,2|0,0:3|0:2,0:2:0:0:
177,56,168925,6,0,P|186:18|184:7,1,45.0000017166138,2|0,3:3|0:2,0:2:0:0:
185,12,169077,6,0,P|226:32|236:44,1,38.9999982147218,2|0,3:3|0:2,0:2:0:0:
220,27,169230,6,0,P|237:1|238:-7,1,33.0000010070801,2|0,3:3|0:3,0:2:0:0:
237,0,169383,6,0,P|262:26|266:38,1,26.9999991760254,2|0,3:3|0:2,0:2:0:0:
257,17,169535,6,0,P|275:8|279:3,1,24,2|0,0:3|0:2,0:2:0:0:
277,5,169688,6,0,P|283:28|281:36,1,20.9999993591309,2|0,0:3|0:2,0:2:0:0:
332,80,169841,5,4,1:2:0:0:
397,43,169948,2,0,L|438:58,1,45,2|0,0:2|0:2,0:2:0:0:
486,148,170162,2,0,L|498:221,2,67.5000025749208,2|0|0,1:2|1:2|1:2,0:2:0:0:
410,126,170483,5,2,0:2:0:0:
398,121,170555,5,2,0:2:0:0:
390,140,170626,5,2,0:2:0:0:
357,156,170698,5,2,0:2:0:0:
296,195,170912,5,2,0:2:0:0:
285,203,170984,1,2,0:2:0:0:
267,202,171055,1,2,0:2:0:0:
244,191,171127,1,2,0:2:0:0:
225,171,171198,1,2,0:2:0:0:
204,142,171270,1,2,0:2:0:0:
170,120,171341,1,2,0:2:0:0:
126,130,171412,1,0,0:0:0:0:
101,167,171483,2,2,L|18:387,1,230.99999295044,2|0,0:1|0:2,0:1:0:0:
206,304,171990,5,0,3:2:0:0:
198,310,172062,1,0,3:2:0:0:
190,300,172135,2,0,L|168:228,1,67.5000025749208,0|0,1:2|0:2,0:2:0:0:
13,168,172352,1,0,1:2:0:0:
51,104,172461,1,0,1:2:0:0:
75,59,172569,1,0,1:2:0:0:
90,33,172678,1,0,1:2:0:0:
101,13,172787,1,2,1:3:0:0:
28,4,173012,5,6,0:3:0:0:
28,4,173234,2,0,L|58:60,1,45,0|8,1:2|1:3,0:2:0:0:
151,120,173456,1,2,0:2:0:0:
286,83,173679,1,2,0:2:0:0:
355,21,173901,2,0,L|368:-10,2,30,8|8|8,0:3|0:3|0:3,0:2:0:0:
430,40,174126,1,4,0:3:0:0:
512,261,174352,6,2,L|376:101,1,180.000006866455,2|0,3:1|0:2,0:1:0:0:
377,120,174728,1,2,0:2:0:0:
370,131,174803,1,2,0:2:0:0:
409,372,175028,2,2,L|435:305,1,67.5,2|0,0:3|0:2,0:2:0:0:
444,304,175259,2,0,L|374:272,1,58.4999973220826,0|8,1:2|0:3,0:2:0:0:
326,338,175486,1,4,0:3:0:0:
258,324,175599,1,4,0:3:0:0:
244,361,175713,1,4,0:3:0:0:
7,213,175940,5,4,1:1:0:0:
202,139,176404,1,2,3:2:0:0:
202,139,176640,2,0,L|214:97,1,30,4|0,1:2|0:2,0:2:0:0:
257,192,176875,2,2,L|508:191,1,242.999992584229,2|0,0:2|0:2,0:0:0:0:
499,191,177994,1,4,0:3:0:0:
472,8,178732,5,2,0:2:0:0:
472,8,178976,2,0,B|442:-16|367:7|367:100,1,135,2|0,1:2|0:2,0:2:0:0:
429,117,179708,2,0,B|461:120|472:137|506:145,1,67.5000025749208,2|4,0:2|0:3,0:2:0:0:
332,173,180196,2,2,B|248:180|253:220|155:225,1,168.750006437302,2|0,0:2|0:2,0:2:0:0:
64,283,180927,6,0,L|35:288,1,22.5000008583069,2|2,0:2|0:3,0:2:0:0:
87,284,181090,6,0,L|112:291,1,22.5000008583069,2|2,0:2|0:3,0:2:0:0:
74,268,181253,6,0,L|65:239,1,22.5000008583069,2|2,0:2|0:3,0:2:0:0:
70,291,181415,6,0,L|54:316,1,22.5000008583069,2|2,0:2|0:3,0:2:0:0:
86,273,181578,6,0,L|107:257,1,22.5000008583069,2|2,0:2|0:3,0:2:0:0:
81,291,181740,6,0,L|99:317,1,22.5000008583069,2|2,0:2|0:3,0:2:0:0:
123,377,181903,5,4,0:2:0:0:
238,208,182234,2,0,B|227:199|198:227|202:253,1,60,2|0,0:2|0:2,0:2:0:0:
233,351,182566,2,0,B|243:305|268:323|280:266,1,90.0000034332277,2|0,0:2|0:2,0:2:0:0:
398,222,182898,2,2,B|379:161|306:153|255:243|301:360|396:424|500:363,1,405.000015449525,2|4,1:3|0:3,0:1:0:0:
469,106,183846,5,2,0:2:0:0:
512,41,184012,1,2,0:2:0:0:
480,118,184179,1,2,0:2:0:0:
371,88,184346,2,0,B|317:72|344:47|260:37,1,90,2|4,0:2|0:3,0:2:0:0:
79,74,184846,6,0,P|69:56|51:34,1,31.4999990386963,2|0,1:3|0:2,0:2:0:0:
157,7,185091,2,0,P|151:25|149:37,1,31.4999990386963,2|0,0:3|0:2,0:2:0:0:
40,143,185337,2,0,P|11:133|-9:134,1,31.4999990386963,2|0,0:3|0:2,0:2:0:0:
10,133,185583,1,2,0:3:0:0:
0,0,185829,6,0,B|65:-38|160:47|102:124|128:208|223:247|269:176,1,377.999988464356,6|0,0:2|0:2,0:2:0:0:
289,123,186804,2,0,B|340:126|327:44|379:-15|456:31,1,215.999993408203,2|0,1:2|0:2,0:2:0:0:
434,111,187536,6,0,B|493:149|466:187|540:245,1,135,6|0,0:3|0:2,0:2:0:0:
456,207,188028,2,0,P|446:241|434:275,1,72,2|0,0:3|0:2,0:2:0:0:
411,362,188526,2,0,B|408:317|463:273|520:296,2,144,2|2|6,0:3|0:3|0:3,0:2:0:0:
489,370,189771,1,4,0:2:0:0:
256,352,190760,5,0,1:2:0:0:
228,345,191008,1,2,0:2:0:0:
178,287,191255,5,2,0:2:0:0:
82,352,191502,1,6,0:3:0:0:
10,263,191750,5,2,0:2:0:0:
10,263,191997,1,6,0:3:0:0:
43,190,192245,5,2,0:2:0:0:
199,217,192493,1,6,0:3:0:0:
7,122,192741,5,2,1:2:0:0:
53,60,192989,1,2,0:2:0:0:
91,250,193237,5,2,0:2:0:0:
162,32,193485,1,2,3:2:0:0:
318,185,193733,6,0,P|310:154|300:128,1,45,6|0,0:3|0:2,0:2:0:0:
281,69,193983,2,0,P|271:41|266:15,1,45,2|0,0:2|0:2,0:2:0:0:
372,317,194233,6,0,P|376:300|380:283,1,33.7500012874604,6|0,0:3|0:2,0:2:0:0:
393,214,194483,2,0,P|398:188|400:169,1,33.7500012874604,2|0,0:2|0:2,0:2:0:0:
511,383,194733,6,0,P|508:372|506:361,1,22.5,2|0,1:2|0:2,0:2:0:0:
503,346,194983,2,0,P|500:334|498:324,1,22.5,2|0,0:2|0:2,0:2:0:0:
458,259,195233,5,2,0:2:0:0:
458,259,195483,1,2,3:2:0:0:
182,204,195733,5,2,0:2:0:0:
362,132,195980,1,2,3:2:0:0:
256,238,196228,6,0,P|263:206|265:189,1,33.7500012874604,2|0,0:2|0:2,0:2:0:0:
281,135,196476,2,0,P|286:104|290:89,1,33.7500012874604,2|0,0:2|0:2,0:2:0:0:
192,308,196724,6,0,P|190:297|187:286,1,22.5,2|0,1:2|0:2,0:2:0:0:
184,273,196972,2,0,P|181:263|179:251,1,22.5,2|0,0:2|0:2,0:2:0:0:
145,376,197220,6,0,P|140:370|134:364,1,13.4999995880127,2|0,0:2|0:2,0:2:0:0:
127,357,197468,2,0,P|122:352|117:346,1,13.4999995880127,2|0,3:2|3:2,0:2:0:0:
47,369,197716,5,0,3:2:0:0:
92,274,197964,1,8,0:3:0:0:
97,260,198088,1,8,0:3:0:0:
102,270,198212,1,4,0:3:0:0:
257,384,198460,6,2,B|267:313|393:267|455:357|403:390,1,225,2|0,3:2|0:2,0:2:0:0:
419,368,199210,1,0,3:2:0:0:
433,340,199335,1,0,3:2:0:0:
432,363,199460,1,0,3:2:0:0:
447,360,199585,1,0,3:2:0:0:
444,370,199709,1,0,3:2:0:0:
500,306,199949,1,4,0:3:0:0:
357,324,200190,6,0,B|368:277|294:239|256:268,1,107.999996704102,2|0,3:2|0:2,0:2:0:0:
256,326,200552,1,2,0:2:0:0:
182,301,200672,2,0,B|101:294|93:374|39:389,1,161.999995056153,2|0,1:2|0:2,0:2:0:0:
35,106,201154,2,2,B|90:90|157:131|125:245|59:253,1,202.500007724762,2|0,0:2|0:2,0:2:0:0:
79,247,201576,1,0,3:2:0:0:
70,254,201636,2,0,B|41:233|47:192|4:173,1,90,0|0,3:2|0:2,0:2:0:0:
120,0,202118,6,2,B|227:17|172:83|313:101,1,202.500007724762,2|0,0:2|0:2,0:2:0:0:
346,24,202601,5,2,0:2:0:0:
354,18,202763,5,2,0:2:0:0:
367,26,202926,5,2,0:2:0:0:
355,48,203089,5,2,0:2:0:0:
323,29,203252,5,2,0:2:0:0:
405,2,203414,5,2,0:2:0:0:
454,73,203576,6,0,B|518:123|472:153|519:228,1,135.000005149842,2|2,0:1|0:2,0:2:0:0:
234,0,204552,1,0,1:2:0:0:
63,96,205040,6,0,B|57:72|40:63|28:33,2,60,2|2|2,0:2|0:2|0:2,0:2:0:0:
121,143,205527,1,6,0:3:0:0:
73,203,205687,2,0,B|43:221|58:234|18:273,1,60,2|0,0:2|0:2,0:2:0:0:
85,308,206007,1,2,0:2:0:0:
290,384,206167,6,0,B|310:363|277:310|210:293,1,71.9999978027344,6|0,0:2|0:2,0:2:0:0:
242,249,206487,2,0,B|193:267|212:286|170:303,1,71.9999978027344,2|0,0:2|0:2,0:2:0:0:
203,371,206807,1,2,0:2:0:0:
286,178,206967,1,2,0:2:0:0:
377,189,207127,2,0,B|362:113|345:149|321:57,1,83.9999974365235,6|0,0:2|0:2,0:2:0:0:
400,55,207447,6,2,B|378:173|273:155|222:397,1,377.999988464356,6|0,0:2|0:2,0:2:0:0:
225,384,208254,1,0,3:2:0:0:
189,364,208370,1,8,3:3:0:0:
170,371,208485,1,0,3:2:0:0:
161,362,208600,1,0,3:2:0:0:
338,186,208831,6,0,B|339:146|311:136|305:75,1,62.9999980773926,0|0,1:2|0:2,0:2:0:0:
392,30,209062,5,0,1:2:0:0:
359,23,209139,5,0,1:2:0:0:
336,47,209216,5,0,1:2:0:0:
312,42,209293,6,2,B|219:61|259:162|59:166,1,229.500004377365,4|0,0:2|0:2,0:1:0:0:
67,100,209776,2,2,B|91:29|212:78|140:174|260:199,1,242.999992584229,2|0,0:2|0:2,0:1:0:0:
320,192,210260,2,2,B|335:135|204:76|146:273,1,242.999992584229,2|0,0:2|0:2,0:1:0:0:
188,319,210744,5,0,3:2:0:0:
176,315,210860,1,0,3:2:0:0:
185,306,210976,1,0,3:2:0:0:
183,315,211092,1,0,3:2:0:0:
156,334,211208,2,0,L|114:349,1,45,10|0,0:3|0:2,0:2:0:0:
252,384,211440,2,0,L|293:199,1,161.999995056153,4|0,0:2|0:2,0:2:0:0:
380,102,211905,6,0,B|378:58|361:52|354:14,1,53.9999983520508,2|0,3:1|0:2,0:2:0:0:
458,98,212137,2,0,B|490:128|471:176|409:184|413:154,1,108,2|0,1:1|0:2,0:2:0:0:
426,173,212382,2,0,P|393:195|386:215,1,48,2|0,0:2|0:2,0:2:0:0:
230,34,212628,2,2,B|285:54|240:96|316:122,1,108,2|0,3:1|0:2,0:1:0:0:
300,117,212874,2,0,P|311:155|303:174,1,48,2|0,0:2|0:2,0:2:0:0:
512,0,213120,1,6,0:3:0:0:
425,194,213361,6,0,B|409:143|395:159|371:108,1,72,2|0,0:2|0:1,0:2:0:0:
393,62,213603,1,2,0:1:0:0:
106,192,213845,2,0,B|145:178|127:167|173:134,1,58.4999973220826,2|0,0:2|0:2,0:2:0:0:
219,128,214087,1,2,1:1:0:0:
44,0,214329,2,0,B|86:8|74:36|141:40,1,107.999996704102,2|0,0:2|0:2,0:2:0:0:
289,328,214813,6,0,B|298:263|347:302|378:224,1,107.999996704102,2|0,1:2|0:2,0:2:0:0:
218,372,215284,2,0,B|188:324|159:350|126:304,1,90,4|2,0:3|1:2,0:2:0:0:
363,349,215742,1,0,3:2:0:0:
377,352,215856,1,0,3:2:0:0:
389,363,215971,5,8,0:3:0:0:
458,383,216085,1,8,0:3:0:0:
500,328,216200,1,8,0:3:0:0:
488,266,216314,1,8,0:3:0:0:
432,250,216429,1,4,0:3:0:0:
399,212,216543,1,4,0:3:0:0:
419,178,216658,1,4,0:3:0:0:
440,182,216772,1,4,0:3:0:0:
434,196,216887,2,2,L|241:245,1,188.999994232178,2|0,0:2|0:2,0:2:0:0:
289,255,217359,1,2,0:3:0:0:
241,164,217477,2,0,L|181:146,1,62.9999980773926,2|0,0:3|0:2,0:2:0:0:
123,201,217713,2,0,L|-5:255,2,125.999996154785,2|0|0,0:3|0:2|0:2,0:2:0:0:
220,169,218304,5,2,3:2:0:0:
223,133,218422,1,2,0:2:0:0:
258,102,218540,1,2,3:2:0:0:
320,68,218658,1,2,0:2:0:0:
351,0,218776,1,6,0:2:0:0:
137,306,219136,1,2,0:2:0:0:
141,310,219256,1,2,0:2:0:0:
367,364,219616,1,2,0:2:0:0:
371,368,219736,5,2,1:2:0:0:
397,375,219856,1,2,0:2:0:0:
442,353,219976,1,2,0:2:0:0:
453,284,220096,1,2,0:2:0:0:
387,242,220216,1,2,3:2:0:0:
345,255,220336,1,2,0:2:0:0:
313,239,220456,1,2,0:2:0:0:
321,220,220576,1,2,0:2:0:0:
336,226,220696,6,0,B|333:187|318:191|316:154,1,53.9999983520508,6|0,0:3|0:2,0:2:0:0:
475,34,220930,2,0,B|465:77|456:61|442:111,1,62.9999980773926,6|0,0:3|0:2,0:2:0:0:
466,189,221164,2,0,B|435:161|376:166|363:114,2,76.5000014591217,2|0|2,0:1|0:2|0:1,0:2:0:0:
288,22,221633,1,4,1:2:0:0:
9,91,222102,5,2,0:2:0:0:
68,143,222219,2,0,B|86:99|93:118|139:42,1,76.5000014591217,2|0,0:1|0:2,0:2:0:0:
147,207,222453,2,0,B|192:206|250:260|205:347|160:340,1,153.000002918243,2|0,0:1|0:2,0:2:0:0:
145,380,222808,1,2,0:2:0:0:
75,360,222926,1,2,0:2:0:0:
64,332,223045,1,2,0:2:0:0:
79,314,223163,1,2,0:2:0:0:
198,320,223282,2,0,B|170:311|180:301|145:286,1,62.9999980773926,2|0,0:2|0:2,0:2:0:0:
80,237,223519,5,2,3:2:0:0:
86,165,223638,1,2,0:2:0:0:
68,143,223756,1,2,0:2:0:0:
59,128,223875,1,2,0:2:0:0:
63,112,223993,1,10,0:3:0:0:
55,108,224112,1,2,0:2:0:0:
61,106,224231,1,2,0:2:0:0:
58,114,224349,1,2,0:2:0:0:
18,44,224468,6,2,B|73:7|136:29|164:124|205:137|233:113,1,216,2|0,0:0|0:2,0:2:0:0:
292,25,224909,1,2,0:2:0:0:
342,68,225019,1,2,0:2:0:0:
395,12,225129,1,2,0:2:0:0:
252,253,225350,5,4,1:2:0:0:
228,353,225570,1,8,0:3:0:0:
243,370,225681,1,8,0:3:0:0:
233,374,225791,2,0,L|244:315,1,45,4|4,0:3|0:3,0:2:0:0:
494,44,226028,6,0,B|438:7|375:29|357:106|321:110|294:115,1,229.877973163114,4|0,1:1|0:2,0:2:0:0:
242,46,226503,1,6,0:3:0:0:
181,6,226626,1,2,0:2:0:0:
132,72,226748,1,2,0:2:0:0:
57,9,226870,1,2,0:2:0:0:
0,103,226993,1,2,1:2:0:0:
314,338,227238,5,4,0:2:0:0:
282,112,227471,1,2,3:2:0:0:
337,73,227588,1,2,0:2:0:0:
384,135,227704,1,2,3:2:0:0:
433,198,227821,1,2,0:2:0:0:
512,161,227938,1,2,3:2:0:0:
498,154,228055,2,0,L|472:89,1,62.9999980773926,0|0,3:2|0:2,0:2:0:0:
506,24,228287,1,8,0:3:0:0:
414,0,228404,1,4,3:1:0:0:
253,54,228637,5,2,0:3:0:0:
262,60,228715,5,2,0:2:0:0:
254,70,228793,5,2,0:2:0:0:
264,76,228871,6,0,L|272:133,1,30,2|0,0:2|0:2,0:2:0:0:
331,154,229027,2,2,B|353:146|422:232|264:233|165:212|165:363|239:388,1,330,2|0,0:2|0:2,0:1:0:0:
490,237,229571,5,2,0:3:0:0:
478,240,229649,5,2,0:2:0:0:
485,252,229727,5,2,0:2:0:0:
475,255,229805,6,0,L|457:309,1,30,2|0,0:2|0:2,0:2:0:0:
474,362,229960,2,2,B|450:389|383:379|370:311|298:299|284:310,1,180,2|0,0:2|0:2,0:1:0:0:
241,271,230265,5,2,0:3:0:0:
217,278,230341,5,2,0:2:0:0:
178,290,230416,5,2,0:2:0:0:
127,308,230492,5,2,0:3:0:0:
130,299,230568,5,2,0:2:0:0:
135,306,230643,5,2,0:2:0:0:
109,310,230719,6,0,L|62:325,2,30,2|0|0,0:2|0:2|0:2,0:2:0:0:
170,372,230947,1,4,3:3:0:0:
207,307,231060,1,0,1:2:0:0:
179,380,231174,1,4,0:3:0:0:
263,167,231401,5,2,0:2:0:0:
271,157,231477,2,0,L|260:115,1,30,2|0,0:2|0:2,0:2:0:0:
306,67,231628,2,2,B|311:-2|102:-36|155:128|40:198|-10:112,1,360,6|0,1:1|0:2,0:1:0:0:
33,62,232170,1,2,0:2:0:0:
14,48,232249,1,2,0:2:0:0:
17,32,232328,2,0,P|51:43|76:48,1,45,2|0,0:2|0:2,0:2:0:0:
136,105,232564,5,2,0:2:0:0:
143,141,232643,1,2,0:2:0:0:
171,153,232722,1,2,0:2:0:0:
190,150,232800,2,0,B|182:124|270:94|340:164|275:206|332:239,1,180,2|0,1:1|0:2,0:2:0:0:
383,246,233115,1,2,0:2:0:0:
402,239,233194,1,2,0:2:0:0:
412,227,233273,2,0,B|439:194|447:212|474:176,1,45,2|0,0:2|0:2,0:2:0:0:
477,277,233509,5,0,1:2:0:0:
437,347,233627,2,0,B|383:335|383:335|305:315,2,103.500001974106,6|2|0,0:1|0:1|0:1,0:2:0:0:
266,273,233978,1,2,0:2:0:0:
246,358,234095,2,2,B|383:334|383:334|531:311,1,270,4|0,0:2|0:2,0:1:0:0:
170,334,234562,6,0,L|133:341,1,33.7500012874604,0|0,3:2|0:2,0:2:0:0:
126,336,234678,1,4,0:2:0:0:
46,106,234912,1,4,0:1:0:0:
315,23,235145,1,8,3:3:0:0:
328,29,235223,2,0,L|345:79,1,45.0000017166138,8|0,3:3|0:2,0:2:0:0:
440,81,235379,1,8,3:3:0:0:
444,89,235457,2,0,L|415:133,1,35.9999989013672,8|0,3:3|0:2,0:2:0:0:
484,174,235612,5,4,0:2:0:0:
235,219,235837,1,4,0:2:0:0:
447,270,236063,5,2,3:1:0:0:
203,135,236288,1,2,3:1:0:0:
0,269,236514,5,0,1:2:0:0:
274,105,236739,2,0,L|290:152,1,45,8|8,0:3|0:3,0:2:0:0:
212,377,236965,6,0,P|220:352|228:322,1,45,4|4,0:3|0:3,0:2:0:0:
297,314,237190,1,4,0:2:0:0:
201,56,237416,5,4,0:3:0:0:
310,0,237655,1,12,3:3:0:0:
314,4,237894,1,12,3:3:0:0:
459,197,238133,1,8,0:3:0:0:
291,118,238362,6,0,L|273:127,2,15,8|8|8,0:3|0:3|0:3,0:2:0:0:
340,166,238591,1,4,0:3:0:0:
229,384,238821,2,0,P|240:359|254:342,1,45,4|0,1:3|3:2,0:2:0:0:
73,224,239283,5,2,3:3:0:0:
256,191,239512,1,2,3:3:0:0:
437,159,239741,1,2,3:3:0:0:
464,350,239970,6,2,L|495:386,1,45,4|0,0:2|0:2,0:0:0:0:
437,223,242919,5,2,3:3:0:0:
255,192,243156,1,2,3:3:0:0:
73,159,243393,1,2,3:3:0:0:
48,350,243630,6,2,L|17:386,1,45,4|0,0:2|0:2,0:2:0:0:
128,214,246744,5,2,3:3:0:0:
256,191,246989,1,2,3:3:0:0:
382,168,247235,1,2,3:3:0:0:
464,34,247481,6,2,L|495:-2,1,45,6|0,0:2|0:2,0:2:0:0:
383,214,250615,5,2,3:3:0:0:
256,191,250875,1,2,3:3:0:0:
129,168,251136,1,2,3:3:0:0:
48,34,251397,6,2,L|17:-2,1,45,4|0,0:2|0:2,0:2:0:0:
201,52,254288,6,2,P|216:26|288:20,1,94.499997116089,2|0,0:2|0:2,0:2:0:0:
315,96,254882,6,2,P|285:98|257:75,1,54,2|0,0:2|0:2,0:2:0:0:
262,94,255386,6,2,P|274:142|282:190,1,94.499997116089,2|0,0:2|0:2,0:2:0:0:
224,235,255890,6,2,P|243:253|269:261,1,54,2|0,0:2|0:2,0:2:0:0:
313,330,256394,6,2,P|269:344|247:384,1,94.499997116089,2|0,0:2|0:2,0:2:0:0:
238,380,256875,6,2,P|232:352|221:319,1,54,2|0,0:2|0:2,0:2:0:0:
263,267,257368,6,2,P|267:244|276:217,1,40.4999987640381,2|0,0:2|0:2,0:2:0:0:
266,154,257862,6,2,P|249:156|240:159,1,27,2|0,0:2|0:2,0:2:0:0:
271,227,258353,6,2,P|306:216|325:197,1,54,2|0,0:2|0:2,0:2:0:0:
288,106,258818,6,2,P|268:136|265:163,1,54,2|0,0:2|0:2,0:2:0:0:
256,150,259283,6,2,P|245:87|230:39,1,94.499997116089,2|0,0:2|0:2,0:2:0:0:
325,12,259759,6,2,P|317:39|316:65,1,54,2|0,0:2|0:2,0:2:0:0:
236,57,260235,6,0,P|237:61|238:65,1,8.99999972534181,8|0,0:3|0:2,0:2:0:0:
235,57,260390,6,0,P|232:59|229:63,1,8.99999972534181,8|0,0:3|0:2,0:2:0:0:
235,56,260545,6,0,P|231:56|227:54,1,8.99999972534181,8|0,0:3|0:2,0:2:0:0:
235,56,260700,6,0,P|234:52|233:48,1,8.99999972534181,8|0,0:3|0:2,0:2:0:0:
235,56,260855,6,0,P|237:52|241:49,1,8.99999972534181,8|0,0:3|0:2,0:2:0:0:
236,56,261010,6,0,P|240:56|245:58,1,8.99999972534181,8|0,0:3|0:2,0:2:0:0:
236,57,261165,6,0,P|237:61|238:65,1,8.99999972534181,8|0,0:3|0:2,0:2:0:0:
235,57,261320,6,0,P|232:59|229:63,1,8.99999972534181,8|0,0:3|0:2,0:2:0:0:
235,56,261475,6,0,P|231:56|227:54,1,8.99999972534181,8|0,0:3|0:2,0:2:0:0:
235,56,261630,6,0,P|234:52|233:48,1,8.99999972534181,8|0,0:3|0:2,0:2:0:0:
236,56,261785,6,0,P|237:52|241:49,1,8.99999972534181,8|0,0:3|0:2,0:2:0:0:
236,56,261940,6,0,P|240:56|245:58,1,8.99999972534181,8|0,0:3|0:2,0:2:0:0:
236,57,262119,2,0,P|252:110|259:151,1,60,8|0,0:3|0:2,0:2:0:0:
198,169,262444,1,8,0:3:0:0:
307,228,262606,2,0,P|294:297|290:350,1,90,4|4,0:3|0:3,0:2:0:0:
32,361,263074,1,8,0:3:0:0:
32,361,263133,2,8,L|14:379,15,22.5,12|8|8|8|8|8|8|8|8|8|8|8|8|8|8|8,0:3|0:3|0:3|0:3|0:3|0:3|0:3|0:3|0:3|0:3|0:3|0:3|0:3|0:3|0:3|0:3,0:3:0:0:
104,186,264604,5,8,3:3:0:0:
153,131,264729,1,8,3:3:0:0:
218,164,264854,1,4,3:3:0:0:
256,141,264979,1,4,3:3:0:0:
218,164,265229,2,2,B|247:157|247:157|258:170|258:170|290:179|290:179|298:170|298:170|324:173|324:173|345:185|345:185|421:171,1,202.500007724762,14|0,3:3|0:2,0:0:0:0:
498,0,265729,5,10,0:3:0:0:
502,4,265863,5,10,0:3:0:0:
506,8,265997,5,10,0:3:0:0:
280,384,266333,2,0,P|267:318|252:273,1,90.0000034332277,4|0,0:2|0:2,0:2:0:0:
217,239,266534,2,0,P|229:198|242:169,3,45.0000017166138,2|0|0|0,3:3|0:2|0:2|0:2,0:2:0:0:
304,175,266836,1,12,0:3:0:0:
249,126,266937,1,12,0:3:0:0:
282,61,267037,1,8,0:3:0:0:
259,23,267138,1,8,0:3:0:0:
498,0,267339,5,6,0:3:0:0:
502,4,267473,5,6,0:3:0:0:
506,8,267608,5,6,0:3:0:0:
108,90,267923,2,0,P|151:78|196:71,1,90.0000034332277,4|0,0:2|0:2,0:2:0:0:
254,20,268118,1,12,3:3:0:0:
325,37,268218,1,12,3:3:0:0:
350,105,268318,1,12,3:3:0:0:
336,152,268418,1,12,3:3:0:0:
301,169,268518,1,12,3:3:0:0:
272,156,268618,1,12,3:3:0:0:
265,137,268718,1,12,3:3:0:0:
0,0,268917,5,6,0:3:0:0:
4,4,269051,5,6,0:3:0:0:
8,8,269184,5,6,0:3:0:0:
267,140,269497,2,0,P|255:183|247:227,1,90.0000034332277,4|0,0:2|0:2,0:2:0:0:
304,279,269691,2,0,P|309:304|322:339,3,45.0000017166138,2|0|0|0,3:3|0:2|0:2|0:2,0:2:0:0:
265,379,269949,5,4,3:3:0:0:
255,383,270013,1,4,3:3:0:0:
258,373,270078,2,0,P|226:352|199:345,1,45.0000017166138,8|0,3:3|0:2,0:2:0:0:
0,0,270456,5,6,0:3:0:0:
4,4,270583,5,6,0:3:0:0:
8,8,270709,5,6,0:3:0:0:
159,300,271034,2,0,P|201:281|244:270,1,67.5000025749208,4|0,0:2|0:2,0:2:0:0:
359,210,271224,1,2,3:3:0:0:
356,204,271287,1,2,3:3:0:0:
347,207,271351,1,2,3:3:0:0:
342,200,271414,2,0,P|308:226|292:290,1,67.5000025749208,2|0,3:3|0:2,0:2:0:0:
454,363,271604,5,10,3:3:0:0:
484,368,271699,1,10,3:3:0:0:
512,335,271794,1,10,3:3:0:0:
477,266,271889,1,10,3:3:0:0:
392,305,271983,6,0,P|314:327|192:372,1,202.500007724762,4|0,1:1|0:2,0:2:0:0:
130,327,272359,1,8,0:3:0:0:
127,332,272453,2,0,P|109:318|131:327,1,67.5000025749208,4|0,0:3|0:2,0:2:0:0:
196,173,272641,2,0,P|220:145|197:177,1,135.000005149842,4|0,0:3|3:2,0:2:0:0:
142,237,272923,2,0,P|94:204|63:194,1,67.5000025749208,4|0,0:3|0:2,0:2:0:0:
84,0,273111,2,0,P|116:90|129:143,1,135.000005149842,4|0,1:2|0:2,0:2:0:0:
125,128,273487,6,0,P|60:102|2:95,1,90,6|0,0:3|0:2,0:2:0:0:
27,105,273672,2,0,P|13:114|27:100,1,67.5000025749208,10|0,0:3|0:2,0:2:0:0:
195,72,273857,1,8,1:3:0:0:
198,77,273949,2,0,P|216:63|194:72,1,67.5000025749208,4|0,0:3|0:2,0:2:0:0:
308,124,274135,2,2,P|285:164|298:120,1,135.000005149842,4|0,0:3|0:2,0:2:0:0:
341,51,274424,1,8,3:3:0:0:
344,45,274490,1,8,3:3:0:0:
353,48,274555,1,8,3:3:0:0:
358,41,274621,2,0,P|392:67|408:107,2,76.5000014591217,12|8|4,0:3|0:3|0:3,0:2:0:0:
504,365,275016,5,6,0:3:0:0:
508,369,275141,5,6,0:3:0:0:
512,373,275266,5,6,0:3:0:0:
471,143,275582,2,0,P|440:200|417:259,1,90.0000034332277,4|0,0:2|0:2,0:2:0:0:
373,275,275772,2,0,P|356:247|335:224,3,45.0000017166138,2|0|0|0,3:3|0:2|3:3|0:2,0:2:0:0:
294,294,276058,1,8,0:3:0:0:
245,349,276153,1,8,0:3:0:0:
208,354,276249,1,4,0:3:0:0:
190,384,276344,1,4,0:3:0:0:
497,373,276539,5,6,0:3:0:0:
501,377,276659,5,6,0:3:0:0:
505,381,276779,5,6,0:3:0:0:
216,272,277081,2,0,P|193:206|170:168,1,67.5000025749208,4|0,0:2|0:2,0:2:0:0:
105,31,277261,6,2,P|96:24|88:21,1,14.6249993305207,4|0,0:3|0:2,0:1:0:0:
83,16,277352,2,2,P|60:21|40:30,1,25.8750004935265,4|0,0:3|0:2,0:1:0:0:
43,23,277442,2,2,P|28:45|25:66,1,32.625000995636,4|0,0:3|0:2,0:1:0:0:
14,65,277532,2,2,P|21:87|57:118,1,38.2500007295609,8|0,0:3|0:2,0:1:0:0:
26,113,277623,2,2,P|49:115|62:112,1,21.3749994292259,8|0,0:3|0:2,0:1:0:0:
56,126,277713,2,2,P|70:106|71:103,1,16.8750006437302,8|0,0:3|0:2,0:1:0:0:
75,118,277804,2,2,P|69:95|67:91,1,14.6249993305207,4|0,0:3|0:2,0:1:0:0:
81,107,277894,2,2,P|71:96|65:93,1,12.375000377655,4|0,0:3|0:2,0:1:0:0:
68,93,277984,6,0,B|158:81|167:3|258:-10,1,202.500007724762,4|0,1:1|0:2,0:0:0:0:
304,40,278345,2,0,P|327:47|302:47,1,67.5000025749208,8|0,1:3|0:2,0:2:0:0:
275,180,278526,1,4,0:3:0:0:
270,174,278616,2,0,P|252:194|274:180,1,76.5000014591217,4|0,0:3|0:2,0:2:0:0:
428,115,278797,1,8,0:3:0:0:
434,119,278887,2,0,P|459:84|428:115,1,128.249996575356,4|0,0:3|0:2,0:2:0:0:
430,131,279068,2,0,P|456:25|477:-27,1,135.000005149842,4|0,0:2|0:2,0:2:0:0:
205,148,279430,6,0,B|184:213|120:192|99:265,1,135.000005149842,4|0,1:1|0:2,0:2:0:0:
27,277,279724,2,0,B|82:308|3:406|164:436|253:246|132:262|121:374,1,306.000005836487,2|0,1:1|0:2,0:2:0:0:
206,303,280214,1,4,0:3:0:0:
195,307,280312,1,8,0:3:0:0:
200,313,280410,2,0,P|216:295|196:307,1,67.5000025749208,4|0,0:3|0:2,0:2:0:0:
292,348,280606,2,0,P|315:299|333:272,1,67.5000025749208,6|0,0:3|0:2,0:2:0:0:
96,133,280802,2,0,P|37:182|41:229,1,76.5000014591217,10|0,0:3|0:2,0:2:0:0:
4,364,280998,5,4,1:2:0:0:
96,229,281127,5,4,1:2:0:0:
8,368,281256,5,4,1:2:0:0:
251,5,281578,2,0,P|265:36|273:68,1,67.5000025749208,4|0,1:2|0:2,0:2:0:0:
242,153,281772,5,12,0:3:0:0:
233,156,281835,5,12,0:3:0:0:
226,148,281898,5,12,0:3:0:0:
230,139,281961,5,12,0:3:0:0:
238,140,282025,5,12,0:3:0:0:
240,145,282088,5,12,0:3:0:0:
235,149,282151,5,12,0:3:0:0:
4,364,282531,5,4,1:2:0:0:
96,229,282658,5,4,1:2:0:0:
8,368,282784,5,4,1:2:0:0:
261,379,283098,2,0,P|252:346|240:315,1,67.5000025749208,4|0,0:2|0:2,0:2:0:0:
193,250,283282,5,2,1:2:0:0:
189,258,283374,1,2,1:2:0:0:
174,258,283466,1,2,1:2:0:0:
173,236,283558,1,2,1:2:0:0:
201,226,283650,1,2,1:2:0:0:
236,239,283742,1,2,1:2:0:0:
307,221,283834,1,2,1:2:0:0:
329,144,283926,1,2,1:2:0:0:
275,89,284018,1,6,1:2:0:0:
257,55,284111,2,0,L|225:162,1,67.5000025749208,2|0,0:2|0:2,0:2:0:0:
176,348,284297,1,4,0:3:0:0:
176,348,284391,1,8,1:3:0:0:
454,236,284577,6,0,P|466:204|446:237,1,135.000005149842,2|0,1:2|0:2,0:2:0:0:
509,289,284857,1,8,0:3:0:0:
443,252,284951,2,0,L|363:271,1,67.5000025749208,4|0,0:3|0:0,0:0:0:0:
125,340,285137,2,0,P|195:354|274:377,1,135.000005149842,4|0,1:2|0:2,0:2:0:0:
264,366,285417,1,8,0:3:0:0:
244,289,285511,1,4,0:3:0:0:
244,289,285606,2,0,L|229:213,1,67.5000025749208,4|0,0:3|0:2,0:2:0:0:
27,111,285797,5,0,1:2:0:0:
27,111,285893,1,0,1:2:0:0:
46,131,285988,1,0,1:2:0:0:
110,101,286084,1,0,1:2:0:0:
165,165,286179,2,0,P|149:216|142:254,1,67.5000025749208,4|0,0:2|0:2,0:2:0:0:
68,361,286370,5,8,3:3:0:0:
62,374,286466,1,4,3:3:0:0:
41,380,286561,1,4,3:3:0:0:
18,357,286657,1,2,1:2:0:0:
49,295,286753,1,2,1:2:0:0:
140,334,286848,1,2,1:2:0:0:
211,316,286944,1,2,1:2:0:0:
280,363,287039,6,2,B|384:336|320:254|463:218,1,202.500007724762,4|0,0:2|0:2,0:1:0:0:
504,339,287414,2,0,P|452:315|405:303,1,67.5000025749208,0|0,1:2|0:2,0:2:0:0:
330,191,287601,1,4,0:3:0:0:
466,169,287789,2,0,B|473:150|475:140|475:140|484:154|469:185,1,67.5000025749208,2|0,0:2|0:2,0:2:0:0:
424,230,287976,1,4,0:3:0:0:
277,104,288164,6,0,B|189:70|256:3|153:-16,1,135.000005149842,0|0,1:2|0:2,0:1:0:0:
127,36,288445,1,4,3:3:0:0:
127,36,288538,1,2,1:2:0:0:
121,64,288632,1,2,1:2:0:0:
72,120,288726,1,2,1:2:0:0:
0,102,288820,1,2,1:2:0:0:
47,200,288915,6,2,B|95:134|158:121|192:155,1,144,4|0,1:2|0:2,0:1:0:0:
238,179,289203,1,4,0:3:0:0:
238,179,289300,1,8,1:3:0:0:
343,68,289492,2,0,P|328:83|352:73,1,72,4|0,0:3|0:2,0:2:0:0:
485,37,289685,1,4,3:3:0:0:
485,37,289781,1,8,3:3:0:0:
492,55,289878,2,0,P|457:43|422:36,1,72,4|0,3:3|0:2,0:2:0:0:
271,7,290070,1,10,0:3:0:0:
272,0,290163,1,4,0:3:0:0:
277,4,290257,1,4,0:3:0:0:
280,245,290445,5,10,3:3:0:0:
293,234,290539,1,8,3:3:0:0:
302,190,290633,1,8,3:3:0:0:
255,141,290727,1,8,3:3:0:0:
194,189,290822,2,2,B|111:224|167:286|71:342,1,148.500001416206,4|0,1:2|0:2,0:1:0:0:
91,384,291113,1,4,0:3:0:0:
32,332,291210,2,0,P|17:285|-7:245,1,74.2500007081032,8|0,1:3|0:2,0:2:0:0:
27,184,291405,5,4,0:3:0:0:
35,194,291502,1,4,0:3:0:0:
58,200,291599,1,2,3:3:0:0:
84,178,291697,1,0,1:2:0:0:
90,134,291794,1,2,3:3:0:0:
51,105,291891,1,0,1:2:0:0:
51,105,291991,5,8,3:3:0:0:
48,84,292081,1,8,3:3:0:0:
54,65,292171,1,8,3:3:0:0:
63,47,292262,1,8,3:3:0:0:
134,71,292352,5,4,3:3:0:0:
156,45,292442,1,4,3:3:0:0:
189,29,292532,1,4,3:3:0:0:
221,23,292623,1,4,3:3:0:0:
285,69,292715,6,2,B|370:84|329:146|428:179,1,161.999995056153,4|0,1:2|0:2,0:1:0:0:
434,99,292999,1,4,0:3:0:0:
487,43,293094,2,0,P|427:17|376:9,1,80.9999975280763,8|0,1:3|0:2,0:2:0:0:
357,76,293284,1,4,0:3:0:0:
335,153,293379,1,4,0:3:0:0:
362,192,293474,1,2,3:3:0:0:
392,201,293569,1,0,1:2:0:0:
414,192,293664,1,2,3:3:0:0:
421,177,293759,1,0,1:2:0:0:
421,177,293854,5,8,3:3:0:0:
381,173,293948,1,8,3:3:0:0:
345,190,294043,1,8,3:3:0:0:
324,224,294138,1,8,3:3:0:0:
287,289,294233,5,4,3:3:0:0:
272,279,294328,1,4,3:3:0:0:
258,267,294423,1,4,3:3:0:0:
250,252,294518,1,4,3:3:0:0:
201,191,294613,6,0,B|126:176|31:242|22:354,1,249.749999047279,4|0,1:2|0:2,0:2:0:0:
24,332,294992,2,0,P|40:272|55:229,1,83.2499996824265,0|0,1:2|0:2,0:2:0:0:
21,119,295181,2,2,B|84:90|148:125|118:222|53:170,1,166.499999364853,4|0,3:3|0:2,0:2:0:0:
85,187,295466,1,8,0:3:0:0:
85,187,295560,2,0,P|77:157|96:181,1,83.2499996824265,4|0,0:3|0:2,0:2:0:0:
200,331,295750,5,0,1:2:0:0:
340,88,295940,2,0,P|302:100|264:122,1,83.2499996824265,2|0,0:2|0:2,0:2:0:0:
198,85,296129,1,2,1:2:0:0:
220,15,296224,1,2,1:2:0:0:
455,313,296413,5,4,0:3:0:0:
422,384,296508,2,0,B|312:349|385:242|235:201,1,270,4|0,1:2|0:2,0:2:0:0:
82,111,296892,2,0,P|79:85|92:113,1,90,8|0,1:3|0:2,0:2:0:0:
155,164,297084,2,0,B|102:214|26:202|21:95|104:124,1,180,4|0,0:3|0:2,0:2:0:0:
0,66,297373,1,0,0:3:0:0:
0,66,297469,1,4,0:3:0:0:
160,258,297661,5,8,3:3:0:0:
154,272,297725,5,8,3:3:0:0:
167,279,297790,5,8,3:3:0:0:
159,291,297854,5,8,3:3:0:0:
363,45,298046,5,4,3:3:0:0:
357,59,298110,5,4,3:3:0:0:
370,66,298175,5,4,3:3:0:0:
362,79,298239,5,4,3:3:0:0:
231,384,298431,6,2,B|260:136|289:-38,1,387.000005905151,4|0,0:1|0:2,0:1:0:0:
346,330,298995,1,4,3:3:0:0:
319,307,299089,2,0,P|326:250|333:191,1,80.9999975280763,12|0,0:3|0:2,0:2:0:0:
159,239,299277,1,8,3:3:0:0:
171,232,299371,2,0,P|178:175|189:113,1,67.5000025749208,4|0,0:3|0:2,0:2:0:0:
295,152,299559,5,8,0:3:0:0:
296,136,299648,1,8,0:3:0:0:
299,120,299738,1,8,0:3:0:0:
302,104,299828,1,8,0:3:0:0:
228,83,299918,1,4,0:3:0:0:
228,74,300008,1,4,0:3:0:0:
230,65,300097,1,4,0:3:0:0:
231,57,300187,1,4,0:3:0:0:
282,0,300277,5,4,0:1:0:0:
481,34,300661,1,0,1:2:0:0:
433,85,300853,1,2,0:3:0:0:
442,108,300950,1,2,0:3:0:0:
371,116,301142,1,2,0:3:0:0:
367,126,301238,1,2,0:3:0:0:
302,97,301430,1,2,1:2:0:0:
302,97,301623,1,2,0:2:0:0:
229,167,301819,5,2,0:3:0:0:
119,196,302014,1,2,0:2:0:0:
70,279,302209,1,2,3:3:0:0:
104,348,302404,1,2,0:2:0:0:
140,361,302599,1,2,0:3:0:0:
164,354,302794,1,2,0:2:0:0:
172,342,302989,1,2,3:2:0:0:
243,311,303184,5,2,0:3:0:0:
296,255,303384,1,2,0:3:0:0:
390,273,303583,1,2,0:2:0:0:
454,375,303782,2,2,L|476:246,1,130.862523283024,0|4,3:2|0:2,0:2:0:0:
476,246,306696,5,2,0:2:0:0:
461,129,306897,1,2,3:2:0:0:
378,80,307099,1,2,0:2:0:0:
309,114,307300,1,2,0:3:0:0:
378,80,307501,1,2,0:0:0:0:
461,129,307703,1,2,3:0:0:0:
354,277,307904,5,2,0:2:0:0:
248,231,308105,1,2,0:2:0:0:
220,137,308305,1,2,0:2:0:0:
153,96,308505,1,2,3:3:0:0:
220,137,308705,1,2,0:2:0:0:
248,231,308905,1,2,0:2:0:0:
48,306,309105,5,2,0:2:0:0:
10,197,309305,1,2,3:2:0:0:
54,117,309505,1,2,0:2:0:0:
131,121,309694,2,2,L|225:137,1,90,0|4,3:2|0:2,0:2:0:0:
219,136,311853,5,2,0:2:0:0:
271,80,312053,1,2,0:2:0:0:
367,97,312253,1,2,0:2:0:0:
403,198,312453,1,2,3:2:0:0:
512,301,312653,5,2,0:2:0:0:
419,369,312856,1,2,0:2:0:0:
323,346,313060,1,2,0:2:0:0:
256,384,313264,1,2,3:3:0:0:
256,384,313468,1,2,0:2:0:0:
323,346,313672,1,2,0:2:0:0:
419,369,313876,1,2,0:2:0:0:
228,227,314080,5,2,3:2:0:0:
194,117,314284,1,2,0:2:0:0:
104,83,314488,1,2,0:2:0:0:
42,128,314692,1,2,0:3:0:0:
42,128,314896,1,2,3:2:0:0:
104,83,315100,1,2,0:2:0:0:
194,117,315304,1,2,0:2:0:0:
316,11,315509,5,2,0:2:0:0:
418,61,315713,1,2,3:2:0:0:
439,151,315917,1,2,0:2:0:0:
502,198,316121,1,2,0:2:0:0:
502,198,316511,1,2,3:1:0:0:
502,198,316707,2,2,L|487:283,1,81,2|4,0:1|0:2,0:2:0:0:
487,277,318666,6,0,P|446:287|426:309,1,45,2|0,0:2|0:2,0:2:0:0:
397,346,318863,2,0,P|347:358|306:371,2,60,2|2|0,1:2|0:2|0:2,0:2:0:0:
492,374,319257,1,2,1:2:0:0:
485,357,319394,1,2,0:2:0:0:
474,370,319531,1,2,0:2:0:0:
484,367,319669,2,2,L|452:207,1,120,2|0,0:2|0:2,0:2:0:0:
445,177,320081,1,2,0:3:0:0:
445,171,320219,1,2,0:3:0:0:
450,174,320356,1,2,0:3:0:0:
446,174,320494,1,2,0:3:0:0:
42,68,321324,6,0,L|55:2,2,60,2|2|2,3:3|0:3|0:2,0:2:0:0:
146,68,321736,1,2,0:2:0:0:
117,82,321874,1,2,0:2:0:0:
98,127,322011,1,2,0:2:0:0:
31,148,322149,2,2,P|119:167|196:191,1,120,2|0,0:1|0:2,0:1:0:0:
220,197,322561,2,0,P|249:227|253:266,1,60,2|0,0:2|0:2,0:2:0:0:
253,243,322895,2,0,P|297:235|339:230,1,82.5,2|0,0:2|0:2,0:2:0:0:
408,245,323464,5,8,0:3:0:0:
418,241,323564,1,4,0:3:0:0:
389,176,323765,1,12,3:3:0:0:
377,307,323965,1,8,0:3:0:0:
400,316,324066,1,8,0:3:0:0:
326,355,324264,1,12,3:3:0:0:
123,208,324559,1,8,0:3:0:0:
186,29,324756,1,8,1:3:0:0:
104,139,324952,5,8,3:3:0:0:
97,141,325018,1,8,3:3:0:0:
90,143,325084,1,8,3:3:0:0:
83,145,325149,1,8,3:3:0:0:
135,77,325346,5,8,3:3:0:0:
119,71,325411,1,8,3:3:0:0:
103,65,325477,1,8,3:3:0:0:
87,59,325542,1,8,3:3:0:0:
256,192,325739,6,2,L|256:198,1,4.5,2|0,3:3|0:0,0:2:0:0:
