osu file format v14

[General]
AudioFilename: audio.mp3
AudioLeadIn: 0
PreviewTime: 172961
Countdown: 0
SampleSet: Normal
StackLeniency: 0.7
Mode: 3
LetterboxInBreaks: 0
SpecialStyle: 0
WidescreenStoryboard: 0

[Editor]
DistanceSpacing: 2.4
BeatDivisor: 4
GridSize: 4
TimelineZoom: 1.4

[Metadata]
Title:Doukei ~DOUKEI~
TitleUnicode:憧憬~DOUKEI~
Artist:BACK-ON feat. IA
ArtistUnicode:BACK-ON feat. IA
Creator:- Ly0572 -
Version:Insane
Source:IA/03 -VISION-
Tags:Longing Rocks Teeda Aria on the Planetes Vocaloid Out of Survice
BeatmapID:1686263
BeatmapSetID:803321

[Difficulty]
HPDrainRate:5
CircleSize:4
OverallDifficulty:5
ApproachRate:5
SliderMultiplier:1.4
SliderTickRate:1

[Events]
//Background and Video events
//Break Periods
2,105308,114781
2,187255,198741
//Storyboard Layer 0 (Background)
//Storyboard Layer 1 (Fail)
//Storyboard Layer 2 (Pass)
//Storyboard Layer 3 (Foreground)
//Storyboard Sound Samples

[TimingPoints]
3431,402.684563758389,4,1,0,0,1,0
56585,-100,4,1,0,0,0,1
82357,-100,4,1,0,0,0,0
116182,-100,4,1,0,0,0,1
141954,-100,4,1,0,0,0,0
174169,-100,4,1,0,0,0,1
199941,-100,4,1,0,0,0,0

[HitObjects]
448,192,3430,128,0,5041:0:0:0:0:
64,192,3432,5,0,0:0:0:0:
192,192,3632,1,0,0:0:0:0:
64,192,3833,1,0,0:0:0:0:
192,192,4035,1,0,0:0:0:0:
320,192,4236,1,0,0:0:0:0:
64,192,4236,1,0,0:0:0:0:
192,192,4437,1,0,0:0:0:0:
320,192,4639,1,0,0:0:0:0:
192,192,4840,1,0,0:0:0:0:
64,192,5041,1,0,0:0:0:0:
320,192,5041,128,0,6652:0:0:0:0:
192,192,5243,1,0,0:0:0:0:
448,192,5444,1,0,0:0:0:0:
192,192,5645,1,0,0:0:0:0:
64,192,5847,1,0,0:0:0:0:
448,192,5847,1,0,0:0:0:0:
192,192,6048,1,0,0:0:0:0:
448,192,6249,1,0,0:0:0:0:
64,192,6451,1,0,0:0:0:0:
448,192,6652,1,0,0:0:0:0:
192,192,6652,128,0,8263:0:0:0:0:
64,192,6853,1,0,0:0:0:0:
320,192,7055,1,0,0:0:0:0:
64,192,7256,1,0,0:0:0:0:
448,192,7457,1,0,0:0:0:0:
320,192,7457,1,0,0:0:0:0:
64,192,7659,1,0,0:0:0:0:
448,192,7860,1,0,0:0:0:0:
320,192,8061,1,0,0:0:0:0:
448,192,8263,1,0,0:0:0:0:
64,192,8263,128,0,9068:0:0:0:0:
320,192,8464,1,0,0:0:0:0:
448,192,8665,1,0,0:0:0:0:
192,192,8867,1,0,0:0:0:0:
448,192,9068,1,0,0:0:0:0:
320,192,9068,128,0,9873:0:0:0:0:
192,192,9269,1,0,0:0:0:0:
64,192,9471,1,0,0:0:0:0:
192,192,9672,1,0,0:0:0:0:
448,192,9873,1,0,0:0:0:0:
64,192,9873,1,0,0:0:0:0:
192,192,10075,1,0,0:0:0:0:
320,192,10175,1,0,0:0:0:0:
448,192,10276,1,0,0:0:0:0:
64,192,10276,1,0,0:0:0:0:
320,192,10477,1,0,0:0:0:0:
192,192,10578,1,0,0:0:0:0:
64,192,10578,1,0,0:0:0:0:
448,192,10679,1,0,0:0:0:0:
320,192,10880,1,0,0:0:0:0:
64,192,11082,1,0,0:0:0:0:
192,192,11082,1,0,0:0:0:0:
320,192,11283,1,0,0:0:0:0:
64,192,11484,1,0,0:0:0:0:
448,192,11484,1,0,0:0:0:0:
320,192,11686,1,0,0:0:0:0:
192,192,11786,1,0,0:0:0:0:
64,192,11887,1,0,0:0:0:0:
448,192,11887,1,0,0:0:0:0:
192,192,12088,1,0,0:0:0:0:
320,192,12189,1,0,0:0:0:0:
448,192,12189,1,0,0:0:0:0:
64,192,12290,1,0,0:0:0:0:
192,192,12491,1,0,0:0:0:0:
448,192,12692,1,0,0:0:0:0:
320,192,12692,1,0,0:0:0:0:
192,192,12894,1,0,0:0:0:0:
64,192,13095,1,0,0:0:0:0:
448,192,13095,1,0,0:0:0:0:
192,192,13296,1,0,0:0:0:0:
320,192,13397,1,0,0:0:0:0:
64,192,13498,1,0,0:0:0:0:
448,192,13498,1,0,0:0:0:0:
320,192,13699,1,0,0:0:0:0:
64,192,13800,1,0,0:0:0:0:
192,192,13800,1,0,0:0:0:0:
448,192,13900,1,0,0:0:0:0:
320,192,14102,1,0,0:0:0:0:
448,192,14303,1,0,0:0:0:0:
64,192,14303,1,0,0:0:0:0:
192,192,14504,1,0,0:0:0:0:
320,192,14706,1,0,0:0:0:0:
448,192,14706,1,0,0:0:0:0:
64,192,14806,1,0,0:0:0:0:
192,192,14806,1,0,0:0:0:0:
320,192,14907,1,0,0:0:0:0:
448,192,14907,1,0,0:0:0:0:
192,192,15008,1,0,0:0:0:0:
64,192,15108,1,0,0:0:0:0:
448,192,15108,1,0,0:0:0:0:
192,192,15209,1,0,0:0:0:0:
320,192,15209,1,0,0:0:0:0:
448,192,15310,1,0,0:0:0:0:
64,192,15310,1,0,0:0:0:0:
320,192,15410,1,0,0:0:0:0:
192,192,15410,1,0,0:0:0:0:
64,192,15511,1,0,0:0:0:0:
448,192,15511,1,0,0:0:0:0:
320,192,15612,1,0,0:0:0:0:
192,192,15712,1,0,0:0:0:0:
64,192,15712,1,0,0:0:0:0:
448,192,15813,1,0,0:0:0:0:
320,192,15914,1,0,0:0:0:0:
64,192,15914,128,0,16316:0:0:0:0:
192,192,16316,128,0,16518:0:0:0:0:
448,192,16316,1,0,0:0:0:0:
320,192,16316,1,0,0:0:0:0:
320,192,16518,1,0,0:0:0:0:
192,192,16719,128,0,16920:0:0:0:0:
448,192,16719,1,0,0:0:0:0:
64,192,16719,1,0,0:0:0:0:
320,192,16920,128,0,17122:0:0:0:0:
64,192,17122,1,0,0:0:0:0:
448,192,17122,1,0,0:0:0:0:
320,192,17323,128,0,17524:0:0:0:0:
192,192,17524,1,0,0:0:0:0:
64,192,17524,1,0,0:0:0:0:
448,192,17524,1,0,0:0:0:0:
320,192,17726,128,0,17927:0:0:0:0:
64,192,17927,128,0,18128:0:0:0:0:
192,192,17927,1,0,0:0:0:0:
320,192,18128,1,0,0:0:0:0:
448,192,18330,128,0,18531:0:0:0:0:
64,192,18330,1,0,0:0:0:0:
192,192,18330,1,0,0:0:0:0:
192,192,18531,128,0,18733:0:0:0:0:
320,192,18733,1,0,0:0:0:0:
448,192,18733,1,0,0:0:0:0:
192,192,18934,128,0,19135:0:0:0:0:
64,192,19135,1,0,0:0:0:0:
448,192,19135,1,0,0:0:0:0:
320,192,19135,1,0,0:0:0:0:
192,192,19337,128,0,19538:0:0:0:0:
64,192,19538,128,0,19739:0:0:0:0:
320,192,19538,1,0,0:0:0:0:
448,192,19739,1,0,0:0:0:0:
448,192,19941,128,0,20142:0:0:0:0:
192,192,19941,1,0,0:0:0:0:
64,192,19941,1,0,0:0:0:0:
320,192,20142,128,0,20343:0:0:0:0:
192,192,20343,1,0,0:0:0:0:
64,192,20343,1,0,0:0:0:0:
320,192,20545,128,0,20746:0:0:0:0:
448,192,20746,1,0,0:0:0:0:
192,192,20746,1,0,0:0:0:0:
64,192,20746,1,0,0:0:0:0:
320,192,20947,128,0,21149:0:0:0:0:
192,192,21149,128,0,21350:0:0:0:0:
448,192,21149,1,0,0:0:0:0:
64,192,21350,1,0,0:0:0:0:
448,192,21551,128,0,21753:0:0:0:0:
320,192,21551,1,0,0:0:0:0:
192,192,21551,1,0,0:0:0:0:
64,192,21753,128,0,21954:0:0:0:0:
192,192,21954,1,0,0:0:0:0:
320,192,21954,1,0,0:0:0:0:
64,192,22155,128,0,22357:0:0:0:0:
320,192,22357,1,0,0:0:0:0:
448,192,22357,1,0,0:0:0:0:
192,192,22357,1,0,0:0:0:0:
64,192,22558,128,0,22759:0:0:0:0:
192,192,22759,128,0,22961:0:0:0:0:
320,192,22759,1,0,0:0:0:0:
448,192,22759,1,0,0:0:0:0:
320,192,23162,128,0,23363:0:0:0:0:
64,192,23162,1,0,0:0:0:0:
192,192,23162,1,0,0:0:0:0:
448,192,23363,128,0,23565:0:0:0:0:
192,192,23565,1,0,0:0:0:0:
64,192,23565,1,0,0:0:0:0:
448,192,23766,128,0,23967:0:0:0:0:
320,192,23967,1,0,0:0:0:0:
192,192,23967,1,0,0:0:0:0:
64,192,23967,1,0,0:0:0:0:
448,192,24169,128,0,24370:0:0:0:0:
192,192,24370,128,0,24571:0:0:0:0:
320,192,24370,1,0,0:0:0:0:
64,192,24571,1,0,0:0:0:0:
320,192,24773,128,0,24974:0:0:0:0:
448,192,24773,1,0,0:0:0:0:
192,192,24773,1,0,0:0:0:0:
64,192,24974,128,0,25175:0:0:0:0:
192,192,25175,1,0,0:0:0:0:
448,192,25175,1,0,0:0:0:0:
64,192,25377,128,0,25578:0:0:0:0:
320,192,25578,1,0,0:0:0:0:
192,192,25578,1,0,0:0:0:0:
64,192,25779,128,0,25981:0:0:0:0:
448,192,25981,128,0,26182:0:0:0:0:
192,192,25981,1,0,0:0:0:0:
320,192,26182,1,0,0:0:0:0:
192,192,26384,128,0,26585:0:0:0:0:
64,192,26384,1,0,0:0:0:0:
448,192,26384,1,0,0:0:0:0:
320,192,26585,128,0,26786:0:0:0:0:
64,192,26786,1,0,0:0:0:0:
448,192,26786,1,0,0:0:0:0:
320,192,26988,128,0,27189:0:0:0:0:
192,192,27189,1,0,0:0:0:0:
64,192,27189,1,0,0:0:0:0:
448,192,27189,1,0,0:0:0:0:
320,192,27390,128,0,27592:0:0:0:0:
64,192,27592,128,0,27793:0:0:0:0:
192,192,27592,1,0,0:0:0:0:
448,192,27592,1,0,0:0:0:0:
320,192,27793,1,0,0:0:0:0:
448,192,27994,128,0,28196:0:0:0:0:
192,192,27994,1,0,0:0:0:0:
64,192,27994,1,0,0:0:0:0:
192,192,28196,128,0,28397:0:0:0:0:
64,192,28397,1,0,0:0:0:0:
448,192,28397,1,0,0:0:0:0:
320,192,28498,1,0,0:0:0:0:
64,192,28598,1,0,0:0:0:0:
192,192,28598,128,0,28800:0:0:0:0:
320,192,28699,1,0,0:0:0:0:
448,192,28800,1,0,0:0:0:0:
64,192,28800,1,0,0:0:0:0:
320,192,29001,1,0,0:0:0:0:
64,192,29202,1,0,0:0:0:0:
448,192,29202,1,0,0:0:0:0:
192,192,29202,1,0,0:0:0:0:
320,192,29404,1,0,0:0:0:0:
320,192,29605,1,0,0:0:0:0:
64,192,29605,1,0,0:0:0:0:
320,192,29806,1,0,0:0:0:0:
320,192,30008,1,0,0:0:0:0:
192,192,30008,1,0,0:0:0:0:
320,192,30209,1,0,0:0:0:0:
320,192,30410,1,0,0:0:0:0:
64,192,30410,1,0,0:0:0:0:
320,192,30612,1,0,0:0:0:0:
320,192,30813,1,0,0:0:0:0:
192,192,30813,1,0,0:0:0:0:
320,192,31014,1,0,0:0:0:0:
320,192,31216,1,0,0:0:0:0:
64,192,31216,1,0,0:0:0:0:
320,192,31417,1,0,0:0:0:0:
320,192,31618,1,0,0:0:0:0:
192,192,31618,1,0,0:0:0:0:
320,192,31820,1,0,0:0:0:0:
320,192,32021,1,0,0:0:0:0:
64,192,32021,1,0,0:0:0:0:
320,192,32222,1,0,0:0:0:0:
192,192,32424,1,0,0:0:0:0:
448,192,32424,1,0,0:0:0:0:
192,192,32625,1,0,0:0:0:0:
192,192,32826,1,0,0:0:0:0:
320,192,32826,1,0,0:0:0:0:
192,192,33028,1,0,0:0:0:0:
192,192,33229,1,0,0:0:0:0:
448,192,33229,1,0,0:0:0:0:
192,192,33430,1,0,0:0:0:0:
192,192,33632,1,0,0:0:0:0:
320,192,33632,1,0,0:0:0:0:
192,192,33833,1,0,0:0:0:0:
192,192,34035,1,0,0:0:0:0:
448,192,34035,1,0,0:0:0:0:
192,192,34236,1,0,0:0:0:0:
192,192,34437,1,0,0:0:0:0:
320,192,34437,1,0,0:0:0:0:
192,192,34639,1,0,0:0:0:0:
192,192,34840,1,0,0:0:0:0:
448,192,34840,1,0,0:0:0:0:
192,192,35041,1,0,0:0:0:0:
192,192,35243,1,0,0:0:0:0:
320,192,35243,1,0,0:0:0:0:
192,192,35444,1,0,0:0:0:0:
448,192,35645,1,0,0:0:0:0:
64,192,35645,1,0,0:0:0:0:
320,192,35645,1,0,0:0:0:0:
448,192,35847,1,0,0:0:0:0:
448,192,36048,1,0,0:0:0:0:
192,192,36048,1,0,0:0:0:0:
448,192,36249,1,0,0:0:0:0:
448,192,36451,1,0,0:0:0:0:
320,192,36451,1,0,0:0:0:0:
448,192,36652,1,0,0:0:0:0:
448,192,36853,1,0,0:0:0:0:
192,192,36853,1,0,0:0:0:0:
448,192,37055,1,0,0:0:0:0:
448,192,37256,1,0,0:0:0:0:
320,192,37256,1,0,0:0:0:0:
448,192,37457,1,0,0:0:0:0:
448,192,37659,1,0,0:0:0:0:
192,192,37659,1,0,0:0:0:0:
448,192,37860,1,0,0:0:0:0:
448,192,38061,1,0,0:0:0:0:
320,192,38061,1,0,0:0:0:0:
448,192,38263,1,0,0:0:0:0:
448,192,38464,1,0,0:0:0:0:
192,192,38464,1,0,0:0:0:0:
448,192,38665,1,0,0:0:0:0:
64,192,38867,1,0,0:0:0:0:
320,192,38867,1,0,0:0:0:0:
64,192,39068,1,0,0:0:0:0:
64,192,39269,1,0,0:0:0:0:
192,192,39269,1,0,0:0:0:0:
64,192,39471,1,0,0:0:0:0:
64,192,39672,1,0,0:0:0:0:
320,192,39672,1,0,0:0:0:0:
64,192,39873,1,0,0:0:0:0:
64,192,40075,1,0,0:0:0:0:
192,192,40075,1,0,0:0:0:0:
64,192,40276,1,0,0:0:0:0:
64,192,40477,1,0,0:0:0:0:
320,192,40477,1,0,0:0:0:0:
192,192,40679,1,0,0:0:0:0:
448,192,40679,1,0,0:0:0:0:
320,192,40679,1,0,0:0:0:0:
192,192,40880,1,0,0:0:0:0:
64,192,40880,1,0,0:0:0:0:
448,192,40880,1,0,0:0:0:0:
64,192,41082,1,0,0:0:0:0:
448,192,41082,1,0,0:0:0:0:
320,192,41082,1,0,0:0:0:0:
320,192,41283,1,0,0:0:0:0:
192,192,41283,1,0,0:0:0:0:
64,192,41283,1,0,0:0:0:0:
192,192,41484,1,0,0:0:0:0:
320,192,41484,1,0,0:0:0:0:
448,192,41484,1,0,0:0:0:0:
448,192,41686,1,0,0:0:0:0:
64,192,41686,1,0,0:0:0:0:
320,192,41686,1,0,0:0:0:0:
192,192,41887,1,0,0:0:0:0:
64,192,41887,1,0,0:0:0:0:
448,192,41887,1,0,0:0:0:0:
192,192,42088,1,0,0:0:0:0:
320,192,42088,1,0,0:0:0:0:
64,192,42088,128,0,42290:0:0:0:0:
448,192,42290,1,0,0:0:0:0:
320,192,42390,1,0,0:0:0:0:
64,192,42491,1,0,0:0:0:0:
192,192,42491,1,0,0:0:0:0:
448,192,42692,1,0,0:0:0:0:
320,192,42894,1,0,0:0:0:0:
64,192,42894,1,0,0:0:0:0:
192,192,43095,1,0,0:0:0:0:
64,192,43296,1,0,0:0:0:0:
448,192,43296,128,0,43699:0:0:0:0:
192,192,43498,1,0,0:0:0:0:
320,192,43699,1,0,0:0:0:0:
64,192,43699,128,0,44102:0:0:0:0:
192,192,43900,1,0,0:0:0:0:
320,192,44001,1,0,0:0:0:0:
448,192,44102,1,0,0:0:0:0:
192,192,44102,1,0,0:0:0:0:
320,192,44303,1,0,0:0:0:0:
192,192,44404,1,0,0:0:0:0:
448,192,44504,1,0,0:0:0:0:
64,192,44504,1,0,0:0:0:0:
192,192,44706,1,0,0:0:0:0:
320,192,44706,1,0,0:0:0:0:
448,192,44907,1,0,0:0:0:0:
64,192,44907,128,0,45108:0:0:0:0:
192,192,45108,128,0,45310:0:0:0:0:
448,192,45310,1,0,0:0:0:0:
320,192,45310,128,0,45511:0:0:0:0:
64,192,45511,1,0,0:0:0:0:
192,192,45511,1,0,0:0:0:0:
320,192,45712,1,0,0:0:0:0:
64,192,45712,1,0,0:0:0:0:
448,192,45712,1,0,0:0:0:0:
192,192,45914,1,0,0:0:0:0:
320,192,45914,1,0,0:0:0:0:
448,192,46115,1,0,0:0:0:0:
192,192,46115,1,0,0:0:0:0:
320,192,46316,1,0,0:0:0:0:
64,192,46316,1,0,0:0:0:0:
192,192,46518,1,0,0:0:0:0:
64,192,46518,1,0,0:0:0:0:
448,192,46518,1,0,0:0:0:0:
192,192,46719,1,0,0:0:0:0:
320,192,46719,1,0,0:0:0:0:
64,192,46920,1,0,0:0:0:0:
320,192,46920,1,0,0:0:0:0:
192,192,47122,1,0,0:0:0:0:
448,192,47122,1,0,0:0:0:0:
448,192,47323,1,0,0:0:0:0:
320,192,47323,1,0,0:0:0:0:
64,192,47323,1,0,0:0:0:0:
192,192,47524,1,0,0:0:0:0:
320,192,47625,1,0,0:0:0:0:
448,192,47625,1,0,0:0:0:0:
192,192,47726,1,0,0:0:0:0:
64,192,47726,1,0,0:0:0:0:
448,192,47826,1,0,0:0:0:0:
320,192,47826,1,0,0:0:0:0:
64,192,47927,1,0,0:0:0:0:
192,192,47927,1,0,0:0:0:0:
320,192,48028,1,0,0:0:0:0:
448,192,48128,1,0,0:0:0:0:
64,192,48128,1,0,0:0:0:0:
192,192,48229,1,0,0:0:0:0:
320,192,48229,1,0,0:0:0:0:
448,192,48330,1,0,0:0:0:0:
64,192,48330,1,0,0:0:0:0:
192,192,48430,1,0,0:0:0:0:
320,192,48430,1,0,0:0:0:0:
64,192,48531,1,0,0:0:0:0:
448,192,48531,1,0,0:0:0:0:
192,192,48733,1,0,0:0:0:0:
320,192,48833,1,0,0:0:0:0:
448,192,48934,1,0,0:0:0:0:
64,192,48934,1,0,0:0:0:0:
192,192,49135,1,0,0:0:0:0:
64,192,49337,1,0,0:0:0:0:
448,192,49337,128,0,49739:0:0:0:0:
320,192,49538,1,0,0:0:0:0:
64,192,49739,1,0,0:0:0:0:
192,192,49739,128,0,50142:0:0:0:0:
448,192,49941,1,0,0:0:0:0:
320,192,50142,1,0,0:0:0:0:
64,192,50142,1,0,0:0:0:0:
192,192,50343,1,0,0:0:0:0:
320,192,50545,1,0,0:0:0:0:
448,192,50545,1,0,0:0:0:0:
64,192,50746,1,0,0:0:0:0:
192,192,50947,1,0,0:0:0:0:
320,192,50947,1,0,0:0:0:0:
320,192,51149,1,0,0:0:0:0:
192,192,51149,1,0,0:0:0:0:
64,192,51350,1,0,0:0:0:0:
448,192,51350,1,0,0:0:0:0:
320,192,51350,1,0,0:0:0:0:
192,192,51551,128,0,51753:0:0:0:0:
320,192,51753,1,0,0:0:0:0:
64,192,51753,1,0,0:0:0:0:
448,192,51753,1,0,0:0:0:0:
448,192,51954,1,0,0:0:0:0:
320,192,51954,1,0,0:0:0:0:
192,192,52155,1,0,0:0:0:0:
64,192,52155,1,0,0:0:0:0:
64,192,52357,1,0,0:0:0:0:
192,192,52357,1,0,0:0:0:0:
64,192,52558,1,0,0:0:0:0:
448,192,52558,1,0,0:0:0:0:
448,192,52759,1,0,0:0:0:0:
64,192,52759,1,0,0:0:0:0:
448,192,52961,1,0,0:0:0:0:
320,192,52961,1,0,0:0:0:0:
448,192,53162,1,0,0:0:0:0:
320,192,53162,1,0,0:0:0:0:
192,192,53363,1,0,0:0:0:0:
64,192,53363,1,0,0:0:0:0:
64,192,53565,1,0,0:0:0:0:
192,192,53565,1,0,0:0:0:0:
64,192,53766,1,0,0:0:0:0:
448,192,53766,1,0,0:0:0:0:
320,192,53967,1,0,0:0:0:0:
192,192,53967,1,0,0:0:0:0:
64,192,54068,1,0,0:0:0:0:
320,192,54169,1,0,0:0:0:0:
448,192,54169,1,0,0:0:0:0:
64,192,54269,1,0,0:0:0:0:
192,192,54269,1,0,0:0:0:0:
448,192,54370,1,0,0:0:0:0:
64,192,54471,1,0,0:0:0:0:
192,192,54471,1,0,0:0:0:0:
448,192,54571,1,0,0:0:0:0:
320,192,54571,1,0,0:0:0:0:
192,192,54672,128,0,55377:0:0:0:0:
64,192,54773,128,0,55377:0:0:0:0:
192,192,56384,128,0,56585:0:0:0:0:
64,192,56585,5,0,0:0:0:0:
448,192,56585,1,0,0:0:0:0:
320,192,56585,1,0,0:0:0:0:
320,192,56786,1,0,0:0:0:0:
448,192,56988,1,0,0:0:0:0:
64,192,56988,1,0,0:0:0:0:
192,192,56988,1,0,0:0:0:0:
320,192,57189,1,0,0:0:0:0:
192,192,57290,1,0,0:0:0:0:
448,192,57390,1,0,0:0:0:0:
64,192,57390,1,0,0:0:0:0:
320,192,57592,1,0,0:0:0:0:
192,192,57793,1,0,0:0:0:0:
64,192,57793,1,0,0:0:0:0:
448,192,57793,1,0,0:0:0:0:
320,192,57994,1,0,0:0:0:0:
192,192,58196,1,0,0:0:0:0:
448,192,58196,1,0,0:0:0:0:
192,192,58397,1,0,0:0:0:0:
64,192,58598,1,0,0:0:0:0:
448,192,58598,1,0,0:0:0:0:
320,192,58598,1,0,0:0:0:0:
192,192,58800,1,0,0:0:0:0:
320,192,58900,1,0,0:0:0:0:
64,192,59001,1,0,0:0:0:0:
448,192,59001,1,0,0:0:0:0:
192,192,59202,1,0,0:0:0:0:
320,192,59404,1,0,0:0:0:0:
448,192,59404,1,0,0:0:0:0:
64,192,59404,1,0,0:0:0:0:
192,192,59605,1,0,0:0:0:0:
64,192,59806,1,0,0:0:0:0:
320,192,59806,1,0,0:0:0:0:
448,192,59806,1,0,0:0:0:0:
448,192,60008,1,0,0:0:0:0:
320,192,60209,1,0,0:0:0:0:
192,192,60209,1,0,0:0:0:0:
64,192,60209,1,0,0:0:0:0:
448,192,60410,1,0,0:0:0:0:
320,192,60511,1,0,0:0:0:0:
192,192,60612,1,0,0:0:0:0:
64,192,60612,1,0,0:0:0:0:
448,192,60813,1,0,0:0:0:0:
320,192,60914,1,0,0:0:0:0:
64,192,61014,1,0,0:0:0:0:
192,192,61014,1,0,0:0:0:0:
448,192,61014,1,0,0:0:0:0:
320,192,61216,1,0,0:0:0:0:
448,192,61417,1,0,0:0:0:0:
192,192,61417,1,0,0:0:0:0:
192,192,61618,1,0,0:0:0:0:
448,192,61820,1,0,0:0:0:0:
320,192,61820,1,0,0:0:0:0:
64,192,61820,1,0,0:0:0:0:
64,192,62021,1,0,0:0:0:0:
448,192,62222,1,0,0:0:0:0:
320,192,62222,1,0,0:0:0:0:
192,192,62323,1,0,0:0:0:0:
64,192,62424,1,0,0:0:0:0:
64,192,62625,1,0,0:0:0:0:
192,192,62625,1,0,0:0:0:0:
448,192,62625,1,0,0:0:0:0:
320,192,62726,1,0,0:0:0:0:
448,192,62826,1,0,0:0:0:0:
192,192,62826,1,0,0:0:0:0:
320,192,63028,1,0,0:0:0:0:
448,192,63028,1,0,0:0:0:0:
64,192,63028,1,0,0:0:0:0:
320,192,63229,1,0,0:0:0:0:
64,192,63430,1,0,0:0:0:0:
448,192,63430,1,0,0:0:0:0:
192,192,63430,1,0,0:0:0:0:
320,192,63632,1,0,0:0:0:0:
192,192,63733,1,0,0:0:0:0:
64,192,63833,1,0,0:0:0:0:
448,192,63833,1,0,0:0:0:0:
320,192,64035,1,0,0:0:0:0:
448,192,64236,1,0,0:0:0:0:
64,192,64236,1,0,0:0:0:0:
192,192,64236,1,0,0:0:0:0:
320,192,64437,1,0,0:0:0:0:
448,192,64639,1,0,0:0:0:0:
192,192,64639,1,0,0:0:0:0:
192,192,64840,1,0,0:0:0:0:
448,192,65041,1,0,0:0:0:0:
64,192,65041,1,0,0:0:0:0:
320,192,65041,1,0,0:0:0:0:
192,192,65243,1,0,0:0:0:0:
320,192,65343,1,0,0:0:0:0:
448,192,65444,1,0,0:0:0:0:
64,192,65444,1,0,0:0:0:0:
192,192,65645,1,0,0:0:0:0:
64,192,65847,1,0,0:0:0:0:
448,192,65847,1,0,0:0:0:0:
320,192,65847,1,0,0:0:0:0:
320,192,66048,1,0,0:0:0:0:
448,192,66249,128,0,67055:0:0:0:0:
192,192,66249,1,0,0:0:0:0:
192,192,66451,1,0,0:0:0:0:
64,192,66652,1,0,0:0:0:0:
320,192,66652,1,0,0:0:0:0:
192,192,66652,1,0,0:0:0:0:
320,192,67055,128,0,67860:0:0:0:0:
64,192,67055,1,0,0:0:0:0:
64,192,67256,1,0,0:0:0:0:
64,192,67457,1,0,0:0:0:0:
448,192,67457,1,0,0:0:0:0:
192,192,67457,1,0,0:0:0:0:
192,192,67860,1,0,0:0:0:0:
64,192,68061,1,0,0:0:0:0:
448,192,68061,1,0,0:0:0:0:
192,192,68061,1,0,0:0:0:0:
448,192,68263,1,0,0:0:0:0:
64,192,68263,1,0,0:0:0:0:
320,192,68263,1,0,0:0:0:0:
448,192,68665,1,0,0:0:0:0:
320,192,68665,1,0,0:0:0:0:
192,192,68766,1,0,0:0:0:0:
64,192,68766,1,0,0:0:0:0:
320,192,68867,1,0,0:0:0:0:
448,192,68867,1,0,0:0:0:0:
192,192,68967,1,0,0:0:0:0:
64,192,68967,1,0,0:0:0:0:
320,192,69068,1,0,0:0:0:0:
448,192,69068,1,0,0:0:0:0:
192,192,69269,1,0,0:0:0:0:
64,192,69269,1,0,0:0:0:0:
320,192,69370,1,0,0:0:0:0:
448,192,69370,1,0,0:0:0:0:
192,192,69471,1,0,0:0:0:0:
64,192,69471,1,0,0:0:0:0:
320,192,69672,1,0,0:0:0:0:
448,192,69873,1,0,0:0:0:0:
64,192,69873,1,0,0:0:0:0:
192,192,69873,1,0,0:0:0:0:
320,192,70075,1,0,0:0:0:0:
192,192,70175,1,0,0:0:0:0:
448,192,70276,1,0,0:0:0:0:
64,192,70276,1,0,0:0:0:0:
320,192,70477,1,0,0:0:0:0:
192,192,70679,1,0,0:0:0:0:
64,192,70679,1,0,0:0:0:0:
448,192,70679,1,0,0:0:0:0:
320,192,70880,1,0,0:0:0:0:
192,192,71082,1,0,0:0:0:0:
448,192,71082,1,0,0:0:0:0:
192,192,71283,1,0,0:0:0:0:
64,192,71484,1,0,0:0:0:0:
448,192,71484,1,0,0:0:0:0:
320,192,71484,1,0,0:0:0:0:
192,192,71686,1,0,0:0:0:0:
320,192,71786,1,0,0:0:0:0:
64,192,71887,1,0,0:0:0:0:
448,192,71887,1,0,0:0:0:0:
192,192,72088,1,0,0:0:0:0:
320,192,72290,1,0,0:0:0:0:
448,192,72290,1,0,0:0:0:0:
64,192,72290,1,0,0:0:0:0:
192,192,72491,1,0,0:0:0:0:
64,192,72692,1,0,0:0:0:0:
320,192,72692,1,0,0:0:0:0:
448,192,72692,1,0,0:0:0:0:
448,192,72894,1,0,0:0:0:0:
320,192,73095,1,0,0:0:0:0:
192,192,73095,1,0,0:0:0:0:
64,192,73095,1,0,0:0:0:0:
448,192,73296,1,0,0:0:0:0:
320,192,73397,1,0,0:0:0:0:
192,192,73498,1,0,0:0:0:0:
64,192,73498,1,0,0:0:0:0:
448,192,73699,1,0,0:0:0:0:
320,192,73800,1,0,0:0:0:0:
64,192,73900,1,0,0:0:0:0:
192,192,73900,1,0,0:0:0:0:
448,192,73900,1,0,0:0:0:0:
320,192,74102,1,0,0:0:0:0:
448,192,74303,1,0,0:0:0:0:
192,192,74303,1,0,0:0:0:0:
192,192,74504,1,0,0:0:0:0:
448,192,74706,1,0,0:0:0:0:
320,192,74706,1,0,0:0:0:0:
64,192,74706,1,0,0:0:0:0:
64,192,74907,1,0,0:0:0:0:
448,192,75108,1,0,0:0:0:0:
320,192,75108,1,0,0:0:0:0:
192,192,75209,1,0,0:0:0:0:
64,192,75310,1,0,0:0:0:0:
64,192,75511,1,0,0:0:0:0:
192,192,75511,1,0,0:0:0:0:
448,192,75511,1,0,0:0:0:0:
320,192,75612,1,0,0:0:0:0:
448,192,75712,1,0,0:0:0:0:
192,192,75712,1,0,0:0:0:0:
320,192,75914,1,0,0:0:0:0:
448,192,75914,1,0,0:0:0:0:
64,192,75914,1,0,0:0:0:0:
320,192,76115,1,0,0:0:0:0:
64,192,76316,1,0,0:0:0:0:
448,192,76316,1,0,0:0:0:0:
192,192,76316,1,0,0:0:0:0:
320,192,76518,1,0,0:0:0:0:
192,192,76618,1,0,0:0:0:0:
64,192,76719,1,0,0:0:0:0:
448,192,76719,1,0,0:0:0:0:
320,192,76920,1,0,0:0:0:0:
448,192,77122,1,0,0:0:0:0:
64,192,77122,1,0,0:0:0:0:
192,192,77122,1,0,0:0:0:0:
320,192,77323,1,0,0:0:0:0:
448,192,77524,1,0,0:0:0:0:
192,192,77524,1,0,0:0:0:0:
192,192,77726,1,0,0:0:0:0:
448,192,77927,1,0,0:0:0:0:
64,192,77927,1,0,0:0:0:0:
320,192,77927,1,0,0:0:0:0:
192,192,78128,1,0,0:0:0:0:
320,192,78229,1,0,0:0:0:0:
448,192,78330,1,0,0:0:0:0:
64,192,78330,1,0,0:0:0:0:
192,192,78531,1,0,0:0:0:0:
64,192,78733,1,0,0:0:0:0:
448,192,78733,1,0,0:0:0:0:
320,192,78733,1,0,0:0:0:0:
192,192,78934,1,0,0:0:0:0:
320,192,79135,128,0,79941:0:0:0:0:
448,192,79538,1,0,0:0:0:0:
192,192,79538,1,0,0:0:0:0:
64,192,79538,1,0,0:0:0:0:
64,192,79941,128,0,80746:0:0:0:0:
192,192,80343,1,0,0:0:0:0:
320,192,80343,1,0,0:0:0:0:
448,192,80343,1,0,0:0:0:0:
448,192,80746,5,0,0:0:0:0:
320,192,80746,1,0,0:0:0:0:
192,192,80746,1,0,0:0:0:0:
448,192,81149,1,0,0:0:0:0:
192,192,81149,1,0,0:0:0:0:
64,192,81149,1,0,0:0:0:0:
64,192,81551,1,0,0:0:0:0:
320,192,81551,1,0,0:0:0:0:
192,192,81652,1,0,0:0:0:0:
448,192,81652,1,0,0:0:0:0:
320,192,81753,1,0,0:0:0:0:
64,192,81753,1,0,0:0:0:0:
192,192,81853,1,0,0:0:0:0:
448,192,81853,1,0,0:0:0:0:
320,192,81954,1,0,0:0:0:0:
64,192,81954,1,0,0:0:0:0:
64,192,82155,1,0,0:0:0:0:
192,192,82155,1,0,0:0:0:0:
448,192,82256,1,0,0:0:0:0:
320,192,82256,1,0,0:0:0:0:
64,192,82357,1,0,0:0:0:0:
192,192,82357,128,0,83967:0:0:0:0:
448,192,82759,1,0,0:0:0:0:
320,192,82759,1,0,0:0:0:0:
64,192,82961,1,0,0:0:0:0:
320,192,83162,1,0,0:0:0:0:
448,192,83363,1,0,0:0:0:0:
320,192,83565,1,0,0:0:0:0:
64,192,83565,1,0,0:0:0:0:
448,192,83766,1,0,0:0:0:0:
320,192,83967,1,0,0:0:0:0:
64,192,84169,1,0,0:0:0:0:
448,192,84370,1,0,0:0:0:0:
320,192,84370,1,0,0:0:0:0:
64,192,84571,1,0,0:0:0:0:
320,192,84773,1,0,0:0:0:0:
448,192,84974,1,0,0:0:0:0:
320,192,85175,1,0,0:0:0:0:
64,192,85175,1,0,0:0:0:0:
448,192,85377,1,0,0:0:0:0:
448,192,85578,1,0,0:0:0:0:
320,192,85578,1,0,0:0:0:0:
64,192,85578,1,0,0:0:0:0:
64,192,85981,1,0,0:0:0:0:
448,192,85981,1,0,0:0:0:0:
64,192,87390,1,0,0:0:0:0:
192,192,87390,1,0,0:0:0:0:
448,192,87390,1,0,0:0:0:0:
320,192,87592,1,0,0:0:0:0:
448,192,87592,1,0,0:0:0:0:
64,192,87592,1,0,0:0:0:0:
64,192,87793,1,0,0:0:0:0:
192,192,87793,1,0,0:0:0:0:
448,192,87994,1,0,0:0:0:0:
64,192,87994,1,0,0:0:0:0:
320,192,87994,1,0,0:0:0:0:
192,192,88095,1,0,0:0:0:0:
448,192,88196,1,0,0:0:0:0:
320,192,88196,1,0,0:0:0:0:
64,192,88296,1,0,0:0:0:0:
192,192,88296,1,0,0:0:0:0:
448,192,88397,1,0,0:0:0:0:
320,192,88397,1,0,0:0:0:0:
64,192,88498,1,0,0:0:0:0:
192,192,88498,1,0,0:0:0:0:
448,192,88598,1,0,0:0:0:0:
320,192,88598,1,0,0:0:0:0:
192,192,88699,1,0,0:0:0:0:
64,192,88800,1,0,0:0:0:0:
448,192,88800,1,0,0:0:0:0:
320,192,88800,1,0,0:0:0:0:
192,192,89202,5,0,0:0:0:0:
192,192,89605,1,0,0:0:0:0:
192,192,90008,1,0,0:0:0:0:
192,192,90410,1,0,0:0:0:0:
192,192,90813,1,0,0:0:0:0:
192,192,91216,1,0,0:0:0:0:
448,192,91417,1,0,0:0:0:0:
64,192,91417,128,0,91618:0:0:0:0:
192,192,91618,1,0,0:0:0:0:
448,192,91820,1,0,0:0:0:0:
320,192,92021,1,0,0:0:0:0:
320,192,92424,1,0,0:0:0:0:
320,192,92826,1,0,0:0:0:0:
320,192,93229,1,0,0:0:0:0:
320,192,93632,1,0,0:0:0:0:
320,192,94035,1,0,0:0:0:0:
320,192,94437,1,0,0:0:0:0:
64,192,94639,128,0,94840:0:0:0:0:
192,192,94639,1,0,0:0:0:0:
320,192,94840,1,0,0:0:0:0:
448,192,95041,128,0,95243:0:0:0:0:
64,192,95243,1,0,0:0:0:0:
64,192,95645,1,0,0:0:0:0:
64,192,96048,1,0,0:0:0:0:
64,192,96451,1,0,0:0:0:0:
64,192,96853,1,0,0:0:0:0:
64,192,97256,1,0,0:0:0:0:
64,192,97659,1,0,0:0:0:0:
64,192,98061,1,0,0:0:0:0:
448,192,98464,1,0,0:0:0:0:
448,192,98867,1,0,0:0:0:0:
448,192,99269,1,0,0:0:0:0:
448,192,99672,1,0,0:0:0:0:
192,192,99873,1,0,0:0:0:0:
320,192,99974,1,0,0:0:0:0:
448,192,100075,1,0,0:0:0:0:
64,192,100075,1,0,0:0:0:0:
192,192,100377,1,0,0:0:0:0:
320,192,100477,1,0,0:0:0:0:
64,192,100679,1,0,0:0:0:0:
448,192,100880,1,0,0:0:0:0:
320,192,100880,1,0,0:0:0:0:
192,192,100981,1,0,0:0:0:0:
64,192,101082,1,0,0:0:0:0:
448,192,101283,1,0,0:0:0:0:
320,192,101283,1,0,0:0:0:0:
192,192,101384,1,0,0:0:0:0:
64,192,101384,1,0,0:0:0:0:
448,192,101484,1,0,0:0:0:0:
320,192,101585,1,0,0:0:0:0:
64,192,101686,1,0,0:0:0:0:
192,192,101686,1,0,0:0:0:0:
448,192,101686,1,0,0:0:0:0:
64,192,101887,1,0,0:0:0:0:
192,192,102290,1,0,0:0:0:0:
64,192,102491,1,0,0:0:0:0:
448,192,102491,1,0,0:0:0:0:
320,192,102894,1,0,0:0:0:0:
448,192,103296,1,0,0:0:0:0:
448,192,103498,1,0,0:0:0:0:
320,192,103900,1,0,0:0:0:0:
448,192,104102,1,0,0:0:0:0:
64,192,104102,1,0,0:0:0:0:
192,192,104404,1,0,0:0:0:0:
320,192,104706,1,0,0:0:0:0:
448,192,104907,1,0,0:0:0:0:
448,192,105108,1,0,0:0:0:0:
320,192,115981,132,0,116182:0:0:0:0:
448,192,116182,5,0,0:0:0:0:
64,192,116182,1,0,0:0:0:0:
192,192,116182,1,0,0:0:0:0:
192,192,116384,1,0,0:0:0:0:
64,192,116585,1,0,0:0:0:0:
448,192,116585,1,0,0:0:0:0:
320,192,116585,1,0,0:0:0:0:
192,192,116786,1,0,0:0:0:0:
320,192,116887,1,0,0:0:0:0:
64,192,116988,1,0,0:0:0:0:
448,192,116988,1,0,0:0:0:0:
192,192,117189,1,0,0:0:0:0:
320,192,117390,1,0,0:0:0:0:
448,192,117390,1,0,0:0:0:0:
64,192,117390,1,0,0:0:0:0:
192,192,117592,1,0,0:0:0:0:
320,192,117793,1,0,0:0:0:0:
64,192,117793,1,0,0:0:0:0:
320,192,117994,1,0,0:0:0:0:
448,192,118196,1,0,0:0:0:0:
64,192,118196,1,0,0:0:0:0:
192,192,118196,1,0,0:0:0:0:
320,192,118397,1,0,0:0:0:0:
192,192,118498,1,0,0:0:0:0:
448,192,118598,1,0,0:0:0:0:
64,192,118598,1,0,0:0:0:0:
320,192,118800,1,0,0:0:0:0:
192,192,119001,1,0,0:0:0:0:
64,192,119001,1,0,0:0:0:0:
448,192,119001,1,0,0:0:0:0:
320,192,119202,1,0,0:0:0:0:
448,192,119404,1,0,0:0:0:0:
192,192,119404,1,0,0:0:0:0:
64,192,119404,1,0,0:0:0:0:
64,192,119605,1,0,0:0:0:0:
192,192,119806,1,0,0:0:0:0:
320,192,119806,1,0,0:0:0:0:
448,192,119806,1,0,0:0:0:0:
64,192,120008,1,0,0:0:0:0:
192,192,120108,1,0,0:0:0:0:
320,192,120209,1,0,0:0:0:0:
448,192,120209,1,0,0:0:0:0:
64,192,120410,1,0,0:0:0:0:
192,192,120511,1,0,0:0:0:0:
448,192,120612,1,0,0:0:0:0:
320,192,120612,1,0,0:0:0:0:
64,192,120612,1,0,0:0:0:0:
192,192,120813,1,0,0:0:0:0:
64,192,121014,1,0,0:0:0:0:
320,192,121014,1,0,0:0:0:0:
320,192,121216,1,0,0:0:0:0:
64,192,121417,1,0,0:0:0:0:
192,192,121417,1,0,0:0:0:0:
448,192,121417,1,0,0:0:0:0:
448,192,121618,1,0,0:0:0:0:
64,192,121820,1,0,0:0:0:0:
192,192,121820,1,0,0:0:0:0:
320,192,121920,1,0,0:0:0:0:
448,192,122021,1,0,0:0:0:0:
448,192,122222,1,0,0:0:0:0:
320,192,122222,1,0,0:0:0:0:
64,192,122222,1,0,0:0:0:0:
192,192,122323,1,0,0:0:0:0:
64,192,122424,1,0,0:0:0:0:
320,192,122424,1,0,0:0:0:0:
192,192,122625,1,0,0:0:0:0:
64,192,122625,1,0,0:0:0:0:
448,192,122625,1,0,0:0:0:0:
192,192,122826,1,0,0:0:0:0:
448,192,123028,1,0,0:0:0:0:
64,192,123028,1,0,0:0:0:0:
320,192,123028,1,0,0:0:0:0:
192,192,123229,1,0,0:0:0:0:
320,192,123330,1,0,0:0:0:0:
448,192,123430,1,0,0:0:0:0:
64,192,123430,1,0,0:0:0:0:
192,192,123632,1,0,0:0:0:0:
64,192,123833,1,0,0:0:0:0:
448,192,123833,1,0,0:0:0:0:
320,192,123833,1,0,0:0:0:0:
192,192,124035,1,0,0:0:0:0:
64,192,124236,1,0,0:0:0:0:
320,192,124236,1,0,0:0:0:0:
320,192,124437,1,0,0:0:0:0:
64,192,124639,1,0,0:0:0:0:
448,192,124639,1,0,0:0:0:0:
192,192,124639,1,0,0:0:0:0:
320,192,124840,1,0,0:0:0:0:
192,192,124941,1,0,0:0:0:0:
64,192,125041,1,0,0:0:0:0:
448,192,125041,1,0,0:0:0:0:
320,192,125243,1,0,0:0:0:0:
448,192,125444,1,0,0:0:0:0:
64,192,125444,1,0,0:0:0:0:
192,192,125444,1,0,0:0:0:0:
192,192,125645,1,0,0:0:0:0:
64,192,125847,128,0,126652:0:0:0:0:
320,192,125847,1,0,0:0:0:0:
320,192,126048,1,0,0:0:0:0:
448,192,126249,1,0,0:0:0:0:
192,192,126249,1,0,0:0:0:0:
320,192,126249,1,0,0:0:0:0:
192,192,126652,128,0,127457:0:0:0:0:
448,192,126652,1,0,0:0:0:0:
448,192,126853,1,0,0:0:0:0:
448,192,127055,1,0,0:0:0:0:
64,192,127055,1,0,0:0:0:0:
320,192,127055,1,0,0:0:0:0:
320,192,127457,1,0,0:0:0:0:
448,192,127659,1,0,0:0:0:0:
64,192,127659,1,0,0:0:0:0:
320,192,127659,1,0,0:0:0:0:
64,192,127860,1,0,0:0:0:0:
448,192,127860,1,0,0:0:0:0:
192,192,127860,1,0,0:0:0:0:
64,192,128263,1,0,0:0:0:0:
192,192,128263,1,0,0:0:0:0:
320,192,128363,1,0,0:0:0:0:
448,192,128363,1,0,0:0:0:0:
192,192,128464,1,0,0:0:0:0:
64,192,128464,1,0,0:0:0:0:
320,192,128565,1,0,0:0:0:0:
448,192,128565,1,0,0:0:0:0:
192,192,128665,1,0,0:0:0:0:
64,192,128665,1,0,0:0:0:0:
320,192,128867,1,0,0:0:0:0:
448,192,128867,1,0,0:0:0:0:
192,192,128967,1,0,0:0:0:0:
64,192,128967,1,0,0:0:0:0:
320,192,129068,1,0,0:0:0:0:
448,192,129068,1,0,0:0:0:0:
192,192,129269,1,0,0:0:0:0:
64,192,129471,1,0,0:0:0:0:
448,192,129471,1,0,0:0:0:0:
320,192,129471,1,0,0:0:0:0:
192,192,129672,1,0,0:0:0:0:
320,192,129773,1,0,0:0:0:0:
64,192,129873,1,0,0:0:0:0:
448,192,129873,1,0,0:0:0:0:
192,192,130075,1,0,0:0:0:0:
320,192,130276,1,0,0:0:0:0:
448,192,130276,1,0,0:0:0:0:
64,192,130276,1,0,0:0:0:0:
192,192,130477,1,0,0:0:0:0:
320,192,130679,1,0,0:0:0:0:
64,192,130679,1,0,0:0:0:0:
320,192,130880,1,0,0:0:0:0:
448,192,131082,1,0,0:0:0:0:
64,192,131082,1,0,0:0:0:0:
192,192,131082,1,0,0:0:0:0:
320,192,131283,1,0,0:0:0:0:
192,192,131384,1,0,0:0:0:0:
448,192,131484,1,0,0:0:0:0:
64,192,131484,1,0,0:0:0:0:
320,192,131686,1,0,0:0:0:0:
192,192,131887,1,0,0:0:0:0:
64,192,131887,1,0,0:0:0:0:
448,192,131887,1,0,0:0:0:0:
320,192,132088,1,0,0:0:0:0:
448,192,132290,1,0,0:0:0:0:
192,192,132290,1,0,0:0:0:0:
64,192,132290,1,0,0:0:0:0:
64,192,132491,1,0,0:0:0:0:
192,192,132692,1,0,0:0:0:0:
320,192,132692,1,0,0:0:0:0:
448,192,132692,1,0,0:0:0:0:
64,192,132894,1,0,0:0:0:0:
192,192,132994,1,0,0:0:0:0:
320,192,133095,1,0,0:0:0:0:
448,192,133095,1,0,0:0:0:0:
64,192,133296,1,0,0:0:0:0:
192,192,133397,1,0,0:0:0:0:
448,192,133498,1,0,0:0:0:0:
320,192,133498,1,0,0:0:0:0:
64,192,133498,1,0,0:0:0:0:
192,192,133699,1,0,0:0:0:0:
64,192,133900,1,0,0:0:0:0:
320,192,133900,1,0,0:0:0:0:
320,192,134102,1,0,0:0:0:0:
64,192,134303,1,0,0:0:0:0:
192,192,134303,1,0,0:0:0:0:
448,192,134303,1,0,0:0:0:0:
448,192,134504,1,0,0:0:0:0:
64,192,134706,1,0,0:0:0:0:
192,192,134706,1,0,0:0:0:0:
320,192,134806,1,0,0:0:0:0:
448,192,134907,1,0,0:0:0:0:
448,192,135108,1,0,0:0:0:0:
320,192,135108,1,0,0:0:0:0:
64,192,135108,1,0,0:0:0:0:
192,192,135209,1,0,0:0:0:0:
64,192,135310,1,0,0:0:0:0:
320,192,135310,1,0,0:0:0:0:
192,192,135511,1,0,0:0:0:0:
64,192,135511,1,0,0:0:0:0:
448,192,135511,1,0,0:0:0:0:
192,192,135712,1,0,0:0:0:0:
448,192,135914,1,0,0:0:0:0:
64,192,135914,1,0,0:0:0:0:
320,192,135914,1,0,0:0:0:0:
192,192,136115,1,0,0:0:0:0:
320,192,136216,1,0,0:0:0:0:
448,192,136316,1,0,0:0:0:0:
64,192,136316,1,0,0:0:0:0:
192,192,136518,1,0,0:0:0:0:
64,192,136719,1,0,0:0:0:0:
448,192,136719,1,0,0:0:0:0:
320,192,136719,1,0,0:0:0:0:
192,192,136920,1,0,0:0:0:0:
64,192,137122,1,0,0:0:0:0:
320,192,137122,1,0,0:0:0:0:
320,192,137323,1,0,0:0:0:0:
64,192,137524,1,0,0:0:0:0:
448,192,137524,1,0,0:0:0:0:
192,192,137524,1,0,0:0:0:0:
320,192,137726,1,0,0:0:0:0:
192,192,137826,1,0,0:0:0:0:
64,192,137927,1,0,0:0:0:0:
448,192,137927,1,0,0:0:0:0:
320,192,138128,1,0,0:0:0:0:
448,192,138330,1,0,0:0:0:0:
64,192,138330,1,0,0:0:0:0:
192,192,138330,1,0,0:0:0:0:
448,192,141954,128,0,143565:0:0:0:0:
64,192,141954,1,0,0:0:0:0:
320,192,142759,128,0,143363:0:0:0:0:
192,192,143363,128,0,143565:0:0:0:0:
64,192,143565,128,0,145175:0:0:0:0:
320,192,143565,1,0,0:0:0:0:
192,192,144370,128,0,144773:0:0:0:0:
320,192,144773,128,0,145175:0:0:0:0:
448,192,145175,128,0,145981:0:0:0:0:
192,192,145175,1,0,0:0:0:0:
192,192,145981,128,0,146384:0:0:0:0:
320,192,146384,128,0,146786:0:0:0:0:
64,192,146786,128,0,147592:0:0:0:0:
448,192,146786,1,0,0:0:0:0:
320,192,147189,128,0,147592:0:0:0:0:
192,192,147592,128,0,148196:0:0:0:0:
448,192,147592,1,0,0:0:0:0:
320,192,148196,128,0,148397:0:0:0:0:
448,192,148397,128,0,149605:0:0:0:0:
64,192,148397,1,0,0:0:0:0:
320,192,149605,128,0,150008:0:0:0:0:
64,192,150008,128,0,151216:0:0:0:0:
448,192,150008,1,0,0:0:0:0:
192,192,150410,128,0,150813:0:0:0:0:
448,192,150813,128,0,151216:0:0:0:0:
320,192,151216,128,0,151417:0:0:0:0:
192,192,151417,128,0,151618:0:0:0:0:
64,192,151618,128,0,152424:0:0:0:0:
448,192,151618,1,0,0:0:0:0:
192,192,152424,128,0,153229:0:0:0:0:
320,192,152424,1,0,0:0:0:0:
448,192,153229,128,0,154035:0:0:0:0:
64,192,153229,1,0,0:0:0:0:
320,192,154035,128,0,154840:0:0:0:0:
192,192,154035,1,0,0:0:0:0:
64,192,154840,1,0,0:0:0:0:
448,192,154840,1,0,0:0:0:0:
192,192,155041,1,0,0:0:0:0:
320,192,155142,1,0,0:0:0:0:
448,192,155243,1,0,0:0:0:0:
64,192,155243,128,0,155444:0:0:0:0:
192,192,155444,128,0,155645:0:0:0:0:
320,192,155645,1,0,0:0:0:0:
448,192,155645,1,0,0:0:0:0:
192,192,155847,128,0,156048:0:0:0:0:
320,192,156048,1,0,0:0:0:0:
448,192,156048,1,0,0:0:0:0:
192,192,156249,128,0,156451:0:0:0:0:
320,192,156451,1,0,0:0:0:0:
448,192,156451,1,0,0:0:0:0:
192,192,156652,128,0,156853:0:0:0:0:
192,192,157055,128,0,157256:0:0:0:0:
448,192,157457,128,0,157961:0:0:0:0:
64,192,158464,1,0,0:0:0:0:
448,192,158464,128,0,158665:0:0:0:0:
320,192,158665,128,0,158867:0:0:0:0:
192,192,158867,1,0,0:0:0:0:
64,192,158867,1,0,0:0:0:0:
320,192,159068,128,0,159269:0:0:0:0:
192,192,159269,1,0,0:0:0:0:
64,192,159269,1,0,0:0:0:0:
320,192,159471,128,0,159672:0:0:0:0:
192,192,159672,1,0,0:0:0:0:
64,192,159672,1,0,0:0:0:0:
320,192,159873,128,0,160075:0:0:0:0:
320,192,160276,128,0,160477:0:0:0:0:
64,192,160679,128,0,161283:0:0:0:0:
448,192,161686,1,0,0:0:0:0:
192,192,161887,128,0,162088:0:0:0:0:
448,192,162088,1,0,0:0:0:0:
320,192,162088,1,0,0:0:0:0:
192,192,162290,128,0,162491:0:0:0:0:
448,192,162491,1,0,0:0:0:0:
320,192,162491,1,0,0:0:0:0:
192,192,162692,128,0,162894:0:0:0:0:
448,192,162894,1,0,0:0:0:0:
320,192,162894,1,0,0:0:0:0:
192,192,163095,128,0,163296:0:0:0:0:
320,192,163296,1,0,0:0:0:0:
448,192,163296,1,0,0:0:0:0:
192,192,163498,128,0,163699:0:0:0:0:
320,192,163699,1,0,0:0:0:0:
448,192,163699,1,0,0:0:0:0:
448,192,163900,128,0,164504:0:0:0:0:
320,192,166115,5,0,0:0:0:0:
448,192,166115,1,0,0:0:0:0:
192,192,166115,1,0,0:0:0:0:
320,192,166518,1,0,0:0:0:0:
448,192,166518,1,0,0:0:0:0:
192,192,166518,1,0,0:0:0:0:
448,192,166920,1,0,0:0:0:0:
64,192,166920,1,0,0:0:0:0:
320,192,167021,1,0,0:0:0:0:
192,192,167122,1,0,0:0:0:0:
64,192,167222,1,0,0:0:0:0:
320,192,167323,1,0,0:0:0:0:
448,192,167323,1,0,0:0:0:0:
192,192,167524,1,0,0:0:0:0:
320,192,167726,1,0,0:0:0:0:
448,192,167726,1,0,0:0:0:0:
64,192,167726,1,0,0:0:0:0:
192,192,168128,1,0,0:0:0:0:
192,192,168934,5,0,0:0:0:0:
448,192,169337,5,0,0:0:0:0:
320,192,169337,1,0,0:0:0:0:
64,192,169337,1,0,0:0:0:0:
192,192,169739,1,0,0:0:0:0:
192,192,170545,1,0,0:0:0:0:
64,192,170947,1,0,0:0:0:0:
192,192,170947,1,0,0:0:0:0:
448,192,170947,1,0,0:0:0:0:
192,192,171350,1,0,0:0:0:0:
192,192,172155,128,0,172558:0:0:0:0:
192,192,173967,128,0,174169:0:0:0:0:
64,192,174169,5,0,0:0:0:0:
320,192,174169,1,0,0:0:0:0:
448,192,174169,1,0,0:0:0:0:
320,192,174370,1,0,0:0:0:0:
192,192,174571,1,0,0:0:0:0:
64,192,174571,1,0,0:0:0:0:
448,192,174571,1,0,0:0:0:0:
320,192,174773,1,0,0:0:0:0:
192,192,174873,1,0,0:0:0:0:
64,192,174974,1,0,0:0:0:0:
448,192,174974,1,0,0:0:0:0:
320,192,175175,1,0,0:0:0:0:
448,192,175377,1,0,0:0:0:0:
64,192,175377,1,0,0:0:0:0:
192,192,175377,1,0,0:0:0:0:
320,192,175578,1,0,0:0:0:0:
448,192,175779,1,0,0:0:0:0:
192,192,175779,1,0,0:0:0:0:
192,192,175981,1,0,0:0:0:0:
320,192,176182,1,0,0:0:0:0:
448,192,176182,1,0,0:0:0:0:
64,192,176182,1,0,0:0:0:0:
192,192,176384,1,0,0:0:0:0:
320,192,176484,1,0,0:0:0:0:
448,192,176585,1,0,0:0:0:0:
64,192,176585,1,0,0:0:0:0:
192,192,176786,1,0,0:0:0:0:
64,192,176988,1,0,0:0:0:0:
448,192,176988,1,0,0:0:0:0:
320,192,176988,1,0,0:0:0:0:
192,192,177189,1,0,0:0:0:0:
448,192,177390,1,0,0:0:0:0:
320,192,177390,1,0,0:0:0:0:
64,192,177390,1,0,0:0:0:0:
448,192,177592,1,0,0:0:0:0:
64,192,177793,1,0,0:0:0:0:
192,192,177793,1,0,0:0:0:0:
320,192,177793,1,0,0:0:0:0:
448,192,177994,1,0,0:0:0:0:
320,192,178095,1,0,0:0:0:0:
64,192,178196,1,0,0:0:0:0:
192,192,178196,1,0,0:0:0:0:
448,192,178397,1,0,0:0:0:0:
320,192,178498,1,0,0:0:0:0:
448,192,178598,1,0,0:0:0:0:
192,192,178598,1,0,0:0:0:0:
64,192,178598,1,0,0:0:0:0:
320,192,178800,1,0,0:0:0:0:
192,192,179001,1,0,0:0:0:0:
448,192,179001,1,0,0:0:0:0:
192,192,179202,1,0,0:0:0:0:
64,192,179404,1,0,0:0:0:0:
320,192,179404,1,0,0:0:0:0:
448,192,179404,1,0,0:0:0:0:
64,192,179605,1,0,0:0:0:0:
320,192,179806,1,0,0:0:0:0:
448,192,179806,1,0,0:0:0:0:
192,192,179907,1,0,0:0:0:0:
64,192,180008,1,0,0:0:0:0:
192,192,180209,1,0,0:0:0:0:
64,192,180209,1,0,0:0:0:0:
448,192,180209,1,0,0:0:0:0:
320,192,180310,1,0,0:0:0:0:
192,192,180410,1,0,0:0:0:0:
448,192,180410,1,0,0:0:0:0:
64,192,180612,1,0,0:0:0:0:
448,192,180612,1,0,0:0:0:0:
320,192,180612,1,0,0:0:0:0:
320,192,180813,1,0,0:0:0:0:
192,192,181014,1,0,0:0:0:0:
448,192,181014,1,0,0:0:0:0:
64,192,181014,1,0,0:0:0:0:
320,192,181216,1,0,0:0:0:0:
192,192,181316,1,0,0:0:0:0:
448,192,181417,1,0,0:0:0:0:
64,192,181417,1,0,0:0:0:0:
320,192,181618,1,0,0:0:0:0:
192,192,181820,1,0,0:0:0:0:
64,192,181820,1,0,0:0:0:0:
448,192,181820,1,0,0:0:0:0:
320,192,182021,1,0,0:0:0:0:
192,192,182222,1,0,0:0:0:0:
448,192,182222,1,0,0:0:0:0:
192,192,182424,1,0,0:0:0:0:
320,192,182625,1,0,0:0:0:0:
64,192,182625,1,0,0:0:0:0:
448,192,182625,1,0,0:0:0:0:
192,192,182826,1,0,0:0:0:0:
320,192,182927,1,0,0:0:0:0:
64,192,183028,1,0,0:0:0:0:
448,192,183028,1,0,0:0:0:0:
192,192,183229,1,0,0:0:0:0:
320,192,183430,1,0,0:0:0:0:
448,192,183430,1,0,0:0:0:0:
64,192,183430,1,0,0:0:0:0:
320,192,183632,1,0,0:0:0:0:
192,192,183833,1,0,0:0:0:0:
448,192,183833,128,0,184639:0:0:0:0:
192,192,184035,1,0,0:0:0:0:
192,192,184236,1,0,0:0:0:0:
320,192,184236,1,0,0:0:0:0:
64,192,184236,1,0,0:0:0:0:
64,192,184639,1,0,0:0:0:0:
320,192,184639,128,0,185444:0:0:0:0:
64,192,184840,1,0,0:0:0:0:
192,192,185041,1,0,0:0:0:0:
448,192,185041,1,0,0:0:0:0:
64,192,185041,1,0,0:0:0:0:
192,192,185444,1,0,0:0:0:0:
192,192,185645,1,0,0:0:0:0:
448,192,185645,1,0,0:0:0:0:
64,192,185645,1,0,0:0:0:0:
320,192,185847,1,0,0:0:0:0:
64,192,185847,1,0,0:0:0:0:
448,192,185847,1,0,0:0:0:0:
320,192,186249,1,0,0:0:0:0:
448,192,186249,1,0,0:0:0:0:
64,192,186350,1,0,0:0:0:0:
192,192,186350,1,0,0:0:0:0:
448,192,186451,1,0,0:0:0:0:
320,192,186451,1,0,0:0:0:0:
64,192,186551,1,0,0:0:0:0:
192,192,186551,1,0,0:0:0:0:
448,192,186652,1,0,0:0:0:0:
320,192,186652,1,0,0:0:0:0:
64,192,186853,1,0,0:0:0:0:
192,192,186853,1,0,0:0:0:0:
448,192,186954,1,0,0:0:0:0:
320,192,186954,1,0,0:0:0:0:
64,192,187055,1,0,0:0:0:0:
192,192,187055,1,0,0:0:0:0:
448,192,199941,132,0,200142:0:0:0:0:
448,192,200343,128,0,200545:0:0:0:0:
192,192,200545,128,0,200746:0:0:0:0:
192,192,200947,128,0,201149:0:0:0:0:
192,192,201350,128,0,201551:0:0:0:0:
64,192,201551,128,0,201753:0:0:0:0:
64,192,201954,128,0,202155:0:0:0:0:
320,192,202155,128,0,202357:0:0:0:0:
320,192,202558,128,0,202759:0:0:0:0:
320,192,202961,128,0,203162:0:0:0:0:
192,192,203162,128,0,203363:0:0:0:0:
64,192,203565,128,0,203766:0:0:0:0:
448,192,203766,128,0,203967:0:0:0:0:
448,192,204169,128,0,204370:0:0:0:0:
448,192,204571,128,0,204773:0:0:0:0:
320,192,204773,128,0,204974:0:0:0:0:
320,192,205175,128,0,205377:0:0:0:0:
192,192,205377,128,0,205578:0:0:0:0:
192,192,205779,128,0,205981:0:0:0:0:
192,192,206182,128,0,206384:0:0:0:0:
320,192,206384,128,0,206585:0:0:0:0:
448,192,206786,128,0,206988:0:0:0:0:
64,192,206988,128,0,207189:0:0:0:0:
64,192,207390,128,0,207592:0:0:0:0:
64,192,207793,128,0,207994:0:0:0:0:
320,192,207994,128,0,208196:0:0:0:0:
320,192,208397,128,0,208598:0:0:0:0:
192,192,208598,128,0,208800:0:0:0:0:
192,192,209001,128,0,209202:0:0:0:0:
192,192,209404,128,0,209605:0:0:0:0:
448,192,209605,128,0,209806:0:0:0:0:
320,192,210008,128,0,210209:0:0:0:0:
64,192,210209,128,0,210410:0:0:0:0:
64,192,210612,128,0,210813:0:0:0:0:
192,192,211014,128,0,211216:0:0:0:0:
192,192,211417,128,0,211618:0:0:0:0:
320,192,211820,128,0,212021:0:0:0:0:
320,192,212222,1,0,0:0:0:0:
320,192,212424,1,0,0:0:0:0:
