osu file format v14

[General]
AudioFilename: audio.mp3
AudioLeadIn: 0
PreviewTime: 172961
Countdown: 0
SampleSet: Normal
StackLeniency: 0.7
Mode: 3
LetterboxInBreaks: 0
SpecialStyle: 0
WidescreenStoryboard: 1

[Editor]
DistanceSpacing: 2.4
BeatDivisor: 4
GridSize: 4
TimelineZoom: 1.4

[Metadata]
Title:Doukei ~DOUKEI~
TitleUnicode:憧憬~DOUKEI~
Artist:BACK-ON feat. IA
ArtistUnicode:BACK-ON feat. IA
Creator:- Ly0572 -
Version:Hard
Source:IA/03 -VISION-
Tags:Longing Rocks Teeda Aria on the Planetes Vocaloid Out of Survice
BeatmapID:1686070
BeatmapSetID:803321

[Difficulty]
HPDrainRate:5
CircleSize:4
OverallDifficulty:5
ApproachRate:5
SliderMultiplier:1.4
SliderTickRate:1

[Events]
//Background and Video events
//Break Periods
2,69671,79546
2,105308,114982
2,116382,121425
2,122825,126257
2,129268,140754
2,161483,164915
2,174369,194941
//Storyboard Layer 0 (Background)
//Storyboard Layer 1 (Fail)
//Storyboard Layer 2 (Pass)
//Storyboard Layer 3 (Foreground)
//Storyboard Sound Samples

[TimingPoints]
3431,402.684563758389,4,1,0,0,1,0
56585,-100,4,1,0,0,0,1
82357,-100,4,1,0,0,0,0
116182,-100,4,1,0,0,0,1
141954,-100,4,1,0,0,0,0
174169,-100,4,1,0,0,0,1
199941,-100,4,1,0,0,0,0

[HitObjects]
448,192,3430,128,0,5041:0:0:0:0:
64,192,3432,5,0,0:0:0:0:
192,192,3632,1,0,0:0:0:0:
64,192,3833,1,0,0:0:0:0:
192,192,4035,1,0,0:0:0:0:
320,192,4236,1,0,0:0:0:0:
64,192,4236,1,0,0:0:0:0:
192,192,4437,1,0,0:0:0:0:
320,192,4639,1,0,0:0:0:0:
192,192,4840,1,0,0:0:0:0:
64,192,5041,1,0,0:0:0:0:
320,192,5041,128,0,6652:0:0:0:0:
192,192,5243,1,0,0:0:0:0:
448,192,5444,1,0,0:0:0:0:
192,192,5645,1,0,0:0:0:0:
64,192,5847,1,0,0:0:0:0:
448,192,5847,1,0,0:0:0:0:
192,192,6048,1,0,0:0:0:0:
448,192,6249,1,0,0:0:0:0:
64,192,6451,1,0,0:0:0:0:
448,192,6652,1,0,0:0:0:0:
192,192,6652,128,0,8263:0:0:0:0:
64,192,6853,1,0,0:0:0:0:
320,192,7055,1,0,0:0:0:0:
64,192,7256,1,0,0:0:0:0:
448,192,7457,1,0,0:0:0:0:
320,192,7457,1,0,0:0:0:0:
64,192,7659,1,0,0:0:0:0:
448,192,7860,1,0,0:0:0:0:
320,192,8061,1,0,0:0:0:0:
448,192,8263,1,0,0:0:0:0:
64,192,8263,128,0,9068:0:0:0:0:
320,192,8464,1,0,0:0:0:0:
448,192,8665,1,0,0:0:0:0:
192,192,8867,1,0,0:0:0:0:
448,192,9068,1,0,0:0:0:0:
320,192,9068,128,0,9873:0:0:0:0:
192,192,9269,1,0,0:0:0:0:
64,192,9471,1,0,0:0:0:0:
192,192,9672,1,0,0:0:0:0:
448,192,9873,1,0,0:0:0:0:
64,192,9873,1,0,0:0:0:0:
192,192,10075,1,0,0:0:0:0:
320,192,10175,1,0,0:0:0:0:
448,192,10276,1,0,0:0:0:0:
64,192,10276,1,0,0:0:0:0:
320,192,10477,1,0,0:0:0:0:
192,192,10578,1,0,0:0:0:0:
64,192,10578,1,0,0:0:0:0:
448,192,10679,1,0,0:0:0:0:
320,192,10880,1,0,0:0:0:0:
64,192,11082,1,0,0:0:0:0:
192,192,11082,1,0,0:0:0:0:
320,192,11283,1,0,0:0:0:0:
64,192,11484,1,0,0:0:0:0:
448,192,11484,1,0,0:0:0:0:
320,192,11686,1,0,0:0:0:0:
192,192,11786,1,0,0:0:0:0:
64,192,11887,1,0,0:0:0:0:
448,192,11887,1,0,0:0:0:0:
192,192,12088,1,0,0:0:0:0:
320,192,12189,1,0,0:0:0:0:
448,192,12189,1,0,0:0:0:0:
64,192,12290,1,0,0:0:0:0:
192,192,12491,1,0,0:0:0:0:
448,192,12692,1,0,0:0:0:0:
320,192,12692,1,0,0:0:0:0:
192,192,12894,1,0,0:0:0:0:
64,192,13095,1,0,0:0:0:0:
448,192,13095,1,0,0:0:0:0:
192,192,13296,1,0,0:0:0:0:
320,192,13397,1,0,0:0:0:0:
64,192,13498,1,0,0:0:0:0:
448,192,13498,1,0,0:0:0:0:
320,192,13699,1,0,0:0:0:0:
64,192,13800,1,0,0:0:0:0:
192,192,13800,1,0,0:0:0:0:
448,192,13900,1,0,0:0:0:0:
320,192,14102,1,0,0:0:0:0:
192,192,14303,1,0,0:0:0:0:
64,192,14303,1,0,0:0:0:0:
448,192,14504,1,0,0:0:0:0:
192,192,14706,1,0,0:0:0:0:
64,192,14706,1,0,0:0:0:0:
448,192,14806,1,0,0:0:0:0:
320,192,14806,1,0,0:0:0:0:
192,192,14907,1,0,0:0:0:0:
64,192,15008,1,0,0:0:0:0:
448,192,15108,1,0,0:0:0:0:
320,192,15209,1,0,0:0:0:0:
64,192,15310,1,0,0:0:0:0:
192,192,15410,1,0,0:0:0:0:
448,192,15511,1,0,0:0:0:0:
320,192,15511,1,0,0:0:0:0:
64,192,15612,1,0,0:0:0:0:
192,192,15712,1,0,0:0:0:0:
320,192,15712,1,0,0:0:0:0:
448,192,15813,1,0,0:0:0:0:
192,192,15914,1,0,0:0:0:0:
64,192,15914,128,0,16316:0:0:0:0:
192,192,16316,128,0,16518:0:0:0:0:
448,192,16316,1,0,0:0:0:0:
320,192,16316,1,0,0:0:0:0:
320,192,16518,1,0,0:0:0:0:
192,192,16719,128,0,16920:0:0:0:0:
448,192,16719,1,0,0:0:0:0:
64,192,16719,1,0,0:0:0:0:
320,192,16920,128,0,17122:0:0:0:0:
64,192,17122,1,0,0:0:0:0:
448,192,17122,1,0,0:0:0:0:
320,192,17323,128,0,17524:0:0:0:0:
192,192,17524,1,0,0:0:0:0:
64,192,17524,1,0,0:0:0:0:
448,192,17524,1,0,0:0:0:0:
320,192,17726,128,0,17927:0:0:0:0:
64,192,17927,128,0,18128:0:0:0:0:
192,192,17927,1,0,0:0:0:0:
320,192,18128,1,0,0:0:0:0:
448,192,18330,128,0,18531:0:0:0:0:
64,192,18330,1,0,0:0:0:0:
192,192,18330,1,0,0:0:0:0:
192,192,18531,128,0,18733:0:0:0:0:
320,192,18733,1,0,0:0:0:0:
448,192,18733,1,0,0:0:0:0:
192,192,18934,128,0,19135:0:0:0:0:
64,192,19135,1,0,0:0:0:0:
448,192,19135,1,0,0:0:0:0:
320,192,19135,1,0,0:0:0:0:
192,192,19337,128,0,19538:0:0:0:0:
64,192,19538,128,0,19739:0:0:0:0:
320,192,19538,1,0,0:0:0:0:
448,192,19739,1,0,0:0:0:0:
448,192,19941,128,0,20142:0:0:0:0:
192,192,19941,1,0,0:0:0:0:
64,192,19941,1,0,0:0:0:0:
320,192,20142,128,0,20343:0:0:0:0:
192,192,20343,1,0,0:0:0:0:
64,192,20343,1,0,0:0:0:0:
320,192,20545,128,0,20746:0:0:0:0:
448,192,20746,1,0,0:0:0:0:
192,192,20746,1,0,0:0:0:0:
64,192,20746,1,0,0:0:0:0:
320,192,20947,128,0,21149:0:0:0:0:
192,192,21149,128,0,21350:0:0:0:0:
448,192,21149,1,0,0:0:0:0:
64,192,21350,1,0,0:0:0:0:
448,192,21551,128,0,21753:0:0:0:0:
320,192,21551,1,0,0:0:0:0:
192,192,21551,1,0,0:0:0:0:
64,192,21753,128,0,21954:0:0:0:0:
192,192,21954,1,0,0:0:0:0:
320,192,21954,1,0,0:0:0:0:
64,192,22155,128,0,22357:0:0:0:0:
320,192,22357,1,0,0:0:0:0:
448,192,22357,1,0,0:0:0:0:
192,192,22357,1,0,0:0:0:0:
64,192,22558,128,0,22759:0:0:0:0:
192,192,22759,128,0,22961:0:0:0:0:
320,192,22759,1,0,0:0:0:0:
448,192,22759,1,0,0:0:0:0:
320,192,23162,128,0,23363:0:0:0:0:
64,192,23162,1,0,0:0:0:0:
192,192,23162,1,0,0:0:0:0:
448,192,23363,128,0,23565:0:0:0:0:
192,192,23565,1,0,0:0:0:0:
64,192,23565,1,0,0:0:0:0:
448,192,23766,128,0,23967:0:0:0:0:
320,192,23967,1,0,0:0:0:0:
192,192,23967,1,0,0:0:0:0:
64,192,23967,1,0,0:0:0:0:
448,192,24169,128,0,24370:0:0:0:0:
192,192,24370,128,0,24571:0:0:0:0:
320,192,24370,1,0,0:0:0:0:
64,192,24571,1,0,0:0:0:0:
320,192,24773,128,0,24974:0:0:0:0:
448,192,24773,1,0,0:0:0:0:
192,192,24773,1,0,0:0:0:0:
64,192,24974,128,0,25175:0:0:0:0:
192,192,25175,1,0,0:0:0:0:
448,192,25175,1,0,0:0:0:0:
64,192,25377,128,0,25578:0:0:0:0:
320,192,25578,1,0,0:0:0:0:
192,192,25578,1,0,0:0:0:0:
64,192,25779,128,0,25981:0:0:0:0:
448,192,25981,128,0,26182:0:0:0:0:
192,192,25981,1,0,0:0:0:0:
320,192,26182,1,0,0:0:0:0:
192,192,26384,128,0,26585:0:0:0:0:
64,192,26384,1,0,0:0:0:0:
448,192,26384,1,0,0:0:0:0:
320,192,26585,128,0,26786:0:0:0:0:
64,192,26786,1,0,0:0:0:0:
448,192,26786,1,0,0:0:0:0:
320,192,26988,128,0,27189:0:0:0:0:
192,192,27189,1,0,0:0:0:0:
64,192,27189,1,0,0:0:0:0:
448,192,27189,1,0,0:0:0:0:
320,192,27390,128,0,27592:0:0:0:0:
64,192,27592,128,0,27793:0:0:0:0:
192,192,27592,1,0,0:0:0:0:
448,192,27592,1,0,0:0:0:0:
320,192,27793,1,0,0:0:0:0:
448,192,27994,128,0,28196:0:0:0:0:
192,192,27994,1,0,0:0:0:0:
64,192,27994,1,0,0:0:0:0:
192,192,28196,128,0,28397:0:0:0:0:
64,192,28397,1,0,0:0:0:0:
448,192,28397,1,0,0:0:0:0:
320,192,28498,1,0,0:0:0:0:
192,192,28598,1,0,0:0:0:0:
64,192,28699,1,0,0:0:0:0:
320,192,28800,1,0,0:0:0:0:
448,192,28800,1,0,0:0:0:0:
192,192,29001,1,0,0:0:0:0:
64,192,29202,1,0,0:0:0:0:
448,192,29202,1,0,0:0:0:0:
320,192,29605,1,0,0:0:0:0:
320,192,30008,1,0,0:0:0:0:
320,192,30410,1,0,0:0:0:0:
320,192,30813,1,0,0:0:0:0:
320,192,31216,1,0,0:0:0:0:
320,192,31618,1,0,0:0:0:0:
320,192,32021,1,0,0:0:0:0:
192,192,32424,1,0,0:0:0:0:
192,192,32826,1,0,0:0:0:0:
192,192,33229,1,0,0:0:0:0:
192,192,33632,1,0,0:0:0:0:
192,192,34035,1,0,0:0:0:0:
192,192,34437,1,0,0:0:0:0:
192,192,34840,1,0,0:0:0:0:
192,192,35243,1,0,0:0:0:0:
448,192,35645,1,0,0:0:0:0:
64,192,35645,1,0,0:0:0:0:
448,192,36048,1,0,0:0:0:0:
448,192,36451,1,0,0:0:0:0:
448,192,36853,1,0,0:0:0:0:
448,192,37256,1,0,0:0:0:0:
448,192,37659,1,0,0:0:0:0:
448,192,38061,1,0,0:0:0:0:
448,192,38464,1,0,0:0:0:0:
64,192,38867,1,0,0:0:0:0:
64,192,39269,1,0,0:0:0:0:
64,192,39672,1,0,0:0:0:0:
64,192,40075,1,0,0:0:0:0:
64,192,40477,1,0,0:0:0:0:
192,192,40679,1,0,0:0:0:0:
448,192,40679,1,0,0:0:0:0:
320,192,40880,1,0,0:0:0:0:
64,192,40880,1,0,0:0:0:0:
64,192,41082,1,0,0:0:0:0:
192,192,41082,1,0,0:0:0:0:
320,192,41283,1,0,0:0:0:0:
448,192,41283,1,0,0:0:0:0:
192,192,41484,1,0,0:0:0:0:
320,192,41484,1,0,0:0:0:0:
448,192,41686,1,0,0:0:0:0:
64,192,41686,1,0,0:0:0:0:
192,192,41887,1,0,0:0:0:0:
320,192,41887,1,0,0:0:0:0:
64,192,42088,1,0,0:0:0:0:
192,192,42088,1,0,0:0:0:0:
448,192,42088,1,0,0:0:0:0:
320,192,42290,1,0,0:0:0:0:
192,192,42390,1,0,0:0:0:0:
64,192,42491,1,0,0:0:0:0:
448,192,42491,1,0,0:0:0:0:
320,192,42692,1,0,0:0:0:0:
448,192,42894,1,0,0:0:0:0:
64,192,42894,1,0,0:0:0:0:
192,192,43095,1,0,0:0:0:0:
320,192,43296,1,0,0:0:0:0:
448,192,43296,1,0,0:0:0:0:
64,192,43498,1,0,0:0:0:0:
192,192,43699,1,0,0:0:0:0:
448,192,43699,1,0,0:0:0:0:
320,192,43900,1,0,0:0:0:0:
448,192,44001,1,0,0:0:0:0:
192,192,44102,1,0,0:0:0:0:
64,192,44102,1,0,0:0:0:0:
448,192,44303,1,0,0:0:0:0:
320,192,44504,1,0,0:0:0:0:
64,192,44504,1,0,0:0:0:0:
192,192,44706,1,0,0:0:0:0:
448,192,44907,1,0,0:0:0:0:
64,192,44907,1,0,0:0:0:0:
320,192,45108,128,0,45310:0:0:0:0:
192,192,45310,1,0,0:0:0:0:
448,192,45310,1,0,0:0:0:0:
64,192,45511,1,0,0:0:0:0:
320,192,45712,1,0,0:0:0:0:
64,192,45712,1,0,0:0:0:0:
192,192,45712,1,0,0:0:0:0:
448,192,45914,1,0,0:0:0:0:
448,192,46115,1,0,0:0:0:0:
192,192,46115,1,0,0:0:0:0:
320,192,46316,1,0,0:0:0:0:
320,192,46518,1,0,0:0:0:0:
64,192,46518,1,0,0:0:0:0:
448,192,46518,1,0,0:0:0:0:
192,192,46719,1,0,0:0:0:0:
192,192,46920,1,0,0:0:0:0:
448,192,46920,1,0,0:0:0:0:
64,192,47122,1,0,0:0:0:0:
192,192,47323,1,0,0:0:0:0:
64,192,47323,1,0,0:0:0:0:
448,192,47323,1,0,0:0:0:0:
320,192,47625,1,0,0:0:0:0:
192,192,47726,1,0,0:0:0:0:
64,192,47726,1,0,0:0:0:0:
448,192,47826,1,0,0:0:0:0:
320,192,47826,1,0,0:0:0:0:
64,192,47927,1,0,0:0:0:0:
192,192,47927,1,0,0:0:0:0:
320,192,48028,1,0,0:0:0:0:
448,192,48128,1,0,0:0:0:0:
64,192,48128,1,0,0:0:0:0:
192,192,48229,1,0,0:0:0:0:
320,192,48330,1,0,0:0:0:0:
192,192,48430,1,0,0:0:0:0:
64,192,48531,1,0,0:0:0:0:
320,192,48531,1,0,0:0:0:0:
448,192,48531,1,0,0:0:0:0:
192,192,48733,1,0,0:0:0:0:
320,192,48833,1,0,0:0:0:0:
448,192,48934,1,0,0:0:0:0:
64,192,48934,1,0,0:0:0:0:
192,192,49135,1,0,0:0:0:0:
64,192,49337,1,0,0:0:0:0:
448,192,49337,1,0,0:0:0:0:
320,192,49538,1,0,0:0:0:0:
192,192,49739,1,0,0:0:0:0:
64,192,49739,1,0,0:0:0:0:
448,192,49941,1,0,0:0:0:0:
320,192,50142,1,0,0:0:0:0:
64,192,50142,1,0,0:0:0:0:
192,192,50343,1,0,0:0:0:0:
320,192,50545,1,0,0:0:0:0:
448,192,50545,1,0,0:0:0:0:
64,192,50746,1,0,0:0:0:0:
192,192,50947,1,0,0:0:0:0:
448,192,50947,1,0,0:0:0:0:
320,192,51149,1,0,0:0:0:0:
64,192,51350,1,0,0:0:0:0:
448,192,51350,1,0,0:0:0:0:
192,192,51551,128,0,51753:0:0:0:0:
320,192,51753,1,0,0:0:0:0:
64,192,51753,1,0,0:0:0:0:
448,192,51954,1,0,0:0:0:0:
320,192,51954,1,0,0:0:0:0:
192,192,52155,1,0,0:0:0:0:
320,192,52155,1,0,0:0:0:0:
64,192,52357,1,0,0:0:0:0:
192,192,52357,1,0,0:0:0:0:
64,192,52558,1,0,0:0:0:0:
448,192,52558,1,0,0:0:0:0:
192,192,52759,1,0,0:0:0:0:
320,192,52759,1,0,0:0:0:0:
448,192,52961,1,0,0:0:0:0:
64,192,52961,1,0,0:0:0:0:
64,192,53162,1,0,0:0:0:0:
192,192,53162,1,0,0:0:0:0:
320,192,53363,1,0,0:0:0:0:
192,192,53363,1,0,0:0:0:0:
320,192,53565,1,0,0:0:0:0:
448,192,53565,1,0,0:0:0:0:
64,192,53766,1,0,0:0:0:0:
448,192,53766,1,0,0:0:0:0:
320,192,53967,1,0,0:0:0:0:
192,192,53967,1,0,0:0:0:0:
64,192,54068,1,0,0:0:0:0:
320,192,54169,1,0,0:0:0:0:
448,192,54169,1,0,0:0:0:0:
64,192,54269,1,0,0:0:0:0:
192,192,54269,1,0,0:0:0:0:
448,192,54370,1,0,0:0:0:0:
64,192,54471,1,0,0:0:0:0:
192,192,54471,1,0,0:0:0:0:
448,192,54571,1,0,0:0:0:0:
320,192,54571,1,0,0:0:0:0:
64,192,54672,1,0,0:0:0:0:
192,192,54773,128,0,55377:0:0:0:0:
64,192,56585,5,0,0:0:0:0:
448,192,56585,1,0,0:0:0:0:
320,192,56585,1,0,0:0:0:0:
192,192,56786,1,0,0:0:0:0:
448,192,56988,1,0,0:0:0:0:
64,192,56988,1,0,0:0:0:0:
320,192,57189,1,0,0:0:0:0:
192,192,57290,1,0,0:0:0:0:
64,192,57390,1,0,0:0:0:0:
448,192,57390,1,0,0:0:0:0:
320,192,57592,1,0,0:0:0:0:
192,192,57793,1,0,0:0:0:0:
64,192,57793,1,0,0:0:0:0:
448,192,57994,1,0,0:0:0:0:
320,192,58196,1,0,0:0:0:0:
192,192,58196,1,0,0:0:0:0:
64,192,58397,1,0,0:0:0:0:
448,192,58598,1,0,0:0:0:0:
192,192,58598,1,0,0:0:0:0:
64,192,58800,1,0,0:0:0:0:
192,192,58900,1,0,0:0:0:0:
320,192,59001,1,0,0:0:0:0:
448,192,59001,1,0,0:0:0:0:
192,192,59202,1,0,0:0:0:0:
64,192,59404,1,0,0:0:0:0:
448,192,59404,1,0,0:0:0:0:
320,192,59605,1,0,0:0:0:0:
448,192,59806,1,0,0:0:0:0:
64,192,59806,1,0,0:0:0:0:
192,192,60008,1,0,0:0:0:0:
320,192,60209,1,0,0:0:0:0:
448,192,60209,1,0,0:0:0:0:
64,192,60410,1,0,0:0:0:0:
192,192,60612,1,0,0:0:0:0:
320,192,60612,1,0,0:0:0:0:
448,192,60813,1,0,0:0:0:0:
64,192,61014,1,0,0:0:0:0:
320,192,61014,1,0,0:0:0:0:
448,192,61216,1,0,0:0:0:0:
192,192,61417,1,0,0:0:0:0:
64,192,61417,1,0,0:0:0:0:
320,192,61618,1,0,0:0:0:0:
448,192,61820,1,0,0:0:0:0:
192,192,61820,1,0,0:0:0:0:
64,192,62021,1,0,0:0:0:0:
320,192,62222,1,0,0:0:0:0:
448,192,62222,1,0,0:0:0:0:
192,192,62424,1,0,0:0:0:0:
64,192,62625,1,0,0:0:0:0:
448,192,62625,1,0,0:0:0:0:
320,192,62826,1,0,0:0:0:0:
192,192,63028,1,0,0:0:0:0:
448,192,63028,1,0,0:0:0:0:
64,192,63229,1,0,0:0:0:0:
192,192,63430,1,0,0:0:0:0:
320,192,63430,1,0,0:0:0:0:
448,192,63632,1,0,0:0:0:0:
64,192,63833,1,0,0:0:0:0:
320,192,63833,1,0,0:0:0:0:
192,192,64035,1,0,0:0:0:0:
320,192,64236,1,0,0:0:0:0:
448,192,64236,1,0,0:0:0:0:
64,192,64437,1,0,0:0:0:0:
192,192,64639,1,0,0:0:0:0:
448,192,64639,1,0,0:0:0:0:
320,192,64840,1,0,0:0:0:0:
64,192,65041,1,0,0:0:0:0:
448,192,65041,1,0,0:0:0:0:
192,192,65243,1,0,0:0:0:0:
320,192,65444,1,0,0:0:0:0:
64,192,65444,1,0,0:0:0:0:
448,192,65645,1,0,0:0:0:0:
192,192,65847,1,0,0:0:0:0:
320,192,65847,1,0,0:0:0:0:
64,192,66048,1,0,0:0:0:0:
448,192,66249,128,0,67055:0:0:0:0:
192,192,66249,1,0,0:0:0:0:
64,192,66652,1,0,0:0:0:0:
320,192,66652,1,0,0:0:0:0:
320,192,67055,128,0,67860:0:0:0:0:
192,192,67055,1,0,0:0:0:0:
64,192,67457,1,0,0:0:0:0:
448,192,67457,1,0,0:0:0:0:
192,192,67860,1,0,0:0:0:0:
64,192,68061,1,0,0:0:0:0:
448,192,68061,1,0,0:0:0:0:
448,192,68263,1,0,0:0:0:0:
64,192,68263,1,0,0:0:0:0:
320,192,68263,1,0,0:0:0:0:
448,192,68665,1,0,0:0:0:0:
320,192,68665,1,0,0:0:0:0:
192,192,68766,1,0,0:0:0:0:
64,192,68766,1,0,0:0:0:0:
320,192,68867,1,0,0:0:0:0:
448,192,68867,1,0,0:0:0:0:
192,192,68967,1,0,0:0:0:0:
64,192,68967,1,0,0:0:0:0:
320,192,69068,1,0,0:0:0:0:
448,192,69068,1,0,0:0:0:0:
192,192,69269,1,0,0:0:0:0:
64,192,69269,1,0,0:0:0:0:
320,192,69370,1,0,0:0:0:0:
448,192,69370,1,0,0:0:0:0:
192,192,69471,1,0,0:0:0:0:
64,192,69471,1,0,0:0:0:0:
448,192,80746,5,0,0:0:0:0:
320,192,80746,1,0,0:0:0:0:
192,192,80746,1,0,0:0:0:0:
320,192,81149,1,0,0:0:0:0:
448,192,81149,1,0,0:0:0:0:
192,192,81149,1,0,0:0:0:0:
64,192,81551,1,0,0:0:0:0:
448,192,81551,1,0,0:0:0:0:
320,192,81652,1,0,0:0:0:0:
192,192,81753,1,0,0:0:0:0:
64,192,81853,1,0,0:0:0:0:
448,192,81954,1,0,0:0:0:0:
320,192,81954,1,0,0:0:0:0:
192,192,82155,1,0,0:0:0:0:
320,192,82256,1,0,0:0:0:0:
448,192,82357,1,0,0:0:0:0:
64,192,82357,128,0,85578:0:0:0:0:
448,192,85578,1,0,0:0:0:0:
320,192,85578,1,0,0:0:0:0:
64,192,85981,1,0,0:0:0:0:
448,192,85981,1,0,0:0:0:0:
192,192,89202,5,0,0:0:0:0:
192,192,89605,1,0,0:0:0:0:
192,192,90008,1,0,0:0:0:0:
192,192,90410,1,0,0:0:0:0:
192,192,90813,1,0,0:0:0:0:
192,192,91216,1,0,0:0:0:0:
448,192,91417,1,0,0:0:0:0:
64,192,91417,128,0,91618:0:0:0:0:
192,192,91618,1,0,0:0:0:0:
448,192,91820,1,0,0:0:0:0:
320,192,92021,1,0,0:0:0:0:
320,192,92424,1,0,0:0:0:0:
320,192,92826,1,0,0:0:0:0:
320,192,93229,1,0,0:0:0:0:
320,192,93632,1,0,0:0:0:0:
320,192,94035,1,0,0:0:0:0:
320,192,94437,1,0,0:0:0:0:
64,192,94639,128,0,94840:0:0:0:0:
192,192,94639,1,0,0:0:0:0:
320,192,94840,1,0,0:0:0:0:
448,192,95041,128,0,95243:0:0:0:0:
64,192,95243,1,0,0:0:0:0:
64,192,95645,1,0,0:0:0:0:
64,192,96048,1,0,0:0:0:0:
64,192,96451,1,0,0:0:0:0:
64,192,96853,1,0,0:0:0:0:
64,192,97256,1,0,0:0:0:0:
64,192,97659,1,0,0:0:0:0:
64,192,98061,1,0,0:0:0:0:
448,192,98464,1,0,0:0:0:0:
448,192,98867,1,0,0:0:0:0:
448,192,99269,1,0,0:0:0:0:
448,192,99672,1,0,0:0:0:0:
192,192,99873,1,0,0:0:0:0:
320,192,99974,1,0,0:0:0:0:
448,192,100075,1,0,0:0:0:0:
64,192,100075,1,0,0:0:0:0:
192,192,100377,1,0,0:0:0:0:
320,192,100477,1,0,0:0:0:0:
64,192,100679,1,0,0:0:0:0:
448,192,100880,1,0,0:0:0:0:
320,192,100880,1,0,0:0:0:0:
192,192,100981,1,0,0:0:0:0:
64,192,101082,1,0,0:0:0:0:
448,192,101283,1,0,0:0:0:0:
320,192,101283,1,0,0:0:0:0:
192,192,101384,1,0,0:0:0:0:
64,192,101384,1,0,0:0:0:0:
448,192,101484,1,0,0:0:0:0:
320,192,101585,1,0,0:0:0:0:
64,192,101686,1,0,0:0:0:0:
192,192,101686,1,0,0:0:0:0:
448,192,101686,1,0,0:0:0:0:
64,192,101887,1,0,0:0:0:0:
192,192,102290,1,0,0:0:0:0:
64,192,102491,1,0,0:0:0:0:
448,192,102491,1,0,0:0:0:0:
320,192,102894,1,0,0:0:0:0:
448,192,103296,1,0,0:0:0:0:
448,192,103498,1,0,0:0:0:0:
320,192,103900,1,0,0:0:0:0:
448,192,104102,1,0,0:0:0:0:
64,192,104102,1,0,0:0:0:0:
192,192,104404,1,0,0:0:0:0:
320,192,104706,1,0,0:0:0:0:
448,192,104907,1,0,0:0:0:0:
448,192,105108,1,0,0:0:0:0:
448,192,116182,5,0,0:0:0:0:
64,192,116182,1,0,0:0:0:0:
192,192,116182,1,0,0:0:0:0:
448,192,122625,5,0,0:0:0:0:
320,192,122625,1,0,0:0:0:0:
64,192,122625,1,0,0:0:0:0:
192,192,127457,5,0,0:0:0:0:
320,192,127659,1,0,0:0:0:0:
448,192,127659,1,0,0:0:0:0:
448,192,127860,5,0,0:0:0:0:
64,192,127860,1,0,0:0:0:0:
192,192,127860,1,0,0:0:0:0:
192,192,128263,1,0,0:0:0:0:
64,192,128263,1,0,0:0:0:0:
320,192,128363,1,0,0:0:0:0:
448,192,128363,1,0,0:0:0:0:
192,192,128464,1,0,0:0:0:0:
64,192,128464,1,0,0:0:0:0:
320,192,128565,1,0,0:0:0:0:
448,192,128565,1,0,0:0:0:0:
192,192,128665,1,0,0:0:0:0:
64,192,128665,1,0,0:0:0:0:
320,192,128867,1,0,0:0:0:0:
448,192,128867,1,0,0:0:0:0:
192,192,128967,1,0,0:0:0:0:
64,192,128967,1,0,0:0:0:0:
448,192,129068,1,0,0:0:0:0:
320,192,129068,1,0,0:0:0:0:
448,192,141954,132,0,143565:0:0:0:0:
320,192,142759,128,0,143363:0:0:0:0:
192,192,143363,128,0,143565:0:0:0:0:
64,192,143565,128,0,145175:0:0:0:0:
320,192,143565,1,0,0:0:0:0:
192,192,144370,128,0,144773:0:0:0:0:
320,192,144773,128,0,145175:0:0:0:0:
448,192,145175,128,0,145981:0:0:0:0:
192,192,145175,1,0,0:0:0:0:
192,192,145981,128,0,146384:0:0:0:0:
320,192,146384,128,0,146786:0:0:0:0:
64,192,146786,128,0,147592:0:0:0:0:
448,192,146786,1,0,0:0:0:0:
320,192,147189,128,0,147592:0:0:0:0:
192,192,147592,128,0,148196:0:0:0:0:
448,192,147592,1,0,0:0:0:0:
320,192,148196,128,0,148397:0:0:0:0:
448,192,148397,128,0,149605:0:0:0:0:
64,192,148397,1,0,0:0:0:0:
320,192,149605,128,0,150008:0:0:0:0:
64,192,150008,128,0,151216:0:0:0:0:
448,192,150008,1,0,0:0:0:0:
192,192,150410,128,0,150813:0:0:0:0:
448,192,150813,128,0,151216:0:0:0:0:
320,192,151216,128,0,151417:0:0:0:0:
192,192,151417,128,0,151618:0:0:0:0:
64,192,151618,128,0,152424:0:0:0:0:
448,192,151618,1,0,0:0:0:0:
192,192,152424,128,0,153229:0:0:0:0:
320,192,152424,1,0,0:0:0:0:
448,192,153229,128,0,154035:0:0:0:0:
64,192,153229,1,0,0:0:0:0:
320,192,154035,128,0,154840:0:0:0:0:
192,192,154035,1,0,0:0:0:0:
64,192,154840,1,0,0:0:0:0:
448,192,154840,1,0,0:0:0:0:
192,192,155041,1,0,0:0:0:0:
320,192,155142,1,0,0:0:0:0:
448,192,155243,1,0,0:0:0:0:
64,192,155243,1,0,0:0:0:0:
192,192,155444,1,0,0:0:0:0:
320,192,155645,1,0,0:0:0:0:
448,192,155645,1,0,0:0:0:0:
192,192,155847,1,0,0:0:0:0:
320,192,156048,1,0,0:0:0:0:
448,192,156048,1,0,0:0:0:0:
192,192,156249,1,0,0:0:0:0:
320,192,156451,1,0,0:0:0:0:
448,192,156451,1,0,0:0:0:0:
448,192,161283,1,0,0:0:0:0:
320,192,161283,1,0,0:0:0:0:
64,192,161283,1,0,0:0:0:0:
320,192,166115,5,0,0:0:0:0:
448,192,166115,1,0,0:0:0:0:
192,192,166115,1,0,0:0:0:0:
320,192,166518,1,0,0:0:0:0:
448,192,166518,1,0,0:0:0:0:
192,192,166518,1,0,0:0:0:0:
448,192,166920,1,0,0:0:0:0:
64,192,166920,1,0,0:0:0:0:
320,192,167021,1,0,0:0:0:0:
192,192,167122,1,0,0:0:0:0:
64,192,167222,1,0,0:0:0:0:
320,192,167323,1,0,0:0:0:0:
448,192,167323,1,0,0:0:0:0:
192,192,167524,1,0,0:0:0:0:
320,192,167726,1,0,0:0:0:0:
448,192,167726,1,0,0:0:0:0:
64,192,167726,1,0,0:0:0:0:
192,192,168128,1,0,0:0:0:0:
192,192,168934,5,0,0:0:0:0:
448,192,169337,5,0,0:0:0:0:
320,192,169337,1,0,0:0:0:0:
64,192,169337,1,0,0:0:0:0:
192,192,169739,1,0,0:0:0:0:
192,192,170545,1,0,0:0:0:0:
64,192,170947,1,0,0:0:0:0:
192,192,170947,1,0,0:0:0:0:
448,192,170947,1,0,0:0:0:0:
192,192,171350,1,0,0:0:0:0:
192,192,172155,128,0,172558:0:0:0:0:
448,192,174169,1,0,0:0:0:0:
320,192,174169,1,0,0:0:0:0:
64,192,174169,1,0,0:0:0:0:
448,192,199941,132,0,200142:0:0:0:0:
448,192,200343,128,0,200545:0:0:0:0:
192,192,200545,128,0,200746:0:0:0:0:
192,192,200947,128,0,201149:0:0:0:0:
192,192,201350,128,0,201551:0:0:0:0:
64,192,201551,128,0,201753:0:0:0:0:
64,192,201954,128,0,202155:0:0:0:0:
320,192,202155,128,0,202357:0:0:0:0:
320,192,202558,128,0,202759:0:0:0:0:
320,192,202961,128,0,203162:0:0:0:0:
192,192,203162,128,0,203363:0:0:0:0:
64,192,203565,128,0,203766:0:0:0:0:
448,192,203766,128,0,203967:0:0:0:0:
448,192,204169,128,0,204370:0:0:0:0:
448,192,204571,128,0,204773:0:0:0:0:
320,192,204773,128,0,204974:0:0:0:0:
320,192,205175,128,0,205377:0:0:0:0:
192,192,205377,128,0,205578:0:0:0:0:
192,192,205779,128,0,205981:0:0:0:0:
192,192,206182,128,0,206384:0:0:0:0:
320,192,206384,128,0,206585:0:0:0:0:
448,192,206786,128,0,206988:0:0:0:0:
64,192,206988,128,0,207189:0:0:0:0:
64,192,207390,128,0,207592:0:0:0:0:
64,192,207793,128,0,207994:0:0:0:0:
320,192,207994,128,0,208196:0:0:0:0:
320,192,208397,128,0,208598:0:0:0:0:
192,192,208598,128,0,208800:0:0:0:0:
192,192,209001,128,0,209202:0:0:0:0:
192,192,209404,128,0,209605:0:0:0:0:
448,192,209605,128,0,209806:0:0:0:0:
320,192,210008,128,0,210209:0:0:0:0:
64,192,210209,128,0,210410:0:0:0:0:
64,192,210612,128,0,210813:0:0:0:0:
192,192,211014,128,0,211216:0:0:0:0:
192,192,211417,128,0,211618:0:0:0:0:
320,192,211820,128,0,212021:0:0:0:0:
320,192,212222,1,0,0:0:0:0:
320,192,212424,1,0,0:0:0:0:
