osu file format v14

[General]
AudioFilename: with you Remix.mp3
AudioLeadIn: 0
PreviewTime: 256528
Countdown: 0
SampleSet: Soft
StackLeniency: 0.6
Mode: 0
LetterboxInBreaks: 0
EpilepsyWarning: 1
WidescreenStoryboard: 1

[Editor]
Bookmarks: 54659,74870,97607,156975,180975,266870,287080
DistanceSpacing: 1.4
BeatDivisor: 4
GridSize: 4
TimelineZoom: 2.000001

[Metadata]
Title:with you [Tales of Remix]
TitleUnicode:with you「テイルズ オブ」Remix
Artist:BACK-ON
ArtistUnicode:BACK-ON
Creator:Gear
Version:Radiance
Source:Tales of the World: Radiant Mythology 3
Tags:テイルズ オブ ザ ワールド レディアント マイソロジー3 opening
BeatmapID:635799
BeatmapSetID:281035

[Difficulty]
HPDrainRate:5.5
CircleSize:4
OverallDifficulty:8.5
ApproachRate:9.3
SliderMultiplier:1.4
SliderTickRate:2

[Events]
//Background and Video events
0,0,"talesbg.png",0,0
//Break Periods
2,107911,109684
2,191280,193053
//Storyboard Layer 0 (Background)
//Storyboard Layer 1 (Fail)
//Storyboard Layer 2 (Pass)
//Storyboard Layer 3 (Foreground)
//Storyboard Sound Samples

[TimingPoints]
344,315.789473684211,4,2,1,70,1,0
87501,-83.3333333333333,4,2,1,90,0,1
106449,-100,4,2,1,80,0,0
107396,-200,4,2,1,60,0,0
108975,-100,4,2,1,70,0,0
112133,-100,4,2,1,35,0,0
112765,-100,4,2,1,70,0,0
170870,-83.3333333333333,4,2,1,90,0,1
189817,-83.3333333333333,4,2,1,80,0,1
190765,-200,4,2,1,60,0,0
192344,-100,4,2,1,70,0,0
221396,-100,4,2,1,60,0,0
223922,-100,4,2,1,50,0,0
226449,-100,4,2,1,40,0,0
231422,-100,4,2,1,30,0,0
236554,-133.333333333333,4,2,2,30,0,0
246659,-100,4,2,1,70,0,0
255501,-133.333333333333,4,2,1,70,0,0
256765,-71.4285714285714,4,2,1,100,0,1
257080,-83.3333333333333,4,2,1,100,0,1
275712,-83.3333333333333,4,2,1,100,0,0
276975,-83.3333333333333,4,2,1,100,0,1
295922,-83.3333333333333,4,2,1,100,0,0
297186,-100,4,2,1,60,0,0

[Colours]
Combo1 : 148,148,148
Combo2 : 31,255,26
Combo3 : 44,222,237
Combo4 : 252,18,18
Combo5 : 250,255,47
Combo6 : 255,36,239
Combo7 : 202,202,202

[HitObjects]
256,192,659,12,0,2712,0:2:0:0:
168,168,2870,6,0,L|162:237,2,70,0|0|0,0:2|0:2|0:2,0:2:0:0:
176,68,3344,1,0,0:2:0:0:
263,219,3501,6,0,L|269:289,2,70,0|0|0,0:2|0:2|0:2,0:2:0:0:
256,124,3974,1,0,0:2:0:0:
160,304,4133,6,0,P|94:283|47:231,1,140,2|8,1:2|0:2,0:2:0:0:
260,248,4607,2,0,P|274:315|253:381,1,140,2|0,0:2|1:2,0:2:0:0:
180,192,5080,1,8,0:2:0:0:
268,152,5238,1,0,0:2:0:0:
164,288,5396,6,0,P|131:275|104:253,1,70,2|0,0:2|0:2,0:2:0:0:
88,156,5712,1,8,0:2:0:0:
12,220,5870,1,0,0:2:0:0:
180,192,6028,6,0,P|212:179|239:157,1,70,2|0,0:2|1:2,0:2:0:0:
256,59,6344,1,8,0:2:0:0:
332,123,6502,1,0,0:2:0:0:
192,276,6659,6,0,P|125:263|90:205,1,140,2|8,0:2|0:2,0:2:0:0:
247,219,7133,2,0,P|270:284|237:343,1,140,2|0,0:2|1:2,0:2:0:0:
172,200,7607,1,8,0:2:0:0:
172,200,7765,1,0,0:2:0:0:
323,199,7922,6,0,P|310:265|252:300,1,140,2|8,0:2|0:2,0:2:0:0:
267,143,8396,2,0,P|331:120|390:153,1,140,2|0,0:2|1:2,0:2:0:0:
247,219,8870,1,8,0:2:0:0:
247,219,9028,1,0,0:2:0:0:
156,180,9186,6,0,L|144:40,1,140,2|8,0:2|0:2,0:2:0:0:
52,236,9659,2,0,P|107:277|174:295,1,140,2|0,0:2|0:2,0:2:0:0:
72,140,10133,1,8,0:2:0:0:
52,236,10291,1,0,0:2:0:0:
143,200,10449,6,0,P|161:170|169:136,1,70,2|0,0:2|0:2,0:2:0:0:
72,140,10765,1,8,0:2:0:0:
72,140,10922,1,0,0:2:0:0:
140,284,11080,6,0,P|174:276|204:257,1,70,2|0,0:2|0:2,0:2:0:0:
256,172,11396,1,8,0:2:0:0:
256,172,11553,1,0,0:2:0:0:
331,331,11712,6,0,P|372:282|327:235,1,140,2|8,0:2|0:2,0:2:0:0:
184,235,12186,2,0,P|139:282|180:331,1,140,2|0,0:2|0:2,0:2:0:0:
256,172,12659,1,8,0:2:0:0:
256,172,12817,1,0,0:2:0:0:
304,256,12975,5,2,0:2:0:0:
304,256,13054,1,0,0:2:0:0:
304,256,13133,2,0,L|339:256,1,35,0|0,0:2|0:2,0:2:0:0:
208,256,13291,1,2,0:2:0:0:
208,256,13370,1,0,0:2:0:0:
208,256,13449,2,0,L|173:256,1,35,0|0,0:2|0:2,0:2:0:0:
256,172,13607,5,2,0:2:0:0:
256,172,13686,1,0,0:2:0:0:
256,171,13765,2,0,P|264:156|278:146,1,35,0|0,0:2|0:2,0:2:0:0:
256,340,13923,1,2,0:2:0:0:
256,340,14002,1,0,0:2:0:0:
256,340,14081,2,0,P|247:355|233:365,1,35,0|0,0:2|0:2,0:2:0:0:
148,364,14238,6,0,P|94:320|78:253,1,140,6|8,0:2|0:2,0:2:0:0:
100,156,14712,1,0,0:2:0:0:
208,256,14870,2,0,L|277:265,1,70,0|0,0:2|0:2,0:2:0:0:
325,181,15186,2,0,L|255:171,1,70,8|0,0:2|0:2,0:2:0:0:
356,276,15501,6,0,P|411:236|425:169,1,140,2|8,0:2|0:2,0:2:0:0:
396,76,15975,1,0,0:2:0:0:
287,175,16133,2,0,P|312:199|345:191,1,70,0|0,0:2|0:2,0:2:0:0:
392,104,16449,1,8,0:2:0:0:
392,104,16607,1,0,0:2:0:0:
403,248,16765,6,0,P|340:275|271:268,1,140,2|8,0:2|0:2,0:2:0:0:
180,232,17238,1,0,0:2:0:0:
224,92,17396,2,0,L|230:22,1,70,0|0,0:2|0:2,0:2:0:0:
312,76,17712,2,0,L|305:145,1,70,8|0,0:2|0:2,0:2:0:0:
292,288,18028,6,0,P|330:343|398:346,1,140,2|8,0:2|0:2,0:2:0:0:
472,284,18501,1,0,0:2:0:0:
348,204,18659,2,0,L|279:189,1,70,0|0,0:2|0:2,0:2:0:0:
184,216,18975,1,8,0:2:0:0:
184,216,19133,1,0,0:2:0:0:
336,87,19291,6,0,P|404:99|455:146,1,140,2|8,0:2|0:2,0:2:0:0:
472,244,19765,1,2,0:2:0:0:
360,344,19922,2,0,L|295:316,1,70,0|0,0:2|0:2,0:2:0:0:
360,244,20238,2,0,L|295:216,1,70,8|0,0:2|0:2,0:2:0:0:
151,159,20554,6,0,P|90:187|73:253,1,140,2|8,0:2|0:2,0:2:0:0:
92,348,21028,1,2,0:2:0:0:
164,284,21186,1,0,0:2:0:0:
164,284,21344,1,0,0:2:0:0:
220,364,21501,1,8,0:2:0:0:
220,364,21659,1,0,0:2:0:0:
264,276,21817,6,0,L|280:207,1,70,2|0,0:2|0:2,0:2:0:0:
388,99,22133,2,0,L|372:168,1,70,8|0,0:2|0:2,0:2:0:0:
216,110,22449,2,0,L|284:126,1,70,2|0,0:2|0:2,0:2:0:0:
436,265,22765,2,0,L|368:249,1,70,8|0,0:2|0:2,0:2:0:0:
256,272,23080,5,2,0:2:0:0:
223,284,23158,1,0,0:2:0:0:
209,315,23237,1,0,0:2:0:0:
223,346,23316,1,0,0:2:0:0:
255,358,23395,1,8,0:2:0:0:
287,346,23474,1,0,0:2:0:0:
302,315,23553,1,0,0:2:0:0:
288,284,23632,1,0,0:2:0:0:
255,271,23712,5,2,0:2:0:0:
221,248,23790,1,0,0:2:0:0:
197,214,23869,1,0,0:2:0:0:
184,174,23948,1,0,0:2:0:0:
185,132,24027,1,8,0:2:0:0:
199,93,24106,1,0,0:2:0:0:
225,60,24185,1,0,0:2:0:0:
260,38,24264,1,0,0:2:0:0:
300,27,24344,6,0,P|369:29|425:70,1,140,6|8,0:2|0:2,0:2:0:0:
464,160,24817,1,0,0:2:0:0:
300,148,24975,2,0,L|230:144,1,70,2|0,0:2|0:2,0:2:0:0:
296,248,25291,1,8,0:2:0:0:
388,208,25449,1,0,0:2:0:0:
295,247,25607,6,0,P|313:278|341:298,1,70,2|0,0:2|0:2,0:2:0:0:
376,312,25844,1,0,0:2:0:0:
410,314,25922,1,8,0:2:0:0:
384,108,26080,1,0,0:2:0:0:
384,108,26159,1,0,0:2:0:0:
384,108,26238,2,0,L|387:177,1,70,2|0,0:2|0:2,0:2:0:0:
468,236,26554,1,8,0:2:0:0:
284,152,26712,1,0,0:2:0:0:
250,158,26790,1,0,0:2:0:0:
223,181,26870,6,0,P|199:245|222:310,1,140,2|8,0:2|0:2,0:2:0:0:
316,344,27344,1,0,0:2:0:0:
339,180,27501,2,0,P|374:177|408:185,1,70,2|0,0:2|0:2,0:2:0:0:
440,204,27738,1,0,0:2:0:0:
466,226,27816,1,8,0:2:0:0:
428,320,27975,1,0,0:2:0:0:
480,124,28133,5,2,0:2:0:0:
284,72,28291,1,0,0:2:0:0:
284,72,28370,1,0,0:2:0:0:
284,72,28449,1,8,0:2:0:0:
232,268,28607,1,0,0:2:0:0:
232,268,28686,1,0,0:2:0:0:
232,268,28765,1,2,0:2:0:0:
352,200,28922,1,0,0:2:0:0:
240,164,29080,2,0,L|172:145,1,70,8|0,0:2|0:2,0:2:0:0:
184,228,29317,1,0,0:2:0:0:
184,228,29396,6,0,L|318:266,1,140,2|8,0:2|0:2,0:2:0:0:
412,292,29870,1,0,0:2:0:0:
360,136,30028,2,0,P|368:102|392:77,1,70,2|0,0:2|0:2,0:2:0:0:
424,60,30265,1,0,0:2:0:0:
458,55,30343,1,8,0:2:0:0:
452,152,30501,1,0,0:2:0:0:
252,143,30659,6,0,P|222:161|201:189,1,70,2|0,0:2|0:2,0:2:0:0:
192,224,30896,1,0,0:2:0:0:
193,258,30974,1,8,0:2:0:0:
384,208,31133,1,0,0:2:0:0:
384,208,31212,1,0,0:2:0:0:
384,208,31291,2,0,L|404:140,1,70,2|0,0:2|0:2,0:2:0:0:
364,52,31607,1,8,0:2:0:0:
303,239,31765,1,0,0:2:0:0:
323,268,31843,1,0,0:2:0:0:
354,285,31922,6,0,P|422:282|467:231,1,140,2|8,0:2|0:2,0:2:0:0:
468,132,32396,1,0,0:2:0:0:
314,201,32554,2,0,L|383:207,1,70,2|2,0:2|0:2,0:2:0:0:
364,52,32870,1,8,0:2:0:0:
232,191,33028,1,0,0:2:0:0:
236,226,33107,1,0,0:2:0:0:
256,255,33186,6,0,P|319:280|378:247,1,140,2|8,0:2|0:2,0:2:0:0:
392,152,33659,1,0,0:2:0:0:
464,216,33817,2,0,L|470:285,1,70,2|0,0:2|0:2,0:2:0:0:
324,108,34133,2,0,P|346:81|378:68,1,70,8|0,0:2|0:2,0:2:0:0:
284,280,34449,6,0,L|152:232,1,140,6|8,0:2|0:2,0:2:0:0:
104,148,34922,1,0,0:2:0:0:
263,136,35080,2,0,L|267:67,1,70,2|0,0:2|0:2,0:2:0:0:
188,196,35396,1,8,0:2:0:0:
172,100,35554,1,0,0:2:0:0:
107,251,35712,6,0,P|133:275|165:289,1,70,2|0,0:2|0:2,0:2:0:0:
256,192,36028,1,8,0:2:0:0:
256,192,36186,1,0,0:2:0:0:
192,116,36344,2,0,L|122:113,1,70,2|0,0:2|0:2,0:2:0:0:
296,268,36659,2,0,P|325:250|342:220,1,70,8|0,0:2|0:2,0:2:0:0:
456,47,36975,6,0,P|432:113|439:182,1,140,2|8,0:2|0:2,0:2:0:0:
340,72,37449,2,0,P|305:65|270:64,1,70,2|0,0:2|0:2,0:2:0:0:
369,174,37765,2,0,P|403:180|438:181,1,70,0|8,0:2|0:2,0:2:0:0:
296,260,38080,1,0,0:2:0:0:
296,260,38238,6,0,L|254:203,1,70,2|0,0:2|0:2,0:2:0:0:
232,176,38475,1,0,0:2:0:0:
211,148,38553,1,8,0:2:0:0:
224,324,38712,1,0,0:2:0:0:
224,324,38791,1,0,0:2:0:0:
224,324,38870,2,0,P|252:344|285:356,1,70,2|0,0:2|0:2,0:2:0:0:
376,316,39186,1,8,0:2:0:0:
376,316,39344,1,0,0:2:0:0:
255,208,39501,6,0,P|290:147|350:114,1,140,2|8,0:2|0:2,0:2:0:0:
224,72,39975,2,0,P|190:61|160:44,1,70,2|0,0:2|0:2,0:2:0:0:
60,44,40291,1,0,0:2:0:0:
64,144,40449,2,0,L|73:213,1,70,8|0,0:2|0:2,0:2:0:0:
192,332,40765,6,0,L|182:262,1,70,2|0,0:2|0:2,0:2:0:0:
329,262,41080,2,0,L|320:332,1,70,8|0,0:2|0:2,0:2:0:0:
324,176,41396,2,0,P|358:180|389:196,1,70,2|0,0:2|0:2,0:2:0:0:
182,262,41712,2,0,P|154:240|136:211,1,70,8|0,0:2|0:2,0:2:0:0:
223,47,42028,6,0,P|255:108|237:174,1,140,2|8,0:2|0:2,0:2:0:0:
348,147,42501,2,0,P|382:146|416:155,1,70,2|0,0:2|0:2,0:2:0:0:
280,320,42817,1,0,0:2:0:0:
184,300,42975,2,0,L|115:283,1,70,8|0,0:2|0:2,0:2:0:0:
232,76,43291,5,8,0:2:0:0:
260,240,43449,1,0,0:2:0:0:
228,54,43607,1,8,0:2:0:0:
263,261,43765,1,0,0:2:0:0:
164,172,43922,5,8,0:2:0:0:
328,144,44080,1,0,0:2:0:0:
142,175,44238,1,8,0:2:0:0:
349,140,44396,1,0,0:2:0:0:
268,352,44554,6,0,P|203:327|168:268,1,140,6|8,0:2|0:2,0:2:0:0:
228,116,45028,2,0,L|277:165,1,70,2|0,0:2|0:2,0:2:0:0:
352,228,45344,1,0,0:2:0:0:
372,132,45501,1,8,0:2:0:0:
444,196,45659,6,0,L|460:264,1,70,2|0,0:2|0:2,0:2:0:0:
300,124,45975,2,0,L|284:192,1,70,2|8,0:2|0:2,0:2:0:0:
462,205,46291,2,0,L|482:290,1,70,2|0,0:2|0:2,0:2:0:0:
281,114,46607,2,0,L|261:200,1,70,2|8,0:2|0:2,0:2:0:0:
244,280,46922,1,0,0:2:0:0:
184,80,47080,5,2,0:2:0:0:
184,80,47238,1,0,0:2:0:0:
136,164,47396,1,8,0:2:0:0:
51,116,47554,2,0,P|25:139|10:170,1,70,2|0,0:2|0:2,0:2:0:0:
20,268,47870,1,0,0:2:0:0:
100,212,48028,1,8,0:2:0:0:
111,307,48186,6,0,P|140:328|172:341,1,70,2|0,0:2|0:2,0:2:0:0:
152,128,48501,2,0,P|123:107|91:94,1,70,2|8,0:2|0:2,0:2:0:0:
106,333,48817,2,0,P|142:360|184:376,1,70,2|0,0:2|0:2,0:2:0:0:
157,102,49133,2,0,P|121:75|79:59,1,70,2|8,0:2|0:2,0:2:0:0:
4,32,49449,1,0,0:2:0:0:
60,240,49607,5,2,0:2:0:0:
60,240,49765,1,0,0:2:0:0:
152,208,49922,1,8,0:2:0:0:
223,275,50080,2,0,P|254:293|288:294,1,70,2|0,0:2|0:2,0:2:0:0:
364,228,50396,1,0,0:2:0:0:
388,324,50554,1,8,0:2:0:0:
460,256,50712,6,0,L|471:186,1,70,2|0,0:2|0:2,0:2:0:0:
288,304,51028,2,0,L|276:234,1,70,2|8,0:2|0:2,0:2:0:0:
476,251,51344,2,0,L|489:169,1,70,2|0,0:2|0:2,0:2:0:0:
271,308,51660,2,0,L|258:226,1,70,2|8,0:2|0:2,0:2:0:0:
240,144,51975,1,0,0:2:0:0:
115,172,52133,5,2,0:2:0:0:
151,346,52291,1,0,0:2:0:0:
284,226,52449,1,8,0:2:0:0:
102,157,52607,5,2,0:2:0:0:
145,365,52765,1,0,0:2:0:0:
304,222,52922,1,0,0:2:0:0:
184,248,53080,2,0,L|115:263,1,70,10|0,0:2|0:2,0:2:0:0:
236,88,53396,5,0,0:2:0:0:
236,88,53554,1,0,0:2:0:0:
304,222,53712,1,0,0:2:0:0:
304,222,53870,1,0,0:2:0:0:
392,100,54028,5,0,0:2:0:0:
392,100,54186,1,0,0:2:0:0:
460,234,54344,1,0,0:2:0:0:
460,234,54502,1,0,0:2:0:0:
368,352,54659,6,0,L|300:368,1,70,2|0,0:2|0:2,0:2:0:0:
236,292,54975,1,8,0:2:0:0:
304,222,55133,2,0,P|309:187|300:153,1,70,0|2,0:2|0:2,0:2:0:0:
252,68,55449,1,0,0:2:0:0:
196,148,55607,1,8,0:2:0:0:
152,60,55765,1,0,0:2:0:0:
72,180,55922,6,0,L|94:246,1,70,2|0,0:2|0:2,0:2:0:0:
24,316,56238,2,0,L|1:249,1,70,8|0,0:2|0:2,0:2:0:0:
164,176,56554,2,0,L|186:242,1,70,2|0,0:2|0:2,0:2:0:0:
116,312,56870,1,8,0:2:0:0:
116,312,57028,1,0,0:2:0:0:
96,124,57186,6,0,P|121:100|154:90,1,70,2|0,0:2|0:2,0:2:0:0:
240,140,57501,1,8,0:2:0:0:
155,258,57659,2,0,P|147:223|155:189,1,70,0|2,0:2|0:2,0:2:0:0:
240,140,57974,1,0,0:2:0:0:
240,240,58133,1,8,0:2:0:0:
328,192,58291,6,0,L|397:201,1,70,2|0,0:2|0:2,0:2:0:0:
284,56,58607,2,0,L|214:46,1,70,2|8,0:2|0:2,0:2:0:0:
183,236,58922,2,0,P|215:221|233:192,1,70,2|0,0:2|0:2,0:2:0:0:
64,108,59238,1,0,0:2:0:0:
40,204,59396,1,8,0:2:0:0:
136,176,59554,1,0,0:2:0:0:
136,176,59633,1,0,0:2:0:0:
135,176,59712,6,0,P|134:244|87:294,1,140,2|8,0:2|0:2,0:2:0:0:
40,204,60186,1,0,0:2:0:0:
80,116,60344,2,0,P|110:98|144:93,1,70,2|0,0:2|0:2,0:2:0:0:
168,260,60659,1,8,0:2:0:0:
76,220,60817,1,0,0:2:0:0:
240,188,60975,6,0,P|261:215|269:249,1,70,2|0,0:2|0:2,0:2:0:0:
152,140,61291,1,8,0:2:0:0:
236,92,61449,1,0,0:2:0:0:
63,92,61607,2,0,P|41:64|33:30,1,70,2|0,0:2|0:2,0:2:0:0:
152,140,61923,1,8,0:2:0:0:
68,188,62081,1,0,0:2:0:0:
156,232,62238,6,0,P|189:224|217:202,1,70,2|0,0:2|0:2,0:2:0:0:
315,200,62554,2,0,P|343:221|377:229,1,70,8|0,0:2|0:2,0:2:0:0:
264,116,62870,2,0,P|236:94|202:86,1,70,2|0,0:2|0:2,0:2:0:0:
104,88,63186,1,8,0:2:0:0:
104,88,63344,1,0,0:2:0:0:
76,264,63501,6,0,L|65:333,1,70,2|0,0:2|0:2,0:2:0:0:
164,328,63817,2,0,L|174:258,1,70,8|0,0:2|0:2,0:2:0:0:
337,258,64133,2,0,L|348:328,1,70,2|0,0:2|0:2,0:2:0:0:
256,360,64449,1,8,0:2:0:0:
256,360,64607,1,0,0:2:0:0:
256,184,64765,6,0,L|256:114,2,70,2|0|8,0:2|0:2|0:2,0:2:0:0:
164,152,65238,1,0,0:2:0:0:
263,31,65396,2,0,P|297:42|324:64,1,70,2|0,0:2|0:2,0:2:0:0:
380,144,65712,1,8,0:2:0:0:
340,232,65870,6,0,P|373:240|408:236,1,70,2|0,0:2|0:2,0:2:0:0:
416,52,66186,2,0,P|382:43|347:47,1,70,2|8,0:2|0:2,0:2:0:0:
232,227,66501,2,0,P|253:200|264:167,1,70,2|0,0:2|0:2,0:2:0:0:
140,188,66817,1,0,0:2:0:0:
152,284,66975,1,8,0:2:0:0:
232,227,67133,1,0,0:2:0:0:
140,188,67291,6,0,L|70:188,1,70,2|0,0:2|0:2,0:2:0:0:
44,284,67607,1,8,0:2:0:0:
112,352,67765,1,0,0:2:0:0:
208,242,67922,1,2,0:2:0:0:
44,284,68080,1,0,0:2:0:0:
208,340,68238,1,8,0:2:0:0:
70,187,68396,6,0,P|89:158|114:135,1,70,2|0,0:2|0:2,0:2:0:0:
236,232,68712,2,0,P|201:230|167:219,1,70,2|8,0:2|0:2,0:2:0:0:
304,72,69028,2,0,P|338:73|372:84,1,70,2|0,0:2|0:2,0:2:0:0:
416,280,69344,1,0,0:2:0:0:
332,228,69501,1,8,0:2:0:0:
420,184,69659,1,0,0:2:0:0:
420,184,69738,1,0,0:2:0:0:
420,183,69817,6,0,P|483:209|511:271,1,140,2|8,0:2|0:2,0:2:0:0:
332,228,70291,1,0,0:2:0:0:
292,140,70449,2,0,L|302:70,1,70,2|0,0:2|0:2,0:2:0:0:
192,140,70765,1,8,0:2:0:0:
244,224,70922,1,0,0:2:0:0:
144,228,71080,6,0,P|169:291|230:323,1,140,2|8,0:2|0:2,0:2:0:0:
192,140,71554,1,0,0:2:0:0:
192,140,71712,2,0,P|124:130|65:166,1,140,2|8,0:2|0:2,0:2:0:0:
52,264,72186,1,0,0:2:0:0:
128,324,72344,6,0,L|198:324,1,70,2|0,0:2|0:2,0:2:0:0:
323,227,72659,2,0,P|289:223|254:227,1,70,8|0,0:2|0:2,0:2:0:0:
379,320,72975,2,0,P|408:299|423:268,1,70,2|0,0:2|0:2,0:2:0:0:
424,168,73291,1,8,0:2:0:0:
332,132,73449,1,0,0:2:0:0:
332,132,73528,1,0,0:2:0:0:
332,132,73607,6,0,L|264:150,1,70,2|0,0:2|0:2,0:2:0:0:
160,272,73922,2,0,L|227:253,1,70,8|0,0:2|0:2,0:2:0:0:
60,219,74238,2,0,P|49:253|49:288,1,70,2|0,0:2|0:2,0:2:0:0:
116,360,74554,1,8,0:2:0:0:
148,176,74712,1,0,0:2:0:0:
148,176,74791,1,0,0:2:0:0:
148,176,74870,69,2,0:2:0:0:
356,216,75028,1,2,0:2:0:0:
276,272,75186,2,0,L|206:262,1,70,8|0,0:2|0:2,0:2:0:0:
244,172,75501,1,0,0:2:0:0:
324,116,75659,1,0,0:2:0:0:
324,116,75738,1,0,0:2:0:0:
324,116,75817,1,10,0:2:0:0:
360,328,75975,1,2,0:2:0:0:
407,244,76133,86,0,P|424:213|445:185,1,70,0|0,0:2|0:2,0:2:0:0:
444,88,76449,2,0,P|427:57|406:29,1,70,8|0,0:2|0:2,0:2:0:0:
252,96,76765,2,0,B|283:103|283:103|323:87|323:87|351:95,1,105,0|0,0:2|0:2,0:2:0:0:
351,95,77080,2,0,P|369:123|365:157,1,70,8|0,0:2|0:2,0:2:0:0:
324,248,77396,5,2,0:2:0:0:
324,248,77554,2,0,L|327:317,1,70,0|8,0:2|0:2,0:2:0:0:
188,136,77870,1,2,0:2:0:0:
188,136,78028,2,0,L|184:66,1,70,0|0,0:2|0:2,0:2:0:0:
312,124,78344,85,10,0:2:0:0:
312,124,78502,2,0,L|381:120,1,70,0|0,0:2|0:2,0:2:0:0:
200,260,78818,1,2,0:2:0:0:
200,260,78976,2,0,L|130:263,1,70,8|0,0:2|0:2,0:2:0:0:
184,66,79291,6,0,L|188:136,1,70,2|0,0:2|0:2,0:2:0:0:
256,340,79607,1,10,0:2:0:0:
312,260,79765,1,0,0:2:0:0:
312,260,79844,1,0,0:2:0:0:
312,260,79922,85,2,0:2:0:0:
104,228,80080,1,2,0:2:0:0:
159,307,80238,2,0,P|153:342|131:367,1,70,8|0,0:2|0:2,0:2:0:0:
32,368,80554,1,0,0:2:0:0:
104,228,80712,1,0,0:2:0:0:
104,228,80791,1,0,0:2:0:0:
104,228,80870,1,10,0:2:0:0:
312,260,81028,1,2,0:2:0:0:
264,172,81186,6,0,L|272:102,1,70,0|0,0:2|0:2,0:2:0:0:
368,84,81501,2,0,L|359:153,1,70,8|0,0:2|0:2,0:2:0:0:
312,312,81817,2,0,B|281:319|281:319|241:303|241:303|213:311,1,105,0|0,0:2|0:2,0:2:0:0:
212,311,82133,2,0,P|190:283|192:249,1,70,8|0,0:2|0:2,0:2:0:0:
188,136,82449,85,2,0:2:0:0:
188,136,82607,2,0,L|184:66,1,70,0|8,0:2|0:2,0:2:0:0:
324,248,82923,1,2,0:2:0:0:
324,248,83081,2,0,L|327:317,1,70,0|0,0:2|0:2,0:2:0:0:
200,260,83397,5,10,0:2:0:0:
200,260,83555,2,0,L|130:263,1,70,0|0,0:2|0:2,0:2:0:0:
312,124,83870,1,2,0:2:0:0:
312,124,84029,2,0,L|381:120,1,70,8|0,0:2|0:2,0:2:0:0:
344,296,84344,86,0,L|274:292,1,70,2|0,0:2|0:2,0:2:0:0:
168,88,84659,2,0,L|237:91,1,70,10|0,0:2|0:2,0:2:0:0:
204,176,84896,1,0,0:2:0:0:
204,176,84975,6,0,L|134:172,1,70,2|0,0:2|0:2,0:2:0:0:
308,208,85291,2,0,L|377:211,1,70,2|0,0:2|0:2,0:2:0:0:
184,296,85607,2,0,P|151:282|124:261,1,70,2|0,0:2|0:2,0:2:0:0:
327,87,85922,2,0,P|360:101|387:122,1,70,2|0,0:2|0:2,0:2:0:0:
184,136,86238,86,0,L|168:104,3,35,2|0|2|0,0:2|0:2|0:2|0:2,0:2:0:0:
84,188,86554,2,0,L|100:220,3,35,2|0|2|0,0:2|0:2|0:2|0:2,0:2:0:0:
44,320,86870,5,2,0:2:0:0:
66,355,86948,1,0,0:2:0:0:
101,377,87027,1,2,0:2:0:0:
142,384,87106,1,0,0:2:0:0:
182,372,87185,1,2,0:2:0:0:
214,345,87264,1,0,0:2:0:0:
231,307,87343,1,2,0:2:0:0:
231,266,87422,1,0,0:2:0:0:
214,228,87501,22,0,B|223:186|223:186|280:220|312:273,1,167.999994873047,6|8,1:2|0:2,0:2:0:0:
316,156,87975,1,0,0:2:0:0:
316,156,88133,2,0,P|285:127|247:109,1,83.9999974365235,2|0,0:2|1:2,0:2:0:0:
139,263,88449,2,0,P|179:251|214:228,1,83.9999974365235,8|0,0:2|0:2,0:2:0:0:
40,200,88765,5,2,1:2:0:0:
152,172,88922,1,0,0:2:0:0:
119,283,89080,2,0,P|149:313|190:321,1,83.9999974365235,8|0,0:2|0:2,0:2:0:0:
212,112,89396,2,0,L|130:90,1,83.9999974365235,2|0,0:2|1:2,0:2:0:0:
260,220,89712,1,8,0:2:0:0:
332,124,89870,1,2,0:2:0:0:
151,24,90028,6,0,P|104:91|118:171,1,167.999994873047,2|8,1:2|0:2,0:2:0:0:
308,44,90501,2,0,P|349:40|386:58,1,83.9999974365235,2|0,0:2|0:2,0:2:0:0:
452,156,90817,1,2,1:2:0:0:
360,228,90975,2,0,L|349:311,1,83.9999974365235,8|0,0:2|0:2,0:2:0:0:
152,156,91291,6,0,L|162:72,1,83.9999974365235,2|0,1:2|0:2,0:2:0:0:
192,268,91607,1,8,0:2:0:0:
76,248,91765,1,0,0:2:0:0:
269,178,91922,2,0,L|335:229,1,83.9999974365235,2|0,0:2|1:2,0:2:0:0:
152,156,92238,1,8,0:2:0:0:
227,66,92396,1,2,0:2:0:0:
308,287,92554,38,0,P|263:355|185:381,1,167.999994873047,2|8,0:2|0:2,0:2:0:0:
268,178,93028,2,0,P|268:136|251:97,1,83.9999974365235,2|0,0:2|0:2,0:2:0:0:
152,36,93344,1,2,0:2:0:0:
51,100,93502,2,0,P|34:138|33:179,1,83.9999974365235,8|0,0:2|0:2,0:2:0:0:
180,212,93817,5,2,0:2:0:0:
136,320,93975,1,0,0:2:0:0:
252,308,94133,2,0,P|282:280|298:241,1,83.9999974365235,8|0,0:2|0:2,0:2:0:0:
168,120,94449,2,0,L|93:158,1,83.9999974365235,2|0,0:2|0:2,0:2:0:0:
300,76,94765,2,0,L|361:131,1,83.9999974365235,8|2,0:2|0:2,0:2:0:0:
256,352,95080,6,0,B|232:316|256:272|256:272|280:228|256:192,1,167.999994873047,2|8,0:2|0:2,0:2:0:0:
140,292,95554,2,0,P|138:333|147:374,1,83.9999974365235,2|0,0:2|0:2,0:2:0:0:
156,176,95870,1,2,0:2:0:0:
44,212,96028,2,0,P|31:251|30:293,1,83.9999974365235,8|0,0:2|0:2,0:2:0:0:
204,336,96344,6,0,P|240:317|271:288,1,83.9999974365235,2|0,0:2|0:2,0:2:0:0:
316,180,96659,1,8,0:2:0:0:
200,204,96817,1,0,0:2:0:0:
158,212,96895,1,0,0:2:0:0:
117,221,96974,1,2,0:2:0:0:
184,320,97133,1,0,0:2:0:0:
232,92,97291,1,8,0:2:0:0:
284,288,97449,1,2,0:2:0:0:
348,68,97607,5,6,0:2:0:0:
396,256,97765,1,0,0:2:0:0:
200,204,97922,2,0,L|118:182,1,83.9999974365235,8|0,0:2|0:2,0:2:0:0:
424,145,98238,1,2,0:2:0:0:
237,93,98396,1,0,0:2:0:0:
396,256,98554,2,0,L|478:278,1,83.9999974365235,8|0,0:2|0:2,0:2:0:0:
256,44,98870,37,2,0:2:0:0:
256,192,99028,1,0,0:2:0:0:
360,68,99186,1,10,0:2:0:0:
136,168,99344,1,0,0:2:0:0:
360,268,99501,1,2,0:2:0:0:
152,68,99659,1,0,0:2:0:0:
376,168,99817,1,8,0:2:0:0:
152,268,99975,1,2,0:2:0:0:
359,267,100133,6,0,P|401:268|439:251,1,83.9999974365235,2|0,0:2|0:2,0:2:0:0:
400,64,100449,2,0,P|358:63|320:80,1,83.9999974365235,8|0,0:2|0:2,0:2:0:0:
259,331,100765,1,2,0:2:0:0:
359,267,100922,1,0,0:2:0:0:
255,215,101080,1,8,0:2:0:0:
255,215,101238,1,0,0:2:0:0:
240,108,101396,5,2,0:2:0:0:
335,220,101554,1,0,0:2:0:0:
190,246,101712,1,10,0:2:0:0:
370,94,101870,1,0,0:2:0:0:
282,339,102028,1,2,0:2:0:0:
113,140,102186,1,0,0:2:0:0:
255,192,102344,1,8,0:2:0:0:
255,192,102501,1,2,0:2:0:0:
159,307,102659,6,0,P|105:245|108:163,1,167.999994873047,2|8,0:2|0:2,0:2:0:0:
352,76,103133,2,0,P|405:138|403:220,1,167.999994873047,2|0,0:2|0:2,0:2:0:0:
292,184,103607,1,10,0:2:0:0:
312,300,103765,1,0,0:2:0:0:
204,256,103922,6,0,L|179:175,1,83.9999974365235,0|2,0:2|0:2,0:2:0:0:
99,199,104238,2,0,L|124:280,1,83.9999974365235,8|0,0:2|0:2,0:2:0:0:
256,104,104554,2,0,L|231:23,1,83.9999974365235,2|0,0:2|0:2,0:2:0:0:
204,256,104870,2,0,L|228:336,1,83.9999974365235,10|0,0:2|0:2,0:2:0:0:
388,88,105186,37,8,0:2:0:0:
388,88,105344,1,0,0:2:0:0:
360,324,105501,1,8,0:2:0:0:
360,324,105659,1,0,0:2:0:0:
124,296,105817,1,8,0:2:0:0:
124,296,105975,1,0,0:2:0:0:
152,60,106133,1,8,0:2:0:0:
152,60,106291,1,0,0:2:0:0:
256,192,106449,5,0,0:2:0:0:
263,205,106527,1,0,0:2:0:0:
267,218,106606,1,0,0:2:0:0:
268,232,106685,1,0,0:2:0:0:
266,246,106764,1,0,0:2:0:0:
261,259,106843,1,0,0:2:0:0:
255,272,106922,1,0,0:2:0:0:
249,285,107001,1,0,0:2:0:0:
245,298,107080,1,0,0:2:0:0:
244,312,107159,1,0,0:2:0:0:
245,326,107238,1,0,0:2:0:0:
249,339,107317,1,0,0:2:0:0:
255,351,107396,70,0,P|289:359|323:353,1,70,2|4,0:2|0:2,0:2:0:0:
216,152,110238,5,2,0:2:0:0:
310,177,110396,1,0,0:2:0:0:
241,246,110554,1,10,0:2:0:0:
241,246,110712,1,0,0:2:0:0:
245,108,110870,5,2,0:2:0:0:
349,212,111028,1,0,0:2:0:0:
207,250,111186,1,10,0:2:0:0:
207,250,111344,1,0,0:2:0:0:
316,74,111501,5,2,0:2:0:0:
373,287,111659,1,0,0:2:0:0:
160,230,111817,1,10,0:2:0:0:
160,230,111975,1,0,0:2:0:0:
380,176,112133,6,2,L|396:171,8,17.5,2|2|2|2|2|2|2|2|2,0:2|0:2|0:2|0:2|0:2|0:2|0:2|0:2|0:2,0:2:0:0:
284,196,112607,1,0,0:2:0:0:
316,104,112765,5,6,0:2:0:0:
192,168,112922,1,0,0:2:0:0:
224,76,113080,1,8,0:2:0:0:
128,92,113238,2,0,P|93:97|63:115,1,70,2|0,0:2|0:2,0:2:0:0:
108,304,113554,1,0,0:2:0:0:
200,284,113712,1,8,0:2:0:0:
136,212,113870,1,0,0:2:0:0:
171,375,114028,6,0,P|240:373|290:326,1,140,2|8,0:2|0:2,0:2:0:0:
324,236,114501,1,0,0:2:0:0:
418,365,114659,1,2,0:2:0:0:
418,206,114817,1,0,0:2:0:0:
324,334,114975,1,8,0:2:0:0:
475,285,115133,1,0,0:2:0:0:
323,235,115291,6,0,P|323:167|365:113,1,140,2|8,0:2|0:2,0:2:0:0:
232,116,115765,2,0,P|199:129|164:132,1,70,2|0,0:2|0:2,0:2:0:0:
280,28,116080,1,0,0:2:0:0:
380,28,116238,2,0,L|450:28,1,70,8|0,0:2|0:2,0:2:0:0:
480,224,116554,6,0,P|439:278|372:283,1,140,2|8,0:2|0:2,0:2:0:0:
296,224,117028,1,0,0:2:0:0:
236,300,117186,1,2,0:2:0:0:
176,156,117344,1,0,0:2:0:0:
132,304,117501,1,10,0:2:0:0:
72,160,117659,1,0,0:2:0:0:
28,307,117817,6,0,P|81:345|131:304,1,140,2|8,0:2|0:2,0:2:0:0:
176,156,118291,2,0,P|122:118|72:159,1,140,2|0,0:2|0:2,0:2:0:0:
240,248,118765,1,8,0:2:0:0:
240,248,118922,1,0,0:2:0:0:
332,280,119080,6,0,L|472:268,1,140,2|8,0:2|0:2,0:2:0:0:
472,116,119554,2,0,L|332:104,1,140,2|0,0:2|0:2,0:2:0:0:
172,192,120028,1,8,0:2:0:0:
172,192,120186,1,0,0:2:0:0:
231,271,120344,6,0,P|237:306|228:339,1,70,2|0,0:2|0:2,0:2:0:0:
76,240,120659,1,8,0:2:0:0:
92,144,120817,2,0,L|106:75,1,70,2|0,0:2|0:2,0:2:0:0:
192,24,121133,1,0,0:2:0:0:
204,120,121291,2,0,P|237:110|267:92,1,70,8|0,0:2|0:2,0:2:0:0:
460,24,121607,6,0,P|484:88|465:154,1,140,2|8,0:2|0:2,0:2:0:0:
408,236,122080,1,0,0:2:0:0:
324,94,122238,2,0,P|349:118|368:148,1,70,2|0,0:2|0:2,0:2:0:0:
352,316,122554,1,8,0:2:0:0:
352,316,122712,1,0,0:2:0:0:
351,315,122870,6,0,P|284:302|224:335,2,140,2|8|2,0:2|0:2|0:2,0:2:0:0:
444,356,123659,1,0,0:2:0:0:
360,232,123817,2,0,P|325:224|290:223,1,70,8|0,0:2|0:2,0:2:0:0:
115,264,124133,6,0,P|173:226|196:162,1,140,2|8,0:2|0:2,0:2:0:0:
28,227,124607,2,0,P|31:296|75:348,1,140,2|0,0:2|0:2,0:2:0:0:
100,172,125080,1,8,0:2:0:0:
100,172,125238,1,0,0:2:0:0:
160,348,125396,6,0,P|204:295|207:227,1,140,2|8,0:2|0:2,0:2:0:0:
168,136,125870,1,0,0:2:0:0:
264,144,126028,2,0,L|333:147,1,70,2|0,0:2|0:2,0:2:0:0:
364,240,126344,2,0,L|294:236,1,70,8|0,0:2|0:2,0:2:0:0:
168,136,126659,6,0,P|199:74|261:44,1,140,2|8,0:2|0:2,0:2:0:0:
360,48,127133,1,0,0:2:0:0:
264,143,127291,2,0,P|256:177|260:212,1,70,2|0,0:2|0:2,0:2:0:0:
300,304,127607,1,8,0:2:0:0:
360,224,127765,1,0,0:2:0:0:
203,292,127922,6,0,P|137:277|103:218,1,140,2|8,0:2|0:2,0:2:0:0:
88,120,128396,1,0,0:2:0:0:
184,96,128554,2,0,P|172:63|149:37,1,70,2|0,0:2|0:2,0:2:0:0:
249,169,128870,2,0,P|271:142|282:109,1,70,8|0,0:2|0:2,0:2:0:0:
157,209,129186,6,0,P|207:256|275:266,1,140,2|8,0:2|0:2,0:2:0:0:
368,228,129659,1,0,0:2:0:0:
344,323,129817,2,0,P|316:345|283:355,1,70,2|0,0:2|0:2,0:2:0:0:
368,228,130133,1,8,0:2:0:0:
440,296,130291,1,0,0:2:0:0:
272,256,130449,6,0,P|239:245|215:219,1,70,2|0,0:2|0:2,0:2:0:0:
164,136,130765,1,8,0:2:0:0:
260,132,130922,1,0,0:2:0:0:
124,224,131080,5,2,0:2:0:0:
164,312,131238,1,0,0:2:0:0:
252,356,131396,1,8,0:2:0:0:
348,332,131554,1,0,0:2:0:0:
403,252,131712,5,2,0:2:0:0:
411,217,131790,1,0,0:2:0:0:
409,183,131869,1,0,0:2:0:0:
398,149,131948,1,0,0:2:0:0:
379,120,132027,1,8,0:2:0:0:
354,97,132106,1,0,0:2:0:0:
323,81,132185,1,0,0:2:0:0:
288,73,132264,1,0,0:2:0:0:
254,75,132343,5,2,0:2:0:0:
270,114,132422,1,0,0:2:0:0:
299,144,132501,1,0,0:2:0:0:
337,161,132580,1,0,0:2:0:0:
378,163,132659,1,8,0:2:0:0:
418,150,132738,1,0,0:2:0:0:
450,124,132817,1,0,0:2:0:0:
470,87,132896,1,0,0:2:0:0:
476,46,132975,6,0,P|468:115|491:180,1,140,6|8,0:2|0:2,0:2:0:0:
508,276,133449,2,0,P|465:330|402:360,1,140,2|0,0:2|0:2,0:2:0:0:
304,360,133922,2,0,P|241:330|197:275,1,140,10|0,0:2|0:2,0:2:0:0:
172,180,134396,1,0,0:2:0:0:
100,248,134554,2,0,L|96:317,1,70,8|0,0:2|0:2,0:2:0:0:
16,260,134870,2,0,L|19:190,1,70,0|0,0:2|0:2,0:2:0:0:
116,48,135186,1,8,0:2:0:0:
116,48,135344,1,0,0:2:0:0:
199,195,135501,6,0,P|268:194|315:145,1,140,2|8,0:2|0:2,0:2:0:0:
408,180,135975,2,0,P|406:248|453:297,1,140,2|0,0:2|0:2,0:2:0:0:
360,328,136449,2,0,P|291:326|242:373,1,140,10|0,0:2|0:2,0:2:0:0:
207,284,136922,2,0,P|233:260|264:244,2,70,0|8|0,0:2|0:2|0:2,0:2:0:0:
120,332,137396,2,0,P|112:297|112:263,1,70,0|0,0:2|0:2,0:2:0:0:
152,96,137712,1,8,0:2:0:0:
152,96,137870,1,0,0:2:0:0:
295,184,138028,6,0,P|360:159|402:104,1,140,2|8,0:2|0:2,0:2:0:0:
484,48,138501,2,0,P|493:116|465:179,1,140,2|0,0:2|0:2,0:2:0:0:
400,252,138975,2,0,L|466:274,1,70,10|0,0:2|0:2,0:2:0:0:
332,316,139291,5,0,0:2:0:0:
332,316,139449,2,0,L|265:293,1,70,0|8,0:2|0:2,0:2:0:0:
176,252,139765,1,0,0:2:0:0:
255,196,139922,2,0,P|271:164|279:130,1,70,0|0,0:2|0:2,0:2:0:0:
176,252,140238,1,8,0:2:0:0:
268,288,140396,1,0,0:2:0:0:
255,196,140554,6,0,P|229:172|199:156,1,70,2|0,0:2|0:2,0:2:0:0:
104,128,140870,1,8,0:2:0:0:
128,224,141028,1,0,0:2:0:0:
176,60,141186,5,2,0:2:0:0:
176,60,141344,1,0,0:2:0:0:
272,76,141501,1,8,0:2:0:0:
344,144,141659,1,0,0:2:0:0:
348,240,141817,5,2,0:2:0:0:
348,240,141896,1,0,0:2:0:0:
348,240,141975,1,0,0:2:0:0:
364,48,142133,1,10,0:2:0:0:
476,204,142291,1,0,0:2:0:0:
244,164,142449,5,2,0:2:0:0:
484,80,142607,1,2,0:2:0:0:
432,292,142765,1,10,0:2:0:0:
364,48,142922,1,2,0:2:0:0:
291,291,143080,6,0,P|241:301|190:288,1,105,6|0,0:2|0:2,0:2:0:0:
139,288,143396,2,0,P|156:257|163:223,1,70,8|0,0:2|0:2,0:2:0:0:
160,124,143712,1,2,0:2:0:0:
322,164,143870,1,0,0:2:0:0:
322,164,143949,1,0,0:2:0:0:
322,164,144028,2,0,L|252:164,1,70,8|0,0:2|0:2,0:2:0:0:
139,288,144344,5,2,0:2:0:0:
104,196,144501,1,0,0:2:0:0:
104,196,144580,1,0,0:2:0:0:
104,196,144659,1,8,0:2:0:0:
44,272,144817,1,0,0:2:0:0:
44,272,144896,1,0,0:2:0:0:
44,272,144975,1,2,0:2:0:0:
8,180,145133,1,0,0:2:0:0:
80,364,145291,1,8,0:2:0:0:
200,212,145449,1,0,0:2:0:0:
200,212,145528,1,0,0:2:0:0:
199,211,145607,6,0,P|226:257|229:308,1,105,2|0,0:2|0:2,0:2:0:0:
208,352,145922,2,0,P|242:349|277:355,1,70,8|0,0:2|0:2,0:2:0:0:
376,372,146238,1,2,0:2:0:0:
346,210,146396,1,0,0:2:0:0:
346,210,146475,1,0,0:2:0:0:
346,210,146554,2,0,L|340:280,1,70,8|0,0:2|0:2,0:2:0:0:
200,212,146870,5,2,0:2:0:0:
272,144,147028,1,0,0:2:0:0:
272,144,147107,1,0,0:2:0:0:
272,144,147186,1,8,0:2:0:0:
176,120,147344,1,0,0:2:0:0:
176,120,147423,1,0,0:2:0:0:
176,120,147501,2,0,L|108:103,1,70,2|0,0:2|0:2,0:2:0:0:
100,256,147817,1,8,0:2:0:0:
251,235,147975,1,0,0:2:0:0:
271,264,148053,1,0,0:2:0:0:
272,298,148133,6,0,P|257:330|228:349,1,70,2|0,0:2|0:2,0:2:0:0:
132,360,148449,1,8,0:2:0:0:
172,272,148607,1,0,0:2:0:0:
172,272,148686,1,0,0:2:0:0:
172,272,148765,1,2,0:2:0:0:
76,284,148922,1,0,0:2:0:0:
116,196,149080,2,0,L|109:126,1,70,8|0,0:2|0:2,0:2:0:0:
144,56,149317,1,0,0:2:0:0:
164,48,149396,6,0,P|198:45|229:60,1,70,2|0,0:2|0:2,0:2:0:0:
286,138,149712,1,8,0:2:0:0:
190,148,149870,1,0,0:2:0:0:
190,148,149949,1,0,0:2:0:0:
190,148,150028,1,2,0:2:0:0:
249,225,150185,1,0,0:2:0:0:
152,234,150343,2,0,L|82:241,1,70,8|0,0:2|0:2,0:2:0:0:
124,312,150580,1,0,0:2:0:0:
124,312,150659,6,0,L|193:304,1,70,2|0,0:2|0:2,0:2:0:0:
292,296,150975,1,8,0:2:0:0:
240,212,151133,1,0,0:2:0:0:
240,212,151212,1,0,0:2:0:0:
239,212,151291,2,0,P|255:180|283:161,1,70,2|0,0:2|0:2,0:2:0:0:
376,120,151607,1,8,0:2:0:0:
400,284,151765,1,0,0:2:0:0:
400,284,151844,1,0,0:2:0:0:
400,284,151922,5,2,0:2:0:0:
308,320,152080,1,0,0:2:0:0:
308,320,152159,1,0,0:2:0:0:
308,320,152238,1,10,0:2:0:0:
276,148,152396,2,0,L|268:113,1,35,2|0,0:2|0:2,0:2:0:0:
228,248,152554,2,0,L|220:213,1,35,2|0,0:2|0:2,0:2:0:0:
179,134,152712,2,0,L|172:100,1,35,2|0,0:2|0:2,0:2:0:0:
128,232,152870,2,0,L|121:198,1,35,10|0,0:2|0:2,0:2:0:0:
81,118,153028,1,2,0:2:0:0:
32,218,153186,6,0,P|47:284|105:321,1,140,6|8,0:2|0:2,0:2:0:0:
204,324,153659,1,0,0:2:0:0:
156,236,153817,1,2,0:2:0:0:
296,284,153975,1,0,0:2:0:0:
296,284,154054,1,0,0:2:0:0:
296,284,154133,2,0,L|320:218,1,70,8|0,0:2|0:2,0:2:0:0:
348,124,154449,5,2,0:2:0:0:
256,96,154607,1,0,0:2:0:0:
256,96,154686,1,0,0:2:0:0:
256,96,154765,1,8,0:2:0:0:
164,124,154922,1,0,0:2:0:0:
164,124,155001,1,0,0:2:0:0:
164,124,155080,1,2,0:2:0:0:
72,96,155238,1,0,0:2:0:0:
12,192,155396,1,8,0:2:0:0:
72,288,155554,1,0,0:2:0:0:
72,288,155633,1,0,0:2:0:0:
72,288,155712,6,0,P|137:308|203:288,1,140,2|8,0:2|0:2,0:2:0:0:
276,224,156186,1,0,0:2:0:0:
184,192,156344,1,2,0:2:0:0:
352,164,156501,1,0,0:2:0:0:
352,164,156580,1,0,0:2:0:0:
352,164,156659,2,0,L|369:231,1,70,8|0,0:2|0:2,0:2:0:0:
388,328,156975,21,2,0:2:0:0:
296,296,157133,1,0,0:2:0:0:
296,296,157212,1,0,0:2:0:0:
296,296,157291,1,8,0:2:0:0:
264,152,157449,2,0,L|256:117,2,35,0|0|2,0:2|0:2|0:2,0:2:0:0:
356,112,157765,1,0,0:2:0:0:
356,112,157844,1,0,0:2:0:0:
356,112,157923,1,8,0:2:0:0:
228,235,158080,2,0,P|212:243|195:243,1,35,0|0,0:2|0:2,0:2:0:0:
144,183,158238,86,0,P|115:245|143:308,1,140,6|8,0:2|0:2,0:2:0:0:
236,344,158712,1,0,0:2:0:0:
308,202,158870,1,2,0:2:0:0:
332,359,159028,1,0,0:2:0:0:
219,247,159186,2,0,P|185:255|160:279,1,70,8|0,0:2|0:2,0:2:0:0:
376,271,159501,86,0,P|404:207|390:140,1,140,2|8,0:2|0:2,0:2:0:0:
348,52,159975,1,0,0:2:0:0:
195,139,160133,2,0,B|226:146|226:146|266:130|266:130|294:138,1,105,2|0,0:2|0:2,0:2:0:0:
294,138,160449,2,0,P|312:166|308:200,1,70,8|0,0:2|0:2,0:2:0:0:
200,260,160765,5,2,0:2:0:0:
200,260,160923,2,0,L|131:263,1,70,0|8,0:2|0:2,0:2:0:0:
312,124,161239,1,2,0:2:0:0:
312,124,161397,2,0,L|382:120,1,70,0|0,0:2|0:2,0:2:0:0:
324,248,161713,85,10,0:2:0:0:
324,248,161871,2,0,L|328:317,1,70,0|0,0:2|0:2,0:2:0:0:
188,136,162187,1,2,0:2:0:0:
188,136,162345,2,0,L|185:66,1,70,8|0,0:2|0:2,0:2:0:0:
382,264,162659,6,0,L|312:260,1,70,2|0,0:2|0:2,0:2:0:0:
108,192,162975,1,10,0:2:0:0:
188,136,163133,1,0,0:2:0:0:
188,136,163212,1,0,0:2:0:0:
188,136,163290,85,2,0:2:0:0:
188,248,163449,1,0,0:2:0:0:
284,192,163607,1,8,0:2:0:0:
172,107,163765,1,0,0:2:0:0:
171,275,163922,2,0,P|204:288|237:278,1,70,2|0,0:2|0:2,0:2:0:0:
108,192,164238,1,8,0:2:0:0:
76,284,164396,1,0,0:2:0:0:
12,208,164554,6,0,L|22:138,1,70,2|0,0:2|0:2,0:2:0:0:
182,206,164870,2,0,L|171:275,1,70,8|0,0:2|0:2,0:2:0:0:
43,110,165186,2,0,B|73:100|73:100|99:66|99:66|128:59,1,105,2|0,0:2|0:2,0:2:0:0:
128,60,165501,2,0,P|157:75|171:106,1,70,8|0,0:2|0:2,0:2:0:0:
200,260,165817,85,2,0:2:0:0:
200,260,165975,2,0,L|131:263,1,70,0|8,0:2|0:2,0:2:0:0:
312,124,166291,1,2,0:2:0:0:
312,124,166449,2,0,L|382:120,1,70,0|0,0:2|0:2,0:2:0:0:
324,248,166765,5,10,0:2:0:0:
324,248,166923,2,0,L|328:317,1,70,0|0,0:2|0:2,0:2:0:0:
188,136,167239,1,2,0:2:0:0:
188,136,167397,2,0,L|185:66,1,70,8|0,0:2|0:2,0:2:0:0:
328,66,167712,86,0,L|324:136,1,70,2|0,0:2|0:2,0:2:0:0:
256,340,168027,1,10,0:2:0:0:
200,260,168185,1,0,0:2:0:0:
200,260,168264,1,0,0:2:0:0:
200,260,168344,6,0,L|189:190,1,70,2|0,0:2|0:2,0:2:0:0:
312,124,168659,2,0,L|322:193,1,70,2|0,0:2|0:2,0:2:0:0:
220,96,168975,1,2,0:2:0:0:
220,96,169133,1,0,0:2:0:0:
292,288,169291,1,2,0:2:0:0:
292,288,169449,1,0,0:2:0:0:
312,124,169607,86,0,L|307:89,1,35,2|0,0:2|0:2,0:2:0:0:
400,132,169765,2,0,L|404:166,1,35,2|0,0:2|0:2,0:2:0:0:
290,122,169922,2,0,L|282:70,1,35,2|0,0:2|0:2,0:2:0:0:
422,134,170080,2,0,L|429:185,1,35,2|0,0:2|0:2,0:2:0:0:
380,247,170238,5,2,0:2:0:0:
349,276,170316,1,0,0:2:0:0:
314,300,170395,1,2,0:2:0:0:
277,320,170474,1,0,0:2:0:0:
238,335,170553,1,2,0:2:0:0:
197,344,170632,1,0,0:2:0:0:
156,349,170711,1,2,0:2:0:0:
114,347,170790,1,0,0:2:0:0:
71,340,170870,22,0,P|32:264|66:186,1,167.999994873047,6|8,0:2|0:2,0:2:0:0:
213,199,171344,1,0,0:2:0:0:
213,199,171501,2,0,P|188:233|156:260,1,83.9999974365235,2|0,0:2|0:2,0:2:0:0:
196,112,171817,2,0,P|237:116|276:131,1,83.9999974365235,8|0,0:2|0:2,0:2:0:0:
176,376,172133,5,2,0:2:0:0:
228,268,172291,1,0,0:2:0:0:
112,280,172449,2,0,P|71:274|42:245,1,83.9999974365235,8|0,0:2|0:2,0:2:0:0:
256,168,172765,2,0,L|323:218,1,83.9999974365235,2|0,0:2|0:2,0:2:0:0:
140,140,173080,1,8,0:2:0:0:
224,56,173238,1,2,0:2:0:0:
396,176,173396,6,0,P|397:257|333:306,1,167.999994873047,2|8,0:2|0:2,0:2:0:0:
352,88,173870,2,0,P|392:79|434:85,1,83.9999974365235,2|0,0:2|0:2,0:2:0:0:
512,176,174186,1,2,0:2:0:0:
475,288,174344,2,0,P|457:325|427:354,1,83.9999974365235,8|0,0:2|0:2,0:2:0:0:
279,154,174659,6,0,L|289:70,1,83.9999974365235,2|0,0:2|0:2,0:2:0:0:
319,266,174975,1,8,0:2:0:0:
203,246,175133,1,0,0:2:0:0:
396,176,175291,2,0,L|462:227,1,83.9999974365235,2|0,0:2|0:2,0:2:0:0:
279,154,175606,1,8,0:2:0:0:
354,64,175764,1,2,0:2:0:0:
435,285,175922,38,0,P|390:353|312:379,1,167.999994873047,2|8,0:2|0:2,0:2:0:0:
396,175,176396,2,0,P|395:134|374:98,1,83.9999974365235,2|0,0:2|0:2,0:2:0:0:
276,36,176712,1,2,0:2:0:0:
176,100,176870,2,0,P|155:136|154:177,1,83.9999974365235,8|0,0:2|0:2,0:2:0:0:
284,320,177186,5,2,0:2:0:0:
272,204,177344,1,0,0:2:0:0:
176,272,177501,2,0,P|134:265|100:241,1,83.9999974365235,8|0,0:2|0:2,0:2:0:0:
312,120,177817,2,0,L|372:180,1,83.9999974365235,2|0,0:2|0:2,0:2:0:0:
188,48,178133,2,0,L|103:48,1,83.9999974365235,8|2,0:2|0:2,0:2:0:0:
79,284,178449,6,0,P|128:349|209:358,1,167.999994873047,2|8,0:2|0:2,0:2:0:0:
164,195,178922,2,0,P|162:237|171:278,1,83.9999974365235,2|0,0:2|0:2,0:2:0:0:
180,80,179238,1,2,0:2:0:0:
68,116,179396,2,0,P|55:155|54:197,1,83.9999974365235,8|0,0:2|0:2,0:2:0:0:
204,304,179712,6,0,P|240:283|268:252,1,83.9999974365235,2|0,0:2|0:2,0:2:0:0:
252,212,179949,1,0,0:2:0:0:
228,177,180027,1,8,0:2:0:0:
328,112,180186,1,0,0:2:0:0:
452,304,180344,6,0,P|415:283|387:252,1,83.9999974365235,2|0,0:2|0:2,0:2:0:0:
328,112,180660,1,8,0:2:0:0:
220,156,180818,1,2,0:2:0:0:
432,174,180975,37,2,0:2:0:0:
220,156,181133,1,0,0:2:0:0:
336,58,181291,1,8,0:2:0:0:
318,272,181449,1,0,0:2:0:0:
257,83,181607,2,0,L|173:73,1,83.9999974365235,2|0,0:2|0:2,0:2:0:0:
244,234,181922,1,8,0:2:0:0:
408,96,182080,1,0,0:2:0:0:
394,245,182238,6,0,L|477:254,1,83.9999974365235,2|0,0:2|0:2,0:2:0:0:
416,356,182554,2,0,P|374:360|338:341,1,83.9999974365235,10|0,0:2|0:2,0:2:0:0:
330,81,182870,2,0,P|371:76|408:95,1,83.9999974365235,2|0,0:2|0:2,0:2:0:0:
244,160,183186,1,8,0:2:0:0:
224,44,183344,1,2,0:2:0:0:
356,192,183501,5,2,0:2:0:0:
180,260,183659,1,0,0:2:0:0:
375,273,183817,1,8,0:2:0:0:
160,178,183975,1,0,0:2:0:0:
321,363,184133,6,0,P|359:379|401:375,1,83.9999974365235,2|0,0:2|0:2,0:2:0:0:
214,88,184449,1,8,0:2:0:0:
24,244,184607,2,0,P|40:282|72:309,1,83.9999974365235,2|0,0:2|0:2,0:2:0:0:
214,88,184922,1,0,0:2:0:0:
332,112,185080,2,0,L|413:130,1,83.9999974365235,10|0,0:2|0:2,0:2:0:0:
316,256,185396,5,2,0:2:0:0:
284,32,185554,1,0,0:2:0:0:
197,294,185712,1,10,0:2:0:0:
332,112,185870,1,2,0:2:0:0:
415,332,186028,38,0,P|350:381|269:373,1,167.999994873047,2|8,0:2|0:2,0:2:0:0:
184,152,186501,2,0,P|249:103|330:111,1,167.999994873047,2|0,0:2|0:2,0:2:0:0:
420,188,186975,1,10,0:2:0:0:
392,304,187133,1,0,0:2:0:0:
276,299,187291,6,0,P|236:312|196:300,1,83.9999974365235,0|2,0:2|0:2,0:2:0:0:
196,180,187607,2,0,P|235:168|275:180,1,83.9999974365235,8|0,0:2|0:2,0:2:0:0:
92,300,187922,2,0,P|52:312|12:300,1,83.9999974365235,2|0,0:2|0:2,0:2:0:0:
156,104,188238,2,0,P|195:91|235:103,1,83.9999974365235,10|0,0:2|0:2,0:2:0:0:
388,296,188554,5,8,0:2:0:0:
388,296,188712,1,0,0:2:0:0:
360,60,188869,1,8,0:2:0:0:
360,60,189027,1,0,0:2:0:0:
124,88,189185,1,8,0:2:0:0:
124,88,189343,1,0,0:2:0:0:
152,324,189501,1,8,0:2:0:0:
152,324,189659,1,0,0:2:0:0:
256,192,189818,5,0,0:2:0:0:
263,179,189896,1,0,0:2:0:0:
267,166,189975,1,0,0:2:0:0:
268,152,190054,1,0,0:2:0:0:
266,138,190133,1,0,0:2:0:0:
261,125,190212,1,0,0:2:0:0:
255,112,190291,1,0,0:2:0:0:
249,99,190370,1,0,0:2:0:0:
245,86,190449,1,0,0:2:0:0:
244,72,190528,1,0,0:2:0:0:
245,58,190607,1,0,0:2:0:0:
249,45,190686,1,0,0:2:0:0:
255,33,190765,38,0,P|289:25|323:31,1,70,2|4,0:2|0:2,0:2:0:0:
200,288,193607,6,0,L|211:218,1,70,8|0,0:2|0:2,0:2:0:0:
296,268,193922,2,0,L|284:337,1,70,8|0,0:2|0:2,0:2:0:0:
216,116,194238,2,0,L|227:46,1,70,8|0,0:2|0:2,0:2:0:0:
312,96,194554,2,0,L|300:165,1,70,8|0,0:2|0:2,0:2:0:0:
256,256,194870,5,8,0:2:0:0:
242,287,194949,1,0,0:2:0:0:
257,318,195028,1,0,0:2:0:0:
289,330,195107,1,0,0:2:0:0:
321,318,195186,1,0,0:2:0:0:
335,287,195265,1,0,0:2:0:0:
321,256,195344,1,8,0:2:0:0:
288,244,195422,1,0,0:2:0:0:
256,256,195501,5,0,0:2:0:0:
222,280,195579,1,0,0:2:0:0:
182,292,195658,1,0,0:2:0:0:
140,288,195737,1,0,0:2:0:0:
102,270,195816,1,8,0:2:0:0:
74,240,195895,1,0,0:2:0:0:
57,201,195974,1,0,0:2:0:0:
56,159,196053,1,0,0:2:0:0:
69,120,196133,6,0,P|112:67|180:62,1,140,6|8,0:2|0:2,0:2:0:0:
272,96,196607,1,0,0:2:0:0:
196,156,196765,2,0,P|220:180|253:189,1,70,2|0,0:2|0:2,0:2:0:0:
432,96,197080,1,8,0:2:0:0:
352,40,197238,1,0,0:2:0:0:
352,140,197396,6,0,P|406:181|473:174,1,140,2|8,0:2|0:2,0:2:0:0:
352,40,197870,1,0,0:2:0:0:
260,72,198028,2,0,L|196:100,1,70,2|0,0:2|0:2,0:2:0:0:
336,136,198344,1,8,0:2:0:0:
352,40,198501,1,0,0:2:0:0:
244,168,198659,6,0,P|289:218|357:227,1,140,2|8,0:2|0:2,0:2:0:0:
240,288,199133,2,0,P|206:297|176:315,1,70,2|0,0:2|0:2,0:2:0:0:
100,380,199449,1,0,0:2:0:0:
80,284,199607,2,0,L|70:214,1,70,8|0,0:2|0:2,0:2:0:0:
46,46,199922,6,0,P|39:107|99:100,1,140,2|8,0:2|0:2,0:2:0:0:
36,208,200396,2,0,P|70:213|103:204,1,70,2|0,0:2|0:2,0:2:0:0:
188,152,200712,1,0,0:2:0:0:
192,248,200870,1,8,0:2:0:0:
276,196,201028,1,0,0:2:0:0:
280,292,201186,5,2,0:2:0:0:
188,152,201344,1,0,0:2:0:0:
196,344,201501,1,8,0:2:0:0:
104,203,201659,2,0,P|74:221|57:251,1,70,2|0,0:2|0:2,0:2:0:0:
280,292,201975,1,0,0:2:0:0:
192,248,202133,1,8,0:2:0:0:
196,344,202291,1,0,0:2:0:0:
276,196,202449,6,0,P|275:161|258:131,1,70,2|0,0:2|0:2,0:2:0:0:
124,52,202765,1,8,0:2:0:0:
68,132,202922,2,0,L|62:201,1,70,2|0,0:2|0:2,0:2:0:0:
192,248,203238,1,0,0:2:0:0:
188,152,203396,1,8,0:2:0:0:
192,248,203554,1,0,0:2:0:0:
104,204,203712,5,2,0:2:0:0:
124,52,203870,1,0,0:2:0:0:
276,72,204028,1,8,0:2:0:0:
255,223,204186,2,0,P|273:253|302:272,1,70,2|0,0:2|0:2,0:2:0:0:
188,144,204501,1,0,0:2:0:0:
104,204,204659,2,0,P|86:234|85:268,1,70,8|0,0:2|0:2,0:2:0:0:
116,364,204975,5,2,0:2:0:0:
184,292,205133,1,0,0:2:0:0:
217,280,205211,1,0,0:2:0:0:
251,275,205290,1,8,0:2:0:0:
286,278,205369,1,0,0:2:0:0:
320,286,205448,1,0,0:2:0:0:
400,344,205607,1,2,0:2:0:0:
460,200,205765,1,0,0:2:0:0:
400,344,205922,1,10,0:2:0:0:
340,199,206080,1,0,0:2:0:0:
280,343,206238,6,0,P|213:361|147:342,1,140,6|8,0:2|0:2,0:2:0:0:
68,284,206712,1,0,0:2:0:0:
160,248,206870,2,0,P|183:222|201:192,1,70,2|0,0:2|0:2,0:2:0:0:
184,96,207186,1,8,0:2:0:0:
104,156,207344,1,0,0:2:0:0:
276,132,207501,6,0,L|345:120,1,70,2|0,0:2|0:2,0:2:0:0:
328,216,207817,2,0,L|258:227,1,70,8|0,0:2|0:2,0:2:0:0:
428,208,208133,1,2,0:2:0:0:
384,296,208291,1,0,0:2:0:0:
372,128,208449,1,8,0:2:0:0:
480,288,208607,1,0,0:2:0:0:
287,303,208765,6,0,P|236:260|232:192,1,140,2|8,0:2|0:2,0:2:0:0:
132,279,209238,2,0,P|104:301|71:311,1,70,2|0,0:2|0:2,0:2:0:0:
45,150,209554,1,0,0:2:0:0:
45,150,209712,2,0,L|36:220,1,70,8|0,0:2|0:2,0:2:0:0:
171,167,210028,6,0,P|235:144|264:81,1,140,2|8,0:2|0:2,0:2:0:0:
327,191,210501,2,0,P|338:224|364:248,1,70,2|0,0:2|0:2,0:2:0:0:
424,96,210817,1,0,0:2:0:0:
423,96,210975,2,0,L|432:165,1,70,8|0,0:2|0:2,0:2:0:0:
431,266,211291,5,2,0:2:0:0:
431,266,211449,2,0,L|339:242,1,70,2|8,0:2|0:2,0:2:0:0:
223,139,211765,1,2,0:2:0:0:
223,139,211922,2,0,P|255:126|287:139,1,70,2|0,0:2|0:2,0:2:0:0:
148,248,212238,1,10,0:2:0:0:
148,248,212396,2,0,L|81:266,1,70,2|0,0:2|0:2,0:2:0:0:
140,344,212712,1,2,0:2:0:0:
232,304,212870,2,0,L|250:236,1,70,10|0,0:2|0:2,0:2:0:0:
374,137,213186,5,0,0:2:0:0:
333,291,213344,1,0,0:2:0:0:
275,142,213501,1,8,0:2:0:0:
408,228,213659,1,0,0:2:0:0:
250,236,213817,5,2,0:2:0:0:
250,236,213975,2,0,L|234:304,1,70,2|8,0:2|0:2,0:2:0:0:
168,140,214291,1,2,0:2:0:0:
168,140,214449,2,0,L|183:71,1,70,2|0,0:2|0:2,0:2:0:0:
344,140,214765,1,10,0:2:0:0:
344,140,214923,2,0,L|328:71,1,70,2|0,0:2|0:2,0:2:0:0:
256,140,215238,1,2,0:2:0:0:
256,240,215396,2,0,L|256:310,1,70,10|0,0:2|0:2,0:2:0:0:
188,380,215712,5,0,0:2:0:0:
341,296,215870,1,0,0:2:0:0:
171,296,216028,1,8,0:2:0:0:
324,380,216186,1,0,0:2:0:0:
256,240,216344,5,2,0:2:0:0:
256,240,216501,2,0,L|256:170,1,70,2|8,0:2|0:2,0:2:0:0:
224,344,216817,1,2,0:2:0:0:
224,344,216975,2,0,P|256:356|288:343,1,70,2|0,0:2|0:2,0:2:0:0:
288,168,217291,1,10,0:2:0:0:
288,168,217449,2,0,P|255:155|223:168,1,70,2|0,0:2|0:2,0:2:0:0:
144,228,217765,1,2,0:2:0:0:
136,131,217922,2,0,P|131:98|105:76,1,70,10|0,0:2|0:2,0:2:0:0:
52,184,218238,5,0,0:2:0:0:
224,166,218396,1,0,0:2:0:0:
67,290,218554,1,8,0:2:0:0:
136,131,218712,1,0,0:2:0:0:
207,289,218870,5,2,0:2:0:0:
207,289,219028,2,0,L|276:295,1,70,2|8,0:2|0:2,0:2:0:0:
305,95,219344,1,2,0:2:0:0:
305,95,219502,2,0,L|235:88,1,70,2|0,0:2|0:2,0:2:0:0:
388,216,219817,1,10,0:2:0:0:
388,216,219975,2,0,L|457:222,1,70,2|0,0:2|0:2,0:2:0:0:
432,128,220291,1,2,0:2:0:0:
332,127,220449,2,0,P|302:146|288:177,1,70,10|0,0:2|0:2,0:2:0:0:
296,276,220765,5,0,0:2:0:0:
216,128,220922,1,0,0:2:0:0:
152,232,221080,1,8,0:2:0:0:
113,68,221237,1,0,0:2:0:0:
56,260,221396,6,0,P|70:291|98:311,2,70,2|2|8,0:2|0:2|0:2,0:2:0:0:
152,232,221870,2,0,P|184:244|218:238,2,70,2|2|0,0:2|0:2|0:2,0:2:0:0:
200,144,222344,2,0,P|231:129|251:101,2,70,10|2|0,0:2|0:2|0:2,0:2:0:0:
168,52,222817,1,2,0:2:0:0:
259,16,222975,2,0,P|294:21|321:42,1,70,10|0,0:2|0:2,0:2:0:0:
356,136,223291,5,0,0:2:0:0:
444,184,223449,1,0,0:2:0:0:
356,232,223607,1,8,0:2:0:0:
444,280,223765,1,0,0:2:0:0:
356,232,223922,6,0,L|286:232,2,70,2|2|8,0:2|0:2|0:2,0:2:0:0:
324,140,224396,2,0,L|254:140,2,70,2|2|0,0:2|0:2|0:2,0:2:0:0:
292,48,224870,2,0,L|222:48,2,70,10|2|0,0:2|0:2|0:2,0:2:0:0:
392,48,225344,1,2,0:2:0:0:
428,140,225501,2,0,L|428:210,1,70,10|0,0:2|0:2,0:2:0:0:
428,308,225817,5,0,0:2:0:0:
340,264,225975,1,0,0:2:0:0:
288,348,226133,1,8,0:2:0:0:
200,304,226291,1,0,0:2:0:0:
252,220,226449,5,2,0:2:0:0:
251,220,226607,2,0,P|272:154|251:88,1,140,2|2,0:2|0:2,0:2:0:0:
180,156,227080,2,0,P|114:177|48:156,1,140,2|2,0:2|0:2,0:2:0:0:
48,56,227554,2,0,P|113:35|179:56,1,140,2|2,0:2|0:2,0:2:0:0:
338,104,228028,2,0,L|268:104,1,70,2|0,0:2|0:2,0:2:0:0:
232,196,228344,2,0,L|302:196,1,70,0|0,0:2|0:2,0:2:0:0:
400,196,228659,1,0,0:2:0:0:
400,196,228817,1,0,0:2:0:0:
440,284,228975,5,2,0:2:0:0:
440,284,229133,2,0,B|408:300|372:284|372:284|336:272|304:284,1,140,2|2,0:2|0:2,0:2:0:0:
208,284,229607,2,0,B|176:272|140:284|140:284|104:300|72:284,1,140,2|2,0:2|0:2,0:2:0:0:
100,191,230080,2,0,P|128:130|100:68,1,140,2|2,0:2|0:2,0:2:0:0:
208,168,230554,2,0,P|214:133|210:98,1,70,2|0,0:2|0:2,0:2:0:0:
252,8,230870,2,0,P|278:30|298:58,1,70,0|0,0:2|0:2,0:2:0:0:
340,148,231186,1,0,0:2:0:0:
340,148,231344,1,0,0:2:0:0:
396,68,231501,5,6,0:2:0:0:
256,192,231580,12,6,236554,0:2:0:0:
256,196,237659,5,0,0:2:0:0:
253,71,239080,6,0,B|228:68|228:68|240:144|175:179,1,157.500006008148,2|0,0:2|0:2,0:2:0:0:
148,96,240186,1,0,0:2:0:0:
135,194,241607,6,0,B|132:220|132:220|208:208|243:272,1,157.500006008148,2|0,0:2|0:2,0:2:0:0:
160,300,242713,1,0,0:2:0:0:
258,312,244133,6,0,B|284:316|284:316|272:240|336:204,1,157.500006008148,2|0,0:2|0:2,0:2:0:0:
364,288,245239,1,0,0:2:0:0:
376,187,246659,6,0,B|380:164|380:164|304:176|276:129,2,140,6|8|2,0:2|0:2|0:2,0:2:0:0:
352,84,247449,1,0,0:2:0:0:
351,84,247607,2,0,P|386:81|421:88,1,70,8|0,0:2|0:2,0:2:0:0:
284,156,247922,1,2,0:2:0:0:
256,64,248080,1,0,0:2:0:0:
184,131,248238,2,0,P|158:155|125:167,1,70,8|0,0:2|0:2,0:2:0:0:
32,192,248554,5,2,0:2:0:0:
32,192,248712,1,2,0:2:0:0:
208,228,248870,1,10,0:2:0:0:
208,228,249028,1,2,0:2:0:0:
380,176,249186,6,0,P|396:242|369:306,1,140,2|8,0:2|0:2,0:2:0:0:
272,312,249659,1,0,0:2:0:0:
167,191,249817,1,2,0:2:0:0:
321,227,249975,1,0,0:2:0:0:
175,289,250133,1,8,0:2:0:0:
258,153,250291,1,0,0:2:0:0:
272,312,250449,5,2,0:2:0:0:
175,289,250607,1,0,0:2:0:0:
321,227,250765,2,0,L|390:227,1,70,8|0,0:2|0:2,0:2:0:0:
204,100,251080,2,0,P|169:95|134:99,1,70,2|0,0:2|0:2,0:2:0:0:
256,184,251396,1,8,0:2:0:0:
304,100,251554,1,0,0:2:0:0:
252,16,251712,6,0,P|185:33|140:86,1,140,2|8,0:2|0:2,0:2:0:0:
128,184,252186,1,0,0:2:0:0:
220,152,252344,1,2,0:2:0:0:
208,248,252501,1,0,0:2:0:0:
304,100,252659,1,8,0:2:0:0:
384,256,252817,1,0,0:2:0:0:
296,299,252975,6,0,P|275:327|245:344,1,70,2|0,0:2|0:2,0:2:0:0:
253,144,253291,2,0,P|273:116|303:99,1,70,8|0,0:2|0:2,0:2:0:0:
148,232,253607,2,0,P|120:211|103:181,1,70,2|0,0:2|0:2,0:2:0:0:
160,100,253922,1,8,0:2:0:0:
200,316,254080,1,0,0:2:0:0:
266,69,254238,53,8,0:2:0:0:
200,316,254396,1,0,0:2:0:0:
109,160,254554,1,8,0:2:0:0:
357,226,254712,1,0,0:2:0:0:
122,257,254870,1,8,0:2:0:0:
345,129,255028,1,0,0:2:0:0:
168,82,255186,1,8,0:2:0:0:
297,304,255344,1,0,0:2:0:0:
345,129,255501,6,0,L|345:76,1,52.5000020027161,2|0,0:2|0:2,0:2:0:0:
167,255,255817,2,0,L|167:307,1,52.5000020027161,2|0,0:2|0:2,0:2:0:0:
256,196,256133,37,2,0:2:0:0:
256,184,256291,1,2,0:2:0:0:
256,172,256449,1,2,0:2:0:0:
256,160,256607,1,2,0:2:0:0:
256,148,256765,22,0,B|240:192|256:244|256:244|272:296|256:340,1,195.999994018555,6|8,1:2|0:2,0:2:0:0:
255,340,257238,5,0,0:2:0:0:
168,188,257396,2,0,P|161:146|170:105,1,83.9999974365235,2|0,0:2|1:2,0:2:0:0:
342,105,257712,2,0,P|351:146|344:187,1,83.9999974365235,8|0,0:2|0:2,0:2:0:0:
256,268,258028,5,2,1:2:0:0:
256,148,258186,1,0,0:2:0:0:
151,208,258344,2,0,P|111:216|70:208,1,83.9999974365235,8|0,0:2|0:2,0:2:0:0:
214,72,258659,2,0,P|254:64|296:72,1,83.9999974365235,2|0,0:2|1:2,0:2:0:0:
108,128,258975,1,8,0:2:0:0:
124,12,259133,1,2,0:2:0:0:
211,188,259291,6,0,P|188:222|152:243,1,83.9999974365235,2|0,1:2|0:2,0:2:0:0:
214,72,259607,1,8,0:2:0:0:
312,264,259765,2,0,P|349:281|391:282,1,83.9999974365235,2|0,0:2|0:2,0:2:0:0:
412,104,260080,1,2,1:2:0:0:
211,188,260238,2,0,P|193:225|192:267,1,83.9999974365235,8|0,0:2|0:2,0:2:0:0:
248,92,260554,38,0,L|164:88,1,83.9999974365235,2|0,1:2|0:2,0:2:0:0:
72,248,260870,1,8,0:2:0:0:
100,360,261028,1,0,0:2:0:0:
304,153,261186,2,0,L|247:91,1,83.9999974365235,2|0,0:2|1:2,0:2:0:0:
70,139,261502,1,8,0:2:0:0:
10,238,261660,1,2,0:2:0:0:
196,347,261817,6,0,P|236:276|229:193,1,167.999994873047,2|8,1:2|0:2,0:2:0:0:
343,291,262291,2,0,P|379:314|420:319,1,83.9999974365235,2|0,0:2|0:2,0:2:0:0:
476,216,262607,1,2,1:2:0:0:
420,112,262765,2,0,P|378:116|343:139,1,83.9999974365235,8|0,0:2|0:2,0:2:0:0:
260,328,263080,5,2,0:2:0:0:
352,256,263238,1,0,0:2:0:0:
244,212,263396,2,0,L|160:212,1,83.9999974365235,8|0,0:2|0:2,0:2:0:0:
272,60,263712,2,0,P|313:52|354:59,1,83.9999974365235,2|0,0:2|1:2,0:2:0:0:
284,300,264028,2,0,P|242:307|201:300,1,83.9999974365235,8|2,0:2|0:2,0:2:0:0:
376,244,264344,6,0,L|389:326,1,83.9999974365235,2|0,0:2|0:2,0:2:0:0:
308,148,264659,1,8,0:2:0:0:
201,286,264817,2,0,L|283:299,1,83.9999974365235,2|0,0:2|0:2,0:2:0:0:
105,218,265132,1,2,0:2:0:0:
92,336,265291,2,0,L|168:370,1,83.9999974365235,8|0,0:2|0:2,0:2:0:0:
343,370,265607,6,0,P|354:330|342:291,1,83.9999974365235,2|0,0:2|0:2,0:2:0:0:
253,226,265922,1,8,0:2:0:0:
360,176,266080,1,0,0:2:0:0:
253,226,266238,1,2,0:2:0:0:
360,176,266396,1,0,0:2:0:0:
264,108,266554,1,8,0:2:0:0:
256,344,266712,1,2,0:2:0:0:
176,96,266870,37,6,0:2:0:0:
360,192,267028,1,0,0:2:0:0:
176,287,267186,2,0,P|134:282|95:267,1,83.9999974365235,8|0,0:2|0:2,0:2:0:0:
336,96,267501,1,2,0:2:0:0:
152,192,267659,1,0,0:2:0:0:
335,287,267817,2,0,P|377:282|416:267,1,83.9999974365235,8|0,0:2|0:2,0:2:0:0:
256,76,268133,5,2,0:2:0:0:
256,192,268291,1,0,0:2:0:0:
152,136,268449,1,10,0:2:0:0:
360,136,268607,1,0,0:2:0:0:
256,308,268765,1,2,0:2:0:0:
256,76,268922,1,0,0:2:0:0:
132,292,269080,1,8,0:2:0:0:
380,292,269238,1,2,0:2:0:0:
131,292,269396,6,0,P|93:307|51:303,1,83.9999974365235,2|0,0:2|0:2,0:2:0:0:
104,68,269712,2,0,P|142:52|184:56,1,83.9999974365235,8|0,0:2|0:2,0:2:0:0:
231,228,270028,1,2,0:2:0:0:
131,292,270185,1,0,0:2:0:0:
127,176,270343,1,8,0:2:0:0:
127,176,270501,1,0,0:2:0:0:
271,108,270659,5,2,0:2:0:0:
176,220,270817,1,0,0:2:0:0:
321,246,270975,1,10,0:2:0:0:
141,94,271133,1,0,0:2:0:0:
229,339,271291,1,2,0:2:0:0:
398,140,271449,1,0,0:2:0:0:
256,192,271607,1,8,0:2:0:0:
256,192,271764,1,2,0:2:0:0:
159,307,271922,6,0,P|105:245|108:163,1,167.999994873047,2|8,0:2|0:2,0:2:0:0:
352,76,272396,2,0,P|405:138|403:220,1,167.999994873047,2|0,0:2|0:2,0:2:0:0:
292,184,272870,1,10,0:2:0:0:
312,300,273028,1,0,0:2:0:0:
200,260,273186,38,0,P|158:255|119:269,1,83.9999974365235,2|0,0:2|0:2,0:2:0:0:
28,344,273501,1,8,0:2:0:0:
28,344,273659,1,0,0:2:0:0:
140,376,273817,2,0,P|181:377|218:358,1,83.9999974365235,2|0,0:2|0:2,0:2:0:0:
256,168,274133,1,8,0:2:0:0:
256,284,274291,1,0,0:2:0:0:
184,192,274449,5,8,0:2:0:0:
348,232,274607,1,0,0:2:0:0:
164,192,274765,5,8,0:2:0:0:
368,147,274923,1,0,0:2:0:0:
136,192,275080,5,8,0:2:0:0:
394,243,275238,1,0,0:2:0:0:
104,192,275396,5,8,0:2:0:0:
426,132,275554,1,0,0:2:0:0:
312,360,275712,5,8,0:2:0:0:
373,59,276028,1,0,0:2:0:0:
373,59,276186,1,8,0:2:0:0:
82,156,276501,1,0,0:2:0:0:
82,156,276659,1,8,0:2:0:0:
82,156,276817,1,0,0:2:0:0:
196,128,276975,38,0,P|187:209|125:263,1,167.999994873047,6|8,0:2|0:2,0:2:0:0:
32,136,277449,1,0,0:2:0:0:
32,136,277607,2,0,L|109:167,1,83.9999974365235,2|0,0:2|0:2,0:2:0:0:
220,52,277922,2,0,P|178:48|142:68,1,83.9999974365235,8|0,0:2|0:2,0:2:0:0:
280,152,278238,5,2,0:2:0:0:
336,48,278396,1,0,0:2:0:0:
219,52,278554,2,0,P|187:78|172:116,1,83.9999974365235,8|0,0:2|0:2,0:2:0:0:
312,272,278870,2,0,L|395:279,1,83.9999974365235,2|0,0:2|0:2,0:2:0:0:
196,244,279186,1,8,0:2:0:0:
228,356,279344,1,2,0:2:0:0:
280,160,279501,6,0,L|280:76,1,83.9999974365235,2|0,0:2|0:2,0:2:0:0:
268,280,279817,1,8,0:2:0:0:
168,119,279975,2,0,P|127:130|94:156,1,83.9999974365235,2|0,0:2|0:2,0:2:0:0:
180,320,280291,1,2,0:2:0:0:
276,256,280449,1,8,0:2:0:0:
172,204,280607,1,0,0:2:0:0:
291,371,280765,6,0,P|332:382|372:371,1,83.9999974365235,2|0,0:2|0:2,0:2:0:0:
452,284,281080,1,8,0:2:0:0:
336,264,281238,1,0,0:2:0:0:
452,284,281396,2,0,P|452:242|432:205,1,83.9999974365235,2|0,0:2|0:2,0:2:0:0:
328,148,281711,1,8,0:2:0:0:
337,266,281869,1,0,0:2:0:0:
232,208,282028,38,0,P|199:181|159:171,1,83.9999974365235,2|0,0:2|0:2,0:2:0:0:
16,220,282344,1,8,0:2:0:0:
116,280,282501,1,0,0:2:0:0:
159,171,282659,2,0,P|167:131|157:90,1,83.9999974365235,2|0,0:2|0:2,0:2:0:0:
48,152,282975,1,8,0:2:0:0:
160,300,283133,1,2,0:2:0:0:
240,132,283291,6,0,L|323:126,1,83.9999974365235,2|0,0:2|0:2,0:2:0:0:
160,300,283607,2,0,L|76:305,1,83.9999974365235,10|0,0:2|0:2,0:2:0:0:
196,48,283922,2,0,P|237:40|278:44,1,83.9999974365235,2|0,0:2|0:2,0:2:0:0:
316,336,284238,2,0,P|274:343|233:339,1,83.9999974365235,8|0,0:2|0:2,0:2:0:0:
352,84,284554,6,0,L|435:78,1,83.9999974365235,2|0,0:2|0:2,0:2:0:0:
192,188,284870,1,8,0:2:0:0:
308,180,285028,2,0,L|391:174,1,83.9999974365235,2|0,0:2|0:2,0:2:0:0:
256,284,285344,1,2,0:2:0:0:
248,88,285501,2,0,P|223:54|186:34,1,83.9999974365235,8|0,0:2|0:2,0:2:0:0:
68,32,285817,6,0,P|31:51|6:85,1,83.9999974365235,2|0,0:2|0:2,0:2:0:0:
32,200,286133,1,8,0:2:0:0:
32,200,286291,1,0,0:2:0:0:
197,148,286449,6,0,P|161:125|120:121,1,83.9999974365235,2|0,0:2|0:2,0:2:0:0:
32,200,286765,1,8,0:2:0:0:
32,200,286923,1,0,0:2:0:0:
196,148,287080,37,6,0:2:0:0:
160,316,287238,1,0,0:2:0:0:
32,200,287396,1,8,0:2:0:0:
196,148,287554,1,0,0:2:0:0:
62,295,287712,2,0,L|76:380,1,83.9999974365235,2|0,0:2|0:2,0:2:0:0:
99,126,288028,1,8,0:2:0:0:
226,242,288186,1,0,0:2:0:0:
32,200,288344,6,0,L|18:117,1,83.9999974365235,2|0,0:2|0:2,0:2:0:0:
160,316,288659,2,0,L|242:302,1,83.9999974365235,10|0,0:2|0:2,0:2:0:0:
228,60,288975,2,0,P|186:59|146:72,1,83.9999974365235,2|0,0:2|0:2,0:2:0:0:
308,148,289291,1,8,0:2:0:0:
344,36,289449,1,0,0:2:0:0:
384,240,289607,5,2,0:2:0:0:
228,60,289765,1,0,0:2:0:0:
404,148,289922,1,8,0:2:0:0:
165,131,290080,1,0,0:2:0:0:
248,324,290238,6,0,P|287:335|328:328,1,83.9999974365235,2|0,0:2|0:2,0:2:0:0:
228,60,290554,1,8,0:2:0:0:
96,308,290712,2,0,P|55:298|23:271,1,83.9999974365235,2|0,0:2|0:2,0:2:0:0:
165,131,291028,1,0,0:2:0:0:
252,208,291186,2,0,L|335:200,1,83.9999974365235,10|0,0:2|0:2,0:2:0:0:
248,324,291501,5,2,0:2:0:0:
165,131,291659,1,0,0:2:0:0:
84,334,291817,1,10,0:2:0:0:
252,208,291975,1,2,0:2:0:0:
84,68,292133,38,0,P|70:148|114:217,1,167.999994873047,2|8,0:2|0:2,0:2:0:0:
352,172,292607,2,0,P|365:91|321:22,1,167.999994873047,2|0,0:2|0:2,0:2:0:0:
236,200,293080,2,0,L|249:282,1,83.9999974365235,10|0,0:2|0:2,0:2:0:0:
360,328,293396,5,2,0:2:0:0:
360,328,293554,1,0,0:2:0:0:
360,212,293712,2,0,L|347:130,1,83.9999974365235,8|0,0:2|0:2,0:2:0:0:
152,172,294028,2,0,L|165:254,1,83.9999974365235,2|0,0:2|0:2,0:2:0:0:
216,72,294344,1,8,0:2:0:0:
100,68,294501,1,0,0:2:0:0:
152,324,294659,5,8,0:2:0:0:
152,324,294817,1,0,0:2:0:0:
388,296,294974,1,8,0:2:0:0:
388,296,295132,1,0,0:2:0:0:
360,60,295290,1,8,0:2:0:0:
360,60,295448,1,0,0:2:0:0:
124,88,295606,1,8,0:2:0:0:
124,88,295764,1,0,0:2:0:0:
256,192,295922,5,0,0:2:0:0:
263,205,296000,1,0,0:2:0:0:
267,218,296079,1,0,0:2:0:0:
268,232,296158,1,0,0:2:0:0:
266,246,296237,1,0,0:2:0:0:
261,259,296316,1,0,0:2:0:0:
255,272,296395,1,0,0:2:0:0:
249,285,296474,1,0,0:2:0:0:
245,298,296553,1,0,0:2:0:0:
244,312,296632,1,0,0:2:0:0:
245,326,296711,1,0,0:2:0:0:
249,339,296790,1,0,0:2:0:0:
254,350,296870,6,0,P|316:355|366:319,1,125.999996154785,2|0,0:2|0:2,0:2:0:0:
348,272,297186,6,0,P|396:318|461:303,1,140,6|8,0:2|0:2,0:2:0:0:
488,208,297659,1,0,0:2:0:0:
396,176,297817,2,0,L|326:166,1,70,0|0,0:2|0:2,0:2:0:0:
232,200,298133,1,8,0:2:0:0:
308,264,298291,1,0,0:2:0:0:
212,292,298449,6,0,L|146:316,1,70,2|0,0:2|0:2,0:2:0:0:
76,244,298765,2,0,L|141:219,1,70,8|0,0:2|0:2,0:2:0:0:
160,124,299080,1,0,0:2:0:0:
160,124,299238,1,0,0:2:0:0:
256,40,299396,1,8,0:2:0:0:
352,124,299554,1,0,0:2:0:0:
351,24,299712,6,0,P|416:48|450:107,1,140,2|8,0:2|0:2,0:2:0:0:
476,204,300186,1,0,0:2:0:0:
384,175,300344,2,0,P|363:204|358:238,1,70,0|0,0:2|0:2,0:2:0:0:
352,336,300659,1,8,0:2:0:0:
440,292,300817,1,0,0:2:0:0:
358,238,300975,6,0,L|288:232,1,70,2|0,0:2|0:2,0:2:0:0:
260,136,301291,2,0,L|329:141,1,70,8|0,0:2|0:2,0:2:0:0:
428,152,301607,1,0,0:2:0:0:
428,152,301765,1,0,0:2:0:0:
452,57,301922,2,0,P|418:56|383:64,1,70,8|0,0:2|0:2,0:2:0:0:
360,224,302238,6,0,P|422:251|488:233,1,140,2|8,0:2|0:2,0:2:0:0:
428,152,302712,1,0,0:2:0:0:
332,131,302870,2,0,P|300:146|280:174,1,70,0|0,0:2|0:2,0:2:0:0:
256,268,303186,1,8,0:2:0:0:
352,240,303344,1,0,0:2:0:0:
332,335,303501,6,0,P|307:360|273:369,1,70,2|0,0:2|0:2,0:2:0:0:
176,360,303817,2,0,P|142:350|117:326,1,70,8|0,0:2|0:2,0:2:0:0:
64,244,304133,1,0,0:2:0:0:
64,244,304291,1,0,0:2:0:0:
196,260,304449,1,8,0:2:0:0:
144,136,304607,1,0,0:2:0:0:
119,319,304765,6,0,P|175:359|242:344,1,140,2|8,0:2|0:2,0:2:0:0:
296,264,305238,1,0,0:2:0:0:
296,264,305396,2,0,L|332:324,1,70,0|0,0:2|0:2,0:2:0:0:
428,344,305712,1,8,0:2:0:0:
428,344,305870,1,0,0:2:0:0:
396,252,306028,6,0,L|405:182,1,70,2|0,0:2|0:2,0:2:0:0:
420,84,306344,1,8,0:2:0:0:
420,84,306501,1,0,0:2:0:0:
328,116,306659,2,0,L|318:185,1,70,0|0,0:2|0:2,0:2:0:0:
304,284,306975,1,8,0:2:0:0:
304,284,307132,1,0,0:2:0:0:
223,224,307291,6,0,P|155:226|104:271,2,140,6|8|0,0:2|0:2|0:2,0:2:0:0:
188,316,308080,1,0,0:2:0:0:
188,316,308238,2,0,L|258:316,1,70,8|0,0:2|0:2,0:2:0:0:
356,316,308554,6,0,L|368:248,1,70,2|0,0:2|0:2,0:2:0:0:
300,176,308870,2,0,L|288:244,1,70,8|0,0:2|0:2,0:2:0:0:
368,247,309186,2,0,L|380:179,1,70,2|0,0:2|0:2,0:2:0:0:
312,107,309502,2,0,L|300:175,1,70,8|0,0:2|0:2,0:2:0:0:
279,271,309817,6,0,P|214:249|173:194,2,140,2|8|0,0:2|0:2|0:2,0:2:0:0:
372,236,310607,1,0,0:2:0:0:
372,236,310765,2,0,L|375:305,1,70,8|0,0:2|0:2,0:2:0:0:
284,344,311080,6,0,L|216:356,1,70,2|0,0:2|0:2,0:2:0:0:
144,288,311396,2,0,L|212:276,1,70,8|0,0:2|0:2,0:2:0:0:
215,356,311712,2,0,L|147:368,1,70,2|0,0:2|0:2,0:2:0:0:
75,300,312028,2,0,L|143:288,1,70,8|0,0:2|0:2,0:2:0:0:
239,264,312344,6,0,P|259:199|215:148,1,140,2|8,0:2|0:2,0:2:0:0:
124,116,312817,1,0,0:2:0:0:
67,195,312975,2,0,P|100:209|134:211,1,70,0|0,0:2|0:2,0:2:0:0:
215,148,313291,1,8,0:2:0:0:
215,148,313449,1,0,0:2:0:0:
283,76,313607,6,0,L|295:144,1,70,2|0,0:2|0:2,0:2:0:0:
227,216,313923,2,0,L|215:148,1,70,8|0,0:2|0:2,0:2:0:0:
295,145,314239,2,0,L|307:213,1,70,2|0,0:2|0:2,0:2:0:0:
239,285,314555,2,0,L|227:217,1,70,8|0,0:2|0:2,0:2:0:0:
336,304,314870,5,2,0:2:0:0:
256,192,314949,12,0,317238,0:2:0:0:
