osu file format v14

[General]
AudioFilename: audio.mp3
AudioLeadIn: 0
PreviewTime: -1
Countdown: 1
SampleSet: Normal
StackLeniency: 0.7
Mode: 0
LetterboxInBreaks: 0
WidescreenStoryboard: 1

[Editor]
Bookmarks: 50522,165688
DistanceSpacing: 1
BeatDivisor: 4
GridSize: 4
TimelineZoom: 2.2

[Metadata]
Title:STRIKE BACK
TitleUnicode:「STRIKE BACK」
Artist:BACK-ON
ArtistUnicode:BACK-ON
Creator:Neptune
Version:Neptune
Source:
Tags:
BeatmapID:1384174
BeatmapSetID:652840

[Difficulty]
HPDrainRate:5
CircleSize:4.2
OverallDifficulty:7.8
ApproachRate:9.3
SliderMultiplier:1.4
SliderTickRate:1

[Events]
//Background and Video events
0,0,"Dualing-Battle-Anime-4K-Wallpapers.jpg",0,0
//Break Periods
2,89221,92634
2,156722,157801
//Storyboard Layer 0 (Background)
//Storyboard Layer 1 (Fail)
//Storyboard Layer 2 (Pass)
//Storyboard Layer 3 (Foreground)
//Storyboard Sound Samples

[TimingPoints]
1189,333.333333333333,4,1,0,100,1,0
11022,-133.333333333333,4,1,0,100,0,0
11855,-66.6666666666667,4,1,0,100,0,0
22522,-100,4,1,0,100,0,0
32522,-100,4,1,0,49,0,0
33188,-100,4,1,0,100,0,0
45188,-75.187969924812,4,1,0,100,0,0
45522,-60.2409638554217,4,1,0,100,0,0
45855,-50,4,1,0,100,0,0
47522,-133.333333333333,4,1,0,100,0,0
49188,-50,4,1,0,100,0,0
54188,-200,4,1,0,100,0,0
54522,-117.647058823529,4,1,0,100,0,0
61355,-200,4,1,0,50,0,0
62522,-50,4,1,0,100,0,0
86522,-66.6666666666667,4,1,0,100,0,0
93188,-100,4,1,0,100,0,0
121188,-133.333333333333,4,1,0,100,0,0
129188,-50,4,1,0,100,0,0
176522,-133.333333333333,4,1,0,100,0,0

[Colours]
Combo1 : 0,0,0
Combo2 : 192,192,192
Combo3 : 231,232,226

[HitObjects]
72,72,1189,5,8,0:0:0:0:
56,56,1355,1,0,0:0:0:0:
140,148,1522,2,0,L|200:212,1,70
300,232,1855,5,8,0:0:0:0:
300,260,2022,1,0,0:0:0:0:
300,144,2188,2,0,L|300:68,1,70
412,136,2522,5,8,0:0:0:0:
432,112,2688,1,0,0:0:0:0:
356,196,2855,2,0,L|296:260,1,70
204,292,3188,5,8,0:0:0:0:
204,320,3355,1,0,0:0:0:0:
204,220,3521,2,0,L|204:144,1,70
204,150,3772,1,0,0:0:0:0:
204,150,3855,5,8,0:0:0:0:
212,0,4022,1,0,0:0:0:0:
360,92,4188,6,0,L|299:126,1,70
188,64,4522,2,0,L|125:36,1,70,8|0,0:0|0:0,0:0:0:0:
200,236,4855,2,0,L|139:270,1,70
96,136,5189,6,0,L|192:148,1,70,8|0,0:0|0:0,0:0:0:0:
108,312,5522,2,0,L|196:280,1,70,8|0,0:0|0:0,0:0:0:0:
64,192,5856,2,0,L|-16:232,1,70,8|0,0:0|0:0,0:0:0:0:
168,116,6188,2,0,L|232:188,1,70
312,260,6522,5,12,0:0:0:0:
312,60,6688,1,0,0:0:0:0:
472,68,6855,5,0,0:0:0:0:
452,96,7021,1,0,0:0:0:0:
376,184,7188,2,0,L|316:248,1,70,8|0,0:0|0:0,0:0:0:0:
192,304,7522,5,0,0:0:0:0:
192,268,7688,1,0,0:0:0:0:
192,168,7854,2,0,L|192:92,1,70,8|0,0:0|0:0,0:0:0:0:
60,160,8188,5,0,0:0:0:0:
84,184,8354,1,0,0:0:0:0:
128,232,8521,2,0,L|188:296,1,70,8|0,0:0|0:0,0:0:0:0:
312,280,8855,2,0,L|228:192,1,105,8|0,0:0|0:0,0:0:0:0:
176,144,9188,5,12,0:0:0:0:
28,260,9355,1,0,0:0:0:0:
20,104,9522,6,0,L|84:56,1,70,8|0,0:0|0:0,0:0:0:0:
232,64,9855,2,0,L|292:136,1,70,8|0,0:0|0:0,0:0:0:0:
192,232,10188,2,0,L|92:232,1,70,8|0,0:0|0:0,0:0:0:0:
144,35,10522,6,0,L|120:60,1,35,8|0,0:0|0:0,0:0:0:0:
0,196,10688,2,0,L|23:170,1,35
72,116,10855,1,4,0:0:0:0:
24,256,11188,6,0,L|24:151,1,105.000004005432
164,20,11855,6,8,B|248:56|248:56|319:150,1,210.000008010865
180,284,12355,2,8,B|85:212|85:212|49:128,1,210.000008010865
4,288,12855,1,4,0:0:0:0:
196,136,13022,1,4,0:0:0:0:
324,296,13188,6,8,P|384:312|512:244,1,210.000008010865
500,76,13688,2,8,P|416:116|296:168,1,210.000008010865
192,224,14188,2,4,P|162:236|128:248,1,52.5000020027161
40,292,14355,1,4,0:0:0:0:
256,360,14522,5,8,0:0:0:0:
260,120,14688,1,0,0:0:0:0:
260,120,14855,6,0,L|140:168,1,105.000004005432,8|0,0:0|0:0,0:0:0:0:
32,212,15188,1,0,0:0:0:0:
296,192,15355,6,0,L|176:248,1,105.000004005432,8|4,0:0|0:0,0:0:0:0:
48,304,15688,1,0,0:0:0:0:
296,360,15855,5,8,0:0:0:0:
476,180,16021,1,0,0:0:0:0:
472,328,16188,2,10,L|392:248,1,105.000004005432,8|8,0:0|0:0,0:0:0:0:
288,128,16522,1,0,0:0:0:0:
132,280,16688,5,0,0:0:0:0:
52,160,16855,2,4,L|20:116,2,52.5000020027161,4|4|0,0:0|0:0|0:0,0:0:0:0:
272,304,17188,6,8,L|463:218,1,210.000008010865
232,216,17688,2,8,L|44:312,1,210.000008010865
52,144,18188,1,12,0:0:0:0:
52,144,18272,1,4,0:0:0:0:
52,144,18355,1,12,0:0:0:0:
48,4,18522,6,0,P|116:4|168:160,1,210.000008010865
184,272,19022,2,0,P|254:320|364:276,1,210.000008010865
456,144,19522,1,4,0:0:0:0:
456,144,19605,1,4,0:0:0:0:
456,144,19688,1,4,0:0:0:0:
352,44,19855,5,8,0:0:0:0:
232,229,20022,1,0,0:0:0:0:
288,140,20188,6,0,L|224:244,1,105.000004005432,8|0,0:0|0:0,0:0:0:0:
160,328,20521,1,0,0:0:0:0:
312,96,20688,6,0,L|312:220,1,105.000004005432,8|4,0:0|0:0,0:0:0:0:
312,364,21021,1,0,0:0:0:0:
176,192,21188,5,8,0:0:0:0:
336,112,21354,1,0,0:0:0:0:
176,192,21522,6,0,L|280:244,1,105.000004005432,8|0,0:0|0:0,0:0:0:0:
384,300,21855,1,0,0:0:0:0:
136,160,22022,6,0,L|260:160,1,105.000004005432,8|4,0:0|0:0,0:0:0:0:
292,164,22272,1,0,0:0:0:0:
292,216,22355,1,0,0:0:0:0:
292,268,22438,1,0,0:0:0:0:
288,316,22522,6,0,P|228:304|164:228,1,140,8|0,0:0|0:0,0:0:0:0:
168,76,23022,1,0,0:0:0:0:
316,72,23188,2,0,P|365:119|400:196,1,140,8|0,0:0|0:0,0:0:0:0:
316,312,23688,1,0,0:0:0:0:
316,312,23855,5,8,0:0:0:0:
496,316,24022,1,0,0:0:0:0:
448,192,24188,2,0,P|440:170|408:124,1,70
320,48,24522,5,8,0:0:0:0:
252,228,24689,1,0,0:0:0:0:
152,116,24856,1,0,0:0:0:0:
28,244,25022,1,4,0:0:0:0:
28,80,25188,6,2,L|188:80,1,140,10|2,0:0|0:0,0:0:0:0:
52,252,25688,1,0,0:0:0:0:
220,372,25855,6,0,L|221:225,1,140,8|0,0:0|0:0,0:0:0:0:
224,60,26355,1,0,0:0:0:0:
24,160,26522,6,0,L|120:228,1,105,8|0,0:0|0:0,0:0:0:0:
216,224,26855,1,0,0:0:0:0:
8,340,27022,1,4,0:0:0:0:
12,176,27188,2,8,L|12:100,1,70
24,344,27522,5,8,0:0:0:0:
24,344,27605,1,0,0:0:0:0:
24,344,27688,1,0,0:0:0:0:
24,344,27772,1,0,0:0:0:0:
24,344,27855,6,0,L|116:344,1,70,8|0,0:0|0:0,0:0:0:0:
252,348,28188,1,0,0:0:0:0:
252,348,28522,6,0,L|252:260,2,70,8|0|8,0:0|0:0|0:0,0:0:0:0:
472,352,29021,1,0,0:0:0:0:
344,256,29188,2,0,P|296:216|288:136,1,140,8|0,0:0|0:0,0:0:0:0:
408,32,29688,1,4,0:0:0:0:
448,140,29855,5,8,0:0:0:0:
252,176,30022,1,4,0:0:0:0:
36,144,30188,1,8,0:0:0:0:
252,176,30355,1,4,0:0:0:0:
392,80,30522,6,8,P|412:156|416:224,1,140
256,360,31022,1,4,0:0:0:0:
260,236,31188,2,0,P|260:164|259:147,1,70,8|0,0:0|0:0,0:0:0:0:
260,20,31522,1,8,0:0:0:0:
260,236,31688,1,0,0:0:0:0:
444,132,31855,5,0,0:0:0:0:
456,308,32022,1,4,0:0:0:0:
456,308,32105,1,0,0:0:0:0:
456,308,32188,2,0,L|424:296,1,35,8|0,0:0|0:0,0:0:0:0:
292,232,32355,2,0,L|308:196,1,35,4|0,0:0|0:0,0:0:0:0:
416,104,32522,6,0,L|404:136,1,35,8|0,0:0|0:0,0:0:0:0:
324,272,32688,1,4,0:0:0:0:
316,288,32772,1,0,0:0:0:0:
308,304,32855,1,8,0:0:0:0:
280,296,32938,1,0,0:0:0:0:
252,284,33022,1,4,0:0:0:0:
224,272,33105,1,0,0:0:0:0:
192,260,33188,6,8,B|156:240|156:240|80:316,1,140
80,132,33688,1,0,0:0:0:0:
248,132,33855,2,8,B|228:168|228:168|304:244,1,140
432,320,34355,1,0,0:0:0:0:
428,112,34522,6,0,L|428:228,1,105,8|0,0:0|0:0,0:0:0:0:
428,316,34855,1,8,0:0:0:0:
200,312,35022,1,4,0:0:0:0:
344,312,35188,5,8,0:0:0:0:
176,144,35355,1,4,0:0:0:0:
320,292,35522,1,8,0:0:0:0:
288,52,35688,1,4,0:0:0:0:
348,292,35855,6,0,B|348:256|348:256|368:204|344:136,1,140
224,288,36355,1,4,0:0:0:0:
468,292,36522,2,0,B|468:256|468:256|448:204|472:136,1,140
468,0,37022,1,4,0:0:0:0:
368,92,37188,5,8,0:0:0:0:
200,24,37355,1,4,0:0:0:0:
200,204,37522,1,8,0:0:0:0:
48,92,37688,1,4,0:0:0:0:
196,88,37855,5,8,0:0:0:0:
40,220,38022,1,4,0:0:0:0:
272,220,38188,1,8,0:0:0:0:
144,328,38355,1,4,0:0:0:0:
144,328,38438,1,0,0:0:0:0:
144,328,38522,6,0,L|144:200,1,105
140,124,38855,1,0,0:0:0:0:
12,264,39022,1,12,0:0:0:0:
308,260,39188,2,0,L|308:172,1,70,8|0,0:0|0:0,0:0:0:0:
160,256,39522,1,8,0:0:0:0:
4,328,39688,1,0,0:0:0:0:
0,184,39855,5,8,0:0:0:0:
188,112,40022,1,0,0:0:0:0:
364,188,40188,1,8,0:0:0:0:
176,48,40355,1,0,0:0:0:0:
364,196,40522,5,8,0:0:0:0:
180,304,40688,1,0,0:0:0:0:
0,192,40855,1,8,0:0:0:0:
176,48,41022,1,0,0:0:0:0:
448,112,41188,6,0,P|424:156|324:176,1,140,8|0,0:0|0:0,0:0:0:0:
88,32,41688,1,4,0:0:0:0:
88,32,41855,2,8,P|112:76|212:96,1,140
356,112,42355,1,4,0:0:0:0:
356,112,42438,1,0,0:0:0:0:
356,112,42522,6,0,L|316:152,1,35
124,304,42772,6,0,L|84:260,1,35
0,128,43022,6,0,P|32:128|60:128,1,35
76,128,43188,5,0,0:0:0:0:
96,128,43272,1,0,0:0:0:0:
112,128,43355,1,0,0:0:0:0:
128,128,43438,1,0,0:0:0:0:
152,128,43522,6,0,L|172:88,1,35,8|0,0:0|0:0,0:0:0:0:
396,96,43688,2,4,L|416:128,1,35
476,224,43855,5,8,0:0:0:0:
276,152,44022,1,12,0:0:0:0:
196,288,44188,1,8,0:0:0:0:
24,156,44355,1,12,0:0:0:0:
32,288,44522,5,8,0:0:0:0:
192,208,44689,1,12,0:0:0:0:
304,336,44855,1,8,0:0:0:0:
452,256,45022,1,12,0:0:0:0:
452,162,45188,6,0,L|452:290,1,93.0999961643983
36,264,45522,2,0,L|36:128,1,116.200001684418
480,152,45855,2,0,L|480:292,1,140
280,360,46188,6,0,P|176:368|96:316,1,140
8,212,46522,5,0,0:0:0:0:
116,80,46689,1,0,0:0:0:0:
116,80,46772,1,0,0:0:0:0:
116,80,46855,1,0,0:0:0:0:
200,216,47022,1,0,0:0:0:0:
336,120,47189,1,0,0:0:0:0:
476,216,47355,1,0,0:0:0:0:
340,340,47522,6,0,L|340:252,1,78.7500030040742
336,196,47855,1,0,0:0:0:0:
152,196,48022,1,0,0:0:0:0:
148,340,48188,1,0,0:0:0:0:
16,256,48355,1,0,0:0:0:0:
96,176,48522,6,0,L|124:200,1,26.2500010013581
180,248,48688,1,0,0:0:0:0:
8,324,48855,1,0,0:0:0:0:
16,96,49022,1,0,0:0:0:0:
16,96,49188,6,0,L|132:224,1,140
404,196,49522,2,0,L|300:96,1,140
200,256,49855,2,0,L|316:384,1,140
72,364,50189,6,0,L|72:224,1,140
252,336,50522,5,0,0:0:0:0:
104,192,50688,1,0,0:0:0:0:
260,40,50855,1,0,0:0:0:0:
408,188,51022,1,0,0:0:0:0:
326,266,51188,5,0,0:0:0:0:
247,189,51354,1,0,0:0:0:0:
329,110,51521,1,0,0:0:0:0:
408,188,51688,1,0,0:0:0:0:
313,85,51855,6,0,L|408:188,1,140
226,303,52189,6,0,L|132:200,1,140
32,96,52522,5,0,0:0:0:0:
160,220,52688,1,0,0:0:0:0:
208,16,52855,5,0,0:0:0:0:
348,156,53022,1,0,0:0:0:0:
184,280,53188,5,0,0:0:0:0:
48,160,53355,1,0,0:0:0:0:
396,280,53522,5,0,0:0:0:0:
224,128,53688,1,0,0:0:0:0:
456,168,53855,5,0,0:0:0:0:
52,288,54022,1,0,0:0:0:0:
52,288,54105,1,0,0:0:0:0:
52,288,54188,1,0,0:0:0:0:
52,288,54355,1,0,0:0:0:0:
88,52,54522,6,0,L|76:132,2,59.5000011348725
456,56,55022,2,0,L|446:114,1,59.5000011348725
456,56,55522,2,0,L|444:120,1,59.5000011348725
416,236,55855,6,0,L|400:312,1,59.5000011348725
192,232,56188,1,0,0:0:0:0:
364,44,56355,1,0,0:0:0:0:
328,224,56522,2,0,L|344:148,1,59.5000011348725
364,44,56855,1,0,0:0:0:0:
88,208,57188,5,0,0:0:0:0:
256,148,57355,1,0,0:0:0:0:
424,208,57522,1,0,0:0:0:0:
252,280,57688,1,0,0:0:0:0:
160,168,57855,5,0,0:0:0:0:
28,300,58022,2,0,L|100:300,1,59.5000011348725
316,304,58355,1,0,0:0:0:0:
208,184,58522,5,0,0:0:0:0:
320,0,58688,2,0,L|320:88,1,59.5000011348725
320,292,59022,1,0,0:0:0:0:
320,292,59189,6,0,L|321:227,1,59.5000011348725
320,233,59438,1,0,0:0:0:0:
320,233,59522,1,0,0:0:0:0:
224,360,59688,1,0,0:0:0:0:
224,360,59855,6,0,P|180:352|144:336,1,59.5000011348725
48,228,60188,1,0,0:0:0:0:
56,64,60355,1,0,0:0:0:0:
216,12,60522,1,0,0:0:0:0:
364,80,60688,1,0,0:0:0:0:
372,232,60855,1,0,0:0:0:0:
240,320,61022,1,0,0:0:0:0:
256,192,61188,12,0,62188,0:0:0:0:
405,102,62355,5,0,0:0:0:0:
405,102,62522,2,0,P|477:206|349:334,1,280
112,324,63022,1,0,0:0:0:0:
112,92,63188,2,0,P|140:164|220:192,1,140
316,120,63522,1,0,0:0:0:0:
168,280,63688,1,0,0:0:0:0:
320,48,63855,1,0,0:0:0:0:
108,304,64022,1,0,0:0:0:0:
320,48,64188,6,0,P|244:24|176:48,1,140
140,256,64522,2,0,P|60:268|4:244,1,140
57,45,64855,2,0,P|129:21|205:53,1,140
324,168,65188,6,0,P|245:280|111:296,1,280
108,104,65688,1,0,0:0:0:0:
108,104,65854,2,0,P|159:46|244:49,1,140
452,188,66188,1,0,0:0:0:0:
260,32,66355,1,0,0:0:0:0:
452,188,66522,6,0,P|424:260|324:296,1,140
240,180,66854,2,0,P|172:166|107:189,1,140
104,328,67188,1,0,0:0:0:0:
412,172,67355,1,0,0:0:0:0:
412,172,67521,6,0,P|420:248|384:324,1,140
300,384,67855,2,0,P|156:406|78:296,1,280
168,64,68355,1,0,0:0:0:0:
80,184,68522,1,0,0:0:0:0:
248,280,68688,2,0,P|315:296|380:273,1,140
468,90,69022,2,0,P|403:67|336:84,1,140
224,200,69355,1,0,0:0:0:0:
224,200,69439,1,0,0:0:0:0:
224,200,69522,1,0,0:0:0:0:
64,40,69688,1,0,0:0:0:0:
64,40,69855,6,0,L|64:216,1,140
64,328,70188,1,0,0:0:0:0:
192,200,70355,1,0,0:0:0:0:
408,348,70521,5,0,0:0:0:0:
276,192,70688,1,0,0:0:0:0:
276,192,70771,1,0,0:0:0:0:
276,192,70855,1,0,0:0:0:0:
144,352,71022,1,0,0:0:0:0:
108,144,71188,1,0,0:0:0:0:
336,84,71356,1,0,0:0:0:0:
380,272,71522,1,0,0:0:0:0:
160,336,71688,1,0,0:0:0:0:
104,184,71855,5,2,0:0:0:0:
48,28,72022,2,0,L|104:184,1,140
352,128,72355,5,0,0:0:0:0:
416,288,72522,2,0,L|348:128,1,140
244,0,72855,1,0,0:0:0:0:
68,164,73022,1,0,0:0:0:0:
68,164,73105,1,0,0:0:0:0:
68,164,73188,6,0,L|215:161,1,140
312,40,73522,1,0,0:0:0:0:
400,216,73688,2,0,L|464:340,1,140
200,348,74022,6,0,L|142:220,1,140
296,28,74356,2,0,L|359:152,1,140
184,28,74688,5,0,0:0:0:0:
344,92,74855,1,0,0:0:0:0:
88,180,75022,1,0,0:0:0:0:
424,256,75188,1,0,0:0:0:0:
48,336,75355,1,0,0:0:0:0:
264,240,75522,1,0,0:0:0:0:
76,152,75688,1,0,0:0:0:0:
76,152,75772,1,0,0:0:0:0:
76,152,75855,5,0,0:0:0:0:
312,156,76022,1,0,0:0:0:0:
184,36,76188,1,0,0:0:0:0:
28,192,76355,6,0,L|80:328,1,140
352,160,76688,6,0,L|289:36,1,140
196,200,77022,2,0,L|254:328,1,140
460,348,77355,5,0,0:0:0:0:
253,327,77522,1,0,0:0:0:0:
392,120,77689,2,0,L|448:264,1,140
304,312,78022,1,0,0:0:0:0:
148,140,78188,2,0,P|80:128|4:168,1,140
0,272,78522,6,0,P|44:360|220:372,1,280
424,264,79022,1,0,0:0:0:0:
376,124,79189,1,0,0:0:0:0:
376,124,79355,2,0,P|309:108|244:131,1,140
128,344,79689,2,0,P|193:367|260:350,1,140
340,188,80022,1,0,0:0:0:0:
340,188,80106,1,0,0:0:0:0:
340,188,80189,1,0,0:0:0:0:
448,344,80355,1,0,0:0:0:0:
448,344,80522,6,0,L|448:168,1,140
448,56,80855,1,0,0:0:0:0:
248,192,81022,1,0,0:0:0:0:
64,56,81188,5,0,0:0:0:0:
248,192,81355,1,0,0:0:0:0:
248,192,81438,1,0,0:0:0:0:
248,192,81522,1,0,0:0:0:0:
444,48,81689,1,0,0:0:0:0:
380,240,81855,6,0,P|310:230|241:240,1,140
120,348,82188,1,0,0:0:0:0:
24,148,82355,1,0,0:0:0:0:
256,96,82522,5,0,0:0:0:0:
256,308,82688,1,0,0:0:0:0:
356,100,82855,5,0,0:0:0:0:
152,284,83021,1,0,0:0:0:0:
44,104,83189,5,0,0:0:0:0:
44,104,83272,1,0,0:0:0:0:
44,104,83355,2,0,P|32:144|56:184,1,70
152,284,83522,1,0,0:0:0:0:
380,144,83688,1,0,0:0:0:0:
492,308,83855,5,0,0:0:0:0:
256,192,84105,12,0,86355,0:0:0:0:
252,276,86522,5,8,0:0:0:0:
252,120,86688,1,0,0:0:0:0:
252,276,86855,6,0,P|204:257|179:213,1,105.000004005432
176,24,87188,1,0,0:0:0:0:
400,264,87355,6,0,P|352:245|327:201,1,105.000004005432
324,24,87688,1,0,0:0:0:0:
168,28,87855,5,8,0:0:0:0:
164,280,88022,1,0,0:0:0:0:
164,280,88188,6,0,L|164:168,1,105.000004005432
164,52,88522,1,0,0:0:0:0:
384,56,88688,5,0,0:0:0:0:
380,240,88855,2,0,L|380:187,2,52.5000020027161
24,68,93188,6,0,L|51:100,2,35
192,72,93522,1,0,0:0:0:0:
192,264,93688,1,0,0:0:0:0:
28,328,93855,1,0,0:0:0:0:
28,328,93938,1,0,0:0:0:0:
28,328,94022,2,0,L|28:264,1,35
24,144,94188,2,0,L|60:196,1,35
228,340,94355,2,0,L|200:288,1,35
124,136,94522,6,0,P|188:190|252:181,1,140
372,52,95022,1,0,0:0:0:0:
372,52,95188,2,0,P|421:99|456:176,1,140,8|0,0:0|0:0,0:0:0:0:
268,168,95688,1,0,0:0:0:0:
136,104,95855,5,8,0:0:0:0:
136,312,96022,1,0,0:0:0:0:
304,224,96188,1,0,0:0:0:0:
72,224,96355,1,8,0:0:0:0:
288,224,96522,6,0,P|301:255|304:290,1,70
192,96,96856,1,0,0:0:0:0:
80,240,97022,1,4,0:0:0:0:
196,84,97188,6,0,B|292:104|292:104|340:128,1,140
472,240,97688,1,0,0:0:0:0:
316,84,97855,6,0,B|220:104|220:104|172:128,1,140
40,244,98355,1,0,0:0:0:0:
224,276,98522,5,0,0:0:0:0:
456,308,98689,1,4,0:0:0:0:
456,308,98772,1,0,0:0:0:0:
456,308,98855,2,0,L|428:336,1,35,8|0,0:0|0:0,0:0:0:0:
324,256,99022,2,0,L|296:308,1,35,4|0,0:0|0:0,0:0:0:0:
172,248,99188,2,0,L|176:300,1,35,8|0,0:0|0:0,0:0:0:0:
28,280,99355,2,0,L|40:320,1,35
160,184,99522,2,0,L|175:151,1,35
316,184,99688,2,0,L|307:145,1,35
244,40,99855,6,0,L|244:180,1,140
244,12,100355,1,0,0:0:0:0:
128,148,100522,2,0,L|40:268,1,140
256,264,101022,1,0,0:0:0:0:
352,140,101188,5,0,0:0:0:0:
148,136,101355,1,0,0:0:0:0:
256,264,101522,1,0,0:0:0:0:
364,72,101689,5,0,0:0:0:0:
104,72,101855,1,0,0:0:0:0:
252,272,102022,1,0,0:0:0:0:
360,144,102188,2,0,P|308:124|276:124,1,70
144,124,102522,6,0,P|80:152|60:224,1,140
268,224,103022,1,0,0:0:0:0:
368,124,103188,2,0,P|432:152|452:224,1,140
368,384,103688,1,0,0:0:0:0:
252,288,103855,5,0,0:0:0:0:
156,384,104022,1,0,0:0:0:0:
48,284,104188,1,0,0:0:0:0:
160,180,104355,1,0,0:0:0:0:
304,104,104522,5,0,0:0:0:0:
156,44,104689,1,0,0:0:0:0:
0,116,104855,1,0,0:0:0:0:
152,268,105022,1,0,0:0:0:0:
152,268,105105,1,0,0:0:0:0:
152,268,105188,6,0,L|280:268,1,105
312,200,105522,1,0,0:0:0:0:
440,312,105689,1,12,0:0:0:0:
440,312,105855,2,0,L|440:228,1,70,8|0,0:0|0:0,0:0:0:0:
248,180,106188,1,12,0:0:0:0:
36,236,106354,2,0,L|36:152,1,70,8|0,0:0|0:0,0:0:0:0:
232,224,106688,5,8,0:0:0:0:
148,104,106855,1,0,0:0:0:0:
364,204,107021,1,8,0:0:0:0:
144,256,107188,1,0,0:0:0:0:
296,56,107355,1,0,0:0:0:0:
144,256,107522,5,8,0:0:0:0:
76,68,107689,1,0,0:0:0:0:
284,16,107855,2,0,P|340:55|361:121,1,140
284,312,108355,1,8,0:0:0:0:
120,252,108522,6,0,P|100:200|112:168,1,70
200,56,108855,2,0,P|224:76|244:160,1,105
244,232,109188,1,8,0:0:0:0:
28,344,109438,6,0,L|68:344,1,35
460,344,109688,6,0,L|380:344,1,70
380,344,109938,1,0,0:0:0:0:
368,344,110021,1,0,0:0:0:0:
352,344,110104,1,0,0:0:0:0:
340,344,110188,6,0,L|296:343,1,35,8|0,0:0|0:0,0:0:0:0:
16,344,110354,2,4,L|79:345,1,35
152,352,110522,5,0,0:0:0:0:
288,240,110688,1,0,0:0:0:0:
432,352,110855,1,0,0:0:0:0:
288,352,111022,1,0,0:0:0:0:
192,152,111188,5,0,0:0:0:0:
92,248,111355,1,0,0:0:0:0:
188,344,111522,1,0,0:0:0:0:
280,240,111688,1,0,0:0:0:0:
172,136,111855,5,0,0:0:0:0:
36,256,112022,1,0,0:0:0:0:
164,376,112188,1,0,0:0:0:0:
172,136,112355,5,0,0:0:0:0:
164,376,112522,1,0,0:0:0:0:
412,376,112688,1,0,0:0:0:0:
412,136,112855,2,0,P|332:104|296:116,1,105
272,212,113188,6,0,P|228:220|188:204,1,70
172,56,113522,1,0,0:0:0:0:
56,232,113688,1,0,0:0:0:0:
208,308,113855,2,0,P|248:316|296:300,1,70
440,224,114188,1,0,0:0:0:0:
440,224,114522,6,0,L|440:336,1,105
400,376,114855,2,0,L|400:280,1,70
396,140,115188,2,0,L|352:184,1,35
304,216,115355,5,0,0:0:0:0:
144,352,115522,1,0,0:0:0:0:
200,152,115688,1,0,0:0:0:0:
44,256,115855,5,0,0:0:0:0:
120,40,116022,1,0,0:0:0:0:
0,168,116188,2,0,L|100:168,1,70
276,224,116522,5,0,0:0:0:0:
384,32,116689,1,0,0:0:0:0:
244,140,116855,2,0,L|372:140,1,105
416,216,117188,6,0,L|344:268,1,70
228,336,117522,2,0,L|228:248,1,70
228,336,117855,6,0,L|228:216,1,105
316,112,118188,2,0,L|316:212,1,70
308,295,118522,6,0,P|372:307|428:279,1,105
416,187,118855,2,0,P|364:171|296:195,1,105
308,295,119188,6,0,P|372:307|428:279,1,105
416,64,119521,2,0,P|364:48|296:72,1,105
228,164,119855,5,0,0:0:0:0:
136,36,120022,1,0,0:0:0:0:
303,8,120188,1,0,0:0:0:0:
395,135,120355,1,0,0:0:0:0:
325,284,120522,5,0,0:0:0:0:
170,309,120688,5,0,0:0:0:0:
170,309,120772,1,0,0:0:0:0:
170,309,120855,1,0,0:0:0:0:
68,188,121022,1,0,0:0:0:0:
196,56,121188,6,0,L|196:128,2,52.5000020027161
344,336,121688,2,0,L|344:283,1,52.5000020027161
172,96,122188,6,0,L|172:168,1,52.5000020027161
312,324,122522,2,0,L|312:264,1,52.5000020027161
96,48,122855,2,0,L|96:104,1,52.5000020027161
436,324,123188,2,0,P|412:296|440:320,1,105.000004005432
448,136,123688,1,0,0:0:0:0:
448,136,123855,6,0,P|400:136|360:160,1,78.7500030040742
304,216,124188,1,0,0:0:0:0:
72,216,124355,1,0,0:0:0:0:
200,344,124522,2,0,L|200:268,1,52.5000020027161
200,184,124855,2,0,L|200:112,1,52.5000020027161
200,24,125188,5,0,0:0:0:0:
80,136,125355,1,0,0:0:0:0:
328,128,125522,5,0,0:0:0:0:
408,240,125688,1,0,0:0:0:0:
172,240,125855,5,0,0:0:0:0:
8,364,126022,1,0,0:0:0:0:
20,224,126188,1,0,0:0:0:0:
20,224,126272,1,0,0:0:0:0:
20,224,126355,1,0,0:0:0:0:
20,224,126438,1,0,0:0:0:0:
20,224,126522,6,0,P|40:196|72:180,1,52.5000020027161
292,180,126855,1,0,0:0:0:0:
164,336,127022,1,0,0:0:0:0:
224,40,127188,1,0,0:0:0:0:
368,332,127355,1,0,0:0:0:0:
72,196,127522,1,0,0:0:0:0:
368,64,127688,1,0,0:0:0:0:
256,192,127772,12,0,128855,0:0:0:0:
60,88,129022,5,0,0:0:0:0:
60,88,129188,6,0,L|348:88,1,280
208,280,129688,1,0,0:0:0:0:
412,280,129855,2,0,B|412:196|412:196|376:140,1,140
252,40,130188,1,0,0:0:0:0:
128,260,130355,1,0,0:0:0:0:
336,260,130522,1,0,0:0:0:0:
144,64,130688,1,0,0:0:0:0:
72,208,130855,6,0,B|132:176|132:176|248:216,1,140
380,312,131188,2,0,B|348:252|348:252|364:128,1,140
488,56,131522,2,0,B|428:24|428:24|304:40,1,140
224,140,131855,1,0,0:0:0:0:
92,16,132022,1,0,0:0:0:0:
36,188,132188,1,0,0:0:0:0:
216,72,132355,1,0,0:0:0:0:
264,216,132522,5,0,0:0:0:0:
56,120,132688,1,0,0:0:0:0:
260,60,132855,1,0,0:0:0:0:
316,244,133022,2,0,B|164:224|164:224|16:200,1,280
68,60,133521,5,0,0:0:0:0:
188,164,133688,1,0,0:0:0:0:
12,244,133855,2,0,P|52:188|144:164,1,140
328,160,134188,2,0,P|364:186|412:284,1,140
412,372,134522,6,0,P|312:372|224:232,1,280
248,80,135022,1,0,0:0:0:0:
124,200,135189,1,0,0:0:0:0:
324,248,135355,2,0,P|391:264|456:241,1,140
376,120,135689,2,0,P|311:97|244:114,1,140
160,232,136022,2,0,L|120:300,2,70
288,56,136355,1,0,0:0:0:0:
104,72,136522,6,0,B|152:128|152:128|244:168,1,140
220,308,136855,1,0,0:0:0:0:
400,132,137022,1,0,0:0:0:0:
400,264,137188,5,0,0:0:0:0:
200,172,137355,1,0,0:0:0:0:
200,172,137438,1,0,0:0:0:0:
200,172,137522,1,0,0:0:0:0:
16,344,137688,1,0,0:0:0:0:
96,176,137855,5,0,0:0:0:0:
196,344,138022,1,0,0:0:0:0:
28,256,138188,1,0,0:0:0:0:
156,84,138354,1,0,0:0:0:0:
248,216,138521,5,2,0:0:0:0:
336,80,138688,2,0,P|416:76|480:104,1,140
256,204,139021,1,0,0:0:0:0:
256,80,139188,1,0,0:0:0:0:
256,256,139355,1,0,0:0:0:0:
260,0,139521,1,0,0:0:0:0:
260,348,139688,1,0,0:0:0:0:
260,348,139771,1,0,0:0:0:0:
260,348,139854,6,0,L|260:196,1,140
252,32,140188,1,0,0:0:0:0:
364,208,140354,2,0,L|364:352,1,140
128,176,140688,6,0,L|296:176,1,140
372,44,141021,2,0,L|372:216,1,140
32,184,141354,1,0,0:0:0:0:
188,100,141521,1,0,0:0:0:0:
236,336,141688,1,0,0:0:0:0:
312,0,141855,1,0,0:0:0:0:
392,376,142021,1,0,0:0:0:0:
488,188,142188,1,0,0:0:0:0:
292,192,142354,1,0,0:0:0:0:
292,192,142438,1,0,0:0:0:0:
292,192,142521,5,0,0:0:0:0:
144,328,142688,1,0,0:0:0:0:
36,184,142854,1,0,0:0:0:0:
156,44,143022,2,0,B|256:44|256:44|320:80,1,140
384,312,143355,6,0,B|384:212|384:212|348:148,1,140
136,52,143688,2,0,B|236:52|236:52|300:88,1,140
444,216,144022,5,0,0:0:0:0:
268,328,144188,1,0,0:0:0:0:
132,192,144355,2,0,L|0:268,1,140
144,8,144688,1,0,0:0:0:0:
384,88,144854,1,0,0:0:0:0:
272,316,145021,1,0,0:0:0:0:
120,224,145188,6,2,B|200:124|200:124|352:88,1,280
496,232,145688,1,0,0:0:0:0:
232,332,145855,2,0,B|276:292|276:292|356:292,1,140
304,144,146188,5,0,0:0:0:0:
107,292,146355,2,0,B|150:332|150:332|231:332,1,140
448,176,146688,1,0,0:0:0:0:
448,176,146772,1,0,0:0:0:0:
448,176,146855,1,0,0:0:0:0:
268,308,147021,1,0,0:0:0:0:
476,312,147188,6,0,L|476:136,1,140
480,36,147521,1,0,0:0:0:0:
248,192,147688,1,0,0:0:0:0:
56,48,147854,5,0,0:0:0:0:
252,200,148021,1,0,0:0:0:0:
252,200,148104,1,0,0:0:0:0:
252,200,148188,1,0,0:0:0:0:
448,44,148355,1,0,0:0:0:0:
344,212,148521,6,0,P|274:202|205:212,1,140
112,328,148854,1,0,0:0:0:0:
24,152,149021,1,0,0:0:0:0:
252,44,149188,5,0,0:0:0:0:
352,232,149354,1,0,0:0:0:0:
164,312,149521,1,0,0:0:0:0:
56,92,149687,5,0,0:0:0:0:
284,28,149855,1,0,0:0:0:0:
148,336,150021,1,0,0:0:0:0:
464,152,150188,1,0,0:0:0:0:
72,72,150354,1,0,0:0:0:0:
364,344,150521,5,0,0:0:0:0:
364,260,150855,5,0,0:0:0:0:
360,172,151188,5,0,0:0:0:0:
360,336,151522,6,0,L|360:264,1,70
360,156,151856,5,0,0:0:0:0:
152,168,152189,5,0,0:0:0:0:
148,344,152521,5,0,0:0:0:0:
148,272,152688,1,0,0:0:0:0:
148,204,152855,1,0,0:0:0:0:
152,112,153188,5,0,0:0:0:0:
392,260,153522,5,0,0:0:0:0:
96,316,153855,5,0,0:0:0:0:
140,64,154188,5,0,0:0:0:0:
336,232,154522,5,0,0:0:0:0:
512,56,154855,5,0,0:0:0:0:
256,20,155188,5,0,0:0:0:0:
0,192,155855,1,0,0:0:0:0:
252,376,156522,1,0,0:0:0:0:
260,192,158355,5,0,0:0:0:0:
260,192,158522,6,8,L|528:56,1,280
444,244,159022,2,0,L|188:372,1,280
68,208,159522,1,0,0:0:0:0:
236,128,159688,1,0,0:0:0:0:
236,128,159855,6,0,P|176:192|236:364,1,280
469,361,160355,2,0,P|346:300|217:373,1,280
84,192,160855,5,0,0:0:0:0:
84,192,161022,1,0,0:0:0:0:
84,192,161188,6,0,B|224:140|224:140|388:188,1,280
88,300,161688,2,0,B|184:336|184:336|288:336,1,140
416,212,162022,1,0,0:0:0:0:
240,120,162188,1,0,0:0:0:0:
68,256,162355,1,0,0:0:0:0:
148,96,162522,5,0,0:0:0:0:
312,164,162688,1,0,0:0:0:0:
244,328,162855,1,0,0:0:0:0:
68,256,163022,1,0,0:0:0:0:
76,128,163188,5,0,0:0:0:0:
100,104,163272,1,0,0:0:0:0:
132,88,163355,1,0,0:0:0:0:
176,88,163438,1,0,0:0:0:0:
224,124,163521,5,0,0:0:0:0:
268,160,163605,1,0,0:0:0:0:
324,168,163688,1,0,0:0:0:0:
372,136,163772,1,0,0:0:0:0:
400,80,163855,6,8,L|264:348,1,280
296,132,164355,2,0,L|170:382,1,280
260,64,164855,1,0,0:0:0:0:
88,244,165021,1,0,0:0:0:0:
88,244,165188,6,0,P|152:184|256:324,1,280
272,72,165688,2,0,P|307:140|457:52,1,280
272,72,166188,5,0,0:0:0:0:
92,324,166355,1,0,0:0:0:0:
92,324,166522,6,0,B|8:192|8:192|44:204|136:136,1,280
312,320,167022,2,0,B|396:188|396:188|360:200|268:132,1,280
160,52,167522,1,0,0:0:0:0:
68,200,167688,1,0,0:0:0:0:
68,72,167855,5,0,0:0:0:0:
204,248,168022,1,0,0:0:0:0:
56,332,168188,1,0,0:0:0:0:
56,144,168355,1,0,0:0:0:0:
208,80,168522,1,0,0:0:0:0:
356,168,168688,1,0,0:0:0:0:
204,240,168855,1,0,0:0:0:0:
56,144,169022,1,0,0:0:0:0:
208,36,169188,5,0,0:0:0:0:
204,216,169355,1,0,0:0:0:0:
208,68,169522,5,0,0:0:0:0:
412,284,169688,1,0,0:0:0:0:
208,100,169855,5,0,0:0:0:0:
204,348,170021,1,0,0:0:0:0:
208,128,170188,5,0,0:0:0:0:
364,344,170355,1,0,0:0:0:0:
256,192,170522,12,0,171522,0:0:0:0:
168,124,171688,5,0,0:0:0:0:
168,124,171855,2,0,B|268:104|300:84|300:84|424:176,1,280
248,312,172355,1,0,0:0:0:0:
132,200,172522,2,0,B|104:124|104:124|152:120|184:80,1,140
380,200,172855,2,0,B|408:124|408:124|360:120|328:80,1,140
456,328,173188,6,0,B|356:348|324:368|324:368|200:276,1,280
108,152,173688,1,0,0:0:0:0:
264,64,173855,1,0,0:0:0:0:
364,192,174022,1,0,0:0:0:0:
224,292,174188,1,0,0:0:0:0:
104,140,174355,1,0,0:0:0:0:
292,76,174522,6,0,P|376:108|268:192,1,280
116,112,175022,1,0,0:0:0:0:
72,240,175188,2,0,P|60:320|104:356,1,140
232,188,175522,1,0,0:0:0:0:
308,236,175688,2,0,P|328:184|252:100,1,140
208,48,176022,1,0,0:0:0:0:
208,136,176188,2,0,P|120:140|120:124,1,140
119,127,176522,6,0,P|67:135|51:191,1,105.000004005432
256,192,177022,12,0,179022,0:0:0:0:
