osu file format v14

[General]
AudioFilename: audio.mp3
AudioLeadIn: 0
PreviewTime: 60416
Countdown: 0
SampleSet: Soft
StackLeniency: 0.7
Mode: 3
LetterboxInBreaks: 0
SpecialStyle: 0
WidescreenStoryboard: 0

[Editor]
DistanceSpacing: 0.6
BeatDivisor: 4
GridSize: 4
TimelineZoom: 1.8

[Metadata]
Title:STRIKE BACK
TitleUnicode:STRIKE BACK
Artist:BACK-ON
ArtistUnicode:BACK-ON
Creator:- Emilia -
Version:Retaliation
Source:フェアリーテイル
Tags:FAIRY TAIL Opening 16 Ibrahim [Baim] short version tv size
BeatmapID:1191560
BeatmapSetID:563527

[Difficulty]
HPDrainRate:8
CircleSize:4
OverallDifficulty:8
ApproachRate:5
SliderMultiplier:1.4
SliderTickRate:1

[Events]
//Background and Video events
0,0,"FOREVER HERE.jpg",0,0
Video,65,"fairytailop16.avi"
//Break Periods
//Storyboard Layer 0 (Background)
//Storyboard Layer 1 (Fail)
//Storyboard Layer 2 (Pass)
//Storyboard Layer 3 (Foreground)
//Storyboard Sound Samples

[TimingPoints]
250,333.333333333333,4,2,1,55,1,0
61583,-100,4,2,1,45,0,1
82916,-100,4,2,1,45,0,0

[HitObjects]
448,192,250,5,0,0:0:0:0:
64,192,250,1,2,0:0:0:0:
320,192,416,1,0,0:0:0:0:
192,192,416,1,2,0:0:0:0:
448,192,583,1,0,0:0:0:0:
64,192,583,128,0,916:0:0:0:0:
192,192,749,1,0,0:0:0:0:
448,192,916,1,2,0:0:0:0:
320,192,916,128,0,1249:0:0:0:0:
64,192,1083,1,2,0:0:0:0:
192,192,1249,1,0,0:0:0:0:
448,192,1249,128,0,1583:0:0:0:0:
320,192,1416,1,0,0:0:0:0:
64,192,1583,1,2,0:0:0:0:
192,192,1583,128,0,1916:0:0:0:0:
448,192,1749,1,2,0:0:0:0:
320,192,1916,1,0,0:0:0:0:
64,192,1916,128,0,2249:0:0:0:0:
448,192,2083,1,0,0:0:0:0:
192,192,2249,1,2,0:0:0:0:
320,192,2249,128,0,2583:0:0:0:0:
448,192,2416,1,2,0:0:0:0:
192,192,2583,1,0,0:0:0:0:
64,192,2583,128,0,2916:0:0:0:0:
448,192,2749,1,2,0:0:0:0:
192,192,2833,1,2,0:0:0:0:
320,192,2916,1,0,0:0:0:0:
448,192,2916,1,2,0:0:0:0:
64,192,3083,1,2,0:0:0:0:
192,192,3083,1,0,0:0:0:0:
320,192,3249,1,0,0:0:0:0:
448,192,3249,128,0,3583:0:0:0:0:
192,192,3416,1,0,0:0:0:0:
320,192,3583,1,2,0:0:0:0:
64,192,3583,128,0,3916:0:0:0:0:
448,192,3749,1,2,0:0:0:0:
192,192,3916,1,0,0:0:0:0:
320,192,3916,128,0,4249:0:0:0:0:
448,192,4083,1,2,0:0:0:0:
192,192,4249,1,2,0:0:0:0:
64,192,4249,128,0,4583:0:0:0:0:
448,192,4416,1,2,0:0:0:0:
192,192,4583,1,0,0:0:0:0:
320,192,4583,128,0,4916:0:0:0:0:
64,192,4749,1,0,0:0:0:0:
448,192,4916,1,2,0:0:0:0:
192,192,4916,128,0,5249:0:0:0:0:
320,192,5083,1,2,0:0:0:0:
448,192,5249,1,0,0:0:0:0:
64,192,5249,128,0,5583:0:0:0:0:
320,192,5416,1,0,0:0:0:0:
192,192,5583,1,2,0:0:0:0:
320,192,5749,1,0,0:0:0:0:
448,192,5749,1,2,0:0:0:0:
192,192,5916,1,0,0:0:0:0:
64,192,5916,128,0,6249:0:0:0:0:
320,192,6083,1,0,0:0:0:0:
192,192,6249,1,2,0:0:0:0:
448,192,6249,128,0,6583:0:0:0:0:
320,192,6416,1,2,0:0:0:0:
192,192,6583,1,0,0:0:0:0:
64,192,6583,128,0,6916:0:0:0:0:
448,192,6749,1,0,0:0:0:0:
320,192,6916,1,0,0:0:0:0:
192,192,6916,128,0,7249:0:0:0:0:
64,192,7083,1,2,0:0:0:0:
320,192,7249,1,0,0:0:0:0:
448,192,7249,128,0,7583:0:0:0:0:
64,192,7416,1,0,0:0:0:0:
320,192,7583,1,2,0:0:0:0:
192,192,7583,128,0,7916:0:0:0:0:
448,192,7749,1,2,0:0:0:0:
320,192,7916,1,0,0:0:0:0:
64,192,7916,128,0,8249:0:0:0:0:
192,192,8083,1,2,0:0:0:0:
448,192,8249,1,2,0:0:0:0:
320,192,8416,1,2,0:0:0:0:
192,192,8416,1,0,0:0:0:0:
448,192,8583,1,0,0:0:0:0:
64,192,8583,128,0,9249:0:0:0:0:
320,192,8749,1,0,0:0:0:0:
192,192,8916,1,2,0:0:0:0:
320,192,9083,1,2,0:0:0:0:
448,192,9249,1,0,0:0:0:0:
192,192,9249,128,0,9583:0:0:0:0:
320,192,9416,1,0,0:0:0:0:
64,192,9583,1,8,0:0:0:0:
448,192,9583,128,0,10249:0:0:0:0:
320,192,9666,1,8,0:0:0:0:
192,192,9749,1,8,0:0:0:0:
192,192,9916,1,8,0:0:0:0:
64,192,9916,1,0,0:0:0:0:
320,192,10083,1,8,0:0:0:0:
64,192,10083,128,2,10249:0:0:0:0:
192,192,10249,128,0,10583:0:0:0:0:
320,192,10583,128,0,10916:0:0:0:0:
64,192,10916,1,2,0:0:0:0:
192,192,10916,1,0,0:0:0:0:
448,192,10916,1,4,0:0:0:0:
320,192,11083,1,0,0:0:0:0:
64,192,11249,1,0,0:0:0:0:
192,192,11249,1,2,0:0:0:0:
320,192,11416,1,0,0:0:0:0:
448,192,11416,1,8,0:0:0:0:
192,192,11416,1,0,0:0:0:0:
64,192,11583,1,0,0:0:0:0:
448,192,11749,1,0,0:0:0:0:
192,192,11749,1,2,0:0:0:0:
64,192,11916,1,8,0:0:0:0:
320,192,11916,1,0,0:0:0:0:
448,192,11916,1,0,0:0:0:0:
320,192,12083,1,2,0:0:0:0:
192,192,12083,1,0,0:0:0:0:
192,192,12249,1,2,0:0:0:0:
320,192,12249,1,0,0:0:0:0:
448,192,12416,1,0,0:0:0:0:
320,192,12583,1,0,0:0:0:0:
64,192,12583,1,2,0:0:0:0:
192,192,12749,1,8,0:0:0:0:
64,192,12749,1,0,0:0:0:0:
448,192,12749,1,0,0:0:0:0:
320,192,12916,1,0,0:0:0:0:
448,192,13083,1,2,0:0:0:0:
64,192,13083,1,0,0:0:0:0:
448,192,13249,1,0,0:0:0:0:
320,192,13249,1,8,0:0:0:0:
192,192,13333,1,8,0:0:0:0:
64,192,13333,1,0,0:0:0:0:
320,192,13416,1,2,0:0:0:0:
448,192,13416,1,0,0:0:0:0:
64,192,13583,1,2,0:0:0:0:
192,192,13583,1,0,0:0:0:0:
320,192,13583,1,4,0:0:0:0:
448,192,13749,1,0,0:0:0:0:
192,192,13916,1,0,0:0:0:0:
320,192,13916,1,2,0:0:0:0:
64,192,14083,1,8,0:0:0:0:
448,192,14083,1,0,0:0:0:0:
320,192,14083,1,0,0:0:0:0:
192,192,14249,1,0,0:0:0:0:
320,192,14416,1,2,0:0:0:0:
448,192,14416,1,0,0:0:0:0:
320,192,14583,1,0,0:0:0:0:
64,192,14583,1,8,0:0:0:0:
192,192,14583,1,0,0:0:0:0:
64,192,14749,1,2,0:0:0:0:
448,192,14749,1,0,0:0:0:0:
64,192,14916,1,2,0:0:0:0:
448,192,14916,1,0,0:0:0:0:
320,192,15083,1,0,0:0:0:0:
192,192,15249,1,2,0:0:0:0:
64,192,15249,1,0,0:0:0:0:
192,192,15416,1,8,0:0:0:0:
320,192,15416,1,0,0:0:0:0:
448,192,15416,1,0,0:0:0:0:
320,192,15583,1,0,0:0:0:0:
64,192,15749,1,2,0:0:0:0:
192,192,15749,1,0,0:0:0:0:
320,192,15916,1,8,0:0:0:0:
448,192,15916,1,0,0:0:0:0:
64,192,15999,1,0,0:0:0:0:
192,192,15999,1,8,0:0:0:0:
320,192,16083,1,2,0:0:0:0:
448,192,16083,1,0,0:0:0:0:
64,192,16249,1,2,0:0:0:0:
448,192,16249,1,0,0:0:0:0:
192,192,16249,1,4,0:0:0:0:
320,192,16416,1,0,0:0:0:0:
64,192,16583,1,2,0:0:0:0:
192,192,16583,1,0,0:0:0:0:
320,192,16749,1,0,0:0:0:0:
448,192,16749,1,0,0:0:0:0:
64,192,16749,1,8,0:0:0:0:
192,192,16916,1,0,0:0:0:0:
448,192,17083,1,0,0:0:0:0:
320,192,17083,1,2,0:0:0:0:
448,192,17249,1,0,0:0:0:0:
64,192,17249,1,8,0:0:0:0:
192,192,17249,1,0,0:0:0:0:
320,192,17416,1,2,0:0:0:0:
192,192,17416,1,0,0:0:0:0:
192,192,17583,1,2,0:0:0:0:
320,192,17583,1,0,0:0:0:0:
448,192,17749,1,0,0:0:0:0:
64,192,17916,1,2,0:0:0:0:
192,192,17916,1,0,0:0:0:0:
192,192,18083,1,8,0:0:0:0:
448,192,18083,1,0,0:0:0:0:
320,192,18083,1,0,0:0:0:0:
64,192,18249,1,0,0:0:0:0:
192,192,18416,1,2,0:0:0:0:
320,192,18416,1,0,0:0:0:0:
320,192,18583,1,0,0:0:0:0:
448,192,18583,1,8,0:0:0:0:
64,192,18666,1,8,0:0:0:0:
192,192,18666,1,0,0:0:0:0:
320,192,18749,1,0,0:0:0:0:
448,192,18749,1,2,0:0:0:0:
192,192,18916,1,2,0:0:0:0:
448,192,18916,1,0,0:0:0:0:
64,192,18916,1,4,0:0:0:0:
320,192,19083,1,0,0:0:0:0:
192,192,19249,1,2,0:0:0:0:
448,192,19249,1,0,0:0:0:0:
64,192,19416,1,0,0:0:0:0:
448,192,19416,1,0,0:0:0:0:
320,192,19416,1,8,0:0:0:0:
192,192,19583,1,0,0:0:0:0:
320,192,19749,1,0,0:0:0:0:
64,192,19749,1,2,0:0:0:0:
448,192,19916,1,0,0:0:0:0:
64,192,19916,1,8,0:0:0:0:
192,192,19916,1,0,0:0:0:0:
320,192,20083,1,2,0:0:0:0:
448,192,20083,1,0,0:0:0:0:
320,192,20249,1,0,0:0:0:0:
448,192,20249,1,2,0:0:0:0:
192,192,20416,1,0,0:0:0:0:
320,192,20583,1,0,0:0:0:0:
64,192,20583,1,2,0:0:0:0:
192,192,20749,1,0,0:0:0:0:
448,192,20749,1,8,0:0:0:0:
64,192,20749,1,0,0:0:0:0:
320,192,20916,1,0,0:0:0:0:
64,192,21083,1,2,0:0:0:0:
192,192,21083,1,0,0:0:0:0:
320,192,21249,1,8,0:0:0:0:
448,192,21249,1,0,0:0:0:0:
64,192,21333,1,0,0:0:0:0:
192,192,21333,1,8,0:0:0:0:
320,192,21416,1,8,0:0:0:0:
448,192,21416,1,0,0:0:0:0:
192,192,21499,1,8,0:0:0:0:
448,192,21583,1,4,0:0:0:0:
320,192,21583,1,2,0:0:0:0:
64,192,21583,128,0,22916:0:0:0:0:
192,192,21749,1,2,0:0:0:0:
320,192,21916,1,2,0:0:0:0:
448,192,21916,1,0,0:0:0:0:
192,192,22249,1,2,0:0:0:0:
448,192,22416,1,2,0:0:0:0:
320,192,22583,1,0,0:0:0:0:
192,192,22583,1,2,0:0:0:0:
448,192,22916,1,2,0:0:0:0:
320,192,22916,128,0,24249:0:0:0:0:
64,192,23083,1,2,0:0:0:0:
192,192,23249,1,2,0:0:0:0:
448,192,23249,1,0,0:0:0:0:
448,192,23583,1,2,0:0:0:0:
64,192,23749,1,2,0:0:0:0:
192,192,23916,1,2,0:0:0:0:
448,192,23916,1,0,0:0:0:0:
64,192,24083,1,2,0:0:0:0:
192,192,24249,1,2,0:0:0:0:
448,192,24249,128,0,25583:0:0:0:0:
320,192,24416,1,2,0:0:0:0:
192,192,24583,1,0,0:0:0:0:
64,192,24583,1,2,0:0:0:0:
320,192,24916,1,2,0:0:0:0:
192,192,25083,1,2,0:0:0:0:
64,192,25249,1,0,0:0:0:0:
320,192,25249,1,2,0:0:0:0:
64,192,25583,1,2,0:0:0:0:
192,192,25583,128,0,26916:0:0:0:0:
320,192,25749,1,2,0:0:0:0:
64,192,25916,1,2,0:0:0:0:
448,192,25916,1,0,0:0:0:0:
64,192,26249,1,2,0:0:0:0:
448,192,26249,1,0,0:0:0:0:
320,192,26416,1,2,0:0:0:0:
448,192,26583,1,0,0:0:0:0:
64,192,26666,1,0,0:0:0:0:
320,192,26749,1,2,0:0:0:0:
64,192,26916,1,2,0:0:0:0:
320,192,26916,1,4,0:0:0:0:
448,192,26916,128,0,28249:0:0:0:0:
192,192,27083,1,2,0:0:0:0:
320,192,27249,1,0,0:0:0:0:
64,192,27249,1,2,0:0:0:0:
64,192,27583,1,2,0:0:0:0:
320,192,27749,1,2,0:0:0:0:
64,192,27916,1,2,0:0:0:0:
192,192,27916,1,0,0:0:0:0:
320,192,28249,1,2,0:0:0:0:
64,192,28249,128,0,29583:0:0:0:0:
192,192,28416,1,2,0:0:0:0:
320,192,28583,1,2,0:0:0:0:
448,192,28583,1,0,0:0:0:0:
448,192,28916,1,2,0:0:0:0:
192,192,29083,1,2,0:0:0:0:
448,192,29249,1,2,0:0:0:0:
320,192,29249,1,0,0:0:0:0:
192,192,29416,1,2,0:0:0:0:
448,192,29583,1,2,0:0:0:0:
320,192,29583,128,0,30249:0:0:0:0:
192,192,29749,1,2,0:0:0:0:
64,192,29916,1,0,0:0:0:0:
448,192,29916,1,0,0:0:0:0:
64,192,30249,1,0,0:0:0:0:
192,192,30249,128,0,30916:0:0:0:0:
448,192,30416,1,2,0:0:0:0:
64,192,30583,1,2,0:0:0:0:
320,192,30749,1,2,0:0:0:0:
64,192,30916,1,0,0:0:0:0:
448,192,30916,1,2,0:0:0:0:
320,192,31083,1,8,0:0:0:0:
448,192,31083,1,0,0:0:0:0:
64,192,31166,1,0,0:0:0:0:
192,192,31166,1,8,0:0:0:0:
320,192,31249,1,8,0:0:0:0:
448,192,31249,1,0,0:0:0:0:
192,192,31333,1,0,0:0:0:0:
448,192,31416,1,0,0:0:0:0:
64,192,31416,1,8,0:0:0:0:
192,192,31499,1,2,0:0:0:0:
320,192,31499,1,0,0:0:0:0:
448,192,31583,1,2,0:0:0:0:
64,192,31583,1,0,0:0:0:0:
320,192,31666,1,2,0:0:0:0:
64,192,31749,1,2,0:0:0:0:
320,192,31833,1,2,0:0:0:0:
64,192,31916,1,2,0:0:0:0:
192,192,31916,1,0,0:0:0:0:
448,192,31999,1,2,0:0:0:0:
192,192,32083,1,2,0:0:0:0:
448,192,32166,1,2,0:0:0:0:
64,192,32249,1,2,0:0:0:0:
192,192,32249,1,0,0:0:0:0:
320,192,32249,1,4,0:0:0:0:
192,192,32583,1,8,0:0:0:0:
448,192,32583,1,0,0:0:0:0:
64,192,32583,1,0,0:0:0:0:
320,192,32749,1,0,0:0:0:0:
64,192,32916,1,2,0:0:0:0:
448,192,32916,1,0,0:0:0:0:
192,192,33083,1,0,0:0:0:0:
64,192,33249,1,0,0:0:0:0:
448,192,33249,1,0,0:0:0:0:
320,192,33249,1,8,0:0:0:0:
192,192,33416,1,2,0:0:0:0:
320,192,33416,1,0,0:0:0:0:
448,192,33583,1,0,0:0:0:0:
64,192,33749,1,2,0:0:0:0:
192,192,33749,1,0,0:0:0:0:
320,192,33916,1,0,0:0:0:0:
448,192,33916,1,0,0:0:0:0:
192,192,33916,1,8,0:0:0:0:
64,192,34083,1,8,0:0:0:0:
448,192,34083,1,0,0:0:0:0:
192,192,34166,1,8,0:0:0:0:
320,192,34249,1,0,0:0:0:0:
448,192,34249,1,2,0:0:0:0:
64,192,34416,1,0,0:0:0:0:
192,192,34416,1,2,0:0:0:0:
64,192,34583,1,0,0:0:0:0:
448,192,34583,1,0,0:0:0:0:
320,192,34583,1,8,0:0:0:0:
192,192,34749,128,0,34916:0:0:0:0:
320,192,34916,1,2,0:0:0:0:
64,192,34916,128,0,36249:0:0:0:0:
448,192,35083,1,0,0:0:0:0:
192,192,35249,1,8,0:0:0:0:
320,192,35249,1,0,0:0:0:0:
448,192,35416,1,2,0:0:0:0:
320,192,35583,1,2,0:0:0:0:
192,192,35749,1,2,0:0:0:0:
448,192,35916,1,0,0:0:0:0:
320,192,35916,1,8,0:0:0:0:
192,192,36083,1,2,0:0:0:0:
320,192,36249,1,0,0:0:0:0:
448,192,36249,128,0,37249:0:0:0:0:
192,192,36416,1,2,0:0:0:0:
64,192,36583,1,0,0:0:0:0:
320,192,36583,1,8,0:0:0:0:
192,192,36749,1,0,0:0:0:0:
64,192,36916,1,0,0:0:0:0:
320,192,37083,1,2,0:0:0:0:
64,192,37249,1,0,0:0:0:0:
192,192,37249,1,8,0:0:0:0:
64,192,37416,1,0,0:0:0:0:
320,192,37416,1,8,0:0:0:0:
192,192,37499,1,8,0:0:0:0:
320,192,37583,1,2,0:0:0:0:
64,192,37583,1,8,0:0:0:0:
448,192,37583,1,4,0:0:0:0:
64,192,37916,1,8,0:0:0:0:
448,192,37916,1,2,0:0:0:0:
192,192,37916,128,0,38083:0:0:0:0:
320,192,38249,1,2,0:0:0:0:
448,192,38249,128,0,38416:0:0:0:0:
64,192,38416,1,0,0:0:0:0:
192,192,38416,1,2,0:0:0:0:
448,192,38583,1,0,0:0:0:0:
320,192,38583,1,8,0:0:0:0:
64,192,38583,128,0,38749:0:0:0:0:
320,192,38749,1,2,0:0:0:0:
192,192,38749,1,0,0:0:0:0:
192,192,38916,1,2,0:0:0:0:
320,192,38916,128,0,39083:0:0:0:0:
448,192,39083,1,0,0:0:0:0:
64,192,39083,1,2,0:0:0:0:
192,192,39249,1,0,0:0:0:0:
320,192,39249,1,8,0:0:0:0:
64,192,39249,128,0,39416:0:0:0:0:
192,192,39416,1,8,0:0:0:0:
320,192,39499,1,8,0:0:0:0:
64,192,39583,1,0,0:0:0:0:
448,192,39583,128,2,39749:0:0:0:0:
320,192,39749,1,0,0:0:0:0:
192,192,39749,1,8,0:0:0:0:
64,192,39916,1,0,0:0:0:0:
448,192,39916,1,2,0:0:0:0:
320,192,40083,1,2,0:0:0:0:
64,192,40249,1,2,0:0:0:0:
192,192,40249,1,0,0:0:0:0:
448,192,40249,1,4,0:0:0:0:
192,192,40583,1,0,0:0:0:0:
448,192,40749,1,2,0:0:0:0:
64,192,40749,1,0,0:0:0:0:
192,192,40916,128,0,41083:0:0:0:0:
64,192,40916,1,8,0:0:0:0:
320,192,40916,1,0,0:0:0:0:
64,192,41249,1,0,0:0:0:0:
192,192,41249,1,8,0:0:0:0:
448,192,41249,128,0,41416:0:0:0:0:
320,192,41416,1,8,0:0:0:0:
192,192,41499,1,8,0:0:0:0:
64,192,41583,1,8,0:0:0:0:
448,192,41583,1,0,0:0:0:0:
320,192,41583,1,2,0:0:0:0:
320,192,41833,1,0,0:0:0:0:
448,192,41833,1,8,0:0:0:0:
64,192,41833,1,0,0:0:0:0:
320,192,42083,1,2,0:0:0:0:
192,192,42083,1,0,0:0:0:0:
448,192,42249,1,8,0:0:0:0:
64,192,42249,1,0,0:0:0:0:
192,192,42249,1,0,0:0:0:0:
320,192,42416,1,2,0:0:0:0:
448,192,42416,1,0,0:0:0:0:
192,192,42583,1,0,0:0:0:0:
64,192,42583,1,2,0:0:0:0:
320,192,42749,1,0,0:0:0:0:
64,192,42916,1,2,0:0:0:0:
448,192,42916,1,4,0:0:0:0:
192,192,42916,128,0,43249:0:0:0:0:
320,192,43249,1,2,0:0:0:0:
448,192,43249,128,0,43583:0:0:0:0:
64,192,43583,1,0,0:0:0:0:
192,192,43583,1,8,0:0:0:0:
320,192,43749,1,0,0:0:0:0:
448,192,43749,1,2,0:0:0:0:
192,192,43916,1,0,0:0:0:0:
64,192,44083,1,0,0:0:0:0:
448,192,44083,1,2,0:0:0:0:
320,192,44249,1,2,0:0:0:0:
192,192,44249,128,0,44583:0:0:0:0:
64,192,44583,1,2,0:0:0:0:
320,192,44583,128,0,44916:0:0:0:0:
448,192,44916,1,8,0:0:0:0:
64,192,44916,1,0,0:0:0:0:
192,192,44916,1,0,0:0:0:0:
320,192,45083,1,0,0:0:0:0:
192,192,45083,1,2,0:0:0:0:
64,192,45249,1,0,0:0:0:0:
320,192,45416,1,0,0:0:0:0:
448,192,45416,1,2,0:0:0:0:
64,192,45583,1,2,0:0:0:0:
192,192,45583,128,0,45916:0:0:0:0:
448,192,45916,1,2,0:0:0:0:
64,192,45916,128,0,46249:0:0:0:0:
320,192,46249,1,8,0:0:0:0:
448,192,46249,1,0,0:0:0:0:
192,192,46249,1,0,0:0:0:0:
64,192,46416,1,2,0:0:0:0:
448,192,46416,1,0,0:0:0:0:
192,192,46583,1,0,0:0:0:0:
320,192,46749,1,2,0:0:0:0:
448,192,46749,1,0,0:0:0:0:
64,192,46916,1,0,0:0:0:0:
320,192,47083,1,2,0:0:0:0:
192,192,47166,1,2,0:0:0:0:
64,192,47249,1,0,0:0:0:0:
320,192,47249,1,8,0:0:0:0:
448,192,47249,1,2,0:0:0:0:
192,192,47416,1,2,0:0:0:0:
448,192,47416,1,0,0:0:0:0:
320,192,47583,1,0,0:0:0:0:
64,192,47749,1,2,0:0:0:0:
320,192,47916,1,0,0:0:0:0:
192,192,47916,1,0,0:0:0:0:
448,192,47916,1,8,0:0:0:0:
320,192,48083,1,2,0:0:0:0:
64,192,48249,1,4,0:0:0:0:
448,192,48249,1,2,0:0:0:0:
192,192,48249,128,0,48583:0:0:0:0:
64,192,48583,1,2,0:0:0:0:
320,192,48583,128,0,48916:0:0:0:0:
448,192,48916,1,8,0:0:0:0:
64,192,48916,1,0,0:0:0:0:
192,192,48916,1,0,0:0:0:0:
192,192,49083,1,0,0:0:0:0:
320,192,49083,1,2,0:0:0:0:
448,192,49249,1,0,0:0:0:0:
64,192,49416,1,2,0:0:0:0:
192,192,49416,1,0,0:0:0:0:
448,192,49583,1,2,0:0:0:0:
320,192,49583,128,0,49916:0:0:0:0:
64,192,49916,1,0,0:0:0:0:
448,192,49916,1,2,0:0:0:0:
192,192,49916,128,0,50249:0:0:0:0:
448,192,50249,1,8,0:0:0:0:
64,192,50249,1,0,0:0:0:0:
320,192,50249,1,0,0:0:0:0:
448,192,50416,1,0,0:0:0:0:
192,192,50416,1,2,0:0:0:0:
64,192,50583,1,0,0:0:0:0:
192,192,50749,1,2,0:0:0:0:
320,192,50749,1,0,0:0:0:0:
448,192,50916,128,2,51249:0:0:0:0:
64,192,50916,1,0,0:0:0:0:
64,192,51249,128,2,51583:0:0:0:0:
192,192,51249,1,0,0:0:0:0:
320,192,51583,1,8,0:0:0:0:
448,192,51583,1,0,0:0:0:0:
192,192,51583,1,0,0:0:0:0:
448,192,51749,1,2,0:0:0:0:
64,192,51749,1,0,0:0:0:0:
320,192,51916,1,0,0:0:0:0:
64,192,52083,1,0,0:0:0:0:
192,192,52083,1,2,0:0:0:0:
448,192,52249,1,0,0:0:0:0:
320,192,52416,1,2,0:0:0:0:
192,192,52499,1,2,0:0:0:0:
320,192,52583,1,8,0:0:0:0:
448,192,52583,1,0,0:0:0:0:
64,192,52583,1,2,0:0:0:0:
64,192,52749,1,0,0:0:0:0:
192,192,52749,1,2,0:0:0:0:
320,192,53083,1,2,0:0:0:0:
448,192,53083,1,0,0:0:0:0:
64,192,53249,1,0,0:0:0:0:
192,192,53249,1,0,0:0:0:0:
448,192,53249,1,8,0:0:0:0:
64,192,53583,128,0,53916:0:0:0:0:
448,192,53583,1,4,0:0:0:0:
320,192,53583,1,2,0:0:0:0:
192,192,53749,1,0,0:0:0:0:
448,192,53916,128,0,54249:0:0:0:0:
320,192,53916,1,2,0:0:0:0:
64,192,54083,1,0,0:0:0:0:
320,192,54249,1,0,0:0:0:0:
192,192,54416,1,0,0:0:0:0:
448,192,54583,1,0,0:0:0:0:
64,192,54749,1,0,0:0:0:0:
320,192,54916,1,2,0:0:0:0:
192,192,54916,1,0,0:0:0:0:
448,192,54916,128,0,55249:0:0:0:0:
64,192,55083,1,0,0:0:0:0:
64,192,55249,1,2,0:0:0:0:
192,192,55249,128,0,55583:0:0:0:0:
448,192,55416,1,0,0:0:0:0:
320,192,55583,1,0,0:0:0:0:
448,192,55749,128,0,56249:0:0:0:0:
64,192,55749,1,0,0:0:0:0:
320,192,55916,1,0,0:0:0:0:
192,192,56083,1,0,0:0:0:0:
320,192,56249,1,2,0:0:0:0:
64,192,56249,128,0,56583:0:0:0:0:
448,192,56583,1,2,0:0:0:0:
320,192,56583,128,0,56916:0:0:0:0:
192,192,56916,1,0,0:0:0:0:
448,192,56916,1,8,0:0:0:0:
64,192,56916,1,0,0:0:0:0:
448,192,57083,1,0,0:0:0:0:
320,192,57083,1,2,0:0:0:0:
192,192,57249,1,0,0:0:0:0:
64,192,57416,1,0,0:0:0:0:
448,192,57416,1,2,0:0:0:0:
320,192,57583,1,0,0:0:0:0:
64,192,57749,1,2,0:0:0:0:
192,192,57833,1,2,0:0:0:0:
448,192,57916,1,8,0:0:0:0:
320,192,57916,1,2,0:0:0:0:
64,192,57916,128,0,58083:0:0:0:0:
192,192,58083,1,0,0:0:0:0:
320,192,58083,1,2,0:0:0:0:
448,192,58249,1,4,0:0:0:0:
64,192,58249,1,8,0:0:0:0:
192,192,58249,1,0,0:0:0:0:
320,192,58499,1,2,0:0:0:0:
448,192,58499,1,0,0:0:0:0:
64,192,58583,1,0,0:0:0:0:
192,192,58583,1,2,0:0:0:0:
320,192,58749,1,2,0:0:0:0:
448,192,58749,1,0,0:0:0:0:
192,192,58916,1,8,0:0:0:0:
320,192,58916,1,2,0:0:0:0:
64,192,58916,128,0,60083:0:0:0:0:
448,192,59083,1,2,0:0:0:0:
192,192,59249,1,2,0:0:0:0:
320,192,59416,1,8,0:0:0:0:
448,192,59416,1,2,0:0:0:0:
320,192,59583,1,2,0:0:0:0:
192,192,59583,1,8,0:0:0:0:
192,192,59749,1,2,0:0:0:0:
320,192,59916,1,2,0:0:0:0:
448,192,59916,1,8,0:0:0:0:
192,192,60083,1,2,0:0:0:0:
448,192,60083,1,0,0:0:0:0:
448,192,60416,128,0,61583:0:0:0:0:
192,192,60916,128,0,61249:0:0:0:0:
320,192,61249,128,0,61416:0:0:0:0:
64,192,61416,128,0,61583:0:0:0:0:
320,192,61583,1,4,0:0:0:0:
192,192,61583,1,2,0:0:0:0:
64,192,61916,1,0,0:0:0:0:
448,192,61916,1,8,0:0:0:0:
320,192,61916,1,0,0:0:0:0:
320,192,62249,1,2,0:0:0:0:
64,192,62249,1,0,0:0:0:0:
192,192,62416,1,0,0:0:0:0:
448,192,62416,1,2,0:0:0:0:
64,192,62583,1,0,0:0:0:0:
192,192,62583,1,0,0:0:0:0:
320,192,62583,1,8,0:0:0:0:
320,192,62749,1,0,0:0:0:0:
448,192,62749,1,2,0:0:0:0:
64,192,63083,1,0,0:0:0:0:
448,192,63083,1,2,0:0:0:0:
320,192,63249,1,8,0:0:0:0:
64,192,63249,1,0,0:0:0:0:
192,192,63249,1,0,0:0:0:0:
192,192,63416,1,0,0:0:0:0:
448,192,63416,1,2,0:0:0:0:
320,192,63583,1,2,0:0:0:0:
64,192,63583,1,0,0:0:0:0:
64,192,63749,1,0,0:0:0:0:
448,192,63749,1,2,0:0:0:0:
320,192,63916,1,0,0:0:0:0:
192,192,63916,1,0,0:0:0:0:
448,192,63916,1,8,0:0:0:0:
64,192,64083,1,2,0:0:0:0:
320,192,64083,1,0,0:0:0:0:
192,192,64249,1,2,0:0:0:0:
448,192,64249,1,0,0:0:0:0:
64,192,64583,1,0,0:0:0:0:
192,192,64583,1,0,0:0:0:0:
448,192,64583,1,8,0:0:0:0:
320,192,64916,1,2,0:0:0:0:
448,192,64916,1,0,0:0:0:0:
64,192,65083,1,0,0:0:0:0:
192,192,65083,1,2,0:0:0:0:
448,192,65249,1,8,0:0:0:0:
64,192,65249,1,0,0:0:0:0:
320,192,65249,1,0,0:0:0:0:
192,192,65416,1,0,0:0:0:0:
320,192,65416,1,2,0:0:0:0:
448,192,65749,1,2,0:0:0:0:
192,192,65749,1,0,0:0:0:0:
64,192,65916,1,0,0:0:0:0:
320,192,65916,1,0,0:0:0:0:
448,192,65916,1,8,0:0:0:0:
192,192,66083,1,0,0:0:0:0:
320,192,66083,1,2,0:0:0:0:
64,192,66249,1,2,0:0:0:0:
448,192,66249,128,0,66749:0:0:0:0:
320,192,66416,1,2,0:0:0:0:
64,192,66583,1,0,0:0:0:0:
192,192,66583,1,8,0:0:0:0:
320,192,66749,1,2,0:0:0:0:
448,192,66916,1,2,0:0:0:0:
64,192,66916,128,0,68083:0:0:0:0:
192,192,67249,1,0,0:0:0:0:
320,192,67249,1,8,0:0:0:0:
192,192,67583,1,2,0:0:0:0:
320,192,67749,1,2,0:0:0:0:
448,192,67916,1,8,0:0:0:0:
192,192,67916,1,0,0:0:0:0:
448,192,68083,1,0,0:0:0:0:
320,192,68083,1,2,0:0:0:0:
192,192,68416,1,0,0:0:0:0:
448,192,68416,1,2,0:0:0:0:
64,192,68583,1,0,0:0:0:0:
320,192,68583,1,8,0:0:0:0:
192,192,68583,1,0,0:0:0:0:
320,192,68749,1,0,0:0:0:0:
448,192,68749,1,2,0:0:0:0:
64,192,68916,1,0,0:0:0:0:
192,192,68916,1,2,0:0:0:0:
448,192,69083,1,0,0:0:0:0:
320,192,69083,1,2,0:0:0:0:
64,192,69249,1,0,0:0:0:0:
192,192,69249,1,8,0:0:0:0:
448,192,69249,1,0,0:0:0:0:
192,192,69416,1,0,0:0:0:0:
320,192,69416,1,2,0:0:0:0:
64,192,69583,1,0,0:0:0:0:
448,192,69583,1,2,0:0:0:0:
192,192,69916,1,0,0:0:0:0:
320,192,69916,1,0,0:0:0:0:
448,192,69916,1,8,0:0:0:0:
64,192,70249,1,0,0:0:0:0:
192,192,70249,1,2,0:0:0:0:
320,192,70416,1,2,0:0:0:0:
448,192,70416,1,0,0:0:0:0:
192,192,70583,1,0,0:0:0:0:
320,192,70583,1,8,0:0:0:0:
64,192,70583,1,0,0:0:0:0:
448,192,70749,1,2,0:0:0:0:
192,192,70749,1,0,0:0:0:0:
320,192,70916,1,2,0:0:0:0:
64,192,70916,1,0,0:0:0:0:
448,192,71083,1,0,0:0:0:0:
320,192,71083,1,2,0:0:0:0:
64,192,71249,1,0,0:0:0:0:
192,192,71249,1,0,0:0:0:0:
448,192,71249,1,8,0:0:0:0:
320,192,71416,1,2,0:0:0:0:
192,192,71416,1,0,0:0:0:0:
448,192,71583,1,0,0:0:0:0:
320,192,71583,1,8,0:0:0:0:
192,192,71666,1,8,0:0:0:0:
64,192,71666,1,0,0:0:0:0:
320,192,71749,1,8,0:0:0:0:
448,192,71749,1,2,0:0:0:0:
64,192,71916,1,0,0:0:0:0:
192,192,71916,1,0,0:0:0:0:
448,192,71916,1,8,0:0:0:0:
64,192,72083,1,0,0:0:0:0:
320,192,72083,1,2,0:0:0:0:
192,192,72249,1,2,0:0:0:0:
448,192,72249,1,0,0:0:0:0:
320,192,72249,1,4,0:0:0:0:
64,192,72583,1,0,0:0:0:0:
320,192,72583,1,0,0:0:0:0:
448,192,72583,1,8,0:0:0:0:
192,192,72749,1,0,0:0:0:0:
64,192,72916,1,0,0:0:0:0:
320,192,72916,1,2,0:0:0:0:
448,192,73083,1,2,0:0:0:0:
192,192,73083,1,0,0:0:0:0:
64,192,73249,1,0,0:0:0:0:
192,192,73249,1,0,0:0:0:0:
320,192,73249,1,8,0:0:0:0:
320,192,73416,1,0,0:0:0:0:
448,192,73416,1,2,0:0:0:0:
320,192,73749,1,2,0:0:0:0:
64,192,73749,1,0,0:0:0:0:
192,192,73916,1,0,0:0:0:0:
320,192,73916,1,0,0:0:0:0:
448,192,73916,1,8,0:0:0:0:
64,192,74083,1,0,0:0:0:0:
448,192,74083,1,2,0:0:0:0:
192,192,74249,1,0,0:0:0:0:
320,192,74249,1,2,0:0:0:0:
320,192,74416,1,2,0:0:0:0:
64,192,74416,1,0,0:0:0:0:
64,192,74583,1,0,0:0:0:0:
192,192,74583,1,8,0:0:0:0:
448,192,74583,1,0,0:0:0:0:
192,192,74749,1,2,0:0:0:0:
320,192,74749,1,0,0:0:0:0:
64,192,74916,1,0,0:0:0:0:
448,192,74916,1,2,0:0:0:0:
192,192,75249,1,8,0:0:0:0:
320,192,75249,1,0,0:0:0:0:
448,192,75249,1,0,0:0:0:0:
64,192,75583,1,0,0:0:0:0:
320,192,75583,1,2,0:0:0:0:
192,192,75749,1,0,0:0:0:0:
448,192,75749,1,2,0:0:0:0:
64,192,75916,1,0,0:0:0:0:
320,192,75916,1,8,0:0:0:0:
448,192,75916,1,0,0:0:0:0:
192,192,76083,1,0,0:0:0:0:
320,192,76083,1,2,0:0:0:0:
64,192,76416,1,2,0:0:0:0:
192,192,76416,1,0,0:0:0:0:
320,192,76583,1,0,0:0:0:0:
448,192,76583,1,8,0:0:0:0:
64,192,76583,1,0,0:0:0:0:
192,192,76749,1,0,0:0:0:0:
320,192,76749,1,2,0:0:0:0:
448,192,76916,1,2,0:0:0:0:
64,192,76916,128,0,77416:0:0:0:0:
192,192,77083,1,2,0:0:0:0:
448,192,77249,1,8,0:0:0:0:
320,192,77249,1,0,0:0:0:0:
192,192,77416,1,2,0:0:0:0:
320,192,77583,1,2,0:0:0:0:
448,192,77583,128,0,78749:0:0:0:0:
64,192,77916,1,0,0:0:0:0:
192,192,77916,1,8,0:0:0:0:
64,192,78249,1,2,0:0:0:0:
320,192,78416,1,2,0:0:0:0:
64,192,78583,1,0,0:0:0:0:
192,192,78583,1,8,0:0:0:0:
64,192,78749,1,0,0:0:0:0:
320,192,78749,1,2,0:0:0:0:
64,192,79083,1,0,0:0:0:0:
320,192,79083,1,2,0:0:0:0:
192,192,79249,1,0,0:0:0:0:
448,192,79249,1,8,0:0:0:0:
320,192,79249,1,0,0:0:0:0:
64,192,79416,1,0,0:0:0:0:
448,192,79416,1,2,0:0:0:0:
192,192,79583,1,2,0:0:0:0:
64,192,79583,1,0,0:0:0:0:
320,192,79749,1,2,0:0:0:0:
448,192,79749,1,0,0:0:0:0:
64,192,79916,1,0,0:0:0:0:
192,192,79916,1,0,0:0:0:0:
448,192,79916,1,8,0:0:0:0:
192,192,80083,1,0,0:0:0:0:
320,192,80083,1,2,0:0:0:0:
64,192,80249,1,0,0:0:0:0:
448,192,80249,1,2,0:0:0:0:
64,192,80583,1,0,0:0:0:0:
192,192,80583,1,0,0:0:0:0:
320,192,80583,1,8,0:0:0:0:
64,192,80916,1,0,0:0:0:0:
448,192,80916,1,2,0:0:0:0:
192,192,81083,1,0,0:0:0:0:
320,192,81083,1,2,0:0:0:0:
448,192,81249,1,8,0:0:0:0:
64,192,81249,1,0,0:0:0:0:
320,192,81249,1,0,0:0:0:0:
64,192,81416,1,0,0:0:0:0:
192,192,81416,1,2,0:0:0:0:
320,192,81583,1,2,0:0:0:0:
448,192,81583,1,0,0:0:0:0:
64,192,81749,1,0,0:0:0:0:
448,192,81749,1,2,0:0:0:0:
192,192,81916,1,0,0:0:0:0:
320,192,81916,1,8,0:0:0:0:
64,192,81916,1,0,0:0:0:0:
448,192,82083,1,2,0:0:0:0:
192,192,82083,1,0,0:0:0:0:
320,192,82249,1,2,0:0:0:0:
448,192,82249,1,8,0:0:0:0:
192,192,82333,1,0,0:0:0:0:
64,192,82333,1,8,0:0:0:0:
320,192,82416,1,2,0:0:0:0:
192,192,82499,1,2,0:0:0:0:
64,192,82583,1,0,0:0:0:0:
320,192,82583,1,2,0:0:0:0:
448,192,82583,1,8,0:0:0:0:
192,192,82749,1,0,0:0:0:0:
320,192,82749,1,2,0:0:0:0:
64,192,82916,1,0,0:0:0:0:
448,192,82916,1,2,0:0:0:0:
192,192,82916,1,4,0:0:0:0:
320,192,83083,1,0,0:0:0:0:
448,192,83249,1,0,0:0:0:0:
64,192,83249,1,0,0:0:0:0:
192,192,83416,1,0,0:0:0:0:
320,192,83416,1,0,0:0:0:0:
64,192,83416,1,8,0:0:0:0:
448,192,83583,1,0,0:0:0:0:
192,192,83749,1,0,0:0:0:0:
64,192,83749,1,2,0:0:0:0:
64,192,83916,1,0,0:0:0:0:
448,192,83916,1,8,0:0:0:0:
320,192,83916,1,0,0:0:0:0:
320,192,84083,1,2,0:0:0:0:
192,192,84083,1,0,0:0:0:0:
192,192,84249,1,0,0:0:0:0:
320,192,84249,1,2,0:0:0:0:
64,192,84416,1,0,0:0:0:0:
192,192,84583,1,0,0:0:0:0:
448,192,84583,1,2,0:0:0:0:
64,192,84749,1,0,0:0:0:0:
192,192,84749,1,0,0:0:0:0:
320,192,84749,1,8,0:0:0:0:
448,192,84916,1,0,0:0:0:0:
192,192,85083,1,0,0:0:0:0:
320,192,85083,1,2,0:0:0:0:
64,192,85249,1,0,0:0:0:0:
192,192,85249,1,8,0:0:0:0:
320,192,85333,1,8,0:0:0:0:
448,192,85333,1,0,0:0:0:0:
192,192,85416,1,0,0:0:0:0:
64,192,85416,1,2,0:0:0:0:
320,192,85583,1,0,0:0:0:0:
448,192,85583,1,2,0:0:0:0:
192,192,85749,1,0,0:0:0:0:
320,192,85916,1,2,0:0:0:0:
448,192,85916,1,0,0:0:0:0:
64,192,86083,1,0,0:0:0:0:
192,192,86083,1,0,0:0:0:0:
448,192,86083,1,8,0:0:0:0:
320,192,86249,1,0,0:0:0:0:
192,192,86416,1,2,0:0:0:0:
64,192,86416,1,0,0:0:0:0:
448,192,86583,1,8,0:0:0:0:
320,192,86583,1,0,0:0:0:0:
192,192,86583,1,0,0:0:0:0:
64,192,86749,1,0,0:0:0:0:
320,192,86749,1,2,0:0:0:0:
64,192,86916,1,0,0:0:0:0:
320,192,86916,1,2,0:0:0:0:
448,192,87083,1,0,0:0:0:0:
192,192,87249,1,0,0:0:0:0:
320,192,87249,1,2,0:0:0:0:
320,192,87416,1,0,0:0:0:0:
448,192,87416,1,8,0:0:0:0:
64,192,87416,1,0,0:0:0:0:
192,192,87583,1,0,0:0:0:0:
320,192,87749,1,0,0:0:0:0:
448,192,87749,1,2,0:0:0:0:
64,192,87916,1,0,0:0:0:0:
192,192,87916,1,8,0:0:0:0:
320,192,87999,1,8,0:0:0:0:
64,192,88083,1,4,0:0:0:0:
192,192,88083,1,0,0:0:0:0:
448,192,88083,1,2,0:0:0:0:
