osu file format v14

[General]
AudioFilename: audio.mp3
AudioLeadIn: 0
PreviewTime: 51928
Countdown: 1
SampleSet: Normal
StackLeniency: 0.8
Mode: 0
LetterboxInBreaks: 0
WidescreenStoryboard: 1

[Editor]
Bookmarks: 11481,16029,29048,29110,36087,36398,48666,63682,74114,85533,94995
DistanceSpacing: 0.8
BeatDivisor: 4
GridSize: 8
TimelineZoom: 1.800006

[Metadata]
Title:Chain
TitleUnicode:Chain
Artist:BACK-ON
ArtistUnicode:BACK-ON
Creator:ramuuu
Version:SEXTRA
Source:
Tags:
BeatmapID:1487431
BeatmapSetID:703003

[Difficulty]
HPDrainRate:4.5
CircleSize:4
OverallDifficulty:7.5
ApproachRate:9.5
SliderMultiplier:2.1
SliderTickRate:1

[Events]
//Background and Video events
0,0,"air-gear-itsuki-fly-desktop-background.jpg",0,0
//Break Periods
//Storyboard Layer 0 (Background)
//Storyboard Layer 1 (Fail)
//Storyboard Layer 2 (Pass)
//Storyboard Layer 3 (Foreground)
//Storyboard Sound Samples

[TimingPoints]
1054,326.06427406199,4,1,0,100,1,0
82570,-200,4,1,0,100,0,0
83222,-100,4,1,0,100,0,0
94797,-200,4,1,0,100,0,0
95286,-100,4,1,0,100,0,0

[HitObjects]
248,16,32356,6,0,P|312:80|256:184,1,210
72,160,32845,2,0,P|120:112|184:112,1,105
280,184,33171,1,0,0:0:0:0:
72,264,33334,1,0,0:0:0:0:
288,192,33497,6,0,P|336:224|360:304,1,105
144,320,33823,2,0,P|200:288|256:288,1,105
368,280,34149,1,0,0:0:0:0:
184,200,34312,1,0,0:0:0:0:
456,248,34475,2,0,P|440:336|304:352,1,210
312,168,34964,6,0,L|368:280,1,105
456,64,35290,2,0,L|400:176,1,105
240,112,35616,1,0,0:0:0:0:
264,88,35698,1,0,0:0:0:0:
304,80,35779,1,0,0:0:0:0:
312,208,35942,1,0,0:0:0:0:
104,200,36105,1,0,0:0:0:0:
304,80,36268,1,0,0:0:0:0:
216,288,36431,1,0,0:0:0:0:
136,80,36595,1,0,0:0:0:0:
392,192,36758,5,0,0:0:0:0:
392,192,36839,1,0,0:0:0:0:
392,192,36921,2,0,P|368:272|240:248,1,210
256,112,37410,2,0,L|320:224,1,105
170,285,37736,1,0,0:0:0:0:
170,285,37817,1,0,0:0:0:0:
170,285,37899,2,0,P|179:215|322:213,1,210
324,348,38388,2,0,L|244:252,1,105
144,136,38714,5,0,0:0:0:0:
320,200,38877,1,0,0:0:0:0:
112,256,39040,1,0,0:0:0:0:
344,208,39203,1,0,0:0:0:0:
120,128,39366,1,0,0:0:0:0:
240,296,39529,1,0,0:0:0:0:
240,296,39611,1,0,0:0:0:0:
240,296,39692,1,0,0:0:0:0:
304,104,39855,1,0,0:0:0:0:
104,160,40018,1,0,0:0:0:0:
320,240,40181,6,0,P|264:200|200:208,1,105
376,328,40507,2,0,P|416:280|416:216,1,105
400,144,40833,1,0,0:0:0:0:
304,104,40996,1,0,0:0:0:0:
208,144,41159,1,0,0:0:0:0:
400,144,41322,1,0,0:0:0:0:
200,240,41485,6,0,P|136:208|120:136,1,105
120,136,41730,1,0,0:0:0:0:
120,136,41812,1,0,0:0:0:0:
296,224,41975,2,0,P|280:296|232:328,1,105
256,136,42301,2,0,P|320:128|368:152,1,105
432,264,42627,1,0,0:0:0:0:
208,232,42790,5,0,0:0:0:0:
180,200,42871,1,0,0:0:0:0:
166,161,42953,1,0,0:0:0:0:
168,119,43034,1,0,0:0:0:0:
184,80,43116,1,0,0:0:0:0:
214,51,43197,1,0,0:0:0:0:
252,34,43279,1,0,0:0:0:0:
293,32,43360,1,0,0:0:0:0:
333,45,43442,1,0,0:0:0:0:
392,168,43605,6,0,P|344:176|264:136,1,105
120,216,43931,2,0,P|168:208|248:248,1,105
376,264,44257,1,0,0:0:0:0:
208,224,44420,1,0,0:0:0:0:
424,160,44583,1,0,0:0:0:0:
440,328,44746,6,0,P|392:352|304:320,1,105
207,231,45072,2,0,P|255:207|343:239,1,105
272,312,45398,1,0,0:0:0:0:
112,312,45561,2,0,L|8:312,2,105
304,211,46050,6,0,L|264:329,1,105
147,129,46376,2,0,L|218:232,1,105
360,128,46702,6,0,P|312:112|232:144,1,105
106,210,47029,2,0,P|154:226|234:194,1,105
360,128,47355,1,0,0:0:0:0:
160,128,47518,1,0,0:0:0:0:
392,128,47681,1,0,0:0:0:0:
312,272,47844,5,0,0:0:0:0:
312,272,47925,1,0,0:0:0:0:
312,272,48007,2,0,P|288:200|312:128,1,105
400,32,48333,2,0,P|424:104|400:176,1,105
240,104,48659,2,0,P|315:92|381:129,1,105
496,152,48985,1,0,0:0:0:0:
304,184,49148,5,0,0:0:0:0:
304,184,49229,1,0,0:0:0:0:
304,184,49311,1,0,0:0:0:0:
456,256,49474,1,0,0:0:0:0:
456,256,49556,1,0,0:0:0:0:
456,256,49637,1,0,0:0:0:0:
264,304,49800,2,0,L|160:328,2,105
400,184,50289,6,0,P|457:169|505:189,1,105
344,272,50615,1,0,0:0:0:0:
184,184,50778,1,0,0:0:0:0:
400,184,50941,1,0,0:0:0:0:
136,184,51104,1,0,0:0:0:0:
360,112,51267,2,0,P|440:112|472:144,1,105
344,272,51593,2,0,P|264:272|232:240,1,105
144,128,51920,5,0,0:0:0:0:
177,116,52001,1,0,0:0:0:0:
217,122,52083,1,0,0:0:0:0:
168,288,52246,1,0,0:0:0:0:
162,253,52327,1,0,0:0:0:0:
176,215,52409,1,0,0:0:0:0:
346,233,52572,2,0,P|282:257|234:257,1,105
336,112,52898,2,0,P|400:88|448:88,1,105
448,320,53224,5,0,0:0:0:0:
408,168,53387,1,0,0:0:0:0:
312,256,53550,5,0,0:0:0:0:
496,216,53713,1,0,0:0:0:0:
304,152,53876,5,0,0:0:0:0:
192,320,54039,1,0,0:0:0:0:
184,72,54202,5,0,0:0:0:0:
312,256,54365,1,0,0:0:0:0:
376,112,54528,6,0,P|312:80|264:88,1,105
248,264,54854,2,0,P|292:208|294:159,1,105
88,176,55180,2,0,P|158:190|202:170,1,105
176,0,55506,2,0,P|140:62|146:110,1,105
288,112,55832,5,0,0:0:0:0:
88,176,55995,1,0,0:0:0:0:
288,264,56158,1,0,0:0:0:0:
56,176,56321,1,0,0:0:0:0:
208,104,56484,5,0,0:0:0:0:
72,280,56647,1,0,0:0:0:0:
40,80,56810,1,0,0:0:0:0:
256,184,56974,1,0,0:0:0:0:
32,352,57137,6,0,P|112:352|144:328,1,105
63,180,57463,2,0,P|60:259|83:292,1,105
216,256,57789,6,0,P|296:256|328:232,1,105
296,104,58115,2,0,P|216:104|184:128,1,105
64,160,58441,5,0,0:0:0:0:
304,232,58604,1,0,0:0:0:0:
176,112,58767,1,0,0:0:0:0:
48,264,58930,1,0,0:0:0:0:
296,104,59093,5,0,0:0:0:0:
64,56,59256,1,0,0:0:0:0:
192,248,59419,1,0,0:0:0:0:
240,24,59582,1,0,0:0:0:0:
32,144,59745,5,0,0:0:0:0:
272,248,59908,1,0,0:0:0:0:
120,128,60071,1,0,0:0:0:0:
96,328,60234,1,0,0:0:0:0:
304,128,60397,5,0,0:0:0:0:
120,224,60560,1,0,0:0:0:0:
304,336,60723,1,0,0:0:0:0:
216,96,60886,5,0,0:0:0:0:
168,320,61049,1,0,0:0:0:0:
168,320,61131,1,0,0:0:0:0:
168,320,61212,1,0,0:0:0:0:
8,160,61375,1,0,0:0:0:0:
248,176,61538,1,0,0:0:0:0:
48,336,61701,1,0,0:0:0:0:
104,112,61864,1,0,0:0:0:0:
272,264,62028,1,0,0:0:0:0:
80,224,62191,1,0,0:0:0:0:
208,104,62354,6,0,P|288:104|328:152,1,105
369,276,62680,2,0,P|289:276|249:228,1,105
305,116,63006,6,0,P|329:192|296:244,1,105
224,320,63332,2,0,P|199:243|240:192,1,105
304,96,63658,5,0,0:0:0:0:
144,144,63821,1,0,0:0:0:0:
377,184,63984,1,0,0:0:0:0:
208,48,64147,6,0,L|96:48,1,105
272,184,64473,2,0,L|424:184,1,105
232,272,64799,5,0,0:0:0:0:
192,256,64881,1,0,0:0:0:0:
168,224,64962,2,0,P|169:144|218:104,1,105
342,66,65288,2,0,P|340:145|291:185,1,105
181,127,65614,2,0,P|257:104|308:138,1,105
384,211,65940,2,0,P|306:234|256:192,1,105
128,272,66266,5,0,0:0:0:0:
304,224,66429,1,0,0:0:0:0:
72,176,66592,1,0,0:0:0:0:
278,111,66755,2,0,L|406:63,1,105
170,212,67082,2,0,L|42:164,1,105
272,224,67408,5,0,0:0:0:0:
272,224,67571,2,0,P|248:288|208:312,1,105
117,128,67897,2,0,P|130:178|169:211,1,105
264,40,68223,2,0,P|250:90|211:123,1,105
18,124,68549,2,0,P|66:141|116:127,1,105
264,176,68875,5,0,0:0:0:0:
304,184,68956,1,0,0:0:0:0:
344,184,69038,1,0,0:0:0:0:
384,168,69119,1,0,0:0:0:0:
416,144,69201,2,0,P|368:127|318:141,1,105
176,240,69527,2,0,P|225:254|274:237,1,105
144,160,69853,2,0,P|103:192|89:242,1,105
274,237,70179,2,0,P|314:204|328:154,1,105
232,72,70505,5,0,0:0:0:0:
192,88,70587,1,0,0:0:0:0:
168,120,70668,1,0,0:0:0:0:
152,288,70831,2,0,P|248:264|248:160,2,210
80,200,71646,2,0,P|129:185|178:202,1,105
344,248,71972,1,0,0:0:0:0:
152,288,72136,1,0,0:0:0:0:
240,104,72299,1,0,0:0:0:0:
296,328,72462,1,0,0:0:0:0:
368,112,72788,5,0,0:0:0:0:
368,144,73277,1,0,0:0:0:0:
96,104,74092,5,0,0:0:0:0:
136,128,74173,1,0,0:0:0:0:
184,136,74255,1,0,0:0:0:0:
232,128,74336,1,0,0:0:0:0:
280,120,74418,1,0,0:0:0:0:
328,128,74499,1,0,0:0:0:0:
368,152,74581,1,0,0:0:0:0:
392,192,74663,1,0,0:0:0:0:
392,240,74744,1,0,0:0:0:0:
368,280,74826,1,0,0:0:0:0:
328,304,74907,1,0,0:0:0:0:
280,304,74989,1,0,0:0:0:0:
240,280,75070,1,0,0:0:0:0:
224,232,75152,2,0,L|224:176,1,52.5
400,120,75315,5,0,0:0:0:0:
360,144,75396,1,0,0:0:0:0:
312,152,75478,1,0,0:0:0:0:
264,144,75559,1,0,0:0:0:0:
216,136,75641,1,0,0:0:0:0:
168,144,75722,1,0,0:0:0:0:
128,176,75804,1,0,0:0:0:0:
112,224,75885,1,0,0:0:0:0:
128,272,75967,1,0,0:0:0:0:
168,304,76048,1,0,0:0:0:0:
216,304,76130,1,0,0:0:0:0:
264,296,76211,1,0,0:0:0:0:
312,304,76293,1,0,0:0:0:0:
352,328,76374,2,0,L|400:376,1,52.5
496,176,76537,5,0,0:0:0:0:
456,200,76619,1,0,0:0:0:0:
416,224,76700,2,0,L|344:264,1,52.5
264,312,76863,5,0,0:0:0:0:
112,224,77026,1,0,0:0:0:0:
312,192,77190,1,0,0:0:0:0:
72,296,77353,2,0,P|32:232|120:136,1,210
256,48,77842,5,0,0:0:0:0:
256,160,78005,2,0,P|256:200|256:200,9,26.25
336,288,78494,2,0,P|256:312|176:272,1,157.5
184,216,78820,2,0,P|224:264|328:232,1,157.5
392,232,79146,5,0,0:0:0:0:
424,192,79227,1,0,0:0:0:0:
432,144,79309,1,0,0:0:0:0:
424,96,79390,1,0,0:0:0:0:
400,56,79472,1,0,0:0:0:0:
352,40,79553,1,0,0:0:0:0:
304,48,79635,1,0,0:0:0:0:
264,80,79717,5,0,0:0:0:0:
216,96,79798,1,0,0:0:0:0:
168,88,79880,1,0,0:0:0:0:
128,56,79961,1,0,0:0:0:0:
80,48,80043,1,0,0:0:0:0:
32,64,80124,1,0,0:0:0:0:
0,104,80206,1,0,0:0:0:0:
0,152,80287,1,0,0:0:0:0:
32,192,80369,1,0,0:0:0:0:
80,208,80450,1,0,0:0:0:0:
128,200,80532,5,0,0:0:0:0:
168,176,80613,1,0,0:0:0:0:
216,160,80695,1,0,0:0:0:0:
264,168,80776,1,0,0:0:0:0:
304,200,80858,1,0,0:0:0:0:
320,248,80939,1,0,0:0:0:0:
312,296,81021,1,0,0:0:0:0:
280,336,81102,1,0,0:0:0:0:
232,352,81184,1,0,0:0:0:0:
184,344,81265,5,0,0:0:0:0:
152,304,81347,1,0,0:0:0:0:
152,256,81428,1,0,0:0:0:0:
176,216,81510,1,0,0:0:0:0:
216,192,81591,1,0,0:0:0:0:
264,192,81673,1,0,0:0:0:0:
308,216,81754,1,0,0:0:0:0:
356,224,81836,1,0,0:0:0:0:
408,216,81917,6,0,L|464:192,1,52.5
384,48,82080,2,0,L|384:136,1,52.5
448,240,82244,2,0,L|520:216,1,52.5
344,24,82407,2,0,L|344:96,1,52.5
176,216,82570,2,0,L|296:191,1,105
448,240,83222,5,0,0:0:0:0:
192,176,83385,1,0,0:0:0:0:
344,76,83548,1,0,0:0:0:0:
344,272,83711,1,0,0:0:0:0:
344,352,83874,2,0,P|344:392|344:392,6,26.25
128,320,84200,2,0,B|160:320|160:320|200:336|200:336|232:312|232:312|304:312|304:312,1,157.5
368,272,84526,5,0,0:0:0:0:
408,240,84607,1,0,0:0:0:0:
440,200,84689,1,0,0:0:0:0:
448,152,84771,1,0,0:0:0:0:
432,104,84852,1,0,0:0:0:0:
392,72,84934,1,0,0:0:0:0:
344,64,85015,1,0,0:0:0:0:
296,72,85097,1,0,0:0:0:0:
256,104,85178,1,0,0:0:0:0:
216,128,85260,1,0,0:0:0:0:
168,128,85341,1,0,0:0:0:0:
120,112,85423,1,0,0:0:0:0:
96,72,85504,2,0,L|96:8,1,52.5
344,160,85667,5,0,0:0:0:0:
360,216,85749,1,0,0:0:0:0:
360,272,85830,1,0,0:0:0:0:
344,328,85912,1,0,0:0:0:0:
304,368,85993,1,0,0:0:0:0:
248,384,86075,1,0,0:0:0:0:
192,368,86156,1,0,0:0:0:0:
152,328,86238,1,0,0:0:0:0:
136,272,86319,1,0,0:0:0:0:
144,216,86401,5,0,0:0:0:0:
184,176,86482,1,0,0:0:0:0:
240,160,86564,1,0,0:0:0:0:
296,168,86645,1,0,0:0:0:0:
344,192,86727,1,0,0:0:0:0:
400,200,86808,1,0,0:0:0:0:
456,184,86890,5,0,0:0:0:0:
488,136,86971,1,0,0:0:0:0:
496,80,87053,1,0,0:0:0:0:
472,24,87134,1,0,0:0:0:0:
416,8,87216,1,0,0:0:0:0:
360,24,87298,1,0,0:0:0:0:
328,72,87379,1,0,0:0:0:0:
288,112,87461,1,0,0:0:0:0:
232,128,87542,1,0,0:0:0:0:
176,112,87624,1,0,0:0:0:0:
160,48,87705,2,0,L|440:96,1,262.5
480,168,88276,5,0,0:0:0:0:
296,248,88439,1,0,0:0:0:0:
328,72,88602,1,0,0:0:0:0:
448,264,88765,1,0,0:0:0:0:
216,216,88928,1,0,0:0:0:0:
216,216,89009,1,0,0:0:0:0:
216,216,89091,2,0,P|248:176|360:176,1,157.5
496,328,89417,2,0,P|447:344|368:272,1,157.5
384,168,89743,5,0,0:0:0:0:
368,128,89824,1,0,0:0:0:0:
336,96,89906,1,0,0:0:0:0:
288,88,89988,1,0,0:0:0:0:
240,96,90069,1,0,0:0:0:0:
200,120,90151,1,0,0:0:0:0:
152,128,90232,1,0,0:0:0:0:
104,112,90314,1,0,0:0:0:0:
88,64,90395,1,0,0:0:0:0:
104,16,90477,1,0,0:0:0:0:
152,0,90558,1,0,0:0:0:0:
200,16,90640,1,0,0:0:0:0:
240,43,90721,6,0,L|240:107,1,52.5
152,232,90884,2,0,L|208:176,1,52.5
280,16,91047,2,0,L|280:88,1,52.5
168,280,91210,2,0,L|216:224,1,52.5
344,168,91373,1,0,0:0:0:0:
384,168,91455,1,0,0:0:0:0:
424,168,91536,2,0,B|496:168|496:168|552:232|552:232|456:232|456:232,1,210
328,288,92025,6,0,B|360:264|360:264|440:264,1,105
496,344,92351,1,0,0:0:0:0:
456,368,92432,1,0,0:0:0:0:
408,368,92514,1,0,0:0:0:0:
360,200,92678,1,0,0:0:0:0:
327,287,92841,2,0,B|264:288|264:288|232:304|232:304|152:304|152:304|104:232|104:232|64:272|64:272|-48:272,1,420
200,208,93656,5,0,0:0:0:0:
384,120,93819,1,0,0:0:0:0:
152,128,93982,5,0,0:0:0:0:
456,224,94145,1,0,0:0:0:0:
120,216,94308,5,0,0:0:0:0:
472,136,94552,1,0,0:0:0:0:
472,136,94797,2,0,L|528:136,1,52.5
