osu file format v14

[General]
AudioFilename: audio.mp3
AudioLeadIn: 0
PreviewTime: 172793
Countdown: 0
SampleSet: Soft
StackLeniency: 0.3
Mode: 0
LetterboxInBreaks: 0
WidescreenStoryboard: 0

[Editor]
DistanceSpacing: 0.8
BeatDivisor: 4
GridSize: 4
TimelineZoom: 1.9

[Metadata]
Title:YAVA!
TitleUnicode:YAVA!
Artist:BABYMETAL
ArtistUnicode:BABYMETAL
Creator:Tatiyama
Version:YAVA!!!
Source:Babymetal
Tags:Babymetal
BeatmapID:981681
BeatmapSetID:458094

[Difficulty]
HPDrainRate:6.7
CircleSize:4.4
OverallDifficulty:9.3
ApproachRate:9.5
SliderMultiplier:1.4
SliderTickRate:1

[Events]
//Background and Video events
0,0,"Cover.jpg",0,0
//Break Periods
2,80327,88508
//Storyboard Layer 0 (Background)
//Storyboard Layer 1 (Fail)
//Storyboard Layer 2 (Pass)
//Storyboard Layer 3 (Foreground)
//Storyboard Sound Samples

[TimingPoints]
440,312.5,4,2,0,100,1,0
10440,-50,4,2,0,100,0,0
20458,-100,4,2,0,100,0,0
30440,-50,4,2,0,100,0,0
40440,-50,4,2,0,100,0,1
60440,-50,4,2,0,100,0,0
90440,-200,4,2,0,100,0,0
94190,-50,4,2,0,100,0,0
94890,-200,4,2,0,100,0,0
97940,-100,4,2,0,100,0,0
99198,-100,4,2,0,100,0,0
99992,-100,4,2,0,100,0,0
100283,-50,4,2,0,100,0,0
119971,-100,4,2,0,100,0,0
120458,-200,4,2,0,100,0,0
147940,-100,4,2,0,100,0,0
170283,-100,4,2,0,100,0,0
172783,-66.6666666666667,4,2,0,100,0,0
180283,-133.333333333333,4,2,0,100,0,0
180596,-50,4,2,0,100,0,1
200440,-100,4,2,0,100,0,0
210440,312.5,4,2,0,100,1,0
210440,-50,4,2,0,100,0,0

[Colours]
Combo1 : 255,255,255
Combo2 : 48,207,139
Combo3 : 255,30,30
Combo4 : 10,125,255

[HitObjects]
256,192,6065,12,0,9190,0:0:0:0:
256,192,9346,5,0,0:0:0:0:
372,116,9502,1,0,0:0:0:0:
372,168,9580,1,0,0:0:0:0:
372,220,9658,1,0,0:0:0:0:
372,272,9736,1,0,0:0:0:0:
372,324,9815,1,0,0:0:0:0:
96,128,9971,1,0,0:0:0:0:
116,300,10127,1,0,0:0:0:0:
256,200,10283,1,0,0:0:0:0:
256,72,10440,5,0,0:0:0:0:
336,208,10596,2,0,L|432:104,1,140
168,208,10908,2,0,L|64:80,1,140
256,64,11221,2,0,L|256:224,1,140
256,204,11533,6,0,L|256:16,1,140
456,120,11846,6,0,P|392:40|320:24,1,140
152,32,12158,2,0,P|72:64|56:144,1,140
53,109,12471,2,0,P|92:44|176:48,1,140
359,27,12783,2,0,P|436:72|456:144,1,140
368,288,13096,6,0,L|224:160,1,140
159,288,13408,2,0,L|272:192,1,140
164,100,13721,2,0,L|272:208,1,140
362,100,14033,2,0,L|256:208,1,140
384,32,14346,6,0,L|176:32,1,140
96,176,14658,2,0,L|256:176,1,140
448,160,14971,1,0,0:0:0:0:
288,304,15127,1,0,0:0:0:0:
400,128,15283,1,0,0:0:0:0:
328,344,15440,5,0,0:0:0:0:
496,176,15596,2,0,L|368:80,1,140
272,176,15908,2,0,L|420:308,1,140
256,344,16221,2,0,L|128:216,1,140
24,284,16533,2,0,L|136:396,1,140
80,240,16846,6,0,L|192:144,1,140
304,224,17158,2,0,L|176:352,1,140
352,304,17471,2,0,L|480:176,1,140
400,80,17783,2,0,L|288:192,1,140
252,228,18018,5,0,0:0:0:0:
184,248,18096,1,0,0:0:0:0:
116,236,18174,1,0,0:0:0:0:
60,196,18252,2,0,P|36:128|48:92,1,70
140,28,18408,1,0,0:0:0:0:
204,48,18486,1,0,0:0:0:0:
260,92,18565,1,0,0:0:0:0:
280,164,18643,1,0,0:0:0:0:
264,240,18721,1,0,0:0:0:0:
352,64,18877,1,0,0:0:0:0:
352,208,19033,1,0,0:0:0:0:
264,304,19346,5,0,0:0:0:0:
216,288,19424,1,0,0:0:0:0:
196,244,19502,1,0,0:0:0:0:
316,92,19658,1,0,0:0:0:0:
160,208,19815,1,0,0:0:0:0:
188,28,19971,1,0,0:0:0:0:
68,108,20127,1,0,0:0:0:0:
40,172,20205,1,0,0:0:0:0:
48,240,20283,1,0,0:0:0:0:
80,304,20361,1,0,0:0:0:0:
140,340,20440,5,0,0:0:0:0:
320,32,20596,2,0,L|384:96,1,70
128,32,20908,2,0,L|64:96,1,70
192,128,21221,2,0,L|192:208,1,70
320,128,21533,2,0,L|320:224,1,70
416,320,21846,6,0,L|352:256,1,70
96,320,22158,2,0,L|160:256,1,70
384,192,22471,2,0,L|288:192,1,70
128,192,22783,2,0,L|224:192,1,70
256,48,23096,6,0,L|256:128,1,70
256,320,23408,2,0,L|256:240,1,70
416,192,23721,2,0,L|336:192,1,70
80,192,24033,2,0,L|160:192,1,70
352,96,24346,6,0,L|288:160,1,70
160,288,24658,2,0,L|224:224,1,70
160,96,24971,2,0,L|224:160,1,70
352,288,25283,2,0,L|288:224,1,70
176,192,25752,6,0,L|256:192,1,70
316,192,26065,2,0,L|240:192,1,70
246,262,26377,2,0,L|246:178,1,70
248,120,26690,6,0,L|248:200,1,70
172,252,27002,2,0,L|244:192,1,70
312,256,27315,2,0,L|252:200,1,70
252,140,27627,1,0,0:0:0:0:
252,16,27783,1,0,0:0:0:0:
120,28,27940,5,0,0:0:0:0:
64,160,28096,2,0,P|72:224|96:232,1,70
256,224,28408,2,0,P|272:192|248:160,1,70
160,160,28721,2,0,P|160:216|192:232,1,70
168,344,29033,2,0,P|272:352|320:328,1,140
372,336,29502,5,0,0:0:0:0:
436,308,29658,1,0,0:0:0:0:
344,256,29815,1,0,0:0:0:0:
372,212,29893,1,0,0:0:0:0:
388,164,29971,1,0,0:0:0:0:
380,112,30049,1,0,0:0:0:0:
368,72,30127,2,0,P|288:8|248:16,1,140
120,48,30596,6,0,P|80:112|88:176,1,140
128,304,30908,2,0,P|184:352|272:360,1,140
384,320,31221,2,0,P|440:224|424:176,1,140
424,64,31533,2,0,P|288:24|248:48,1,140
48,168,31846,6,0,P|104:80|176:48,1,140
288,32,32158,2,0,P|408:72|448:128,1,140
440,240,32471,2,0,P|360:344|304:336,1,140
224,352,32783,2,0,P|112:296|80:240,1,140
72,148,33096,6,0,P|120:72|176:56,1,140
256,48,33408,2,0,L|256:192,1,140
256,328,33721,2,0,L|256:176,1,140
192,328,34033,2,0,L|192:48,1,280
400,64,34502,6,0,L|400:248,1,140
400,204,34815,1,0,0:0:0:0:
288,288,34971,2,0,P|160:280|128:240,1,140
72,168,35283,2,0,P|104:72|168:48,1,140
236,152,35596,6,0,L|348:260,1,140
384,80,35908,1,0,0:0:0:0:
384,224,36065,1,0,0:0:0:0:
276,312,36221,2,0,P|172:276|144:208,1,140
272,144,36533,1,0,0:0:0:0:
168,52,36690,5,0,0:0:0:0:
72,152,36846,1,0,0:0:0:0:
208,120,37002,1,0,0:0:0:0:
116,224,37158,1,0,0:0:0:0:
252,188,37315,1,0,0:0:0:0:
160,296,37471,1,0,0:0:0:0:
64,184,37627,1,0,0:0:0:0:
60,44,37783,1,0,0:0:0:0:
200,40,37940,5,0,0:0:0:0:
480,36,38252,1,0,0:0:0:0:
368,120,38408,1,0,0:0:0:0:
152,296,38721,1,0,0:0:0:0:
292,308,38877,1,0,0:0:0:0:
232,184,39033,1,0,0:0:0:0:
360,124,39190,5,0,0:0:0:0:
300,88,39268,1,0,0:0:0:0:
232,68,39346,1,0,0:0:0:0:
164,84,39424,1,0,0:0:0:0:
104,120,39502,1,0,0:0:0:0:
160,248,39658,1,0,0:0:0:0:
104,204,39736,1,0,0:0:0:0:
48,164,39815,1,0,0:0:0:0:
116,320,39971,1,0,0:0:0:0:
324,324,40283,2,0,P|396:256|416:76,1,280
284,48,40752,5,0,0:0:0:0:
212,168,40908,1,0,0:0:0:0:
244,32,41065,1,0,0:0:0:0:
260,172,41221,1,0,0:0:0:0:
204,44,41377,1,0,0:0:0:0:
296,148,41533,1,0,0:0:0:0:
448,112,41690,5,0,0:0:0:0:
384,240,41846,1,0,0:0:0:0:
320,112,42002,1,0,0:0:0:0:
256,240,42158,1,0,0:0:0:0:
192,112,42315,1,0,0:0:0:0:
128,240,42471,1,0,0:0:0:0:
64,112,42627,1,0,0:0:0:0:
236,40,42783,2,0,P|428:128|480:236,1,280
400,308,43252,5,0,0:0:0:0:
328,188,43408,1,0,0:0:0:0:
364,324,43565,1,0,0:0:0:0:
372,184,43721,1,0,0:0:0:0:
320,312,43877,1,0,0:0:0:0:
404,208,44033,1,0,0:0:0:0:
284,284,44190,5,0,0:0:0:0:
420,240,44346,1,0,0:0:0:0:
280,240,44502,1,0,0:0:0:0:
356,124,44658,1,0,0:0:0:0:
264,20,44815,1,0,0:0:0:0:
132,64,44971,1,0,0:0:0:0:
48,176,45127,1,0,0:0:0:0:
104,292,45283,2,0,P|92:224|180:32,1,280
196,176,45752,5,0,0:0:0:0:
224,40,45908,1,0,0:0:0:0:
248,180,46065,1,0,0:0:0:0:
192,52,46221,1,0,0:0:0:0:
292,148,46377,1,0,0:0:0:0:
164,92,46533,2,0,P|280:72|444:152,1,280
404,272,47002,5,0,0:0:0:0:
264,272,47158,1,0,0:0:0:0:
264,200,47236,1,0,0:0:0:0:
264,132,47315,1,0,0:0:0:0:
404,132,47471,1,0,0:0:0:0:
404,272,47627,1,0,0:0:0:0:
400,132,47783,2,0,P|196:136|128:240,1,280
80,300,48252,5,0,0:0:0:0:
212,340,48408,2,0,B|300:324|292:276|240:160|432:312,1,280
460,168,48877,1,0,0:0:0:0:
384,52,49033,2,0,B|316:116|308:128|256:48|196:28|148:140,1,280
152,129,49424,5,0,0:0:0:0:
152,129,49502,1,0,0:0:0:0:
388,224,49658,1,0,0:0:0:0:
388,224,49736,1,0,0:0:0:0:
388,224,49815,1,0,0:0:0:0:
252,356,49971,1,0,0:0:0:0:
352,200,50127,1,0,0:0:0:0:
252,356,50283,2,0,P|360:336|448:192,1,280
336,72,50752,5,0,0:0:0:0:
252,268,50908,1,0,0:0:0:0:
180,56,51065,1,0,0:0:0:0:
252,268,51221,1,0,0:0:0:0:
172,172,51377,1,0,0:0:0:0:
360,224,51533,1,0,0:0:0:0:
176,260,51690,5,0,0:0:0:0:
360,140,51846,1,0,0:0:0:0:
252,320,52002,1,0,0:0:0:0:
300,84,52158,1,0,0:0:0:0:
328,312,52315,1,0,0:0:0:0:
212,80,52471,1,0,0:0:0:0:
240,204,52627,1,0,0:0:0:0:
372,236,52783,2,0,P|384:124|216:84,1,280
36,80,53252,5,0,0:0:0:0:
204,204,53408,1,0,0:0:0:0:
52,144,53565,1,0,0:0:0:0:
276,208,53721,1,0,0:0:0:0:
88,204,53877,1,0,0:0:0:0:
336,168,54033,1,0,0:0:0:0:
144,248,54190,1,0,0:0:0:0:
360,104,54346,1,0,0:0:0:0:
192,288,54502,1,0,0:0:0:0:
368,40,54658,1,0,0:0:0:0:
160,80,54815,1,0,0:0:0:0:
260,264,54971,1,0,0:0:0:0:
288,56,55127,1,0,0:0:0:0:
440,64,55283,2,0,L|452:344,1,280
408,344,55752,5,0,0:0:0:0:
292,88,56065,1,0,0:0:0:0:
332,148,56143,1,0,0:0:0:0:
348,216,56221,1,0,0:0:0:0:
324,284,56299,1,0,0:0:0:0:
280,336,56377,1,0,0:0:0:0:
168,348,56533,2,0,P|108:240|112:84,1,280
136,64,57002,5,0,0:0:0:0:
186,180,57158,1,0,0:0:0:0:
236,300,57315,1,0,0:0:0:0:
186,250,57393,1,0,0:0:0:0:
186,180,57471,1,0,0:0:0:0:
235,130,57549,1,0,0:0:0:0:
300,108,57627,1,0,0:0:0:0:
412,64,57783,2,0,B|440:144|432:160|320:128|376:248|472:304,1,280
400,332,58252,5,0,0:0:0:0:
332,340,58408,2,0,B|240:352|244:248|120:244|136:376,1,280
135,373,58799,1,0,0:0:0:0:
135,373,58877,1,0,0:0:0:0:
204,356,59033,2,0,B|120:272|88:192|188:192|244:148,1,280
256,40,59502,5,0,0:0:0:0:
256,108,59580,1,0,0:0:0:0:
256,176,59658,1,0,0:0:0:0:
256,244,59736,1,0,0:0:0:0:
256,316,59815,1,0,0:0:0:0:
208,196,60088,2,0,P|304:128|192:160,1,315
136,52,60752,6,0,P|92:148|96:184,1,140
348,56,61221,2,0,P|408:112|440:188,1,140
204,324,61690,6,0,P|128:264|104:192,1,140
376,312,62158,1,0,0:0:0:0:
284,204,62315,2,0,P|316:132|256:208,1,280
256,28,62940,6,0,L|256:112,1,70
256,308,63252,2,0,L|256:168,1,140
448,188,63721,2,0,L|296:188,1,140
28,188,64190,6,0,L|180:188,1,140
256,192,64658,1,0,0:0:0:0:
256,192,64815,2,0,P|288:112|224:192,1,280
356,336,65440,6,0,L|240:336,1,70
256,192,65752,2,0,L|256:52,1,140
100,56,66221,2,0,L|100:211,1,140
128,320,66690,6,0,L|272:320,1,140
256,192,67158,1,0,0:0:0:0:
256,192,67315,2,0,P|284:124|288:232,1,280
420,64,67940,6,0,P|308:72|140:28,1,280
104,88,68408,1,0,0:0:0:0:
40,212,68721,1,0,0:0:0:0:
84,268,68877,2,0,B|148:324|216:312|144:176|264:196|232:348,1,280
232,343,69346,5,0,0:0:0:0:
364,300,69658,1,0,0:0:0:0:
364,228,69815,1,0,0:0:0:0:
388,92,70127,2,0,P|320:48|380:124,1,280
96,96,70908,6,0,P|224:96|256:128,1,140
96,288,71533,1,0,0:0:0:0:
224,288,71690,2,0,P|320:256|320:96,2,280
132,40,72627,5,0,0:0:0:0:
88,104,72705,1,0,0:0:0:0:
76,180,72783,1,0,0:0:0:0:
104,252,72861,1,0,0:0:0:0:
152,312,72940,1,0,0:0:0:0:
264,344,73252,5,0,0:0:0:0:
264,344,73408,1,0,0:0:0:0:
372,256,73721,1,0,0:0:0:0:
264,344,73877,1,0,0:0:0:0:
256,64,74190,5,0,0:0:0:0:
120,308,74502,1,0,0:0:0:0:
120,308,74658,1,0,0:0:0:0:
256,64,74971,1,0,0:0:0:0:
120,308,75127,1,0,0:0:0:0:
256,336,75283,1,0,0:0:0:0:
316,296,75361,1,0,0:0:0:0:
352,232,75440,5,0,0:0:0:0:
152,132,75752,1,0,0:0:0:0:
152,132,75908,1,0,0:0:0:0:
156,244,76065,1,0,0:0:0:0:
152,132,76377,1,0,0:0:0:0:
368,64,76690,5,0,0:0:0:0:
432,280,77002,1,0,0:0:0:0:
432,280,77158,1,0,0:0:0:0:
368,64,77315,1,0,0:0:0:0:
432,280,77627,1,0,0:0:0:0:
348,352,77783,1,0,0:0:0:0:
292,352,77861,1,0,0:0:0:0:
236,348,77940,5,0,0:0:0:0:
120,268,78096,1,0,0:0:0:0:
256,212,78252,1,0,0:0:0:0:
120,180,78408,1,0,0:0:0:0:
252,132,78565,1,0,0:0:0:0:
116,96,78721,1,0,0:0:0:0:
252,56,78877,1,0,0:0:0:0:
384,40,79033,2,0,P|464:164|392:308,1,280
324,296,79502,5,0,0:0:0:0:
204,296,79658,1,0,0:0:0:0:
128,172,79815,1,0,0:0:0:0:
188,136,79893,1,0,0:0:0:0:
256,120,79971,1,0,0:0:0:0:
324,136,80049,1,0,0:0:0:0:
384,172,80127,1,0,0:0:0:0:
208,144,89033,6,0,B|144:80|144:80|128:216|184:272,1,280
200,288,89424,1,0,0:0:0:0:
232,304,89502,1,0,0:0:0:0:
348,312,89658,5,0,0:0:0:0:
368,284,89736,1,0,0:0:0:0:
380,252,89815,1,0,0:0:0:0:
384,216,89893,1,0,0:0:0:0:
380,180,89971,1,0,0:0:0:0:
368,148,90049,1,0,0:0:0:0:
348,120,90127,1,0,0:0:0:0:
256,40,90440,6,0,L|256:124,1,70
376,180,91065,1,0,0:0:0:0:
308,180,91221,1,0,0:0:0:0:
188,108,91533,1,0,0:0:0:0:
188,180,91690,5,0,0:0:0:0:
128,308,92002,1,0,0:0:0:0:
192,332,92158,1,0,0:0:0:0:
224,344,92236,1,0,0:0:0:0:
256,356,92315,1,0,0:0:0:0:
400,320,92471,1,0,0:0:0:0:
392,288,92549,1,0,0:0:0:0:
360,296,92627,1,0,0:0:0:0:
368,264,92705,1,0,0:0:0:0:
336,264,92783,1,0,0:0:0:0:
344,232,92861,1,0,0:0:0:0:
328,232,92940,5,0,0:0:0:0:
328,232,93018,1,0,0:0:0:0:
328,232,93096,1,0,0:0:0:0:
312,32,93252,1,0,0:0:0:0:
144,80,93408,1,0,0:0:0:0:
144,80,93486,1,0,0:0:0:0:
144,80,93565,1,0,0:0:0:0:
208,272,93877,1,0,0:0:0:0:
208,272,93955,1,0,0:0:0:0:
208,272,94033,1,0,0:0:0:0:
328,192,94190,6,0,P|333:123|299:63,1,140
240,72,94424,1,0,0:0:0:0:
184,112,94502,2,0,P|224:176|208:232,1,70
216,264,94658,2,0,P|324:280|352:312,1,140
376,320,94893,1,0,0:0:0:0:
408,308,94971,1,0,0:0:0:0:
420,276,95049,1,0,0:0:0:0:
420,240,95127,1,0,0:0:0:0:
300,40,95440,6,0,L|216:40,1,70
92,56,96065,1,0,0:0:0:0:
52,112,96221,1,0,0:0:0:0:
260,352,96533,1,0,0:0:0:0:
284,288,96690,1,0,0:0:0:0:
368,36,97002,1,0,0:0:0:0:
300,56,97158,1,0,0:0:0:0:
408,372,97471,1,0,0:0:0:0:
448,316,97627,2,0,L|448:236,1,70
484,156,98096,5,0,0:0:0:0:
476,108,98174,1,0,0:0:0:0:
448,68,98252,1,0,0:0:0:0:
412,36,98330,1,0,0:0:0:0:
368,24,98408,2,0,P|347:17|328:20,1,35
268,24,98565,1,0,0:0:0:0:
224,48,98643,1,0,0:0:0:0:
200,92,98721,1,0,0:0:0:0:
204,140,98799,1,0,0:0:0:0:
208,188,98877,1,0,0:0:0:0:
180,228,98955,1,0,0:0:0:0:
132,236,99033,1,0,0:0:0:0:
84,220,99111,1,0,0:0:0:0:
52,180,99190,5,0,0:0:0:0:
196,352,99346,1,0,0:0:0:0:
244,144,99502,1,0,0:0:0:0:
396,328,99658,1,0,0:0:0:0:
404,276,99736,1,0,0:0:0:0:
420,224,99815,2,0,P|444:172|448:168,2,35
256,84,100283,6,0,P|204:200|284:164,1,280
312,108,100752,1,0,0:0:0:0:
144,144,100908,1,0,0:0:0:0:
319,144,101065,1,0,0:0:0:0:
144,112,101221,1,0,0:0:0:0:
308,176,101377,1,0,0:0:0:0:
164,76,101533,1,0,0:0:0:0:
268,196,101690,5,0,0:0:0:0:
328,108,101846,1,0,0:0:0:0:
392,192,102002,1,0,0:0:0:0:
464,116,102158,1,0,0:0:0:0:
392,40,102315,1,0,0:0:0:0:
320,116,102471,1,0,0:0:0:0:
252,36,102627,1,0,0:0:0:0:
148,52,102783,2,0,P|96:96|92:296,1,280
92,292,103252,5,0,0:0:0:0:
176,112,103408,1,0,0:0:0:0:
232,312,103565,1,0,0:0:0:0:
172,92,103721,1,0,0:0:0:0:
84,312,103877,1,0,0:0:0:0:
176,80,104033,1,0,0:0:0:0:
204,256,104190,5,0,0:0:0:0:
312,204,104346,1,0,0:0:0:0:
204,160,104502,1,0,0:0:0:0:
312,112,104658,1,0,0:0:0:0:
204,64,104815,1,0,0:0:0:0:
316,20,104971,1,0,0:0:0:0:
428,64,105127,1,0,0:0:0:0:
428,132,105283,2,0,B|336:224|336:224|436:356,1,280
348,348,105752,5,0,0:0:0:0:
136,240,105908,1,0,0:0:0:0:
336,248,106065,1,0,0:0:0:0:
124,348,106221,1,0,0:0:0:0:
356,352,106377,1,0,0:0:0:0:
132,344,106533,2,0,B|40:260|40:260|105:174|105:174|44:156,1,280
164,28,107002,5,0,0:0:0:0:
224,220,107158,1,0,0:0:0:0:
224,220,107236,1,0,0:0:0:0:
224,220,107315,1,0,0:0:0:0:
68,88,107471,1,0,0:0:0:0:
292,176,107627,1,0,0:0:0:0:
124,228,107783,6,0,B|168:108|168:108|273:126|273:126|264:60,1,280
384,56,108252,1,0,0:0:0:0:
476,204,108408,2,0,B|520:308|520:308|444:272|444:272|448:364,1,280
447,354,108799,1,0,0:0:0:0:
447,354,108877,1,0,0:0:0:0:
196,304,109033,6,0,P|252:160|196:20,1,280
180,44,109424,1,0,0:0:0:0:
152,64,109502,1,0,0:0:0:0:
132,92,109580,1,0,0:0:0:0:
132,128,109658,1,0,0:0:0:0:
144,160,109736,1,0,0:0:0:0:
160,192,109815,1,0,0:0:0:0:
180,220,109893,1,0,0:0:0:0:
188,252,109971,1,0,0:0:0:0:
188,288,110049,1,0,0:0:0:0:
168,316,110127,1,0,0:0:0:0:
156,348,110205,1,0,0:0:0:0:
188,360,110283,2,0,P|260:252|324:352,1,280
456,276,110752,5,0,0:0:0:0:
464,136,110908,1,0,0:0:0:0:
336,192,111065,1,0,0:0:0:0:
472,216,111221,1,0,0:0:0:0:
368,120,111377,1,0,0:0:0:0:
364,260,111533,1,0,0:0:0:0:
256,168,111690,5,0,0:0:0:0:
128,112,111846,1,0,0:0:0:0:
16,196,112002,1,0,0:0:0:0:
80,320,112158,1,0,0:0:0:0:
220,308,112315,1,0,0:0:0:0:
144,200,112471,1,0,0:0:0:0:
152,64,112627,1,0,0:0:0:0:
288,88,112783,2,0,B|370:140|370:140|232:224|336:272|356:244,1,280
160,320,113252,5,0,0:0:0:0:
240,128,113408,1,0,0:0:0:0:
304,320,113565,1,0,0:0:0:0:
144,192,113721,1,0,0:0:0:0:
352,208,113877,1,0,0:0:0:0:
168,308,114033,1,0,0:0:0:0:
248,112,114190,5,0,0:0:0:0:
320,308,114346,1,0,0:0:0:0:
152,184,114502,1,0,0:0:0:0:
360,192,114658,1,0,0:0:0:0:
424,104,114815,1,0,0:0:0:0:
256,60,114971,1,0,0:0:0:0:
84,96,115127,1,0,0:0:0:0:
276,200,115283,2,0,P|299:107|256:180,1,280
276,200,115752,5,0,0:0:0:0:
120,60,116065,1,0,0:0:0:0:
100,108,116143,1,0,0:0:0:0:
92,160,116221,1,0,0:0:0:0:
92,212,116299,1,0,0:0:0:0:
100,264,116377,1,0,0:0:0:0:
244,196,116533,2,0,P|172:128|252:176,1,280
316,252,117002,5,0,0:0:0:0:
176,160,117158,1,0,0:0:0:0:
364,256,117315,1,0,0:0:0:0:
408,228,117393,1,0,0:0:0:0:
436,184,117471,1,0,0:0:0:0:
448,132,117549,1,0,0:0:0:0:
428,84,117627,1,0,0:0:0:0:
336,52,117783,2,0,B|294:136|294:136|252:40|252:40|164:104,1,280
100,56,118252,5,0,0:0:0:0:
80,160,118408,2,0,B|152:88|152:88|244:192|244:192|152:216,1,280
136,220,118799,1,0,0:0:0:0:
136,220,118877,1,0,0:0:0:0:
84,272,119033,2,0,B|103:356|103:356|177:303|177:303|216:363|216:363|272:376|284:344,1,280
308,316,119502,5,0,0:0:0:0:
324,248,119580,1,0,0:0:0:0:
316,180,119658,1,0,0:0:0:0:
280,120,119736,1,0,0:0:0:0:
228,72,119815,1,0,0:0:0:0:
108,140,119971,2,0,L|36:100,3,70
348,64,120752,5,0,0:0:0:0:
199,212,121065,1,0,0:0:0:0:
50,63,121377,1,0,0:0:0:0:
416,56,121690,5,0,0:0:0:0:
267,204,122002,1,0,0:0:0:0:
415,352,122315,1,0,0:0:0:0:
267,204,122627,1,0,0:0:0:0:
172,332,122940,5,0,0:0:0:0:
416,328,123252,1,0,0:0:0:0:
176,144,123565,1,0,0:0:0:0:
408,144,123877,1,0,0:0:0:0:
364,68,124190,5,0,0:0:0:0:
368,176,124346,2,0,P|368:208|368:192,2,35
256,160,124815,2,0,L|224:128,2,35
120,256,125283,1,0,0:0:0:0:
120,228,125361,1,0,0:0:0:0:
120,200,125440,5,0,0:0:0:0:
329,200,125752,1,0,0:0:0:0:
180,51,126065,1,0,0:0:0:0:
208,256,126377,1,0,0:0:0:0:
392,304,126690,5,0,0:0:0:0:
360,240,126846,1,0,0:0:0:0:
428,244,127002,1,0,0:0:0:0:
252,336,127158,1,0,0:0:0:0:
320,324,127315,1,0,0:0:0:0:
280,268,127471,1,0,0:0:0:0:
212,276,127627,1,0,0:0:0:0:
256,192,127783,1,0,0:0:0:0:
84,328,127940,5,0,0:0:0:0:
84,328,128018,1,0,0:0:0:0:
84,328,128096,1,0,0:0:0:0:
256,192,128252,1,0,0:0:0:0:
160,40,128408,1,0,0:0:0:0:
160,40,128486,1,0,0:0:0:0:
160,40,128565,1,0,0:0:0:0:
256,192,128721,1,0,0:0:0:0:
448,308,128877,1,0,0:0:0:0:
448,308,128955,1,0,0:0:0:0:
448,308,129033,1,0,0:0:0:0:
292,284,129190,5,0,0:0:0:0:
144,132,129346,1,0,0:0:0:0:
184,168,129424,1,0,0:0:0:0:
224,208,129502,1,0,0:0:0:0:
292,284,129658,1,0,0:0:0:0:
432,64,129815,1,0,0:0:0:0:
432,332,129971,1,0,0:0:0:0:
432,64,130127,1,0,0:0:0:0:
432,332,130283,1,0,0:0:0:0:
432,64,130440,6,0,P|348:48|316:56,2,105
172,296,131846,6,0,B|168:288|112:276|88:220,1,105
208,128,132627,1,0,0:0:0:0:
224,328,132940,6,0,L|336:292,2,105
364,192,134190,5,0,0:0:0:0:
381,192,134268,1,0,0:0:0:0:
398,192,134346,1,0,0:0:0:0:
148,192,134502,5,0,0:0:0:0:
131,192,134580,1,0,0:0:0:0:
114,192,134658,1,0,0:0:0:0:
398,192,134815,5,0,0:0:0:0:
415,192,134893,1,0,0:0:0:0:
432,192,134971,1,0,0:0:0:0:
114,192,135127,5,0,0:0:0:0:
97,192,135205,1,0,0:0:0:0:
80,192,135283,1,0,0:0:0:0:
244,184,135440,6,0,P|276:176|236:160,2,105
368,304,136846,6,0,B|440:276|372:232,1,105
72,120,137627,1,0,0:0:0:0:
236,184,137940,6,0,P|240:216|220:180,2,105
128,44,139190,5,0,0:0:0:0:
184,28,139294,1,0,0:0:0:0:
236,52,139398,1,0,0:0:0:0:
248,108,139502,1,0,0:0:0:0:
268,164,139606,1,0,0:0:0:0:
320,184,139710,1,0,0:0:0:0:
371,147,139815,6,0,P|407:119|339:119,1,140
348,90,140518,1,0,0:0:0:0:
348,90,140596,1,0,0:0:0:0:
268,56,140752,1,0,0:0:0:0:
224,132,140908,1,0,0:0:0:0:
172,60,141065,1,0,0:0:0:0:
128,136,141221,2,0,L|96:164,1,35
101,159,141455,1,0,0:0:0:0:
101,159,141533,1,0,0:0:0:0:
116,244,141690,5,0,0:0:0:0:
184,312,141846,2,0,L|156:288,2,35
252,348,142315,1,0,0:0:0:0:
252,304,142393,1,0,0:0:0:0:
252,260,142471,1,0,0:0:0:0:
340,260,142627,1,0,0:0:0:0:
340,304,142705,1,0,0:0:0:0:
340,348,142783,1,0,0:0:0:0:
456,188,142940,5,0,0:0:0:0:
448,144,143018,1,0,0:0:0:0:
412,120,143096,1,0,0:0:0:0:
332,160,143252,1,0,0:0:0:0:
260,112,143408,2,0,L|260:148,2,35
196,160,143877,1,0,0:0:0:0:
152,160,143955,1,0,0:0:0:0:
108,160,144033,1,0,0:0:0:0:
108,248,144190,5,0,0:0:0:0:
164,316,144346,1,0,0:0:0:0:
224,256,144502,1,0,0:0:0:0:
224,384,144658,1,0,0:0:0:0:
316,332,144815,1,0,0:0:0:0:
316,288,144893,1,0,0:0:0:0:
316,244,144971,1,0,0:0:0:0:
320,156,145127,1,0,0:0:0:0:
276,156,145205,1,0,0:0:0:0:
232,156,145283,1,0,0:0:0:0:
88,40,145440,5,0,0:0:0:0:
132,40,145518,1,0,0:0:0:0:
176,40,145596,1,0,0:0:0:0:
180,128,145752,1,0,0:0:0:0:
268,128,145908,1,0,0:0:0:0:
268,40,146065,1,0,0:0:0:0:
360,40,146221,1,0,0:0:0:0:
420,128,146377,1,0,0:0:0:0:
420,128,146455,1,0,0:0:0:0:
420,128,146533,1,0,0:0:0:0:
384,296,146690,6,0,L|336:296,2,35
232,252,147158,1,0,0:0:0:0:
304,120,147315,1,0,0:0:0:0:
304,120,147393,1,0,0:0:0:0:
304,120,147471,1,0,0:0:0:0:
140,116,147627,1,0,0:0:0:0:
140,116,147705,1,0,0:0:0:0:
140,116,147783,1,0,0:0:0:0:
340,40,147940,6,0,P|312:32|264:32,1,70
232,32,148174,1,0,0:0:0:0:
196,40,148252,1,0,0:0:0:0:
164,52,148330,1,0,0:0:0:0:
132,68,148408,2,0,P|84:100|72:116,1,70
64,136,148643,1,0,0:0:0:0:
60,172,148721,1,0,0:0:0:0:
60,208,148799,1,0,0:0:0:0:
112,328,148955,2,0,L|144:288,1,35
272,312,149111,2,0,L|240:352,1,35
240,192,149346,5,0,0:0:0:0:
252,160,149424,1,0,0:0:0:0:
260,128,149502,1,0,0:0:0:0:
368,48,149658,1,0,0:0:0:0:
320,64,149736,1,0,0:0:0:0:
292,108,149815,1,0,0:0:0:0:
304,160,149893,1,0,0:0:0:0:
300,208,149971,1,0,0:0:0:0:
296,264,150049,1,0,0:0:0:0:
260,304,150127,1,0,0:0:0:0:
208,308,150205,1,0,0:0:0:0:
168,276,150283,1,0,0:0:0:0:
164,224,150361,1,0,0:0:0:0:
192,180,150440,6,0,P|264:144|320:176,1,140
464,268,151065,2,0,P|412:316|344:298,1,140
80,228,151690,6,0,P|56:152|92:80,1,140
208,56,152158,1,0,0:0:0:0:
192,196,152315,1,0,0:0:0:0:
276,84,152471,1,0,0:0:0:0:
260,224,152627,1,0,0:0:0:0:
336,336,152940,6,0,B|448:336|448:336|448:296,1,140
448,220,153565,2,0,B|336:220|336:220|336:248,1,140
196,260,154033,5,0,0:0:0:0:
64,236,154190,1,0,0:0:0:0:
188,296,154346,1,0,0:0:0:0:
48,276,154502,1,0,0:0:0:0:
300,156,154815,2,0,P|268:140|228:160,1,70
264,232,155127,2,0,P|296:248|336:228,1,70
344,232,155361,1,0,0:0:0:0:
368,216,155440,6,0,L|368:76,1,140
87,76,156065,2,0,L|87:225,1,140
344,332,156690,6,0,L|188:332,1,140
264,120,157158,1,0,0:0:0:0:
192,240,157315,1,0,0:0:0:0:
264,120,157471,1,0,0:0:0:0:
324,244,157627,1,0,0:0:0:0:
256,52,157940,6,0,L|256:192,1,140
256,340,158565,2,0,L|256:192,1,140
372,96,159033,5,0,0:0:0:0:
196,240,159190,1,0,0:0:0:0:
344,240,159346,1,0,0:0:0:0:
184,80,159502,1,0,0:0:0:0:
108,196,159658,2,0,L|160:136,1,70
284,196,159971,2,0,L|232:264,1,70
108,208,160283,1,0,0:0:0:0:
88,56,160440,6,0,P|140:40|184:48,1,70
224,36,160752,1,0,0:0:0:0:
260,36,160830,1,0,0:0:0:0:
292,44,160908,1,0,0:0:0:0:
324,60,160986,1,0,0:0:0:0:
348,84,161065,1,0,0:0:0:0:
284,116,161221,1,0,0:0:0:0:
344,152,161377,1,0,0:0:0:0:
280,180,161533,1,0,0:0:0:0:
192,312,161690,5,0,0:0:0:0:
128,260,161846,1,0,0:0:0:0:
200,216,162002,1,0,0:0:0:0:
168,188,162080,1,0,0:0:0:0:
140,160,162158,1,0,0:0:0:0:
116,128,162236,1,0,0:0:0:0:
104,88,162315,1,0,0:0:0:0:
168,36,162471,1,0,0:0:0:0:
236,88,162627,1,0,0:0:0:0:
300,32,162783,1,0,0:0:0:0:
368,80,162940,5,0,0:0:0:0:
464,116,163096,1,0,0:0:0:0:
368,160,163252,1,0,0:0:0:0:
412,184,163330,1,0,0:0:0:0:
444,228,163408,1,0,0:0:0:0:
452,280,163486,1,0,0:0:0:0:
440,332,163565,1,0,0:0:0:0:
364,260,163721,1,0,0:0:0:0:
284,328,163877,1,0,0:0:0:0:
208,256,164033,1,0,0:0:0:0:
132,328,164190,5,0,0:0:0:0:
60,252,164346,1,0,0:0:0:0:
120,244,164502,1,0,0:0:0:0:
80,200,164580,1,0,0:0:0:0:
60,144,164658,1,0,0:0:0:0:
76,88,164736,1,0,0:0:0:0:
104,44,164815,1,0,0:0:0:0:
204,100,164971,1,0,0:0:0:0:
308,40,165127,1,0,0:0:0:0:
412,96,165283,1,0,0:0:0:0:
256,236,165440,5,0,0:0:0:0:
256,28,165596,1,0,0:0:0:0:
80,144,165752,1,0,0:0:0:0:
80,144,165830,1,0,0:0:0:0:
80,144,165908,1,0,0:0:0:0:
80,144,165986,1,0,0:0:0:0:
80,144,166065,1,0,0:0:0:0:
196,320,166221,1,0,0:0:0:0:
256,120,166377,1,0,0:0:0:0:
328,320,166533,1,0,0:0:0:0:
148,196,166690,5,0,0:0:0:0:
356,196,166846,1,0,0:0:0:0:
252,12,167002,1,0,0:0:0:0:
252,12,167080,1,0,0:0:0:0:
252,12,167158,1,0,0:0:0:0:
252,12,167236,1,0,0:0:0:0:
252,12,167315,1,0,0:0:0:0:
388,48,167471,1,0,0:0:0:0:
440,180,167627,1,0,0:0:0:0:
364,300,167783,1,0,0:0:0:0:
311,300,167861,1,0,0:0:0:0:
258,300,167940,5,0,0:0:0:0:
132,300,168096,1,0,0:0:0:0:
132,237,168174,1,0,0:0:0:0:
132,174,168252,1,0,0:0:0:0:
132,111,168330,1,0,0:0:0:0:
132,48,168408,1,0,0:0:0:0:
272,40,168565,1,0,0:0:0:0:
272,109,168643,1,0,0:0:0:0:
272,178,168721,1,0,0:0:0:0:
272,247,168799,1,0,0:0:0:0:
272,316,168877,1,0,0:0:0:0:
444,196,169033,1,0,0:0:0:0:
228,36,169346,5,0,0:0:0:0:
396,84,169502,1,0,0:0:0:0:
232,140,169658,1,0,0:0:0:0:
404,184,169815,1,0,0:0:0:0:
244,248,169971,1,0,0:0:0:0:
320,52,170127,1,0,0:0:0:0:
72,64,170283,6,0,B|72:224|76:356|76:356|120:364|328:408|436:224|152:200|152:200|260:80|232:44|64:64,1,1050
184,288,172783,6,0,B|248:-32|248:0|280:32|348:104|348:104|472:-32|504:0|472:288|472:288,1,787.500030040742
440,312,174033,5,0,0:0:0:0:
392,296,174111,1,0,0:0:0:0:
368,248,174190,5,0,0:0:0:0:
356,196,174268,1,0,0:0:0:0:
340,148,174346,1,0,0:0:0:0:
300,108,174424,1,0,0:0:0:0:
256,76,174502,1,0,0:0:0:0:
204,80,174580,1,0,0:0:0:0:
164,116,174658,1,0,0:0:0:0:
160,168,174736,1,0,0:0:0:0:
192,208,174815,1,0,0:0:0:0:
56,148,174971,1,0,0:0:0:0:
12,308,175127,1,0,0:0:0:0:
144,320,175283,2,0,P|224:360|352:304,1,210.000008010865
333,324,175752,5,0,0:0:0:0:
348,64,175908,1,0,0:0:0:0:
124,200,176065,1,0,0:0:0:0:
384,192,176221,1,0,0:0:0:0:
156,64,176377,1,0,0:0:0:0:
264,240,176533,2,0,P|200:152|240:64,1,210.000008010865
392,48,177002,5,0,0:0:0:0:
408,308,177158,1,0,0:0:0:0:
408,308,177236,1,0,0:0:0:0:
408,308,177315,1,0,0:0:0:0:
296,72,177471,1,0,0:0:0:0:
180,308,177627,1,0,0:0:0:0:
200,64,177783,2,0,P|104:88|48:184,1,210.000008010865
112,328,178252,5,0,0:0:0:0:
264,352,178408,2,0,B|376:320|368:304|224:280,1,210.000008010865
484,332,178877,1,0,0:0:0:0:
296,148,179033,1,0,0:0:0:0:
396,112,179190,5,0,0:0:0:0:
356,76,179268,1,0,0:0:0:0:
308,56,179346,2,0,P|260:48|244:52,1,52.5000020027161
100,148,179502,1,0,0:0:0:0:
148,168,179580,1,0,0:0:0:0:
200,164,179658,2,0,P|236:200|224:228,1,52.5000020027161
280,344,179815,1,0,0:0:0:0:
192,60,179971,1,0,0:0:0:0:
416,224,180283,6,0,P|440:184|416:192,1,105.000004005432
400,48,180752,1,0,0:0:0:0:
204,136,180908,1,0,0:0:0:0:
408,64,181065,1,0,0:0:0:0:
232,200,181221,1,0,0:0:0:0:
416,76,181377,1,0,0:0:0:0:
280,256,181533,1,0,0:0:0:0:
112,220,181690,5,0,0:0:0:0:
272,60,181846,1,0,0:0:0:0:
188,264,182002,1,0,0:0:0:0:
412,184,182158,1,0,0:0:0:0:
116,140,182315,1,0,0:0:0:0:
400,240,182471,1,0,0:0:0:0:
244,84,182627,1,0,0:0:0:0:
488,304,182783,6,0,B|477:365|477:365|384:284|384:284|300:324,1,280
112,336,183252,1,0,0:0:0:0:
308,248,183408,1,0,0:0:0:0:
104,320,183565,1,0,0:0:0:0:
280,184,183721,1,0,0:0:0:0:
96,308,183877,1,0,0:0:0:0:
232,128,184033,1,0,0:0:0:0:
384,160,184190,5,0,0:0:0:0:
352,328,184346,1,0,0:0:0:0:
296,160,184502,1,0,0:0:0:0:
248,328,184658,1,0,0:0:0:0:
192,160,184815,1,0,0:0:0:0:
32,128,184971,1,0,0:0:0:0:
64,284,185127,1,0,0:0:0:0:
192,160,185283,2,0,P|240:72|224:176,1,280
152,184,185752,5,0,0:0:0:0:
24,128,185908,1,0,0:0:0:0:
136,48,186065,1,0,0:0:0:0:
272,40,186221,1,0,0:0:0:0:
296,92,186299,1,0,0:0:0:0:
296,152,186377,1,0,0:0:0:0:
408,64,186533,2,0,P|504:112|400:80,1,280
404,122,187002,5,0,0:0:0:0:
440,192,187158,1,0,0:0:0:0:
424,272,187315,1,0,0:0:0:0:
408,312,187393,1,0,0:0:0:0:
376,336,187471,1,0,0:0:0:0:
336,352,187549,1,0,0:0:0:0:
296,360,187627,1,0,0:0:0:0:
172,360,187783,2,0,B|178:290|178:290|64:360|64:360|76:272,1,280
20,204,188252,5,0,0:0:0:0:
48,112,188408,2,0,B|156:92|156:92|132:168|132:168|180:248,1,280
240,192,188877,1,0,0:0:0:0:
320,192,189033,2,0,B|388:128|447:220|447:220|448:88,1,280
388,60,189502,5,0,0:0:0:0:
340,32,189580,1,0,0:0:0:0:
288,12,189658,1,0,0:0:0:0:
232,4,189736,1,0,0:0:0:0:
176,8,189815,1,0,0:0:0:0:
124,28,189893,1,0,0:0:0:0:
92,72,189971,1,0,0:0:0:0:
88,128,190049,1,0,0:0:0:0:
112,180,190127,1,0,0:0:0:0:
112,180,190283,6,0,B|136:228|98:317|98:317|224:252,1,280
292,344,190752,1,0,0:0:0:0:
284,136,190908,1,0,0:0:0:0:
384,320,191065,1,0,0:0:0:0:
368,112,191221,1,0,0:0:0:0:
472,292,191377,1,0,0:0:0:0:
264,276,191533,1,0,0:0:0:0:
472,232,191690,5,0,0:0:0:0:
264,208,191846,1,0,0:0:0:0:
468,164,192002,1,0,0:0:0:0:
248,196,192158,1,0,0:0:0:0:
424,80,192315,1,0,0:0:0:0:
236,168,192471,1,0,0:0:0:0:
404,40,192627,1,0,0:0:0:0:
144,60,192783,2,0,P|222:24|432:56,1,280
420,256,193252,6,0,P|336:340|296:348,1,140
176,192,193565,2,0,P|300:104|332:104,1,140
404,176,193877,1,0,0:0:0:0:
284,244,194033,1,0,0:0:0:0:
148,284,194190,6,0,P|64:200|56:160,1,140
212,40,194503,2,0,P|300:164|300:196,1,140
136,108,194815,1,0,0:0:0:0:
372,168,194971,1,0,0:0:0:0:
156,296,195127,1,0,0:0:0:0:
320,336,195283,2,0,B|341:280|341:280|480:404|448:224,1,280
432,112,195752,5,0,0:0:0:0:
384,272,195908,1,0,0:0:0:0:
304,128,196065,1,0,0:0:0:0:
192,256,196221,1,0,0:0:0:0:
176,96,196377,1,0,0:0:0:0:
32,192,196533,1,0,0:0:0:0:
96,32,196690,5,0,0:0:0:0:
96,192,196846,1,0,0:0:0:0:
240,96,197002,1,0,0:0:0:0:
256,256,197158,1,0,0:0:0:0:
384,144,197315,1,0,0:0:0:0:
416,304,197471,1,0,0:0:0:0:
256,336,197627,1,0,0:0:0:0:
96,272,197783,2,0,P|48:240|112:240,2,140
144,196,198252,5,0,0:0:0:0:
264,56,198408,1,0,0:0:0:0:
144,196,198565,1,0,0:0:0:0:
320,128,198721,1,0,0:0:0:0:
320,128,198799,1,0,0:0:0:0:
320,128,198877,1,0,0:0:0:0:
200,288,199033,1,0,0:0:0:0:
376,232,199190,5,0,0:0:0:0:
200,288,199346,1,0,0:0:0:0:
376,232,199502,1,0,0:0:0:0:
360,344,199658,1,0,0:0:0:0:
412,320,199736,1,0,0:0:0:0:
448,276,199815,1,0,0:0:0:0:
460,220,199893,1,0,0:0:0:0:
440,168,199971,1,0,0:0:0:0:
404,124,200049,1,0,0:0:0:0:
356,96,200127,1,0,0:0:0:0:
300,84,200205,1,0,0:0:0:0:
248,100,200283,1,0,0:0:0:0:
148,68,200596,5,0,0:0:0:0:
148,68,200752,1,0,0:0:0:0:
248,352,201065,1,0,0:0:0:0:
248,352,201221,1,0,0:0:0:0:
296,148,201533,1,0,0:0:0:0:
420,52,201846,5,0,0:0:0:0:
424,56,202002,1,0,0:0:0:0:
212,88,202315,1,0,0:0:0:0:
324,172,202471,1,0,0:0:0:0:
184,172,202627,1,0,0:0:0:0:
296,256,202783,1,0,0:0:0:0:
416,336,203096,5,0,0:0:0:0:
416,336,203252,1,0,0:0:0:0:
224,28,203565,1,0,0:0:0:0:
224,28,203721,1,0,0:0:0:0:
232,304,204033,1,0,0:0:0:0:
112,336,204346,5,0,0:0:0:0:
88,268,204424,1,0,0:0:0:0:
100,200,204502,1,0,0:0:0:0:
228,252,204658,1,0,0:0:0:0:
396,176,204815,1,0,0:0:0:0:
268,304,204971,1,0,0:0:0:0:
344,124,205127,1,0,0:0:0:0:
228,48,205283,6,0,P|196:32|108:92,1,140
92,216,205752,1,0,0:0:0:0:
424,340,206065,1,0,0:0:0:0:
424,340,206221,1,0,0:0:0:0:
421,70,206533,1,0,0:0:0:0:
352,352,206846,5,0,0:0:0:0:
396,220,207002,1,0,0:0:0:0:
288,320,207158,1,0,0:0:0:0:
256,304,207236,1,0,0:0:0:0:
224,288,207315,1,0,0:0:0:0:
104,216,207471,1,0,0:0:0:0:
136,204,207549,1,0,0:0:0:0:
168,192,207627,1,0,0:0:0:0:
240,128,207783,2,0,P|272:96|208:96,1,140
144,112,208252,5,0,0:0:0:0:
192,176,208408,2,0,P|160:208|160:144,1,140
92,188,208877,1,0,0:0:0:0:
64,207,209033,2,0,P|70:267|127:245,1,140
60,172,209424,5,0,0:0:0:0:
96,136,209502,1,0,0:0:0:0:
144,116,209580,1,0,0:0:0:0:
196,116,209658,1,0,0:0:0:0:
248,124,209736,1,0,0:0:0:0:
292,152,209815,1,0,0:0:0:0:
272,208,210088,2,0,P|288:160|224:192,1,157.5
464,32,210752,6,0,L|336:160,1,140
80,32,211221,2,0,L|192:144,1,140
256,384,211690,6,0,L|256:240,1,140
256,192,212158,1,0,0:0:0:0:
256,192,212315,2,0,P|320:144|304:144,1,280
512,192,212940,6,0,L|432:192,1,70
240,192,213252,2,0,L|400:192,1,140
96,192,213721,2,0,L|288:192,1,140
368,192,214190,6,0,L|224:192,1,140
256,64,214658,1,0,0:0:0:0:
128,112,214815,1,0,0:0:0:0:
124,248,214971,1,0,0:0:0:0:
240,160,215127,1,0,0:0:0:0:
128,256,215283,1,0,0:0:0:0:
256,128,215440,6,0,L|256:256,1,70
416,336,215752,2,0,L|320:224,1,140
64,336,216221,2,0,L|160:224,1,140
256,16,216690,2,0,L|256:160,1,140
256,192,217158,1,0,0:0:0:0:
288,192,217315,2,0,P|336:112|240:176,1,280
188,148,217705,1,0,0:0:0:0:
156,156,217783,1,0,0:0:0:0:
128,180,217861,1,0,0:0:0:0:
108,208,217940,6,0,P|132:324|316:304,1,280
336,320,218408,1,0,0:0:0:0:
448,224,218721,1,0,0:0:0:0:
416,160,218877,2,0,B|336:80|288:176|256:272|144:160,1,280
304,232,219346,5,0,0:0:0:0:
192,40,219658,1,0,0:0:0:0:
424,200,219815,1,0,0:0:0:0:
188,352,219971,1,0,0:0:0:0:
48,200,220127,1,0,0:0:0:0:
112,172,220205,1,0,0:0:0:0:
180,152,220283,1,0,0:0:0:0:
248,132,220361,1,0,0:0:0:0:
256,192,220440,12,0,225908,0:0:0:0:
