osu file format v14

[General]
AudioFilename: audio.mp3
AudioLeadIn: 0
PreviewTime: 39406
Countdown: 0
SampleSet: None
StackLeniency: 0.7
Mode: 0
LetterboxInBreaks: 0
WidescreenStoryboard: 1

[Editor]
Bookmarks: 32687,70500,80500,86437
DistanceSpacing: 3.9
BeatDivisor: 4
GridSize: 32
TimelineZoom: 3.699998

[Metadata]
Title:YAVA!
TitleUnicode:ヤバッ!
Artist:BABYMETAL
ArtistUnicode:BABYMETAL
Creator:MiracleE
Version:Kiyoshi's Extra
Source:
Tags:metal su-metal yuimetal moametal suzuka nakamoto yui mizuno moa kikuchi xzbidit
BeatmapID:2034449
BeatmapSetID:971094

[Difficulty]
HPDrainRate:5
CircleSize:3.6
OverallDifficulty:9.3
ApproachRate:9.2
SliderMultiplier:1.72
SliderTickRate:1

[Events]
//Background and Video events
0,0,"Konachan.com - 282144 blue_eyes bones book bow choker cross dress eyepatch gothic ji_dao_ji long_hair necklace original piano skull suit twintails violin white_hair wings.jpg",0,0
//Break Periods
//Storyboard Layer 0 (Background)
//Storyboard Layer 1 (Fail)
//Storyboard Layer 2 (Pass)
//Storyboard Layer 3 (Foreground)
//Storyboard Sound Samples

[TimingPoints]
500,312.5,4,2,22,61,1,0
5500,-100,4,2,22,61,0,0
6750,-100,4,2,22,61,0,0
8000,-100,4,2,22,61,0,0
9093,-100,4,2,22,61,0,0
9250,-98.0392156862745,4,2,22,35,0,0
10031,-161.290322580645,4,2,22,61,0,0
10500,-98.0392156862745,4,2,22,50,0,0
20500,-121.951219512195,4,2,22,35,0,0
29093,-98.0392156862744,4,2,22,50,0,0
30500,-108.695652173913,4,2,22,45,0,0
39093,-161.290322580645,4,2,22,45,0,0
39875,-161.290322580645,4,2,22,70,0,0
40343,-75.7575757575758,4,2,22,61,0,1
60343,-89.2857142857143,4,2,22,50,0,0
61515,-89.2857142857143,4,2,22,5,0,0
61593,-89.2857142857143,4,2,22,61,0,0
64015,-89.2857142857143,4,2,22,5,0,0
64093,-89.2857142857143,4,2,22,61,0,0
66515,-89.2857142857143,4,2,22,5,0,0
66593,-89.2857142857143,4,2,22,61,0,0
70187,-161.290322580645,4,2,22,61,0,0
70421,-161.290322580645,4,2,22,5,0,0
70500,-98.0392156862745,4,2,22,50,0,0
75500,-98.0392156862745,4,2,22,60,0,0
78000,-98.0392156862745,4,2,22,65,0,0
80500,-370.37037037037,4,2,22,61,0,0
80812,-714.285714285714,4,2,22,55,0,0
81125,-714.285714285714,4,2,22,50,0,0
81437,-714.285714285714,4,2,22,45,0,0
81750,-714.285714285714,4,2,22,40,0,0
82062,-714.285714285714,4,2,22,35,0,0
83000,-714.285714285714,4,2,22,30,0,0
83312,-714.285714285714,4,2,22,25,0,0
83625,-714.285714285714,4,2,22,20,0,0
84250,-714.285714285714,4,2,22,15,0,0
85031,-714.285714285714,4,2,22,10,0,0
85812,-714.285714285714,4,2,22,5,0,0

[Colours]
Combo1 : 255,231,157
Combo2 : 191,191,191
Combo3 : 255,128,0
Combo4 : 244,66,92

[HitObjects]
256,192,5500,12,0,9093,0:0:0:0:
182,66,9250,5,8,0:2:0:0:
182,276,9406,1,0,1:2:0:0:
325,66,9562,1,0,3:2:0:0:
325,66,9640,1,0,3:2:0:0:
325,66,9718,2,0,L|325:134,1,43.8600002677002,0|0,3:2|3:2,0:0:0:0:
390,364,9875,5,8,0:2:0:0:
390,364,10500,6,0,P|409:296|449:186,1,175.440001070801,6|10,1:2|0:2,0:0:0:0:
293,52,10968,2,0,P|312:102|323:159,1,87.7200005354004,2|0,0:2|1:2,0:0:0:0:
230,238,11281,1,2,0:2:0:0:
135,105,11437,2,0,P|118:145|108:188,1,87.7200005354004,10|2,0:2|0:2,0:0:0:0:
287,301,11750,5,2,1:2:0:0:
146,350,11906,2,0,B|234:333|198:400|323:381,1,175.440001070801,2|2,0:2|0:2,0:0:0:0:
440,332,12375,5,2,1:2:0:0:
359,83,12531,1,2,0:2:0:0:
296,339,12687,5,10,0:2:0:0:
368,44,12843,1,2,0:2:0:0:
474,369,13000,6,0,P|480:286|475:175,1,175.440001070801,6|10,1:2|0:2,0:0:0:0:
311,122,13468,2,0,P|306:178|310:230,1,87.7200005354004,2|0,0:2|1:2,0:0:0:0:
369,305,13781,1,2,0:2:0:0:
369,305,13937,2,0,P|312:312|278:307,1,87.7200005354004,10|2,0:2|0:2,0:0:0:0:
189,217,14250,5,2,1:2:0:0:
69,375,14406,2,0,P|65:303|82:171,1,175.440001070801,2|2,0:2|0:2,0:0:0:0:
199,79,14875,5,2,1:2:0:0:
191,315,15031,1,8,0:2:0:0:
316,80,15187,5,2,1:2:0:0:
308,316,15343,1,10,0:2:0:0:
151,35,15500,6,0,P|140:104|140:225,1,175.440001070801,6|10,1:2|0:2,0:0:0:0:
254,376,15968,2,0,P|263:333|267:289,1,87.7200005354004,2|0,0:2|1:2,0:0:0:0:
246,142,16281,1,2,0:2:0:0:
246,142,16437,2,0,P|292:129|354:135,1,87.7200005354004,10|2,0:2|0:2,0:0:0:0:
402,263,16750,5,2,1:2:0:0:
402,263,16906,2,0,L|400:356,1,87.7200005354004,2|8,0:2|0:2,0:0:0:0:
256,361,17218,2,0,L|256:261,1,87.7200005354004,2|2,0:2|1:2,0:0:0:0:
132,113,17531,1,2,0:2:0:0:
56,329,17687,5,10,0:2:0:0:
143,67,17843,1,2,0:2:0:0:
163,251,18000,6,0,L|170:306,3,43.8600002677002,10|8|8|8,0:2|0:2|0:2|0:2,0:0:0:0:
36,168,18312,2,0,P|53:129|73:109,1,43.8600002677002,0|0,1:2|1:2,0:0:0:0:
218,119,18468,2,0,P|176:145|148:145,1,43.8600002677002,10|8,0:2|0:2,0:0:0:0:
91,24,18625,2,0,P|64:19|25:20,3,43.8600002677002,8|8|0|0,0:2|0:2|1:2|1:2,0:0:0:0:
277,18,18937,1,8,0:2:0:0:
277,18,19093,2,0,P|338:31|366:62,1,87.7200005354004,6|0,1:2|0:0,0:0:0:0:
406,141,19406,6,0,L|383:199,1,43.8600002677002,2|0,1:2|1:2,0:0:0:0:
316,335,19562,1,10,0:2:0:0:
291,113,19718,5,2,3:2:0:0:
400,369,19875,1,10,0:2:0:0:
445,58,20031,5,2,1:2:0:0:
262,278,20187,1,10,0:2:0:0:
231,240,20265,1,0,3:2:0:0:
235,192,20343,1,2,3:2:0:0:
266,155,20421,1,0,3:2:0:0:
291,113,20500,6,0,B|210:86|229:152|138:123,1,141.0400021521,2|8,1:2|0:2,0:0:0:0:
71,43,20968,1,10,0:2:0:0:
71,43,21125,2,0,P|35:92|60:180,1,141.0400021521,2|8,1:2|0:2,0:0:0:0:
213,33,21593,1,2,0:2:0:0:
213,33,21750,6,0,P|260:28|309:33,1,70.5200010760498,2|0,1:2|0:0,0:0:0:0:
387,146,22062,2,0,P|340:151|291:146,1,70.5200010760498,10|8,0:2|0:2,0:0:0:0:
198,14,22375,2,0,P|245:9|294:14,1,70.5200010760498,2|0,1:2|0:0,0:0:0:0:
406,188,22687,1,10,0:2:0:0:
465,27,22843,1,2,0:2:0:0:
478,260,23000,6,0,P|387:286|325:245,1,141.0400021521,2|8,1:2|0:2,0:0:0:0:
287,150,23468,1,10,0:2:0:0:
287,150,23625,2,0,P|231:189|199:286,1,141.0400021521,2|8,1:2|0:2,0:0:0:0:
181,366,24093,1,2,0:2:0:0:
87,65,24250,5,0,1:2:0:0:
14,320,24406,1,2,0:2:0:0:
115,83,24562,5,10,0:2:0:0:
181,366,24718,1,10,0:2:0:0:
48,38,24875,2,0,P|37:93|35:140,1,70.5200010760498,2|0,1:2|3:2,0:0:0:0:
181,247,25187,1,8,0:2:0:0:
181,247,25343,1,0,0:2:0:0:
255,300,25500,6,0,B|185:275|197:337|109:312,1,141.0400021521,2|8,1:2|0:2,0:0:0:0:
18,268,25968,1,10,0:2:0:0:
18,268,26125,2,0,P|66:260|79:170,1,141.0400021521,2|8,1:2|0:2,0:0:0:0:
39,42,26593,1,2,0:2:0:0:
39,42,26750,6,0,P|26:94|25:136,1,70.5200010760498,2|0,1:2|0:0,0:0:0:0:
205,67,27062,1,10,0:2:0:0:
149,276,27218,1,8,0:2:0:0:
242,21,27375,2,0,P|249:55|252:90,1,70.5200010760498,2|0,1:2|0:0,0:0:0:0:
150,317,27687,1,10,0:2:0:0:
63,73,27843,1,2,0:2:0:0:
19,364,28000,6,0,P|17:296|6:211,1,141.0400021521,2|8,1:2|0:2,0:0:0:0:
127,143,28468,1,10,0:2:0:0:
127,143,28625,2,0,P|186:134|223:143,1,70.5200010760498,2|0,1:2|0:0,0:0:0:0:
311,223,28937,1,10,0:2:0:0:
393,39,29093,6,0,P|409:84|410:124,1,87.7200005354004,6|0,1:2|0:0,0:0:0:0:
287,274,29406,1,2,1:2:0:0:
205,52,29562,1,10,0:2:0:0:
120,300,29718,2,0,L|142:234,1,43.8600002677002,2|0,1:2|1:2,0:0:0:0:
249,170,29875,2,0,L|250:110,3,43.8600002677002,10|2|2|2,0:2|0:2|0:2|0:2,0:0:0:0:
287,274,30187,2,0,B|370:250|343:314|447:272,1,131.580000803101,2|0,0:2|0:0,0:0:0:0:
512,244,30500,6,0,P|445:293|413:375,1,158.239994687988,6|8,1:2|0:2,0:0:0:0:
386,194,30968,1,0,3:2:0:0:
386,194,31125,2,0,P|379:155|364:118,1,79.1199973439942,2|0,1:2|3:2,0:0:0:0:
264,47,31437,1,8,0:2:0:0:
264,47,31593,1,2,3:2:0:0:
155,105,31750,6,0,P|213:90|260:89,1,79.1199973439942,2|0,1:2|3:2,0:0:0:0:
102,235,32062,2,0,P|139:246|178:251,1,79.1199973439942,10|0,0:2|3:2,0:0:0:0:
78,88,32375,2,0,P|117:92|154:104,1,79.1199973439942,2|0,1:2|3:2,0:0:0:0:
54,251,32687,1,8,0:2:0:0:
259,166,32843,1,2,3:2:0:0:
259,166,33000,6,0,B|293:256|231:236|256:346,1,158.239994687988,6|8,1:2|0:2,0:0:0:0:
407,340,33468,1,2,3:2:0:0:
407,340,33625,2,0,P|366:311|318:297,1,79.1199973439942,2|0,1:2|3:2,0:0:0:0:
481,221,33937,1,10,0:2:0:0:
481,221,34093,6,0,L|483:115,1,79.1199973439942,2|0,3:2|1:2,0:0:0:0:
265,43,34406,5,2,3:2:0:0:
337,314,34562,1,10,0:2:0:0:
417,26,34718,5,2,3:2:0:0:
280,349,34875,2,0,P|273:281|282:169,1,158.239994687988,2|8,1:2|0:2,0:0:0:0:
389,103,35343,1,2,3:2:0:0:
512,182,35500,6,0,B|419:154|443:224|346:183,1,158.239994687988,6|8,3:2|0:2,0:0:0:0:
486,269,35968,1,2,3:2:0:0:
299,105,36125,2,0,P|243:97|189:108,1,79.1199973439942,2|0,1:2|3:2,0:0:0:0:
98,183,36437,1,8,0:2:0:0:
98,183,36593,1,2,3:2:0:0:
128,293,36750,6,0,P|119:246|122:199,1,79.1199973439942,2|0,1:2|3:2,0:0:0:0:
323,332,37062,2,0,P|331:293|331:253,1,79.1199973439942,2|8,1:2|0:2,0:0:0:0:
199,62,37375,5,2,1:2:0:0:
237,259,37531,1,8,0:2:0:0:
329,18,37687,5,8,0:2:0:0:
221,310,37843,1,2,1:2:0:0:
131,0,38000,6,0,P|117:51|114:103,1,79.1199973439942,2|0,1:2|3:2,0:0:0:0:
228,154,38312,1,10,0:2:0:0:
228,154,38468,2,0,P|301:166|367:154,1,118.679996015991,2|0,3:2|0:0,0:0:0:0:
390,120,38781,1,2,3:2:0:0:
300,306,38937,1,10,0:2:0:0:
219,34,39093,1,2,1:2:0:0:
214,0,39875,5,10,0:2:0:0:
242,384,40031,1,2,1:2:0:0:
401,9,40343,6,0,P|422:97|424:246,1,227.039999307129,6|2,1:2|1:2,0:0:0:0:
321,335,40812,5,10,0:2:0:0:
253,81,40968,1,0,1:2:0:0:
168,356,41125,5,10,0:2:0:0:
241,41,41281,1,0,1:2:0:0:
333,383,41437,5,10,0:2:0:0:
207,7,41593,2,0,P|196:67|191:126,1,113.519999653564,2|8,1:2|0:2,0:0:0:0:
376,303,41906,2,0,P|386:247|391:190,1,113.519999653564,2|8,1:2|0:2,0:0:0:0:
218,326,42218,1,2,1:2:0:0:
218,326,42375,2,0,L|97:324,1,113.519999653564,10|0,0:2|1:2,0:0:0:0:
38,167,42687,1,8,0:2:0:0:
53,49,42843,6,0,P|126:93|127:241,1,227.039999307129,6|2,1:2|1:2,0:0:0:0:
57,371,43312,5,10,0:2:0:0:
355,264,43468,1,0,1:2:0:0:
25,250,43625,5,10,0:2:0:0:
318,296,43781,1,0,1:2:0:0:
34,87,43937,5,10,0:2:0:0:
271,325,44093,2,0,P|336:352|399:351,1,113.519999653564,2|8,1:2|0:2,0:0:0:0:
189,142,44406,2,0,P|123:130|41:147,1,113.519999653564,2|8,1:2|0:2,0:0:0:0:
337,224,44718,1,2,1:2:0:0:
446,50,44875,2,0,P|393:38|343:45,1,56.7599998267822,10|0,0:2|0:0,0:0:0:0:
270,131,45031,2,0,P|296:139|325:143,1,56.7599998267822,10|0,0:2|0:0,0:0:0:0:
436,201,45187,1,8,0:2:0:0:
38,154,45343,6,0,B|165:144|96:237|259:217,1,227.039999307129,6|2,1:2|1:2,0:0:0:0:
377,154,45812,2,0,P|319:129|258:134,1,113.519999653564,10|0,0:2|1:2,0:0:0:0:
88,282,46125,2,0,P|146:307|207:302,1,113.519999653564,10|0,0:2|1:2,0:0:0:0:
342,261,46437,1,10,0:2:0:0:
189,0,46593,6,0,P|171:86|164:250,1,227.039999307129,6|2,1:2|1:2,0:0:0:0:
282,352,47062,2,0,P|291:293|293:209,1,113.519999653564,10|0,0:2|1:2,0:0:0:0:
68,58,47375,2,0,P|58:140|60:211,1,113.519999653564,10|0,0:2|1:2,0:0:0:0:
208,354,47687,1,10,0:2:0:0:
402,145,47843,6,0,B|278:116|320:215|155:161,1,227.039999307129,6|2,1:2|1:2,0:0:0:0:
391,245,48312,1,10,0:2:0:0:
240,109,48468,2,0,P|144:118|73:239,1,227.039999307129,6|2,1:2|1:2,0:0:0:0:
226,325,48937,1,10,0:2:0:0:
334,27,49093,6,0,P|367:104|391:260,1,227.039999307129,6|0,1:2|1:2,0:0:0:0:
266,370,49562,2,0,L|268:303,1,56.7599998267822,8|8,0:2|0:2,0:0:0:0:
131,313,49718,2,0,L|131:237,3,56.7599998267822,0|0|2|0,1:2|1:2|3:2|3:2,0:0:0:0:
225,219,50031,2,0,L|225:162,3,56.7599998267822,0|0|8|0,1:2|1:2|0:2|0:0,0:0:0:0:
255,44,50343,6,0,P|142:24|57:126,1,227.039999307129,6|0,1:2|1:2,0:0:0:0:
394,348,50812,5,8,0:2:0:0:
390,55,50968,1,0,1:2:0:0:
273,348,51125,5,10,0:2:0:0:
255,44,51281,1,0,1:2:0:0:
116,354,51437,5,8,0:2:0:0:
107,45,51593,1,2,1:2:0:0:
314,348,51750,6,0,L|315:207,1,113.519999653564,8|0,0:2|1:2,0:0:0:0:
143,21,52062,2,0,L|143:137,1,113.519999653564,8|0,0:2|1:2,0:0:0:0:
347,365,52375,2,0,L|348:224,1,113.519999653564,8|0,0:2|1:2,0:0:0:0:
347,59,52687,1,8,0:2:0:0:
83,384,52843,6,0,P|71:291|100:129,1,227.039999307129,6|0,1:2|1:2,0:0:0:0:
191,50,53312,5,8,0:2:0:0:
242,268,53468,1,0,1:2:0:0:
339,27,53625,5,10,0:2:0:0:
222,311,53781,1,0,1:2:0:0:
154,1,53937,5,8,0:2:0:0:
274,329,54093,1,2,1:2:0:0:
377,11,54250,6,0,P|396:73|398:143,1,113.519999653564,8|0,0:2|1:2,0:0:0:0:
154,373,54562,2,0,P|149:303|159:240,1,113.519999653564,8|2,0:2|1:2,0:0:0:0:
120,67,54875,5,10,0:2:0:0:
410,207,55031,1,10,0:2:0:0:
60,297,55187,1,8,0:2:0:0:
276,13,55343,6,0,P|300:100|317:262,1,227.039999307129,6|0,1:2|1:2,0:0:0:0:
158,332,55812,5,8,0:2:0:0:
89,84,55968,1,0,1:2:0:0:
194,347,56125,5,10,0:2:0:0:
251,30,56281,1,0,1:2:0:0:
149,380,56437,5,8,0:2:0:0:
51,13,56593,1,2,1:2:0:0:
262,382,56750,6,0,L|264:130,1,227.039999307129,8|8,0:2|0:2,0:0:0:0:
117,19,57218,2,0,P|111:83|112:141,1,113.519999653564,0|8,1:2|0:2,0:0:0:0:
394,310,57531,2,0,P|394:253|388:196,1,113.519999653564,0|8,1:2|0:2,0:0:0:0:
93,375,57843,6,0,P|37:327|147:269,1,227.039999307129,6|0,1:2|1:2,0:0:0:0:
309,109,58312,5,8,0:2:0:0:
186,349,58468,1,0,1:2:0:0:
187,75,58625,5,10,0:2:0:0:
310,344,58781,1,0,1:2:0:0:
366,41,58937,5,8,0:2:0:0:
143,369,59093,2,0,P|135:312|140:251,1,113.519999653564,2|8,1:2|0:2,0:0:0:0:
187,75,59406,2,0,L|187:2,3,56.7599998267822,0|0|8|0,1:2|3:2|0:2|0:0,0:0:0:0:
267,210,59718,2,0,P|306:232|335:233,1,56.7599998267822,2|0,1:2|3:2,0:0:0:0:
415,126,59875,2,0,P|373:131|338:155,1,56.7599998267822,10|8,0:2|0:2,0:0:0:0:
423,275,60031,1,2,1:2:0:0:
423,275,60187,1,0,3:2:0:0:
497,348,60343,6,0,B|388:305|414:384|297:343,1,192.640002351563,6|0,0:2|1:2,0:0:0:0:
236,273,60812,2,0,P|292:250|347:252,1,96.3200011757813,0|0,1:2|0:2,0:0:0:0:
196,369,61125,2,0,P|148:364|104:344,1,96.3200011757813,10|0,0:2|1:2,0:0:0:0:
25,241,61437,2,0,P|61:223|95:219,1,48.1600005878906,0|0,0:0|0:0,0:0:0:0:
214,180,61593,6,0,P|128:171|25:205,1,192.640002351563,2|0,1:2|1:2,0:0:0:0:
44,63,62062,2,0,P|111:39|161:43,1,96.3200011757813,0|0,1:2|0:2,0:0:0:0:
268,24,62375,2,0,L|266:142,1,96.3200011757813,8|0,0:2|1:2,0:0:0:0:
369,237,62687,1,8,0:2:0:0:
369,237,62843,6,0,B|271:228|299:325|176:309,1,192.640002351563,6|0,1:2|1:2,0:0:0:0:
90,347,63312,2,0,P|61:300|52:249,1,96.3200011757813,0|0,1:2|0:2,0:0:0:0:
119,113,63625,2,0,P|155:176|169:228,1,96.3200011757813,10|0,0:2|1:2,0:0:0:0:
276,148,63937,2,0,P|289:99|303:68,1,48.1600005878906,0|0,0:0|0:0,0:0:0:0:
411,0,64093,6,0,P|350:67|313:172,1,192.640002351563,2|2,1:2|1:2,0:0:0:0:
410,260,64562,2,0,P|426:196|426:136,1,96.3200011757813,0|2,1:2|1:2,0:0:0:0:
305,368,64875,1,8,0:2:0:0:
305,368,65031,2,0,P|291:321|287:273,1,96.3200011757813,2|8,1:2|0:2,0:0:0:0:
181,263,65343,6,0,P|127:304|71:201,1,192.640002351563,6|0,1:2|1:2,0:0:0:0:
110,100,65812,2,0,P|176:104|225:134,1,96.3200011757813,0|0,1:2|0:0,0:0:0:0:
360,47,66125,2,0,P|315:29|267:30,1,96.3200011757813,10|0,0:2|1:2,0:0:0:0:
316,151,66437,2,0,B|338:187|303:197|325:209,1,48.1600005878906,0|0,0:0|0:0,0:0:0:0:
292,337,66593,6,0,B|262:239|337:259|296:142,1,192.640002351563,2|0,1:2|1:2,0:0:0:0:
388,295,67062,2,0,P|446:297|512:286,1,96.3200011757813,0|0,1:2|1:2,0:0:0:0:
214,191,67375,2,0,P|144:175|92:179,1,96.3200011757813,8|0,0:2|1:2,0:0:0:0:
358,35,67687,1,8,0:2:0:0:
358,35,67843,6,0,P|428:72|350:147,1,192.640002351563,6|2,1:2|1:2,0:0:0:0:
199,266,68312,1,10,0:2:0:0:
358,35,68468,2,0,P|446:74|416:178,1,192.640002351563,6|2,1:2|1:2,0:0:0:0:
173,296,68937,1,10,0:2:0:0:
359,34,69093,2,0,P|443:55|486:180,1,192.640002351563,6|2,1:2|1:2,0:0:0:0:
174,353,69562,5,2,3:2:0:0:
172,60,69718,1,2,1:2:0:0:
302,360,69875,5,10,0:2:0:0:
305,62,70031,1,0,0:0:0:0:
129,379,70187,6,0,P|126:325|130:294,1,79.9799968269655,2|0,0:2|0:0,0:0:0:0:
79,254,70500,6,0,B|115:236|115:236|192:245,1,87.7200005354004,4|0,1:2|0:0,0:0:0:0:
276,307,70812,1,10,0:2:0:0:
276,307,70968,2,0,P|334:311|382:306,1,87.7200005354004,2|0,3:2|1:2,0:0:0:0:
439,201,71281,1,2,3:2:0:0:
439,201,71437,2,0,P|395:196|351:199,1,87.7200005354004,10|0,0:2|3:2,0:0:0:0:
210,81,71750,5,2,1:2:0:0:
210,81,71906,2,0,P|198:145|198:203,1,87.7200005354004,2|8,3:2|0:2,0:0:0:0:
85,218,72218,1,2,3:2:0:0:
85,218,72375,2,0,P|108:286|112:323,1,87.7200005354004,2|0,1:2|3:2,0:0:0:0:
125,345,72609,1,0,0:0:0:0:
125,345,72687,1,8,0:2:0:0:
281,203,72843,1,0,3:2:0:0:
407,382,73000,6,0,L|409:284,1,87.7200005354004,6|0,1:2|3:2,0:0:0:0:
462,153,73312,1,10,0:2:0:0:
462,153,73468,2,0,P|405:142|356:146,1,87.7200005354004,2|0,3:2|1:2,0:0:0:0:
206,43,73781,1,2,3:2:0:0:
205,43,73937,2,0,P|247:33|291:32,1,87.7200005354004,10|0,0:2|3:2,0:0:0:0:
110,128,74250,5,2,1:2:0:0:
110,128,74406,2,0,L|110:243,1,87.7200005354004,2|8,3:2|0:2,0:0:0:0:
226,249,74718,1,2,3:2:0:0:
226,249,74875,2,0,L|225:368,1,87.7200005354004,2|8,1:2|0:2,0:0:0:0:
219,369,75109,1,0,0:0:0:0:
219,369,75187,1,0,1:2:0:0:
317,165,75343,1,8,0:2:0:0:
49,376,75500,6,0,P|47:317|56:255,1,87.7200005354004,6|0,1:2|3:2,0:0:0:0:
184,142,75812,1,10,0:2:0:0:
322,317,75968,2,0,P|380:317|429:308,1,87.7200005354004,2|0,3:2|1:2,0:0:0:0:
268,77,76281,1,2,3:2:0:0:
144,247,76437,2,0,P|86:244|48:228,1,87.7200005354004,10|0,0:2|3:2,0:0:0:0:
188,14,76750,5,2,1:2:0:0:
333,222,76906,2,0,P|354:154|360:109,1,87.7200005354004,2|8,3:2|0:2,0:0:0:0:
125,81,77218,1,2,3:2:0:0:
191,313,77375,2,0,P|226:260|239:205,1,87.7200005354004,2|0,1:2|3:2,0:0:0:0:
243,199,77609,1,0,0:0:0:0:
243,199,77687,1,8,0:2:0:0:
413,38,77843,1,0,3:2:0:0:
352,369,78000,6,0,L|352:250,1,87.7200005354004,6|0,1:2|3:2,0:0:0:0:
244,92,78312,1,10,0:2:0:0:
128,365,78468,2,0,L|128:256,1,87.7200005354004,2|0,1:2|0:0,0:0:0:0:
247,45,78781,1,10,0:2:0:0:
376,378,78937,2,0,L|376:269,1,87.7200005354004,2|0,1:2|3:2,0:0:0:0:
155,95,79250,5,10,0:2:0:0:
361,169,79406,2,0,P|416:165|476:149,1,87.7200005354004,2|0,1:2|0:0,0:0:0:0:
274,10,79718,1,2,1:2:0:0:
179,288,79875,2,0,P|105:288|74:272,1,87.7200005354004,10|0,0:2|1:2,0:0:0:0:
66,255,80109,1,0,0:0:0:0:
66,255,80187,1,8,3:2:0:0:
277,363,80343,1,2,0:2:0:0:
487,66,80500,6,0,B|391:18|425:107|323:50|323:50|420:169|352:260|352:260|105:215|231:386|8:376,1,789.480019274415,4|0,1:2|0:0,0:0:0:0:
