osu file format v14

[General]
AudioFilename: audio.mp3
AudioLeadIn: 0
PreviewTime: 39704
Countdown: 0
SampleSet: Drum
StackLeniency: 0.7
Mode: 0
LetterboxInBreaks: 0
WidescreenStoryboard: 0

[Editor]
Bookmarks: 9236,10011,10486,17980,20486,30486,39698,40323,50329,56105,60486,70480,72986,77986,80486,89073,90486,94230,95480,97986,99861,100323,110323,120480,127986,130480,135486,140486,147980,150486,160486,169386,170329,175323,180323,190323,199861,200329,210480,217986,220486,225798
DistanceSpacing: 1.8
BeatDivisor: 4
GridSize: 4
TimelineZoom: 1.8

[Metadata]
Title:YAVA!
TitleUnicode:YAVA!
Artist:BABYMETAL
ArtistUnicode:BABYMETAL
Creator:[ Same ]
Version:Kotonaru
Source:
Tags:
BeatmapID:1293016
BeatmapSetID:612753

[Difficulty]
HPDrainRate:6
CircleSize:4
OverallDifficulty:8.7
ApproachRate:9.4
SliderMultiplier:1.92
SliderTickRate:1

[Events]
//Background and Video events
0,0,"stretched-1366-768-760612.jpg",0,0
//Break Periods
//Storyboard Layer 0 (Background)
//Storyboard Layer 1 (Fail)
//Storyboard Layer 2 (Pass)
//Storyboard Layer 3 (Foreground)
//Storyboard Layer 4 (Overlay)
//Storyboard Sound Samples

[TimingPoints]
5480.1669689824,312.5,4,3,1,90,1,0
10011,-100,4,3,1,70,0,0
17980,-133.333333333333,4,3,1,80,0,0
19073,-100,4,3,1,80,0,0
29073,-100,4,3,1,80,0,0
39698,-100,4,3,1,80,0,0
40323,-83.3333333333333,4,3,1,85,0,1
56105,-133.333333333333,4,3,1,85,0,1
56573,-83.3333333333333,4,3,1,85,0,1
57355,-133.333333333333,4,3,1,85,0,1
57823,-83.3333333333333,4,3,1,85,0,1
60480,-100,4,3,1,70,0,0
89855,-111.111111111111,4,3,1,80,0,0
94230,-90.9090909090909,4,3,1,30,0,0
95480,-100,4,3,1,80,0,0
100323,-83.3333333333333,4,3,1,85,0,1
117361,-111.111111111111,4,3,1,85,0,1
117673,-83.3333333333333,4,3,1,85,0,1
120480,-100,4,3,1,80,0,0
130480,-111.111111111111,4,3,1,80,0,0
140486,-100,4,3,1,80,0,0
169386,-100,4,1,1,30,0,0
170329,-100,4,3,1,80,0,0
175323,-83.3333333333333,4,3,1,85,0,1
180323,-83.3333333333333,4,3,1,85,0,1
200323,-100,4,3,1,85,0,0

[HitObjects]
156,113,9230,5,8,0:0:0:0:
218,271,9386,1,0,0:0:0:0:
334,145,9542,5,0,0:0:0:0:
354,149,9620,5,0,0:0:0:0:
348,172,9698,5,0,0:0:0:0:
328,166,9777,5,0,0:0:0:0:
340,158,9855,5,8,0:0:0:0:
176,198,10011,2,0,P|168:242|139:272,1,48
110,147,10167,2,0,P|72:145|56:133,1,48
186,112,10323,2,0,P|192:85|221:62,1,48
253,158,10480,6,0,P|320:133|380:144,1,96
460,285,10792,1,8,0:0:0:0:
184,197,10948,2,0,L|294:209,1,96
429,88,11261,1,0,0:0:0:0:
393,277,11417,6,0,L|260:295,1,96,8|0,0:0|0:0,0:0:0:0:
117,251,11730,1,0,0:0:0:0:
99,54,11886,2,0,P|77:108|80:160,1,96,0|8,0:0|0:0,0:0:0:0:
98,335,12198,1,0,0:0:0:0:
230,75,12355,2,0,P|193:120|182:171,1,96
98,335,12667,1,8,0:0:0:0:
333,189,12823,1,0,0:0:0:0:
88,248,12980,6,0,B|62:197|62:197|62:137,1,96
235,36,13292,1,8,0:0:0:0:
251,277,13448,2,0,B|204:294|204:294|146:291,1,96
110,58,13761,1,0,0:0:0:0:
317,128,13917,2,0,B|334:182|334:182|313:232,1,96,8|0,0:0|0:0,0:0:0:0:
59,176,14230,5,0,0:0:0:0:
240,348,14386,2,0,P|264:296|264:244,1,96,8|0,0:0|0:0,0:0:0:0:
56,224,14698,1,0,0:0:0:0:
264,72,14855,2,8,P|272:148|260:208,1,96,8|0,0:0|0:0,0:0:0:0:
252,340,15167,1,8,0:0:0:0:
200,140,15323,1,0,0:0:0:0:
352,320,15480,6,0,L|376:212,1,96
408,64,15792,1,8,0:0:0:0:
248,320,15948,2,0,L|272:212,1,96
304,64,16261,1,0,0:0:0:0:
57,173,16417,2,0,L|190:212,1,96,8|0,0:0|0:0,0:0:0:0:
327,248,16730,1,0,0:0:0:0:
113,36,16886,2,0,L|197:118,1,96,0|8,0:0|0:0,0:0:0:0:
308,224,17198,5,0,0:0:0:0:
123,131,17355,1,0,0:0:0:0:
157,320,17511,1,0,0:0:0:0:
255,104,17667,1,8,0:0:0:0:
296,323,17823,1,0,0:0:0:0:
421,235,17980,5,0,0:0:0:0:
422,199,18058,1,0,0:0:0:0:
414,164,18136,1,0,0:0:0:0:
396,133,18214,1,0,0:0:0:0:
370,108,18292,1,0,0:0:0:0:
275,67,18448,5,0,0:0:0:0:
241,78,18526,1,0,0:0:0:0:
205,76,18604,1,0,0:0:0:0:
170,69,18682,1,0,0:0:0:0:
134,62,18760,1,0,0:0:0:0:
98,60,18838,1,0,0:0:0:0:
63,67,18917,1,8,0:0:0:0:
94,198,19073,6,2,P|25:227|105:244,1,192
253,211,19542,1,8,0:0:0:0:
420,289,19698,1,0,0:0:0:0:
252,350,19855,1,8,0:0:0:0:
253,164,20011,1,0,0:0:0:0:
420,289,20167,6,0,L|356:320,1,48,8|0,0:0|0:0,0:0:0:0:
252,350,20323,2,0,L|252:278,1,48
253,164,20480,2,0,B|337:224|337:224|325:177,1,144
260,64,20792,2,0,P|312:48|352:66,1,96,8|0,0:0|0:0,0:0:0:0:
450,151,21105,2,0,B|470:172|470:172|461:253,1,96
331,337,21417,1,8,0:0:0:0:
242,202,21573,1,8,0:0:0:0:
134,73,21730,6,0,B|112:96|134:124|155:155|129:197|128:229,1,144
157,248,22042,2,8,P|210:237|270:251,1,96
409,298,22355,2,0,P|339:333|256:324,1,144
241,317,22667,1,8,0:0:0:0:
160,187,22823,1,0,0:0:0:0:
206,43,22980,6,0,B|251:73|251:73|332:60|398:72,1,192,0|8,0:0|0:0,0:0:0:0:
421,281,23448,1,8,0:0:0:0:
472,83,23605,2,4,B|412:92|412:92|356:80,1,96
108,85,23917,2,0,B|168:76|168:76|224:88,1,96,8|0,0:0|0:0,0:0:0:0:
278,177,24230,5,0,0:0:0:0:
415,44,24386,1,0,0:0:0:0:
216,129,24542,1,8,0:0:0:0:
382,269,24698,1,8,0:0:0:0:
415,44,24855,2,0,B|353:29|353:29|283:32,1,96
106,60,25167,1,8,0:0:0:0:
255,180,25323,1,0,0:0:0:0:
196,350,25480,6,0,P|254:337|319:344,1,96
452,292,25792,1,8,0:0:0:0:
212,247,25948,2,0,P|161:235|106:202,1,96,8|0,0:0|0:0,0:0:0:0:
127,50,26261,1,0,0:0:0:0:
96,208,26417,2,0,P|94:264|134:320,1,96,8|0,0:0|0:0,0:0:0:0:
288,213,26730,6,0,P|328:167|277:171,1,144
280,124,27042,2,8,P|342:121|384:97,1,96
200,113,27355,2,0,P|133:106|55:136,1,144
63,181,27667,1,8,0:0:0:0:
249,236,27823,1,0,0:0:0:0:
202,35,27980,2,4,B|265:10|303:56|348:99|421:29,1,192,4|12,0:3|0:3,0:3:0:0:
452,220,28448,5,8,0:0:0:0:
294,72,28605,2,0,P|268:122|279:192,1,96
296,334,28917,1,8,0:0:0:0:
399,151,29073,6,2,P|446:118|364:120,1,192
206,142,29542,1,8,0:0:0:0:
303,306,29698,1,0,0:0:0:0:
303,306,29777,1,0,0:0:0:0:
303,306,29855,2,2,P|346:273|359:249,1,48,10|2,0:0|0:0,0:0:0:0:
264,226,30011,2,2,P|219:249|203:271,1,48
216,329,30167,2,2,P|158:338|68:288,1,144
112,235,30480,6,0,P|126:179|100:108,1,96
68,18,30792,1,8,0:0:0:0:
264,100,30948,2,0,L|388:88,1,96
408,274,31261,1,0,0:0:0:0:
223,180,31417,2,8,L|103:149,1,96
201,45,31730,6,0,L|374:32,1,144
277,93,32042,2,8,L|177:99,1,96
68,206,32355,2,0,B|70:242|70:242|107:295,1,96
143,108,32667,1,0,0:0:0:0:
216,288,32823,1,0,0:0:0:0:
410,253,32980,2,0,B|419:202|419:202|398:146,1,96
343,35,33292,5,8,0:0:0:0:
215,60,33448,2,0,P|157:69|117:55,2,96
412,31,33917,1,8,0:0:0:0:
337,205,34073,2,0,P|279:218|241:213,1,96
77,160,34386,5,0,0:0:0:0:
277,118,34542,1,8,0:0:0:0:
122,248,34698,1,0,0:0:0:0:
232,73,34855,2,0,B|287:75|287:75|334:103,1,96
297,277,35167,1,8,0:0:0:0:
106,298,35323,5,0,0:0:0:0:
84,136,35480,2,0,L|123:38,1,96
33,300,35792,1,8,0:0:0:0:
180,136,35948,1,0,0:0:0:0:
212,312,36105,2,0,B|260:292|260:292|294:250,1,96
392,120,36417,1,8,0:0:0:0:
400,288,36573,1,0,0:0:0:0:
282,98,36730,6,0,B|205:111|205:111|150:158,1,144
114,144,37042,2,0,P|137:95|101:41,1,96,8|0,0:0|0:0,0:0:0:0:
54,208,37355,2,0,P|29:255|55:322,1,96,8|0,0:0|0:0,0:0:0:0:
174,338,37667,1,8,0:0:0:0:
325,271,37823,1,0,0:0:0:0:
139,237,37980,6,0,P|104:178|107:128,1,96
120,8,38292,1,8,0:0:0:0:
219,170,38448,2,0,P|288:150|357:157,1,96
452,162,38761,1,0,0:0:0:0:
323,305,38917,1,8,0:0:0:0:
341,49,39073,1,0,0:0:0:0:
238,124,39230,6,0,L|152:138,1,48
215,242,39386,2,0,L|270:229,1,48
224,68,39542,2,0,P|152:80|111:58,1,96
96,88,39776,1,0,0:0:0:0:
88,116,39855,5,8,0:0:0:0:
352,204,40011,1,8,0:0:0:0:
234,266,40323,2,2,P|239:340|266:254,1,230.39999296875
151,235,40792,5,8,0:0:0:0:
333,66,40948,1,0,0:0:0:0:
108,156,41105,1,8,0:0:0:0:
403,120,41261,1,0,0:0:0:0:
118,42,41417,1,8,0:0:0:0:
421,211,41573,1,0,0:0:0:0:
130,243,41730,5,8,0:0:0:0:
348,40,41886,1,0,0:0:0:0:
302,258,42042,1,8,0:0:0:0:
118,42,42198,1,0,0:0:0:0:
161,255,42355,5,8,0:0:0:0:
250,69,42511,1,0,0:0:0:0:
161,255,42667,1,8,0:0:0:0:
250,69,42823,2,2,P|321:56|444:144,1,230.39999296875
450,300,43292,5,8,0:0:0:0:
257,336,43448,1,0,0:0:0:0:
450,205,43605,1,8,0:0:0:0:
266,97,43761,1,0,0:0:0:0:
183,311,43917,5,8,0:0:0:0:
129,92,44073,1,0,0:0:0:0:
280,311,44230,1,8,0:0:0:0:
269,48,44386,1,0,0:0:0:0:
374,310,44542,1,8,0:0:0:0:
422,77,44698,1,0,0:0:0:0:
203,185,44855,5,8,0:0:0:0:
368,26,45011,1,8,0:0:0:0:
209,248,45167,1,8,0:0:0:0:
93,55,45323,2,2,B|59:119|95:173|132:217|65:308,1,230.39999296875
252,300,45792,5,8,0:0:0:0:
252,38,45948,1,0,0:0:0:0:
327,276,46105,1,8,0:0:0:0:
176,61,46261,1,0,0:0:0:0:
375,213,46417,1,8,0:0:0:0:
130,124,46573,2,2,B|159:98|177:64|177:64|193:156|164:222,1,230.39999296875
123,347,47042,5,8,0:0:0:0:
172,135,47198,1,0,0:0:0:0:
176,121,47276,1,0,0:0:0:0:
179,107,47354,1,8,0:0:0:0:
405,211,47511,1,0,0:0:0:0:
122,260,47667,1,8,0:0:0:0:
396,118,47823,2,2,B|305:115|305:115|257:84|257:84|168:83,1,230.39999296875
64,196,48292,5,8,0:0:0:0:
328,200,48448,2,2,P|404:180|336:256,1,230.39999296875
144,308,48917,1,8,0:0:0:0:
144,96,49073,2,0,B|96:84|72:92|32:104|32:104|92:72|116:56|148:24,1,230.39999296875
224,24,49464,5,0,0:0:0:0:
279,14,49542,1,8,0:0:0:0:
329,40,49620,1,0,0:0:0:0:
352,92,49698,1,0,0:0:0:0:
345,148,49776,1,0,0:0:0:0:
309,192,49854,1,8,0:0:0:0:
168,320,50011,1,8,0:0:0:0:
348,208,50167,1,8,0:0:0:0:
292,20,50323,6,2,B|332:28|368:56|368:56|328:48|272:44|224:64,1,230.39999296875
48,72,50792,1,8,0:0:0:0:
307,231,50948,1,0,0:0:0:0:
30,187,51105,1,8,0:0:0:0:
325,116,51261,1,0,0:0:0:0:
98,281,51417,5,8,0:0:0:0:
257,22,51573,1,0,0:0:0:0:
212,299,51730,1,8,0:0:0:0:
142,3,51886,1,0,0:0:0:0:
304,232,52042,1,8,0:0:0:0:
47,72,52198,1,0,0:0:0:0:
328,112,52355,5,8,0:0:0:0:
212,299,52511,1,0,0:0:0:0:
328,112,52667,1,8,0:0:0:0:
212,299,52823,2,2,B|60:284|60:284|108:264|128:228,1,230.39999296875
228,60,53292,5,8,0:0:0:0:
286,282,53448,1,0,0:0:0:0:
307,108,53605,1,8,0:0:0:0:
182,309,53761,1,0,0:0:0:0:
182,33,53917,1,8,0:0:0:0:
338,258,54073,1,0,0:0:0:0:
64,163,54230,1,8,0:0:0:0:
345,238,54386,1,0,0:0:0:0:
172,31,54542,1,8,0:0:0:0:
111,317,54698,1,0,0:0:0:0:
331,155,54855,5,8,0:0:0:0:
88,109,55011,1,8,0:0:0:0:
331,155,55167,1,8,0:0:0:0:
120,178,55323,2,2,P|48:196|132:204,1,230.39999296875
180,68,55792,6,0,P|224:20|308:36,1,115.199996484375,8|0,0:0|0:0,0:0:0:0:
416,108,56105,1,8,0:0:0:0:
406,142,56183,1,0,0:0:0:0:
413,177,56261,1,0,0:0:0:0:
419,212,56339,1,0,0:0:0:0:
412,247,56417,1,8,0:0:0:0:
300,304,56573,6,2,B|208:288|144:316|144:316|188:280|172:232,1,230.39999296875
144,52,57042,1,8,0:0:0:0:
72,256,57198,1,0,0:0:0:0:
240,84,57355,1,8,0:0:0:0:
269,63,57433,1,0,0:0:0:0:
304,55,57511,1,0,0:0:0:0:
339,61,57589,1,0,0:0:0:0:
369,79,57667,1,8,0:0:0:0:
372,252,57823,6,2,B|316:272|272:272|216:248|216:248|236:304|288:296,1,230.39999296875
432,340,58292,1,8,0:0:0:0:
412,144,58448,2,2,P|356:88|228:136,1,230.39999296875
484,288,58917,1,8,0:0:0:0:
280,276,59073,2,2,P|224:220|272:92,1,230.39999296875
420,44,59542,1,8,0:0:0:0:
420,64,59620,1,0,0:0:0:0:
420,84,59698,1,0,0:0:0:0:
464,196,59855,1,8,0:0:0:0:
228,276,60167,6,0,P|270:335|250:262,1,172.799994726563
264,192,60480,2,0,P|248:144|264:88,1,96
396,48,60792,1,8,0:0:0:0:
168,48,60948,1,0,0:0:0:0:
372,208,61105,1,0,0:0:0:0:
188,208,61261,2,0,L|80:228,2,96,8|8|8,0:0|0:0|0:0,0:0:0:0:
380,144,61730,5,0,0:0:0:0:
244,308,61886,1,0,0:0:0:0:
436,304,62042,2,0,L|308:308,1,96,8|0,0:0|0:0,0:0:0:0:
168,256,62355,1,8,0:0:0:0:
126,238,62433,1,0,0:0:0:0:
125,192,62511,1,0,0:0:0:0:
166,174,62589,1,0,0:0:0:0:
196,208,62667,2,0,P|240:240|292:240,1,96,8|0,0:0|0:0,0:0:0:0:
432,92,62980,6,8,B|372:80|372:80|328:92,1,96
360,304,63292,2,0,B|324:324|324:324|248:328,1,96,8|0,0:0|0:0,0:0:0:0:
108,256,63605,1,0,0:0:0:0:
248,260,63761,1,0,0:0:0:0:
368,180,63917,1,8,0:0:0:0:
244,128,64073,1,0,0:0:0:0:
248,260,64230,6,0,L|372:280,1,96
480,356,64542,2,0,L|340:372,1,96,8|0,0:0|0:0,0:0:0:0:
208,336,64855,2,0,L|152:328,1,48,8|0,0:0|0:0,0:0:0:0:
80,268,65011,2,0,L|152:260,1,48
204,188,65167,2,0,L|96:168,1,96,8|0,0:0|0:0,0:0:0:0:
356,56,65480,6,0,L|352:160,1,96
302,229,65792,2,0,L|320:324,2,96,8|0|0,0:0|0:0|0:0,0:0:0:0:
280,56,66261,1,0,0:0:0:0:
84,216,66417,1,8,0:0:0:0:
84,216,66730,2,0,P|104:136|144:104,2,96,0|0|8,0:0|0:0|0:0,0:0:0:0:
136,336,67198,1,0,0:0:0:0:
136,336,67355,2,0,P|216:312|332:340,1,192,0|8,0:0|0:0,0:0:0:0:
408,200,67980,5,12,0:0:0:0:
128,72,68292,1,12,0:0:0:0:
356,220,68448,1,12,0:0:0:0:
356,220,68761,1,12,0:0:0:0:
116,328,68917,1,12,0:0:0:0:
276,328,69230,5,8,0:0:0:0:
120,144,69386,1,12,0:0:0:0:
276,328,69698,1,0,0:0:0:0:
160,92,69855,2,0,P|160:60|136:112,2,192,0|8|0,0:0|0:0|0:0,0:0:0:0:
300,60,72667,5,8,0:0:0:0:
327,99,72745,1,0,0:0:0:0:
300,138,72823,1,0,0:0:0:0:
327,176,72901,1,0,0:0:0:0:
304,216,72980,2,0,P|232:244|144:196,1,144
152,160,73292,5,8,0:0:0:0:
128,324,73448,1,8,0:0:0:0:
284,272,73605,2,8,B|360:248|360:248|320:232,1,96
228,136,73917,2,0,P|184:104|260:36,1,192,8|0,0:0|0:0,0:0:0:0:
400,244,74542,5,8,0:0:0:0:
368,56,74698,1,8,0:0:0:0:
308,240,74855,1,0,0:0:0:0:
272,36,75011,1,0,0:0:0:0:
212,248,75167,1,8,0:0:0:0:
164,68,75323,1,0,0:0:0:0:
168,72,75401,1,0,0:0:0:0:
168,72,75480,2,0,P|224:96|316:64,1,144
344,92,75792,5,8,0:0:0:0:
328,280,75948,1,8,0:0:0:0:
440,140,76105,2,0,B|424:128|412:96|412:80|412:80|416:144|392:184|420:240,1,192,0|8,0:0|0:0,0:0:0:0:
328,272,76730,6,0,P|252:292|184:268,1,144
296,336,77042,2,8,P|236:340|184:320,1,96
116,236,77355,2,0,B|148:188|124:136|84:96|148:28,1,192,0|8,0:0|0:0,0:0:0:0:
304,224,77823,1,0,0:0:0:0:
328,224,77901,1,0,0:0:0:0:
352,224,77980,1,0,0:0:0:0:
272,52,78136,5,0,0:0:0:0:
128,20,78292,1,0,0:0:0:0:
60,148,78448,1,0,0:0:0:0:
252,284,78605,1,8,0:0:0:0:
272,52,78761,1,8,0:0:0:0:
64,252,78917,1,8,0:0:0:0:
344,340,79073,1,0,0:0:0:0:
296,96,79386,5,0,0:0:0:0:
264,268,79542,1,8,0:0:0:0:
136,176,79698,1,0,0:0:0:0:
296,96,79855,2,0,L|284:168,1,48,8|0,0:0|0:0,0:0:0:0:
264,268,80011,2,0,L|192:220,1,48
136,176,80167,1,8,0:0:0:0:
340,188,80480,5,0,0:0:0:0:
176,104,80636,2,0,P|128:108|100:160,1,96,0|8,0:0|0:0,0:0:0:0:
176,280,80948,1,0,0:0:0:0:
340,188,81105,2,0,P|384:144|364:84,1,96
240,40,81417,1,8,0:0:0:0:
440,84,81573,1,0,0:0:0:0:
400,240,81730,6,0,P|344:296|288:264,1,144
136,272,82042,2,0,P|216:312|252:256,1,144,8|0,0:0|0:0,0:0:0:0:
248,124,82355,2,0,L|268:268,1,144
336,212,82667,1,8,0:0:0:0:
352,52,82823,1,0,0:0:0:0:
204,124,82980,6,0,P|132:136|92:116,1,96
232,48,83292,1,8,0:0:0:0:
68,196,83448,1,0,0:0:0:0:
264,264,83605,2,0,L|388:232,1,96
244,336,83917,2,0,L|148:304,1,96,8|0,0:0|0:0,0:0:0:0:
120,216,84230,5,0,0:0:0:0:
153,87,84386,1,0,0:0:0:0:
280,122,84542,1,8,0:0:0:0:
247,249,84698,1,0,0:0:0:0:
120,216,84855,2,0,P|68:228|132:264,1,144
172,328,85167,2,0,P|232:316|272:332,1,96,8|0,0:0|0:0,0:0:0:0:
416,328,85480,6,0,P|404:268|420:212,1,96
456,72,85792,1,8,0:0:0:0:
320,184,85948,2,0,P|248:168|208:184,1,96
96,232,86261,1,0,0:0:0:0:
116,56,86417,1,8,0:0:0:0:
196,212,86573,1,0,0:0:0:0:
116,344,86730,6,0,P|180:328|272:340,1,144
348,208,87042,2,0,P|360:276|344:312,1,96,0|8,0:0|0:0,0:0:0:0:
352,104,87355,1,0,0:0:0:0:
208,160,87511,1,8,0:0:0:0:
248,24,87667,1,0,0:0:0:0:
408,140,87823,1,0,0:0:0:0:
256,216,87980,6,0,L|144:200,1,96
128,96,88292,1,8,0:0:0:0:
88,284,88448,1,0,0:0:0:0:
264,320,88605,2,0,B|316:328|316:328|364:304,1,96
376,144,88917,1,8,0:0:0:0:
408,324,89073,6,2,P|464:320|400:260,1,192
276,308,89542,2,0,P|224:328|152:304,1,96,8|0,0:0|0:0,0:0:0:0:
216,184,89855,1,8,0:0:0:0:
188,153,89933,1,0,0:0:0:0:
200,114,90011,1,0,0:0:0:0:
241,106,90089,1,0,0:0:0:0:
268,137,90167,1,8,0:0:0:0:
256,176,90245,1,0,0:0:0:0:
234,213,90323,1,0,0:0:0:0:
230,255,90401,1,0,0:0:0:0:
248,300,90480,6,2,P|264:344|328:368,1,86.3999973632813
464,208,90792,2,2,B|420:244|384:220|352:192|276:232,1,172.799994726563,2|10,0:0|0:0,0:0:0:0:
297,222,91261,1,0,0:0:0:0:
200,100,91573,1,0,0:0:0:0:
368,68,91730,2,2,B|316:40|316:40|200:32,1,172.799994726563
76,65,92198,1,0,0:0:0:0:
76,87,92276,1,0,0:0:0:0:
76,108,92355,5,8,0:0:0:0:
104,256,92511,1,0,0:0:0:0:
104,256,92589,1,0,0:0:0:0:
104,256,92667,2,0,L|160:276,1,43.1999986816407
248,304,92823,2,0,L|248:240,1,43.1999986816407
248,160,92980,1,0,0:0:0:0:
248,138,93058,1,0,0:0:0:0:
248,116,93136,1,0,0:0:0:0:
352,64,93292,6,0,B|400:60|400:60|452:100,1,86.3999973632813
448,124,93527,1,0,0:0:0:0:
448,167,93605,1,8,0:0:0:0:
448,312,93761,2,0,P|372:304|340:316,1,86.3999973632813
292,260,93995,1,0,0:0:0:0:
292,260,94073,1,0,0:0:0:0:
160,320,94230,5,0,0:0:0:0:
72,168,94386,2,0,L|112:128,1,52.8000016113282
164,200,94542,2,0,L|200:240,1,52.8000016113282
248,160,94698,2,0,L|288:120,1,52.8000016113282
340,192,94855,2,0,L|384:240,1,52.8000016113282,8|0,0:0|0:0,0:0:0:0:
416,152,95011,2,0,L|456:112,1,52.8000016113282
348,92,95167,2,0,L|228:80,1,105.600003222656
88,168,95480,6,2,P|120:248|224:280,1,192
332,152,95948,2,0,P|294:66|260:52,1,96,0|8,0:0|0:0,0:0:0:0:
96,156,96261,1,0,0:0:0:0:
214,281,96417,2,0,P|280:260|312:216,1,96,8|0,0:0|0:0,0:0:0:0:
205,34,96730,2,0,P|120:72|92:164,1,192,0|8,0:0|0:0,0:0:0:0:
96,308,97198,1,0,0:0:0:0:
288,280,97355,2,0,P|232:276|184:296,1,96,8|0,0:0|0:0,0:0:0:0:
272,184,97667,2,0,L|376:168,1,96
408,100,97902,1,0,0:0:0:0:
408,100,97980,5,0,0:0:0:0:
264,60,98136,1,0,0:0:0:0:
216,55,98214,1,0,0:0:0:0:
172,52,98292,1,0,0:0:0:0:
132,72,98370,1,0,0:0:0:0:
104,104,98448,2,0,L|80:176,1,48,8|0,0:0|0:0,0:0:0:0:
176,180,98605,2,0,L|196:248,1,48
104,256,98761,2,0,L|80:328,1,48
176,332,98918,2,0,L|192:396,1,48,8|0,0:0|0:0,0:0:0:0:
288,292,99073,1,0,0:0:0:0:
288,292,99152,1,0,0:0:0:0:
288,292,99230,5,8,0:0:0:0:
400,68,99386,1,0,0:0:0:0:
164,68,99542,1,8,0:0:0:0:
424,224,99698,1,0,0:0:0:0:
148,224,99855,1,8,0:0:0:0:
284,8,100011,1,0,0:0:0:0:
264,156,100323,6,2,P|244:192|296:148,1,230.39999296875
192,32,100792,1,8,0:0:0:0:
88,264,100948,1,0,0:0:0:0:
52,32,101105,1,8,0:0:0:0:
224,268,101261,1,0,0:0:0:0:
300,36,101417,1,12,0:0:0:0:
472,272,101573,1,0,0:0:0:0:
440,36,101730,5,8,0:0:0:0:
336,268,101886,1,0,0:0:0:0:
300,36,102042,1,8,0:0:0:0:
80,136,102198,1,0,0:0:0:0:
244,284,102355,1,8,0:0:0:0:
180,36,102511,1,0,0:0:0:0:
100,284,102667,1,8,0:0:0:0:
324,224,102823,2,2,B|360:192|400:184|440:192|440:192|400:176|380:136|384:92,1,230.39999296875
112,60,103292,5,8,0:0:0:0:
400,80,103448,1,0,0:0:0:0:
132,212,103605,1,8,0:0:0:0:
352,32,103761,1,0,0:0:0:0:
264,300,103917,1,8,0:0:0:0:
180,32,104073,1,0,0:0:0:0:
396,220,104230,1,8,0:0:0:0:
132,212,104386,1,0,0:0:0:0:
352,32,104542,1,8,0:0:0:0:
264,300,104698,1,0,0:0:0:0:
272,72,104855,5,8,0:0:0:0:
168,280,105011,1,0,0:0:0:0:
332,104,105167,1,8,0:0:0:0:
168,280,105323,2,2,B|160:244|136:224|136:224|160:200|176:164|184:120|160:56,1,230.39999296875
52,216,105792,5,8,0:0:0:0:
324,232,105948,1,0,0:0:0:0:
196,36,106105,1,8,0:0:0:0:
184,312,106261,1,0,0:0:0:0:
196,36,106417,1,8,0:0:0:0:
184,312,106573,2,2,B|176:264|196:216|260:208|296:216|296:216|252:164|204:172,1,230.39999296875
104,88,107042,5,8,0:0:0:0:
324,56,107198,1,0,0:0:0:0:
324,56,107277,1,0,0:0:0:0:
324,56,107355,1,8,0:0:0:0:
424,232,107511,1,0,0:0:0:0:
220,244,107667,1,8,0:0:0:0:
232,44,107823,6,2,P|156:60|72:192,1,230.39999296875
72,268,108214,2,0,L|124:312,1,57.5999982421876,0|8,0:0|0:0,0:0:0:0:
240,56,108448,2,2,P|164:72|80:204,1,230.39999296875
168,252,108839,1,8,0:0:0:0:
168,252,108917,1,8,0:0:0:0:
340,56,109073,2,8,L|396:180,1,115.199996484375
172,160,109386,2,0,L|220:52,1,115.199996484375,0|8,0:0|0:0,0:0:0:0:
260,48,109620,1,8,0:0:0:0:
316,42,109698,1,8,0:0:0:0:
370,61,109776,1,0,0:0:0:0:
410,102,109854,5,8,0:0:0:0:
260,288,110011,1,8,0:0:0:0:
168,72,110167,1,8,0:0:0:0:
376,176,110323,2,2,B|408:188|420:232|412:280|360:288|360:288|336:268|280:252|244:252,1,230.39999296875
88,248,110792,5,8,0:0:0:0:
256,52,110948,1,0,0:0:0:0:
328,288,111105,1,8,0:0:0:0:
83,153,111261,1,0,0:0:0:0:
328,71,111417,1,8,0:0:0:0:
268,311,111574,1,0,0:0:0:0:
148,51,111730,5,8,0:0:0:0:
388,146,111886,1,0,0:0:0:0:
188,291,112043,1,8,0:0:0:0:
292,52,112198,1,0,0:0:0:0:
99,242,112355,5,8,0:0:0:0:
374,92,112510,1,0,0:0:0:0:
81,141,112667,1,8,0:0:0:0:
368,200,112823,2,2,B|376:260|376:260|356:220|320:188|280:176|240:192|220:192,1,230.39999296875
88,296,113292,5,8,0:0:0:0:
376,320,113448,1,0,0:0:0:0:
104,132,113605,1,8,0:0:0:0:
392,244,113761,1,0,0:0:0:0:
200,8,113917,1,8,0:0:0:0:
320,268,114073,1,0,0:0:0:0:
424,8,114230,5,8,0:0:0:0:
248,240,114386,1,0,0:0:0:0:
508,168,114542,1,8,0:0:0:0:
208,176,114698,1,0,0:0:0:0:
472,332,114855,1,8,0:0:0:0:
176,240,115011,1,0,0:0:0:0:
472,332,115167,1,8,0:0:0:0:
184,304,115323,2,2,P|152:299|211:344,1,230.39999296875,0|0,0:0|0:0,0:0:0:0:
376,348,115792,6,0,L|324:228,1,115.199996484375,8|0,0:0|0:0,0:0:0:0:
388,136,116105,1,8,0:0:0:0:
421,93,116183,1,0,0:0:0:0:
392,48,116261,1,0,0:0:0:0:
340,61,116339,1,0,0:0:0:0:
335,114,116417,1,8,0:0:0:0:
368,292,116573,2,2,B|308:252|256:288|192:332|120:268,1,230.39999296875
56,88,117042,5,8,0:0:0:0:
64,296,117198,1,0,0:0:0:0:
156,112,117355,1,0,0:0:0:0:
191,87,117433,1,0,0:0:0:0:
232,75,117511,1,0,0:0:0:0:
275,76,117589,1,0,0:0:0:0:
316,90,117667,1,8,0:0:0:0:
392,300,117823,6,2,B|416:264|448:268|472:252|472:252|424:204|372:204|320:220,1,230.39999296875,0|0,0:0|0:0,0:0:0:0:
136,272,118292,1,8,0:0:0:0:
256,88,118448,2,2,B|297:76|303:44|326:26|326:26|357:87|341:136|309:181,1,230.39999296875
312,244,118839,1,0,0:0:0:0:
312,244,118917,1,8,0:0:0:0:
104,152,119073,2,2,P|48:128|140:112,1,230.39999296875
200,228,119542,2,0,L|280:256,1,57.5999982421876,8|0,0:0|0:0,0:0:0:0:
284,148,119698,2,0,L|216:128,1,57.5999982421876
184,288,119855,2,0,L|296:328,1,115.199996484375,8|0,0:0|0:0,0:0:0:0:
252,68,120480,5,4,0:0:0:0:
364,280,120792,1,0,0:0:0:0:
124,280,121105,1,4,0:0:0:0:
336,72,121417,5,0,0:0:0:0:
272,336,121730,1,0,0:0:0:0:
80,144,122042,1,0,0:0:0:0:
312,44,122355,5,4,0:0:0:0:
120,244,122667,1,0,0:0:0:0:
400,328,122980,1,4,0:0:0:0:
371,43,123292,5,0,0:0:0:0:
256,152,123448,1,0,0:0:0:0:
112,104,123605,1,4,0:0:0:0:
372,44,123917,1,0,0:0:0:0:
216,352,124230,5,12,0:0:0:0:
130,214,124386,1,0,0:0:0:0:
276,100,124542,1,0,0:0:0:0:
416,208,124698,1,0,0:0:0:0:
332,356,124855,1,0,0:0:0:0:
280,228,125011,1,8,0:0:0:0:
280,228,125167,1,12,0:0:0:0:
332,80,125323,2,0,P|324:112|332:140,2,48
146,90,125792,5,4,0:0:0:0:
154,301,126105,1,0,0:0:0:0:
365,293,126417,1,0,0:0:0:0:
357,82,126730,1,0,0:0:0:0:
360,188,126886,1,8,0:0:0:0:
248,184,127042,1,0,0:0:0:0:
248,80,127198,1,0,0:0:0:0:
357,82,127355,6,0,P|420:104|448:160,1,96,0|8,0:0|0:0,0:0:0:0:
344,272,127667,2,8,L|268:288,1,48
196,224,127823,1,8,0:0:0:0:
164,88,127980,5,0,0:0:0:0:
164,88,128058,1,0,0:0:0:0:
164,88,128136,1,0,0:0:0:0:
48,184,128292,1,0,0:0:0:0:
280,176,128448,2,0,L|364:168,2,48
160,292,128761,1,0,0:0:0:0:
340,336,128917,2,0,P|380:312|400:288,2,48
208,252,129230,6,0,P|188:200|192:144,1,96
240,96,129464,1,0,0:0:0:0:
240,96,129542,1,0,0:0:0:0:
476,72,129698,1,0,0:0:0:0:
272,296,129855,1,8,0:0:0:0:
164,80,130480,6,2,P|120:116|220:112,1,259.199992089844
248,40,131105,2,2,B|300:72|336:40|364:8|444:60,1,172.799994726563,10|10,0:0|0:0,0:0:0:0:
416,240,131730,1,0,0:0:0:0:
416,240,131886,2,2,B|372:252|336:240|304:208|292:152|292:152|280:208|256:240|256:240|240:248,1,259.199992089844,2|10,0:0|0:0,0:0:0:0:
164,332,132667,1,0,0:0:0:0:
132,196,132980,6,2,B|124:152|96:112|96:112|128:148|176:168|236:160|269:134|268:124,1,259.199992089844
368,112,133605,2,2,P|416:96|388:176,1,172.799994726563,10|2,0:0|0:0,0:0:0:0:
268,280,134230,5,0,0:0:0:0:
246,280,134308,1,0,0:0:0:0:
224,280,134386,1,0,0:0:0:0:
144,176,134542,5,0,0:0:0:0:
122,176,134620,1,0,0:0:0:0:
100,176,134698,1,0,0:0:0:0:
220,60,134855,5,8,0:0:0:0:
242,60,134933,1,0,0:0:0:0:
264,60,135011,1,0,0:0:0:0:
348,180,135167,5,0,0:0:0:0:
370,180,135245,1,0,0:0:0:0:
392,180,135323,1,0,0:0:0:0:
232,308,135480,6,2,P|148:320|64:176,1,259.199992089844
128,72,136105,2,0,L|248:44,1,86.3999973632813,8|0,0:0|0:0,0:0:0:0:
364,112,136417,2,2,P|432:108|352:96,1,259.199992089844
192,280,137355,5,8,0:0:0:0:
152,52,137667,1,0,0:0:0:0:
284,268,137980,2,2,B|112:192|112:192|160:196|196:164,1,259.199992089844
272,92,138605,2,2,P|312:64|368:56,1,86.3999973632813,10|2,0:0|0:0,0:0:0:0:
444,196,138917,1,0,0:0:0:0:
284,212,139230,5,8,0:0:0:0:
278,293,139334,1,0,0:0:0:0:
212,343,139438,1,0,0:0:0:0:
133,327,139542,1,0,0:0:0:0:
92,255,139646,1,0,0:0:0:0:
120,179,139750,1,0,0:0:0:0:
96,104,139854,1,0,0:0:0:0:
328,132,140480,5,0,0:0:0:0:
328,132,140558,1,0,0:0:0:0:
328,132,140636,1,0,0:0:0:0:
348,300,140792,2,0,P|280:296|228:312,1,96
76,240,141105,1,8,0:0:0:0:
224,164,141261,1,0,0:0:0:0:
84,80,141417,1,0,0:0:0:0:
84,80,141495,1,0,0:0:0:0:
84,80,141573,1,0,0:0:0:0:
228,80,141730,6,0,L|328:72,1,96,4|0,0:0|0:0,0:0:0:0:
464,180,142042,2,0,L|344:200,1,96
192,220,142355,1,8,0:0:0:0:
192,220,142433,1,0,0:0:0:0:
192,220,142511,1,0,0:0:0:0:
352,304,142667,1,0,0:0:0:0:
352,304,142745,1,0,0:0:0:0:
352,304,142823,1,0,0:0:0:0:
216,328,142980,5,0,0:0:0:0:
216,328,143058,1,0,0:0:0:0:
216,328,143136,2,0,L|92:324,1,96
44,208,143448,1,0,0:0:0:0:
152,44,143605,2,0,L|192:148,1,96,8|0,0:0|0:0,0:0:0:0:
232,256,143917,1,0,0:0:0:0:
232,256,143995,1,0,0:0:0:0:
232,256,144073,1,0,0:0:0:0:
428,320,144230,5,0,0:0:0:0:
324,120,144386,1,0,0:0:0:0:
244,312,144542,1,0,0:0:0:0:
152,192,144698,1,0,0:0:0:0:
76,316,144855,1,8,0:0:0:0:
76,316,144933,1,0,0:0:0:0:
76,316,145011,1,0,0:0:0:0:
36,212,145167,1,0,0:0:0:0:
36,212,145245,1,0,0:0:0:0:
36,212,145323,1,0,0:0:0:0:
80,100,145480,5,0,0:0:0:0:
80,100,145558,1,0,0:0:0:0:
80,100,145636,2,0,P|136:76|200:72,1,96
352,148,145948,2,0,P|324:92|332:44,1,96,0|8,0:0|0:0,0:0:0:0:
344,332,146261,2,0,P|364:276|356:232,1,96
359,240,146495,1,0,0:0:0:0:
359,240,146573,1,0,0:0:0:0:
200,248,146730,5,0,0:0:0:0:
344,104,146886,1,0,0:0:0:0:
192,128,147042,1,0,0:0:0:0:
144,296,147198,1,0,0:0:0:0:
312,244,147355,2,0,L|372:212,2,48,8|0|0,0:0|0:0|0:0,0:0:0:0:
140,200,147667,2,0,L|88:228,2,48,8|0|0,0:0|0:0|0:0,0:0:0:0:
168,56,147980,6,0,P|240:68|264:56,1,96
300,32,148214,1,0,0:0:0:0:
346,21,148292,1,0,0:0:0:0:
391,35,148370,1,0,0:0:0:0:
423,70,148448,1,0,0:0:0:0:
472,232,148605,6,0,L|440:276,1,48
380,356,148761,2,0,L|348:288,1,48
272,184,148995,1,0,0:0:0:0:
233,155,149073,1,0,0:0:0:0:
187,145,149151,1,0,0:0:0:0:
140,154,149229,1,8,0:0:0:0:
192,324,149386,2,0,L|240:344,2,48,0|0|8,0:0|0:0|0:0,0:0:0:0:
92,220,149698,5,0,0:0:0:0:
48,203,149776,1,0,0:0:0:0:
34,159,149855,1,8,0:0:0:0:
60,121,149932,1,0,0:0:0:0:
106,117,150010,1,0,0:0:0:0:
140,154,150089,1,0,0:0:0:0:
173,187,150167,5,0,0:0:0:0:
217,207,150245,1,8,0:0:0:0:
264,211,150323,1,8,0:0:0:0:
310,198,150401,1,8,0:0:0:0:
349,170,150480,5,4,0:0:0:0:
88,336,150792,1,4,0:0:0:0:
212,24,151105,1,4,0:0:0:0:
452,320,151417,1,4,0:0:0:0:
76,144,151730,1,4,0:0:0:0:
340,60,152042,5,4,0:0:0:0:
420,156,152198,1,8,0:0:0:0:
200,172,152355,5,4,0:0:0:0:
148,84,152511,1,8,0:0:0:0:
48,252,152667,1,12,0:0:0:0:
296,340,152980,5,4,0:0:0:0:
264,20,153292,1,4,0:0:0:0:
88,328,153605,1,0,0:0:0:0:
484,160,153917,1,4,0:0:0:0:
380,144,154073,1,8,0:0:0:0:
228,272,154230,5,4,0:0:0:0:
320,284,154386,1,8,0:0:0:0:
160,96,154542,6,4,P|120:52|136:128,1,192,12|4,0:0|0:0,0:0:0:0:
276,172,155011,1,0,0:0:0:0:
388,80,155167,1,12,0:0:0:0:
416,228,155323,2,0,L|404:160,2,48
232,328,155792,5,4,0:0:0:0:
164,32,156105,1,4,0:0:0:0:
24,284,156417,1,4,0:0:0:0:
384,244,156730,1,4,0:0:0:0:
216,32,157042,1,4,0:0:0:0:
212,172,157198,1,8,0:0:0:0:
336,340,157355,5,4,0:0:0:0:
336,208,157511,1,8,0:0:0:0:
412,64,157667,1,12,0:0:0:0:
132,44,157980,5,4,0:0:0:0:
128,332,158292,1,4,0:0:0:0:
416,332,158605,1,4,0:0:0:0:
408,32,158917,1,4,0:0:0:0:
296,160,159073,1,8,0:0:0:0:
108,36,159230,5,4,0:0:0:0:
208,164,159386,1,8,0:0:0:0:
320,40,159542,6,0,P|264:44|216:72,1,96,8|0,0:0|0:0,0:0:0:0:
248,220,159855,2,0,P|291:239|339:241,1,96
420,124,160167,1,8,0:0:0:0:
204,128,160323,1,8,0:0:0:0:
324,300,160480,5,0,0:0:0:0:
144,292,160636,1,0,0:0:0:0:
80,112,160792,1,0,0:0:0:0:
111,76,160870,1,0,0:0:0:0:
155,57,160948,1,0,0:0:0:0:
202,57,161026,1,0,0:0:0:0:
248,76,161105,2,0,P|304:92|360:64,1,96,8|0,0:0|0:0,0:0:0:0:
432,184,161417,2,0,P|412:240|448:300,1,96
280,304,161730,5,0,0:0:0:0:
140,176,161886,1,0,0:0:0:0:
56,316,162042,1,0,0:0:0:0:
94,343,162120,1,0,0:0:0:0:
140,358,162198,1,0,0:0:0:0:
188,359,162276,1,0,0:0:0:0:
232,348,162355,2,0,P|272:320|356:316,1,96,8|0,0:0|0:0,0:0:0:0:
256,128,162667,2,0,P|260:200|296:252,1,96
424,328,162980,5,0,0:0:0:0:
408,88,163136,1,0,0:0:0:0:
280,208,163292,2,0,P|216:216|188:208,1,48
96,212,163448,2,0,P|152:256|160:264,1,48
192,320,163605,2,0,P|264:312|316:316,1,96,8|0,0:0|0:0,0:0:0:0:
400,136,163917,2,0,P|408:208|420:248,1,96
288,52,164230,5,0,0:0:0:0:
112,116,164386,1,0,0:0:0:0:
120,268,164542,2,0,P|160:264|196:272,1,48
232,180,164698,2,0,P|196:176|172:180,1,48
112,92,164855,2,0,P|176:80|248:88,1,96,8|0,0:0|0:0,0:0:0:0:
376,92,165167,1,8,0:0:0:0:
264,320,165323,1,8,0:0:0:0:
468,148,165480,5,0,0:0:0:0:
436,328,165636,2,0,L|320:324,1,96
308,252,165870,1,0,0:0:0:0:
260,248,165948,1,0,0:0:0:0:
212,244,166026,1,0,0:0:0:0:
164,240,166104,1,8,0:0:0:0:
80,104,166261,2,0,L|56:208,1,96
64,328,166573,2,0,P|140:328|192:344,1,96,0|8,0:0|0:0,0:0:0:0:
324,336,166886,5,0,0:0:0:0:
276,196,167042,2,0,L|264:144,1,48
360,136,167198,2,0,L|372:76,1,48
256,52,167355,2,0,B|216:36|216:36|168:56|124:44,1,96,8|0,0:0|0:0,0:0:0:0:
56,136,167667,1,0,0:0:0:0:
172,256,167823,1,0,0:0:0:0:
172,256,167902,1,0,0:0:0:0:
172,256,167980,1,8,0:0:0:0:
364,316,168136,5,0,0:0:0:0:
383,272,168214,1,0,0:0:0:0:
380,225,168292,1,0,0:0:0:0:
420,200,168370,1,0,0:0:0:0:
422,153,168448,1,8,0:0:0:0:
336,64,168605,6,0,L|304:112,1,48
248,200,168761,2,0,L|208:136,1,48
164,64,168917,2,0,L|120:128,1,48
72,200,169073,1,0,0:0:0:0:
332,252,169386,6,0,P|380:224|392:212,1,48
316,112,169542,2,0,P|288:128|264:144,1,48
404,188,169698,2,0,P|404:152|392:124,1,48
248,168,169855,2,0,P|248:200|264:236,1,48
416,256,170011,2,0,P|420:288|412:324,1,48
256,308,170167,2,0,P|256:340|264:368,1,48
420,364,170323,1,8,0:0:0:0:
256,184,172667,5,8,0:0:0:0:
256,184,172823,1,0,0:0:0:0:
232,336,174073,5,0,0:0:0:0:
277,322,174151,1,0,0:0:0:0:
325,321,174229,1,8,0:0:0:0:
371,333,174307,1,0,0:0:0:0:
416,320,174386,1,0,0:0:0:0:
426,273,174464,1,0,0:0:0:0:
412,227,174542,1,0,0:0:0:0:
404,181,174620,1,0,0:0:0:0:
422,136,174698,1,0,0:0:0:0:
336,24,174855,5,8,0:0:0:0:
160,200,175011,1,8,0:0:0:0:
416,52,175167,1,8,0:0:0:0:
160,96,175323,2,2,B|108:92|72:76|52:40|52:40|56:84|44:120|16:156,1,230.39999296875
96,300,175792,5,8,0:0:0:0:
340,116,175948,1,0,0:0:0:0:
360,344,176105,1,8,0:0:0:0:
164,120,176261,1,0,0:0:0:0:
56,356,176417,1,8,0:0:0:0:
344,224,176573,2,2,P|396:184|344:48,1,230.39999296875
180,36,177042,5,8,0:0:0:0:
88,224,177198,1,0,0:0:0:0:
88,224,177277,1,0,0:0:0:0:
88,224,177355,1,8,0:0:0:0:
364,240,177511,1,0,0:0:0:0:
256,32,177667,1,8,0:0:0:0:
140,172,177823,6,2,B|136:256|116:288|116:288|176:288|240:348,1,230.39999296875
384,152,178292,1,8,0:0:0:0:
198,7,178448,2,2,B|134:62|97:70|97:70|139:113|140:201,1,230.39999296875
144,332,178917,2,0,P|232:320|280:336,1,115.199996484375,8|0,0:0|0:0,0:0:0:0:
416,248,179230,5,8,0:0:0:0:
435,299,179308,1,0,0:0:0:0:
401,342,179386,1,0,0:0:0:0:
346,335,179464,1,0,0:0:0:0:
320,288,179542,1,8,0:0:0:0:
356,236,179620,1,0,0:0:0:0:
397,196,179698,1,0,0:0:0:0:
413,142,179776,1,0,0:0:0:0:
100,44,180323,6,2,B|140:104|104:168|64:216|148:292,1,230.39999296875
308,340,180792,1,8,0:0:0:0:
188,128,180948,1,0,0:0:0:0:
436,184,181105,1,8,0:0:0:0:
256,340,181261,5,0,0:0:0:0:
392,132,181417,1,8,0:0:0:0:
136,104,181573,1,0,0:0:0:0:
116,332,181730,5,8,0:0:0:0:
240,64,181886,1,0,0:0:0:0:
300,348,182042,1,8,0:0:0:0:
424,68,182198,1,0,0:0:0:0:
168,216,182355,5,8,0:0:0:0:
432,220,182511,1,0,0:0:0:0:
180,64,182667,1,8,0:0:0:0:
424,68,182823,2,2,B|400:184|400:184|376:116|340:72,1,230.39999296875
112,40,183292,5,8,0:0:0:0:
264,280,183448,1,0,0:0:0:0:
416,32,183605,1,8,0:0:0:0:
232,292,183761,5,0,0:0:0:0:
48,36,183917,1,8,0:0:0:0:
292,292,184073,5,0,0:0:0:0:
172,36,184230,1,8,0:0:0:0:
356,312,184386,1,0,0:0:0:0:
336,36,184542,5,8,0:0:0:0:
232,316,184698,1,0,0:0:0:0:
388,120,184855,5,8,0:0:0:0:
488,332,185011,1,8,0:0:0:0:
320,120,185167,1,8,0:0:0:0:
96,232,185323,2,2,B|48:264|48:320|80:346|80:346|132:324|184:344,1,230.39999296875
380,280,185792,5,8,0:0:0:0:
372,40,185948,1,0,0:0:0:0:
168,164,186105,1,8,0:0:0:0:
380,280,186261,1,0,0:0:0:0:
380,280,186339,1,0,0:0:0:0:
380,280,186417,1,8,0:0:0:0:
120,316,186573,2,2,P|64:200|104:96,1,230.39999296875
260,24,187042,5,8,0:0:0:0:
160,200,187198,1,0,0:0:0:0:
340,296,187355,1,8,0:0:0:0:
448,112,187511,1,0,0:0:0:0:
448,112,187589,1,0,0:0:0:0:
448,112,187667,1,8,0:0:0:0:
432,296,187823,6,2,P|344:328|208:300,1,230.39999296875
40,176,188292,1,8,0:0:0:0:
220,64,188448,2,2,P|324:40|456:80,1,230.39999296875
420,320,188917,1,8,0:0:0:0:
180,112,189073,2,2,P|144:72|164:152,1,230.39999296875
308,96,189542,5,8,0:0:0:0:
353,61,189620,1,0,0:0:0:0:
409,62,189698,1,0,0:0:0:0:
454,97,189776,1,0,0:0:0:0:
460,156,189855,1,0,0:0:0:0:
436,207,189933,1,0,0:0:0:0:
445,263,190011,2,0,P|376:256|296:272,1,115.199996484375
88,308,190323,6,2,B|164:292|224:304|224:304|184:260|108:252,1,230.39999296875
40,132,190792,1,8,0:0:0:0:
328,48,190948,1,0,0:0:0:0:
72,192,191105,1,8,0:0:0:0:
360,276,191261,1,0,0:0:0:0:
56,256,191417,5,8,0:0:0:0:
344,172,191573,1,0,0:0:0:0:
48,320,191730,1,8,0:0:0:0:
352,372,191886,1,0,0:0:0:0:
424,136,192042,5,8,0:0:0:0:
152,48,192198,1,0,0:0:0:0:
104,272,192355,1,8,0:0:0:0:
316,40,192511,1,0,0:0:0:0:
328,272,192667,1,8,0:0:0:0:
108,56,192823,2,2,B|90:175|90:175|136:115|202:112,1,230.39999296875
371,53,193292,5,8,0:0:0:0:
186,348,193448,1,0,0:0:0:0:
438,133,193605,1,8,0:0:0:0:
119,269,193761,1,0,0:0:0:0:
448,237,193917,1,8,0:0:0:0:
109,165,194073,1,0,0:0:0:0:
397,328,194230,1,8,0:0:0:0:
160,74,194386,1,0,0:0:0:0:
303,373,194542,1,8,0:0:0:0:
254,29,194698,1,0,0:0:0:0:
200,356,194855,5,8,0:0:0:0:
357,46,195011,1,8,0:0:0:0:
200,276,195167,1,8,0:0:0:0:
424,96,195323,2,2,B|444:176|444:176|416:256|416:256|392:264|364:240|300:260,1,230.39999296875
280,24,195792,5,8,0:0:0:0:
216,336,195948,1,0,0:0:0:0:
156,32,196105,1,8,0:0:0:0:
92,336,196261,5,0,0:0:0:0:
224,40,196417,1,8,0:0:0:0:
332,328,196573,1,0,0:0:0:0:
480,36,196730,5,8,0:0:0:0:
400,328,196886,1,0,0:0:0:0:
300,40,197042,1,8,0:0:0:0:
80,196,197198,1,0,0:0:0:0:
396,136,197355,5,8,0:0:0:0:
112,48,197511,1,0,0:0:0:0:
136,316,197667,1,8,0:0:0:0:
408,308,197823,2,2,P|340:244|184:216,1,230.39999296875
48,344,198292,5,8,0:0:0:0:
176,80,198448,1,0,0:0:0:0:
436,200,198605,1,8,0:0:0:0:
144,340,198761,5,0,0:0:0:0:
300,56,198917,1,8,0:0:0:0:
468,344,199073,1,0,0:0:0:0:
248,64,199230,5,8,0:0:0:0:
72,336,199386,1,0,0:0:0:0:
272,32,199542,1,8,0:0:0:0:
488,300,199698,1,0,0:0:0:0:
220,52,199855,1,0,0:0:0:0:
165,68,199933,1,0,0:0:0:0:
122,106,200011,1,0,0:0:0:0:
97,157,200089,1,0,0:0:0:0:
95,214,200167,1,0,0:0:0:0:
224,308,200323,6,0,P|336:296|376:232,1,192
468,120,200792,2,0,L|360:88,1,96
224,212,201105,2,0,L|320:192,1,96,8|0,0:0|0:0,0:0:0:0:
280,40,201417,1,0,0:0:0:0:
280,40,201573,2,0,B|160:56|160:56|96:112,1,192
224,216,202042,2,0,L|416:248,1,192,0|8,0:0|0:0,0:0:0:0:
416,124,202511,5,0,0:0:0:0:
296,40,202667,1,0,0:0:0:0:
176,108,202823,2,0,P|140:132|176:88,1,192
196,232,203292,2,0,P|192:300|156:332,1,96
56,252,203605,1,8,0:0:0:0:
104,136,203761,2,0,P|140:88|276:84,1,192
424,168,204230,6,0,L|328:200,1,96
332,198,204464,1,0,0:0:0:0:
332,198,204542,1,0,0:0:0:0:
180,328,204698,1,0,0:0:0:0:
180,328,204855,1,8,0:0:0:0:
84,152,205011,1,0,0:0:0:0:
284,148,205167,1,0,0:0:0:0:
104,84,205323,6,0,B|184:100|212:80|264:48|324:104,1,192
436,184,205792,2,0,P|496:156|412:128,1,192,0|8,0:0|0:0,0:0:0:0:
316,236,206261,2,0,P|256:276|132:248,1,192
56,132,206886,5,0,0:0:0:0:
192,40,207042,1,0,0:0:0:0:
204,192,207198,1,0,0:0:0:0:
204,192,207277,1,0,0:0:0:0:
204,192,207355,1,8,0:0:0:0:
344,156,207511,1,0,0:0:0:0:
344,156,207589,1,0,0:0:0:0:
344,156,207667,1,0,0:0:0:0:
456,224,207823,6,0,B|448:272|408:292|360:272|360:272|360:308|304:340,1,192
256,112,208292,1,8,0:0:0:0:
56,224,208448,2,0,B|64:272|104:292|152:272|152:272|152:308|208:340,1,192
256,60,208917,1,8,0:0:0:0:
256,328,209073,2,0,B|288:264|256:224|224:192|260:136,1,192
413,92,209543,5,0,0:0:0:0:
415,93,209621,1,0,0:0:0:0:
416,95,209699,1,0,0:0:0:0:
415,97,209777,1,0,0:0:0:0:
413,98,209855,1,8,0:0:0:0:
328,308,210480,6,0,P|264:284|160:336,1,192,0|8,0:0|0:0,0:0:0:0:
72,172,210948,1,0,0:0:0:0:
204,56,211105,1,0,0:0:0:0:
205,227,211261,1,0,0:0:0:0:
312,108,211417,2,0,P|376:100|416:132,1,96,8|0,0:0|0:0,0:0:0:0:
392,272,211730,6,0,L|288:296,1,96
120,284,212042,2,0,P|124:232|100:176,1,96,8|0,0:0|0:0,0:0:0:0:
96,72,212355,1,0,0:0:0:0:
139,51,212433,1,0,0:0:0:0:
186,44,212511,1,0,0:0:0:0:
233,52,212589,1,0,0:0:0:0:
280,72,212667,2,0,P|236:120|232:164,1,96,8|0,0:0|0:0,0:0:0:0:
220,332,212980,5,0,0:0:0:0:
344,196,213136,1,0,0:0:0:0:
144,264,213292,2,0,P|120:212|128:160,1,96,8|0,0:0|0:0,0:0:0:0:
236,36,213605,2,0,P|252:92|240:144,1,96
216,288,213917,1,8,0:0:0:0:
152,136,214073,1,0,0:0:0:0:
64,284,214230,6,0,L|168:300,1,96
308,276,214542,2,0,P|364:236|400:224,1,96,8|0,0:0|0:0,0:0:0:0:
408,68,214855,1,0,0:0:0:0:
360,70,214933,1,0,0:0:0:0:
312,73,215011,1,8,0:0:0:0:
264,76,215089,1,0,0:0:0:0:
220,80,215167,2,0,P|196:116|124:144,1,96,0|8,0:0|0:0,0:0:0:0:
96,288,215480,5,0,0:0:0:0:
96,288,215636,2,0,L|224:308,1,96,0|8,0:0|0:0,0:0:0:0:
368,228,215948,1,0,0:0:0:0:
136,180,216105,2,0,P|112:136|124:80,1,96
304,32,216417,1,8,0:0:0:0:
272,188,216573,1,0,0:0:0:0:
352,320,216730,6,0,B|304:344|304:344|248:336,1,96
72,244,217042,2,0,P|120:288|160:304,1,96,8|0,0:0|0:0,0:0:0:0:
284,240,217355,1,0,0:0:0:0:
288,192,217433,1,0,0:0:0:0:
293,144,217511,1,0,0:0:0:0:
298,96,217589,1,0,0:0:0:0:
303,49,217667,1,8,0:0:0:0:
108,84,217980,5,0,0:0:0:0:
108,84,218292,1,8,0:0:0:0:
216,312,218448,1,0,0:0:0:0:
244,288,218761,5,0,0:0:0:0:
172,44,218917,1,8,0:0:0:0:
112,156,219230,5,8,0:0:0:0:
384,124,219386,1,0,0:0:0:0:
384,124,219698,1,0,0:0:0:0:
184,276,219855,2,0,L|316:248,1,96,8|0,0:0|0:0,0:0:0:0:
252,48,220167,2,0,L|264:144,1,96,8|0,0:0|0:0,0:0:0:0:
256,192,220480,12,0,225792,0:0:0:0:
