osu file format v14

[General]
AudioFilename: predator.mp3
AudioLeadIn: 0
PreviewTime: 88939
Countdown: 0
SampleSet: Normal
StackLeniency: 0.7
Mode: 1
LetterboxInBreaks: 0
WidescreenStoryboard: 1

[Editor]
Bookmarks: 86614,163264,188764,222214
DistanceSpacing: 1
BeatDivisor: 4
GridSize: 8
TimelineZoom: 4.299998

[Metadata]
Title:Tales of The Destinies
TitleUnicode:Tales of The Destinies
Artist:BABYMETAL
ArtistUnicode:BABYMETAL
Creator:Monstrata
Version:Chromoxx' Nightmare Oni
Source:
Tags:chromoxx ktsune suzuka nakamoto yui mizuno moa kikuchi su-metal yuimetal moametal metal resistance
BeatmapID:1207233
BeatmapSetID:534115

[Difficulty]
HPDrainRate:4
CircleSize:2
OverallDifficulty:7
ApproachRate:9.5
SliderMultiplier:1.4
SliderTickRate:3

[Events]
//Background and Video events
0,0,"desolace.jpg",0,0
//Break Periods
//Storyboard Layer 0 (Background)
//Storyboard Layer 1 (Fail)
//Storyboard Layer 2 (Pass)
//Storyboard Layer 3 (Foreground)
//Storyboard Sound Samples

[TimingPoints]
10395,300,4,1,0,30,1,0
11595,-100,4,1,0,40,0,0
12795,-100,4,1,0,50,0,0
13995,300,6,1,0,90,1,0
15645,300,6,1,0,90,1,0
19245,300,5,1,0,90,1,0
21345,300,6,1,0,90,1,0
22995,300,6,1,0,90,1,0
26595,300,5,1,0,90,1,0
28395,-99.009900990099,5,1,0,90,0,0
28470,-98.0392156862745,5,1,0,90,0,0
28545,-97.0873786407767,5,1,0,90,0,0
28620,-96.1538461538461,5,1,0,90,0,0
28695,400,4,1,0,90,1,0
28695,-71.4285714285714,4,1,0,90,0,0
29495,400,4,1,0,90,1,0
29495,-66.6666666666667,4,1,0,90,0,0
42295,300,4,1,0,90,1,0
42295,-66.6666666666667,4,1,0,90,0,0
42445,-100,4,1,0,90,0,0
49495,300,5,1,0,90,1,0
51595,300,4,1,0,90,1,0
58795,300,5,1,0,90,1,0
61045,300,6,1,0,90,1,0
62245,461.538461538462,4,1,0,90,1,0
62245,-66.6666666666667,4,1,0,90,0,0
77014,300,4,1,0,90,1,0
80014,300,4,1,0,90,1,0
83014,300,4,1,0,90,1,0
83014,-76.9230769230769,4,1,0,90,0,0
85264,-100,4,1,0,90,0,0
89014,-100,4,1,0,90,0,1
108214,-100,4,1,0,90,0,0
123814,-66.6666666666667,4,1,0,90,0,0
126214,300,6,1,0,90,1,0
128014,300,7,1,0,90,1,0
132214,300,4,1,0,90,1,0
134614,300,5,1,0,90,1,0
140014,300,5,1,0,90,1,0
143014,300,4,1,0,90,1,0
145414,300,4,1,0,90,1,8
145597,300,4,1,0,90,1,8
145697,300,4,1,0,90,1,8
146597,300,4,1,0,90,1,8
147797,310.880829015544,6,1,0,90,1,8
148263,297.029702970297,6,1,0,90,1,8
148708,319.148936170213,6,1,0,90,1,8
149186,300,6,1,0,90,1,8
150214,300,4,1,0,90,1,0
155014,300,5,1,0,90,1,0
155164,-25,5,1,0,90,0,0
155314,-100,5,1,0,90,0,0
159514,375,5,1,0,90,1,0
159514,-66.6666666666667,5,1,0,90,0,0
161014,375,4,1,0,90,1,0
161014,-66.6666666666667,4,1,0,90,0,0
191014,300,4,1,0,90,1,0
191014,-83.3333333333333,4,1,0,90,0,0
191164,-100,4,1,0,90,0,0
209614,300,5,1,0,90,1,0
212614,300,4,1,0,90,1,0
223414,400,4,1,0,90,1,0
223414,-66.6666666666667,4,1,0,90,0,0
227414,461.538461538462,4,1,0,90,1,0
227414,-66.6666666666667,4,1,0,90,0,0
242183,300,4,1,0,90,1,0
245183,300,4,1,0,90,1,0
248183,300,4,1,0,90,1,0
248183,-76.9230769230769,4,1,0,90,0,0
250433,-100,4,1,0,90,0,0
254183,-100,4,1,0,90,0,1
273383,-100,4,1,0,90,0,0
280583,400,4,1,0,90,1,0
280583,-66.6666666666667,4,1,0,90,0,0
286983,461.538461538462,4,1,0,90,1,0
288829,425.531914893617,4,1,0,90,1,0
289680,431.654676258993,4,1,0,90,1,8
290543,436.363636363636,4,1,0,50,1,0
290543,-102.040816326531,4,1,0,50,0,0
291415,454.545454545455,4,1,0,50,1,8
291415,-98.0392156862745,4,1,0,50,0,0
292096,428.571428571429,4,1,0,50,1,8
292096,-104.166666666667,4,1,0,50,0,0
292310,428.571428571429,4,1,0,50,1,0
292310,-104.166666666667,4,1,0,50,0,0
292739,444.444444444444,4,1,0,50,1,8
294072,444.444444444444,4,1,0,50,1,0
299849,434.782608695652,4,1,0,50,1,8
299849,-102.040816326531,4,1,0,50,0,0
300718,465.116279069767,4,1,0,50,1,8
300718,-95.2380952380952,4,1,0,50,0,0
301183,444.444444444444,4,1,0,50,1,0
301627,458.015267175573,4,1,0,50,1,8
301627,-97.0873786407767,4,1,0,50,0,0
302085,446.096654275093,4,1,0,50,1,8
302977,446.096654275093,4,1,0,50,1,0
304761,509.463280434063,4,1,0,50,1,0
304761,-87.719298245614,4,1,0,50,0,0
305100,473.6829639922,4,1,0,50,1,8
305100,-93.4579439252336,4,1,0,50,0,0
305415,450.001125002813,4,1,0,50,1,8
305415,-99.009900990099,4,1,0,50,0,0
305715,472.027976154091,4,1,0,50,1,8
305715,-94.3396226415094,4,1,0,50,0,0
306029,456.081081081081,4,1,0,50,1,8
306029,-97.0873786407767,4,1,0,50,0,0
306573,444.444444444444,4,1,0,50,1,0
307017,451.977401129944,4,1,0,50,1,8
307017,-98.0392156862745,4,1,0,50,0,0
308372,450.281425891182,4,1,0,50,1,0
308372,-99.009900990099,4,1,0,50,0,0
310173,451.127819548872,4,1,0,50,1,0
310173,-98.0392156862745,4,1,0,50,0,0
311977,453.686200378072,4,1,0,50,1,0
311977,-98.0392156862745,4,1,0,50,0,0
313338,458.015267175573,4,1,0,50,1,8
313338,-97.0873786407767,4,1,0,50,0,0
313796,454.545454545455,4,1,0,50,1,0
313796,-98.0392156862745,4,1,0,50,0,0
314250,434.782608695652,4,1,0,50,1,8
314250,-102.040816326531,4,1,0,50,0,0
314684,451.127819548872,4,1,0,50,1,8
314684,-98.0392156862745,4,1,0,50,0,0
315586,455.407969639469,4,1,0,50,1,0
315586,-97.0873786407767,4,1,0,50,0,0
319229,454.545454545455,4,1,0,50,1,0
319229,-98.0392156862745,4,1,0,50,0,0
320592,468.75,4,1,0,50,1,8
320592,-95.2380952380952,4,1,0,50,0,0
321060,441.176470588235,4,1,0,50,1,0
321060,-101.010101010101,4,1,0,50,0,0
321501,454.545454545455,4,1,0,50,1,8
321501,-98.0392156862745,4,1,0,50,0,0
322864,454.545454545455,6,1,0,50,1,0
322864,-98.0392156862745,6,1,0,50,0,0
323808,431.654676258993,4,1,0,50,1,8
323808,-103.092783505155,4,1,0,50,0,0
324095,458.015267175573,4,1,0,50,1,8
324095,-97.0873786407767,4,1,0,50,0,0
324400,444.444444444444,4,1,0,50,1,8
324696,458.015267175573,4,1,0,50,1,0
324696,-97.0873786407767,4,1,0,50,0,0
326986,454.545454545455,4,1,0,50,1,8
326986,-98.0392156862745,4,1,0,50,0,0
327440,461.538461538462,4,1,0,50,1,8
327440,-96.1538461538461,4,1,0,50,0,0
328363,500,4,1,0,50,1,0
328363,-88.4955752212389,4,1,0,50,0,0
328863,465.116279069767,4,1,0,50,1,8
328863,-95.2380952380952,4,1,0,50,0,0
329328,500,4,1,0,50,1,8
329328,-88.4955752212389,4,1,0,50,0,0
329828,550.45871559633,4,1,0,50,1,8
329828,-80.6451612903226,4,1,0,50,0,0
330528,461.538461538462,4,1,0,50,1,0
330528,-96.1538461538461,4,1,0,50,0,0

[Colours]
Combo1 : 152,126,190
Combo2 : 120,173,180
Combo3 : 92,139,105
Combo4 : 199,139,158

[HitObjects]
256,192,10395,12,0,13695,0:0:0:0:
232,184,13995,5,12,0:0:0:0:
248,248,14145,1,0,0:0:0:0:
256,248,14220,1,0,0:0:0:0:
239,261,14295,1,8,0:0:0:0:
274,262,14370,1,0,0:0:0:0:
281,271,14445,1,8,0:0:0:0:
240,258,14595,1,0,0:0:0:0:
240,257,14670,1,0,0:0:0:0:
240,257,14745,1,8,0:0:0:0:
240,256,14895,1,0,0:0:0:0:
240,253,14970,1,0,0:0:0:0:
236,236,15045,1,8,0:0:0:0:
236,235,15120,1,0,0:0:0:0:
236,236,15195,1,8,0:0:0:0:
236,235,15345,1,8,0:0:0:0:
206,272,15420,1,8,0:0:0:0:
206,272,15495,1,0,0:0:0:0:
206,272,15645,1,8,0:0:0:0:
206,272,15795,1,0,0:0:0:0:
207,266,15870,1,0,0:0:0:0:
208,264,15945,1,8,0:0:0:0:
274,261,16020,1,0,0:0:0:0:
208,264,16095,1,8,0:0:0:0:
213,244,16245,1,0,0:0:0:0:
213,244,16320,1,0,0:0:0:0:
213,244,16395,1,8,0:0:0:0:
213,244,16545,1,0,0:0:0:0:
212,242,16620,1,0,0:0:0:0:
212,242,16695,1,8,0:0:0:0:
136,256,16845,1,8,0:0:0:0:
226,231,16995,1,0,0:0:0:0:
226,231,17070,1,0,0:0:0:0:
224,158,17145,1,0,0:0:0:0:
224,158,17220,1,0,0:0:0:0:
224,158,17295,1,8,0:0:0:0:
193,263,17445,1,4,0:0:0:0:
68,142,17595,1,8,0:0:0:0:
211,144,17670,1,0,0:0:0:0:
211,144,17745,1,0,0:0:0:0:
212,144,17820,1,0,0:0:0:0:
212,144,17895,1,8,0:0:0:0:
192,234,18045,1,0,0:0:0:0:
189,177,18195,1,8,0:0:0:0:
234,223,18345,1,0,0:0:0:0:
234,223,18420,1,0,0:0:0:0:
234,223,18495,1,8,0:0:0:0:
234,223,18645,1,8,0:0:0:0:
234,223,18795,1,0,0:0:0:0:
234,223,18870,1,0,0:0:0:0:
188,297,18945,1,8,0:0:0:0:
221,301,19020,1,0,0:0:0:0:
192,304,19095,1,0,0:0:0:0:
188,297,19245,1,12,0:0:0:0:
188,297,19545,1,12,0:0:0:0:
188,297,19695,1,12,0:0:0:0:
176,227,19995,1,12,0:0:0:0:
261,217,20295,5,12,0:0:0:0:
261,217,20445,1,12,0:0:0:0:
261,217,20745,1,8,0:0:0:0:
243,123,20820,1,8,0:0:0:0:
243,123,20895,1,0,0:0:0:0:
243,123,20970,1,8,0:0:0:0:
243,123,21045,1,8,0:0:0:0:
243,123,21120,1,0,0:0:0:0:
243,123,21195,1,0,0:0:0:0:
243,123,21270,1,8,0:0:0:0:
243,123,21345,1,0,0:0:0:0:
309,262,21495,1,0,0:0:0:0:
323,249,21645,1,0,0:0:0:0:
324,243,21795,1,12,0:0:0:0:
235,227,21945,1,0,0:0:0:0:
235,227,22095,1,0,0:0:0:0:
235,227,22170,1,0,0:0:0:0:
235,227,22245,1,0,0:0:0:0:
235,227,22395,1,0,0:0:0:0:
323,234,22545,1,12,0:0:0:0:
335,170,22695,1,0,0:0:0:0:
334,156,22770,1,0,0:0:0:0:
290,235,22845,1,0,0:0:0:0:
283,232,22995,1,12,0:0:0:0:
280,236,23145,1,0,0:0:0:0:
280,236,23295,1,0,0:0:0:0:
279,230,23445,1,12,0:0:0:0:
279,222,23595,1,0,0:0:0:0:
279,222,23745,1,0,0:0:0:0:
279,222,23820,1,0,0:0:0:0:
197,152,23895,1,0,0:0:0:0:
197,152,24045,1,0,0:0:0:0:
196,143,24195,1,12,0:0:0:0:
196,194,24345,1,0,0:0:0:0:
196,194,24495,1,8,0:0:0:0:
201,205,24570,1,0,0:0:0:0:
202,253,24645,1,8,0:0:0:0:
192,187,24795,1,0,0:0:0:0:
192,187,24870,1,0,0:0:0:0:
191,184,24945,1,0,0:0:0:0:
191,184,25020,1,0,0:0:0:0:
191,184,25095,1,0,0:0:0:0:
190,183,25245,1,12,0:0:0:0:
245,235,25395,1,0,0:0:0:0:
202,214,25545,1,12,0:0:0:0:
273,278,25695,1,0,0:0:0:0:
268,268,25845,1,8,0:0:0:0:
141,161,25920,1,8,0:0:0:0:
141,161,25995,1,0,0:0:0:0:
278,198,26145,1,12,0:0:0:0:
280,187,26295,1,0,0:0:0:0:
280,187,26445,1,0,0:0:0:0:
280,187,26595,1,12,0:0:0:0:
279,186,26745,1,0,0:0:0:0:
187,65,26895,1,12,0:0:0:0:
291,276,27045,1,12,0:0:0:0:
174,150,27195,1,0,0:0:0:0:
257,234,27345,1,12,0:0:0:0:
174,150,27495,1,0,0:0:0:0:
257,234,27645,1,12,0:0:0:0:
257,234,27795,1,12,0:0:0:0:
303,207,27945,1,0,0:0:0:0:
297,232,28095,1,8,0:0:0:0:
186,121,28170,1,8,0:0:0:0:
186,121,28245,1,0,0:0:0:0:
186,121,28320,1,8,0:0:0:0:
186,121,28395,1,8,0:0:0:0:
186,121,28470,1,0,0:0:0:0:
186,121,28545,1,0,0:0:0:0:
186,121,28620,1,8,0:0:0:0:
186,121,28695,1,0,0:0:0:0:
268,151,28828,1,0,0:0:0:0:
268,151,28961,1,0,0:0:0:0:
241,210,29095,1,8,0:0:0:0:
272,123,29228,1,0,0:0:0:0:
163,109,29295,1,0,0:0:0:0:
162,109,29361,1,8,0:0:0:0:
341,236,29495,1,4,0:0:0:0:
328,168,29761,1,0,0:0:0:0:
328,168,29895,1,8,0:0:0:0:
112,144,30028,1,0,0:0:0:0:
128,136,30095,1,0,0:0:0:0:
128,128,30161,1,0,0:0:0:0:
288,264,30295,1,8,0:0:0:0:
280,256,30428,1,0,0:0:0:0:
280,256,30561,1,0,0:0:0:0:
280,264,30695,1,8,0:0:0:0:
216,224,30761,1,8,0:0:0:0:
216,224,30828,1,0,0:0:0:0:
216,224,30961,1,8,0:0:0:0:
136,128,31095,1,0,0:0:0:0:
264,280,31161,1,0,0:0:0:0:
208,288,31228,1,0,0:0:0:0:
248,176,31361,1,8,0:0:0:0:
232,184,31495,1,0,0:0:0:0:
248,264,31561,1,8,0:0:0:0:
208,224,31628,1,0,0:0:0:0:
208,272,31761,1,8,0:0:0:0:
240,80,31895,1,0,0:0:0:0:
240,80,32028,1,8,0:0:0:0:
240,80,32095,1,8,0:0:0:0:
240,80,32161,1,0,0:0:0:0:
240,80,32295,1,8,0:0:0:0:
240,56,32428,1,0,0:0:0:0:
240,56,32495,1,0,0:0:0:0:
240,56,32561,1,8,0:0:0:0:
320,184,32695,1,4,0:0:0:0:
240,248,32961,1,0,0:0:0:0:
240,248,33095,1,8,0:0:0:0:
272,232,33228,1,0,0:0:0:0:
232,224,33295,1,0,0:0:0:0:
272,232,33361,1,8,0:0:0:0:
216,232,33495,1,0,0:0:0:0:
264,160,33628,1,8,0:0:0:0:
264,160,33695,1,8,0:0:0:0:
264,160,33761,1,0,0:0:0:0:
264,160,33828,1,0,0:0:0:0:
264,160,33895,1,8,0:0:0:0:
328,272,34028,1,0,0:0:0:0:
216,256,34161,1,8,0:0:0:0:
256,248,34295,1,0,0:0:0:0:
288,192,34361,1,0,0:0:0:0:
168,280,34428,1,0,0:0:0:0:
192,256,34561,1,8,0:0:0:0:
272,256,34695,1,0,0:0:0:0:
192,248,34761,1,0,0:0:0:0:
272,248,34828,1,8,0:0:0:0:
272,232,34961,1,0,0:0:0:0:
272,232,35095,1,8,0:0:0:0:
272,224,35161,1,8,0:0:0:0:
280,224,35228,1,0,0:0:0:0:
272,224,35361,1,8,0:0:0:0:
272,224,35495,1,0,0:0:0:0:
272,224,35561,1,0,0:0:0:0:
208,224,35628,1,0,0:0:0:0:
272,224,35695,1,0,0:0:0:0:
208,224,35761,1,8,0:0:0:0:
208,224,35895,1,4,0:0:0:0:
272,200,36161,1,0,0:0:0:0:
392,256,36295,1,8,0:0:0:0:
360,240,36428,1,0,0:0:0:0:
360,240,36495,1,0,0:0:0:0:
360,240,36561,1,0,0:0:0:0:
384,240,36695,1,8,0:0:0:0:
392,248,36828,1,0,0:0:0:0:
392,248,36961,1,0,0:0:0:0:
392,248,37095,1,8,0:0:0:0:
392,248,37161,1,8,0:0:0:0:
392,248,37228,1,0,0:0:0:0:
432,304,37361,1,8,0:0:0:0:
368,256,37495,1,0,0:0:0:0:
280,256,37561,1,0,0:0:0:0:
264,256,37628,1,0,0:0:0:0:
264,256,37761,1,8,0:0:0:0:
272,256,37895,1,0,0:0:0:0:
272,256,37961,1,8,0:0:0:0:
272,256,38028,1,0,0:0:0:0:
272,256,38161,1,8,0:0:0:0:
272,248,38295,1,0,0:0:0:0:
272,248,38428,1,8,0:0:0:0:
272,248,38495,1,8,0:0:0:0:
264,224,38561,1,0,0:0:0:0:
264,224,38695,1,8,0:0:0:0:
272,224,38828,1,0,0:0:0:0:
272,224,38895,1,0,0:0:0:0:
272,224,38961,1,8,0:0:0:0:
272,224,39095,1,4,0:0:0:0:
280,224,39228,1,0,0:0:0:0:
280,224,39361,1,0,0:0:0:0:
280,224,39495,1,8,0:0:0:0:
368,280,39628,1,0,0:0:0:0:
296,296,39695,1,0,0:0:0:0:
296,288,39761,1,8,0:0:0:0:
304,272,39895,1,0,0:0:0:0:
304,272,40028,1,8,0:0:0:0:
304,272,40095,1,8,0:0:0:0:
288,256,40161,1,0,0:0:0:0:
296,248,40295,1,8,0:0:0:0:
296,224,40428,1,0,0:0:0:0:
296,224,40495,1,0,0:0:0:0:
296,224,40561,1,0,0:0:0:0:
264,192,40695,1,8,0:0:0:0:
368,224,40828,1,0,0:0:0:0:
280,184,40895,1,8,0:0:0:0:
280,176,40961,1,0,0:0:0:0:
328,304,41095,1,8,0:0:0:0:
200,176,41228,1,0,0:0:0:0:
200,176,41295,1,0,0:0:0:0:
200,176,41361,1,0,0:0:0:0:
416,296,41495,1,8,0:0:0:0:
328,304,41561,1,0,0:0:0:0:
328,288,41628,1,8,0:0:0:0:
328,288,41761,1,0,0:0:0:0:
384,232,41895,1,8,0:0:0:0:
384,232,41961,1,8,0:0:0:0:
384,232,42028,1,8,0:0:0:0:
384,232,42095,1,8,0:0:0:0:
384,232,42161,1,8,0:0:0:0:
384,232,42295,1,4,0:0:0:0:
288,192,42745,1,0,0:0:0:0:
288,192,42895,1,0,0:0:0:0:
352,160,43195,1,8,0:0:0:0:
320,160,43495,1,4,0:0:0:0:
296,144,43645,1,0,0:0:0:0:
208,168,43945,1,0,0:0:0:0:
208,168,44095,1,0,0:0:0:0:
208,168,44170,1,0,0:0:0:0:
208,168,44245,1,0,0:0:0:0:
208,168,44395,1,0,0:0:0:0:
152,208,44470,1,0,0:0:0:0:
272,232,44545,1,8,0:0:0:0:
256,208,44695,1,4,0:0:0:0:
136,184,44845,1,0,0:0:0:0:
328,248,45145,1,0,0:0:0:0:
328,248,45295,1,0,0:0:0:0:
328,240,45595,1,8,0:0:0:0:
328,240,45745,1,8,0:0:0:0:
328,240,45895,1,0,0:0:0:0:
328,240,46045,1,0,0:0:0:0:
328,192,46345,1,0,0:0:0:0:
320,152,46495,1,0,0:0:0:0:
312,184,46570,1,0,0:0:0:0:
312,184,46645,1,0,0:0:0:0:
312,184,46795,1,0,0:0:0:0:
312,184,46870,1,0,0:0:0:0:
296,208,46945,1,8,0:0:0:0:
296,208,47095,1,4,0:0:0:0:
296,176,47545,1,8,0:0:0:0:
296,176,47695,1,0,0:0:0:0:
296,176,47995,1,8,0:0:0:0:
296,176,48295,1,4,0:0:0:0:
184,168,48445,1,8,0:0:0:0:
400,280,48745,1,0,0:0:0:0:
392,272,48820,1,0,0:0:0:0:
264,288,48895,1,8,0:0:0:0:
328,208,48970,1,8,0:0:0:0:
328,208,49045,1,0,0:0:0:0:
328,208,49120,1,0,0:0:0:0:
328,208,49195,1,8,0:0:0:0:
256,208,49270,1,8,0:0:0:0:
232,208,49345,1,0,0:0:0:0:
208,168,49495,1,12,0:0:0:0:
304,184,49645,1,0,0:0:0:0:
288,288,49795,1,12,0:0:0:0:
304,184,49945,1,12,0:0:0:0:
144,184,50095,1,0,0:0:0:0:
352,256,50245,1,12,0:0:0:0:
344,272,50395,1,0,0:0:0:0:
288,288,50545,1,12,0:0:0:0:
296,248,50695,1,12,0:0:0:0:
296,232,50845,1,0,0:0:0:0:
320,256,50995,1,8,0:0:0:0:
240,152,51070,1,8,0:0:0:0:
240,152,51145,1,0,0:0:0:0:
240,152,51220,1,8,0:0:0:0:
344,280,51295,1,8,0:0:0:0:
272,80,51395,1,0,0:0:0:0:
272,80,51495,1,8,0:0:0:0:
272,80,51595,1,4,0:0:0:0:
208,104,51795,1,0,0:0:0:0:
208,104,51895,1,8,0:0:0:0:
200,96,51995,1,0,0:0:0:0:
208,104,52095,1,0,0:0:0:0:
264,224,52195,1,0,0:0:0:0:
272,184,52495,1,12,0:0:0:0:
272,184,52795,1,4,0:0:0:0:
272,184,52995,1,0,0:0:0:0:
272,184,53095,1,8,0:0:0:0:
272,184,53195,1,0,0:0:0:0:
272,184,53295,1,0,0:0:0:0:
272,184,53395,1,0,0:0:0:0:
264,200,53595,1,0,0:0:0:0:
264,200,53695,1,8,0:0:0:0:
264,200,53795,1,8,0:0:0:0:
264,200,53895,1,8,0:0:0:0:
264,200,53995,1,4,0:0:0:0:
272,192,54195,1,0,0:0:0:0:
272,192,54295,1,8,0:0:0:0:
272,192,54395,1,8,0:0:0:0:
272,192,54495,1,0,0:0:0:0:
272,192,54595,1,0,0:0:0:0:
272,192,54895,1,12,0:0:0:0:
288,168,55195,1,0,0:0:0:0:
288,168,55295,1,0,0:0:0:0:
288,168,55395,1,0,0:0:0:0:
288,152,55495,1,12,0:0:0:0:
288,144,55795,1,0,0:0:0:0:
288,144,55895,1,0,0:0:0:0:
288,144,55995,1,0,0:0:0:0:
288,144,56095,1,12,0:0:0:0:
280,120,56395,1,4,0:0:0:0:
224,144,56695,1,0,0:0:0:0:
224,144,56795,1,0,0:0:0:0:
224,144,56895,1,0,0:0:0:0:
224,144,56995,1,12,0:0:0:0:
312,224,57295,1,0,0:0:0:0:
312,216,57595,1,4,0:0:0:0:
352,208,57795,1,0,0:0:0:0:
352,208,57895,1,0,0:0:0:0:
352,208,57995,1,0,0:0:0:0:
352,208,58095,1,0,0:0:0:0:
352,208,58195,1,12,0:0:0:0:
400,72,58345,1,0,0:0:0:0:
392,80,58420,1,0,0:0:0:0:
392,80,58495,1,8,0:0:0:0:
392,80,58570,1,8,0:0:0:0:
392,80,58645,1,0,0:0:0:0:
352,168,58795,1,12,0:0:0:0:
360,192,58945,1,0,0:0:0:0:
344,192,59095,1,12,0:0:0:0:
344,192,59245,1,12,0:0:0:0:
360,184,59395,1,0,0:0:0:0:
344,192,59545,1,12,0:0:0:0:
360,184,59695,1,0,0:0:0:0:
344,192,59845,1,12,0:0:0:0:
344,192,59995,1,12,0:0:0:0:
400,288,60145,1,0,0:0:0:0:
344,304,60295,1,12,0:0:0:0:
360,240,60445,1,0,0:0:0:0:
368,288,60595,1,12,0:0:0:0:
368,288,60745,1,12,0:0:0:0:
360,224,60895,1,0,0:0:0:0:
336,224,61045,1,8,0:0:0:0:
336,224,61120,1,8,0:0:0:0:
336,224,61195,1,0,0:0:0:0:
336,224,61270,1,8,0:0:0:0:
336,224,61345,1,8,0:0:0:0:
336,224,61420,1,0,0:0:0:0:
336,224,61495,1,0,0:0:0:0:
352,288,61570,1,8,0:0:0:0:
352,288,61645,1,0,0:0:0:0:
352,288,61845,1,0,0:0:0:0:
352,288,62020,1,0,0:0:0:0:
352,272,62245,1,4,0:0:0:0:
352,224,62860,1,0,0:0:0:0:
352,216,63014,1,0,0:0:0:0:
352,216,63168,1,8,0:0:0:0:
320,216,63629,1,0,0:0:0:0:
320,208,64091,1,4,0:0:0:0:
352,216,64706,1,0,0:0:0:0:
352,216,64860,1,0,0:0:0:0:
352,216,65014,1,8,0:0:0:0:
312,240,65168,1,0,0:0:0:0:
312,240,65321,1,0,0:0:0:0:
312,240,65475,1,8,0:0:0:0:
240,104,65629,1,0,0:0:0:0:
240,104,65706,1,0,0:0:0:0:
240,104,65783,1,8,0:0:0:0:
240,104,65937,1,4,0:0:0:0:
288,128,66398,1,12,0:0:0:0:
288,128,66706,1,0,0:0:0:0:
288,128,66860,1,0,0:0:0:0:
416,240,67014,1,8,0:0:0:0:
400,264,67168,1,0,0:0:0:0:
400,264,67321,1,0,0:0:0:0:
392,256,67475,1,8,0:0:0:0:
392,256,67629,1,0,0:0:0:0:
296,256,67783,1,8,0:0:0:0:
304,232,67937,1,0,0:0:0:0:
304,232,68091,1,0,0:0:0:0:
240,288,68245,1,0,0:0:0:0:
424,320,68552,1,0,0:0:0:0:
424,320,68706,1,8,0:0:0:0:
376,336,68860,1,0,0:0:0:0:
312,104,68937,1,0,0:0:0:0:
312,104,69014,1,8,0:0:0:0:
312,104,69168,1,8,0:0:0:0:
288,216,69321,1,0,0:0:0:0:
288,216,69475,1,0,0:0:0:0:
288,216,69629,1,4,0:0:0:0:
328,240,69937,1,0,0:0:0:0:
320,224,70091,1,8,0:0:0:0:
328,216,70398,1,0,0:0:0:0:
328,216,70552,1,0,0:0:0:0:
328,208,70860,1,0,0:0:0:0:
328,208,71014,1,8,0:0:0:0:
232,240,71168,1,0,0:0:0:0:
328,208,71321,1,0,0:0:0:0:
328,208,71475,1,4,0:0:0:0:
240,232,71783,1,8,0:0:0:0:
264,176,72091,1,0,0:0:0:0:
264,176,72245,1,0,0:0:0:0:
264,176,72398,1,8,0:0:0:0:
272,240,72706,1,0,0:0:0:0:
176,136,72860,1,0,0:0:0:0:
272,240,73014,1,8,0:0:0:0:
184,120,73168,1,8,0:0:0:0:
184,120,73321,1,4,0:0:0:0:
280,224,73629,1,0,0:0:0:0:
272,224,73783,1,8,0:0:0:0:
280,224,73937,1,0,0:0:0:0:
288,192,74245,1,0,0:0:0:0:
288,192,74398,1,8,0:0:0:0:
288,192,74552,1,0,0:0:0:0:
288,192,74706,1,0,0:0:0:0:
288,192,74860,1,8,0:0:0:0:
208,232,75168,1,0,0:0:0:0:
280,304,75245,1,8,0:0:0:0:
328,216,75321,1,8,0:0:0:0:
280,296,75398,1,0,0:0:0:0:
240,200,75475,1,0,0:0:0:0:
408,272,75552,1,8,0:0:0:0:
352,264,75629,1,0,0:0:0:0:
352,264,75706,1,0,0:0:0:0:
248,264,75783,1,8,0:0:0:0:
248,264,75860,1,8,0:0:0:0:
256,272,75937,1,0,0:0:0:0:
224,144,76014,1,8,0:0:0:0:
232,152,76091,1,0,0:0:0:0:
232,152,76168,1,0,0:0:0:0:
232,152,76245,1,8,0:0:0:0:
256,272,76321,1,8,0:0:0:0:
272,256,76398,1,0,0:0:0:0:
272,248,76475,1,0,0:0:0:0:
256,272,76552,1,8,0:0:0:0:
256,272,76629,1,0,0:0:0:0:
256,272,76706,1,8,0:0:0:0:
256,272,76783,1,0,0:0:0:0:
256,272,76860,1,8,0:0:0:0:
264,272,77014,1,4,0:0:0:0:
344,240,77314,1,8,0:0:0:0:
344,240,77389,1,8,0:0:0:0:
344,240,77464,1,0,0:0:0:0:
344,240,77539,1,0,0:0:0:0:
280,264,77614,1,8,0:0:0:0:
256,264,77764,1,8,0:0:0:0:
280,264,77914,1,0,0:0:0:0:
280,256,77989,1,0,0:0:0:0:
280,264,78064,1,0,0:0:0:0:
272,232,78214,1,8,0:0:0:0:
280,256,78289,1,8,0:0:0:0:
216,176,78364,1,0,0:0:0:0:
216,176,78439,1,0,0:0:0:0:
216,176,78514,1,8,0:0:0:0:
288,136,78814,1,0,0:0:0:0:
288,200,78914,1,0,0:0:0:0:
280,192,79014,1,0,0:0:0:0:
280,192,79114,1,8,0:0:0:0:
336,304,79214,1,8,0:0:0:0:
328,296,79314,1,0,0:0:0:0:
312,280,79414,1,12,0:0:0:0:
448,264,79864,1,0,0:0:0:0:
288,168,80014,1,4,0:0:0:0:
240,80,80164,1,8,0:0:0:0:
224,96,80239,1,8,0:0:0:0:
320,160,80314,1,0,0:0:0:0:
224,96,80389,1,0,0:0:0:0:
224,96,80464,1,8,0:0:0:0:
336,280,80614,1,0,0:0:0:0:
368,240,80764,1,8,0:0:0:0:
304,176,80839,1,8,0:0:0:0:
296,160,80914,1,0,0:0:0:0:
296,160,81064,1,8,0:0:0:0:
288,152,81139,1,8,0:0:0:0:
264,168,81214,1,0,0:0:0:0:
264,168,81289,1,0,0:0:0:0:
264,168,81364,1,8,0:0:0:0:
264,168,81514,1,8,0:0:0:0:
200,160,81814,1,0,0:0:0:0:
336,136,81914,1,0,0:0:0:0:
336,128,82014,1,0,0:0:0:0:
336,128,82114,1,8,0:0:0:0:
336,120,82214,1,0,0:0:0:0:
296,264,82314,1,0,0:0:0:0:
288,240,82414,1,12,0:0:0:0:
288,240,82614,1,12,0:0:0:0:
288,240,82814,1,12,0:0:0:0:
280,200,83014,1,8,0:0:0:0:
320,128,83089,1,0,0:0:0:0:
280,208,83764,1,0,0:0:0:0:
264,192,83839,1,8,0:0:0:0:
232,208,84214,1,8,0:0:0:0:
272,248,84289,1,0,0:0:0:0:
272,232,84889,1,8,0:0:0:0:
272,232,84964,1,8,0:0:0:0:
288,192,85264,1,0,0:0:0:0:
272,208,85339,1,8,0:0:0:0:
288,192,85414,1,0,0:0:0:0:
264,208,85564,1,8,0:0:0:0:
264,200,85714,1,0,0:0:0:0:
264,200,85789,1,0,0:0:0:0:
248,192,85864,1,8,0:0:0:0:
248,192,86014,1,0,0:0:0:0:
248,192,86164,1,8,0:0:0:0:
248,192,86239,1,8,0:0:0:0:
248,192,86314,1,0,0:0:0:0:
248,184,86464,1,8,0:0:0:0:
168,160,86614,1,0,0:0:0:0:
240,160,86714,1,0,0:0:0:0:
296,128,86814,1,0,0:0:0:0:
296,128,86914,1,12,0:0:0:0:
336,232,87214,1,12,0:0:0:0:
336,192,87514,1,4,0:0:0:0:
168,176,87814,1,12,0:0:0:0:
256,192,87964,12,0,88864,0:0:0:0:
240,224,89014,5,4,0:0:0:0:
256,160,89164,1,8,0:0:0:0:
256,160,89314,1,0,0:0:0:0:
256,160,89389,1,0,0:0:0:0:
256,160,89464,1,8,0:0:0:0:
352,312,89614,1,0,0:0:0:0:
144,144,89764,1,8,0:0:0:0:
208,272,89839,1,8,0:0:0:0:
144,144,89914,1,0,0:0:0:0:
144,144,89989,1,0,0:0:0:0:
144,144,90064,1,8,0:0:0:0:
288,240,90214,1,0,0:0:0:0:
280,232,90364,1,8,0:0:0:0:
376,264,90439,1,0,0:0:0:0:
200,320,90589,1,0,0:0:0:0:
200,320,90664,1,8,0:0:0:0:
240,232,90814,1,0,0:0:0:0:
240,224,90889,1,0,0:0:0:0:
240,224,90964,1,8,0:0:0:0:
240,224,91039,1,0,0:0:0:0:
240,224,91114,1,0,0:0:0:0:
240,224,91189,1,0,0:0:0:0:
240,224,91264,1,8,0:0:0:0:
240,224,91339,1,8,0:0:0:0:
240,224,91414,1,0,0:0:0:0:
248,264,91564,1,8,0:0:0:0:
248,264,91714,1,0,0:0:0:0:
248,264,91789,1,0,0:0:0:0:
248,264,91864,1,8,0:0:0:0:
248,264,92014,1,0,0:0:0:0:
240,256,92164,1,8,0:0:0:0:
256,256,92239,1,0,0:0:0:0:
240,256,92314,1,0,0:0:0:0:
240,256,92389,1,0,0:0:0:0:
240,256,92464,1,8,0:0:0:0:
240,256,92614,1,0,0:0:0:0:
240,256,92764,1,8,0:0:0:0:
240,256,92839,1,8,0:0:0:0:
240,256,92914,1,0,0:0:0:0:
328,296,93064,1,8,0:0:0:0:
320,288,93214,1,0,0:0:0:0:
320,280,93289,1,0,0:0:0:0:
320,280,93364,1,8,0:0:0:0:
232,328,93439,1,8,0:0:0:0:
256,336,93514,1,0,0:0:0:0:
224,288,93589,1,0,0:0:0:0:
224,288,93664,1,8,0:0:0:0:
224,216,93814,1,0,0:0:0:0:
224,216,93889,1,0,0:0:0:0:
224,216,93964,1,8,0:0:0:0:
152,160,94039,1,0,0:0:0:0:
152,160,94114,1,0,0:0:0:0:
152,160,94189,1,0,0:0:0:0:
240,216,94264,1,8,0:0:0:0:
240,232,94339,1,0,0:0:0:0:
264,248,94414,1,0,0:0:0:0:
232,216,94489,1,0,0:0:0:0:
240,216,94564,1,8,0:0:0:0:
184,256,94639,1,0,0:0:0:0:
224,224,94714,1,0,0:0:0:0:
240,200,94789,1,0,0:0:0:0:
240,216,94864,1,8,0:0:0:0:
408,296,94939,1,0,0:0:0:0:
216,224,95014,1,0,0:0:0:0:
216,216,95089,1,0,0:0:0:0:
224,208,95164,1,8,0:0:0:0:
408,296,95239,1,8,0:0:0:0:
184,256,95314,1,0,0:0:0:0:
184,256,95389,1,0,0:0:0:0:
224,208,95464,1,8,0:0:0:0:
408,296,95539,1,0,0:0:0:0:
192,272,95614,1,0,0:0:0:0:
200,280,95689,1,0,0:0:0:0:
256,184,95764,1,8,0:0:0:0:
192,240,95839,1,8,0:0:0:0:
184,256,95914,1,0,0:0:0:0:
184,256,95989,1,0,0:0:0:0:
256,184,96064,1,8,0:0:0:0:
184,256,96139,1,0,0:0:0:0:
272,224,96214,1,8,0:0:0:0:
312,224,96289,1,8,0:0:0:0:
336,240,96364,1,0,0:0:0:0:
376,248,96439,1,8,0:0:0:0:
256,184,96514,1,8,0:0:0:0:
376,256,96589,1,0,0:0:0:0:
376,256,96664,1,8,0:0:0:0:
352,232,96739,1,0,0:0:0:0:
256,184,96814,1,8,0:0:0:0:
312,272,96889,1,8,0:0:0:0:
288,296,96964,1,0,0:0:0:0:
288,288,97039,1,0,0:0:0:0:
256,184,97114,1,8,0:0:0:0:
288,288,97189,1,0,0:0:0:0:
288,288,97264,1,0,0:0:0:0:
288,288,97339,1,0,0:0:0:0:
256,184,97414,1,8,0:0:0:0:
240,216,97489,1,0,0:0:0:0:
288,280,97564,1,0,0:0:0:0:
272,264,97639,1,8,0:0:0:0:
256,184,97714,1,8,0:0:0:0:
272,264,97789,1,0,0:0:0:0:
272,264,97864,1,8,0:0:0:0:
288,280,97939,1,0,0:0:0:0:
256,184,98014,1,8,0:0:0:0:
288,280,98089,1,8,0:0:0:0:
288,280,98164,1,0,0:0:0:0:
288,280,98239,1,0,0:0:0:0:
288,280,98314,1,8,0:0:0:0:
288,280,98389,1,8,0:0:0:0:
288,280,98464,1,8,0:0:0:0:
288,280,98539,1,8,0:0:0:0:
256,184,98614,1,0,0:0:0:0:
320,232,98764,1,8,0:0:0:0:
320,232,98914,1,0,0:0:0:0:
320,224,98989,1,0,0:0:0:0:
320,224,99064,1,8,0:0:0:0:
320,224,99214,1,0,0:0:0:0:
320,224,99364,1,8,0:0:0:0:
320,224,99439,1,8,0:0:0:0:
320,224,99514,1,0,0:0:0:0:
320,224,99589,1,0,0:0:0:0:
320,224,99664,1,8,0:0:0:0:
320,224,99814,1,0,0:0:0:0:
320,224,99964,1,8,0:0:0:0:
168,232,100039,1,0,0:0:0:0:
312,240,100189,1,0,0:0:0:0:
312,240,100264,1,8,0:0:0:0:
304,232,100414,1,0,0:0:0:0:
304,232,100489,1,0,0:0:0:0:
304,232,100564,1,8,0:0:0:0:
304,232,100639,1,0,0:0:0:0:
304,232,100714,1,0,0:0:0:0:
304,224,100789,1,0,0:0:0:0:
304,224,100864,1,8,0:0:0:0:
208,232,100939,1,8,0:0:0:0:
208,232,101014,1,0,0:0:0:0:
208,232,101164,1,8,0:0:0:0:
208,208,101314,1,0,0:0:0:0:
208,208,101389,1,0,0:0:0:0:
208,208,101464,1,8,0:0:0:0:
208,208,101614,1,0,0:0:0:0:
208,208,101764,1,8,0:0:0:0:
208,208,101839,1,0,0:0:0:0:
208,208,101914,1,0,0:0:0:0:
208,208,101989,1,0,0:0:0:0:
208,208,102064,1,8,0:0:0:0:
216,200,102214,1,0,0:0:0:0:
208,192,102364,1,8,0:0:0:0:
208,168,102514,1,0,0:0:0:0:
208,168,102589,1,0,0:0:0:0:
208,168,102664,1,8,0:0:0:0:
208,168,102814,1,0,0:0:0:0:
208,168,102964,1,8,0:0:0:0:
208,168,103039,1,8,0:0:0:0:
208,168,103114,1,8,0:0:0:0:
208,168,103189,1,8,0:0:0:0:
208,168,103264,1,8,0:0:0:0:
208,168,103339,1,8,0:0:0:0:
200,136,103414,1,0,0:0:0:0:
200,136,103564,1,8,0:0:0:0:
344,232,103714,1,0,0:0:0:0:
344,232,103789,1,0,0:0:0:0:
344,232,103864,1,8,0:0:0:0:
344,232,104014,1,0,0:0:0:0:
344,232,104089,1,0,0:0:0:0:
344,232,104164,1,8,0:0:0:0:
344,232,104314,1,0,0:0:0:0:
360,280,104464,1,8,0:0:0:0:
360,280,104539,1,8,0:0:0:0:
360,280,104614,1,0,0:0:0:0:
360,280,104764,1,8,0:0:0:0:
312,272,104914,1,0,0:0:0:0:
304,264,104989,1,0,0:0:0:0:
200,200,105064,1,8,0:0:0:0:
200,200,105214,1,0,0:0:0:0:
200,200,105289,1,0,0:0:0:0:
200,200,105364,1,8,0:0:0:0:
200,200,105514,1,0,0:0:0:0:
200,200,105589,1,0,0:0:0:0:
200,200,105664,1,8,0:0:0:0:
200,200,105814,1,0,0:0:0:0:
328,224,105889,1,0,0:0:0:0:
328,224,105964,1,0,0:0:0:0:
328,224,106039,1,0,0:0:0:0:
328,224,106114,1,8,0:0:0:0:
368,248,106189,1,0,0:0:0:0:
368,248,106264,1,0,0:0:0:0:
368,248,106339,1,0,0:0:0:0:
368,248,106414,1,0,0:0:0:0:
368,248,106489,1,0,0:0:0:0:
368,248,106564,1,0,0:0:0:0:
368,248,106639,1,0,0:0:0:0:
368,248,106714,1,8,0:0:0:0:
368,248,106789,1,0,0:0:0:0:
368,248,106864,1,0,0:0:0:0:
368,248,106939,1,0,0:0:0:0:
176,200,107014,1,8,0:0:0:0:
184,192,107114,1,0,0:0:0:0:
184,192,107214,1,0,0:0:0:0:
184,176,107314,1,8,0:0:0:0:
184,176,107414,1,8,0:0:0:0:
184,176,107514,1,0,0:0:0:0:
360,280,107614,1,8,0:0:0:0:
344,264,107814,1,0,0:0:0:0:
344,264,107914,1,8,0:0:0:0:
344,264,108014,1,8,0:0:0:0:
344,264,108114,1,8,0:0:0:0:
344,248,108214,1,4,0:0:0:0:
336,240,108514,1,0,0:0:0:0:
336,240,108614,1,0,0:0:0:0:
336,224,108814,1,12,0:0:0:0:
336,224,109114,1,0,0:0:0:0:
336,224,109214,1,0,0:0:0:0:
328,200,109414,1,4,0:0:0:0:
328,200,109714,1,0,0:0:0:0:
328,200,109814,1,0,0:0:0:0:
328,200,110014,1,12,0:0:0:0:
328,200,110214,1,0,0:0:0:0:
328,200,110314,1,8,0:0:0:0:
320,200,110414,1,0,0:0:0:0:
320,200,110614,1,4,0:0:0:0:
320,200,110814,1,0,0:0:0:0:
320,192,110914,1,8,0:0:0:0:
320,192,111014,1,0,0:0:0:0:
320,192,111214,1,0,0:0:0:0:
320,192,111414,1,0,0:0:0:0:
320,192,111514,1,8,0:0:0:0:
320,192,111714,1,0,0:0:0:0:
320,192,111814,1,8,0:0:0:0:
320,192,111914,1,0,0:0:0:0:
320,192,112014,1,0,0:0:0:0:
320,192,112114,1,8,0:0:0:0:
320,192,112214,1,8,0:0:0:0:
320,192,112314,1,8,0:0:0:0:
232,128,112414,1,0,0:0:0:0:
392,96,112464,1,0,0:0:0:0:
376,120,112514,1,8,0:0:0:0:
376,224,112614,1,0,0:0:0:0:
240,240,112714,1,8,0:0:0:0:
240,240,112814,1,8,0:0:0:0:
240,240,112914,1,8,0:0:0:0:
328,216,113014,1,4,0:0:0:0:
312,224,113314,1,0,0:0:0:0:
344,232,113414,1,0,0:0:0:0:
280,208,113614,1,12,0:0:0:0:
336,200,113914,1,0,0:0:0:0:
336,200,114014,1,0,0:0:0:0:
328,192,114214,1,4,0:0:0:0:
328,192,114514,1,0,0:0:0:0:
328,192,114614,1,0,0:0:0:0:
328,192,114814,1,12,0:0:0:0:
328,184,115014,1,0,0:0:0:0:
328,184,115114,1,0,0:0:0:0:
328,184,115414,1,4,0:0:0:0:
328,184,115614,1,0,0:0:0:0:
320,168,115714,1,8,0:0:0:0:
328,184,115814,1,0,0:0:0:0:
216,208,115914,1,0,0:0:0:0:
280,176,116014,1,0,0:0:0:0:
288,144,116214,1,0,0:0:0:0:
288,144,116314,1,8,0:0:0:0:
272,184,116414,1,8,0:0:0:0:
232,120,116614,1,4,0:0:0:0:
272,104,116814,1,0,0:0:0:0:
232,120,116914,1,8,0:0:0:0:
232,152,117014,1,0,0:0:0:0:
232,152,117114,1,0,0:0:0:0:
240,152,117214,1,8,0:0:0:0:
240,152,117314,1,8,0:0:0:0:
248,152,117414,1,0,0:0:0:0:
248,152,117514,1,8,0:0:0:0:
256,152,117614,1,8,0:0:0:0:
256,152,117714,1,8,0:0:0:0:
256,144,117814,1,4,0:0:0:0:
232,168,118114,1,0,0:0:0:0:
232,168,118214,1,0,0:0:0:0:
232,168,118414,1,12,0:0:0:0:
232,168,118714,1,0,0:0:0:0:
232,168,118814,1,0,0:0:0:0:
224,144,119014,1,4,0:0:0:0:
224,144,119314,1,0,0:0:0:0:
224,144,119414,1,0,0:0:0:0:
224,136,119614,1,12,0:0:0:0:
216,120,120214,1,8,0:0:0:0:
216,120,120314,1,8,0:0:0:0:
216,120,120914,1,12,0:0:0:0:
216,120,121414,1,12,0:0:0:0:
216,104,121714,1,8,0:0:0:0:
216,104,121814,1,0,0:0:0:0:
216,120,121914,1,8,0:0:0:0:
216,120,122014,1,8,0:0:0:0:
208,144,122814,1,4,0:0:0:0:
224,184,123114,1,4,0:0:0:0:
224,184,123414,1,4,0:0:0:0:
224,160,123814,1,12,0:0:0:0:
224,160,123914,1,12,0:0:0:0:
216,160,124814,1,12,0:0:0:0:
216,160,124914,1,12,0:0:0:0:
208,176,126214,1,4,0:0:0:0:
272,128,126514,1,8,0:0:0:0:
272,128,126664,1,0,0:0:0:0:
272,128,126814,1,0,0:0:0:0:
324,258,126964,1,8,0:0:0:0:
324,258,127114,1,0,0:0:0:0:
304,219,127264,1,8,0:0:0:0:
311,252,127414,1,0,0:0:0:0:
306,226,127564,1,8,0:0:0:0:
306,226,127714,1,8,0:0:0:0:
169,178,127864,1,0,0:0:0:0:
196,148,128014,1,8,0:0:0:0:
196,138,128164,1,0,0:0:0:0:
196,131,128314,1,8,0:0:0:0:
196,131,128464,1,8,0:0:0:0:
363,273,128614,1,0,0:0:0:0:
355,236,128764,1,0,0:0:0:0:
348,208,128914,1,0,0:0:0:0:
332,266,129064,1,8,0:0:0:0:
318,200,129214,1,0,0:0:0:0:
318,200,129364,1,8,0:0:0:0:
318,200,129514,1,0,0:0:0:0:
308,175,129664,1,8,0:0:0:0:
308,175,129739,1,8,0:0:0:0:
308,175,129814,1,8,0:0:0:0:
308,175,129964,1,0,0:0:0:0:
314,196,130114,1,8,0:0:0:0:
358,194,130264,1,0,0:0:0:0:
358,194,130339,1,0,0:0:0:0:
358,194,130414,1,8,0:0:0:0:
306,241,130564,1,8,0:0:0:0:
318,215,130714,1,0,0:0:0:0:
284,230,130864,1,0,0:0:0:0:
294,187,131014,1,8,0:0:0:0:
312,188,131164,1,0,0:0:0:0:
312,188,131314,1,0,0:0:0:0:
312,188,131464,1,8,0:0:0:0:
377,304,131614,1,0,0:0:0:0:
371,291,131764,1,8,0:0:0:0:
371,291,131914,1,8,0:0:0:0:
369,289,132064,1,0,0:0:0:0:
183,178,132214,1,8,0:0:0:0:
332,208,132364,1,0,0:0:0:0:
332,208,132514,1,8,0:0:0:0:
332,208,132664,1,8,0:0:0:0:
361,301,132814,1,0,0:0:0:0:
229,225,132964,1,0,0:0:0:0:
229,225,133114,1,8,0:0:0:0:
238,110,133264,1,0,0:0:0:0:
245,118,133414,1,0,0:0:0:0:
281,168,133564,1,8,0:0:0:0:
281,168,133639,1,8,0:0:0:0:
281,168,133714,1,8,0:0:0:0:
281,168,133864,1,8,0:0:0:0:
360,271,134014,1,0,0:0:0:0:
373,237,134089,1,0,0:0:0:0:
377,243,134164,1,0,0:0:0:0:
373,237,134314,1,8,0:0:0:0:
238,218,134464,1,8,0:0:0:0:
226,271,134614,1,0,0:0:0:0:
266,193,134714,1,0,0:0:0:0:
234,268,134814,1,8,0:0:0:0:
234,267,134914,1,0,0:0:0:0:
256,254,135014,1,0,0:0:0:0:
256,254,135114,1,8,0:0:0:0:
294,274,135214,1,0,0:0:0:0:
256,254,135314,1,8,0:0:0:0:
256,254,135414,1,8,0:0:0:0:
294,274,135514,1,0,0:0:0:0:
294,274,135614,1,0,0:0:0:0:
295,268,135714,1,8,0:0:0:0:
266,195,135814,1,0,0:0:0:0:
266,195,135914,1,8,0:0:0:0:
266,195,136014,1,8,0:0:0:0:
266,195,136114,1,0,0:0:0:0:
266,195,136214,1,8,0:0:0:0:
266,195,136314,1,8,0:0:0:0:
266,195,136414,1,0,0:0:0:0:
266,195,136514,1,0,0:0:0:0:
266,195,136614,1,8,0:0:0:0:
266,195,136714,1,0,0:0:0:0:
266,195,136814,1,8,0:0:0:0:
266,195,136914,1,8,0:0:0:0:
266,195,137014,1,0,0:0:0:0:
266,195,137114,1,8,0:0:0:0:
266,195,137214,1,8,0:0:0:0:
266,195,137314,1,0,0:0:0:0:
266,195,137414,1,8,0:0:0:0:
266,195,137514,1,8,0:0:0:0:
266,195,137614,1,0,0:0:0:0:
266,195,137714,1,8,0:0:0:0:
266,195,137814,1,8,0:0:0:0:
266,195,137914,1,0,0:0:0:0:
266,195,138014,1,0,0:0:0:0:
266,195,138114,1,8,0:0:0:0:
266,195,138214,1,0,0:0:0:0:
266,195,138314,1,8,0:0:0:0:
266,195,138414,1,8,0:0:0:0:
266,195,138514,1,0,0:0:0:0:
266,195,138614,1,0,0:0:0:0:
266,195,138714,1,8,0:0:0:0:
266,195,138814,1,0,0:0:0:0:
266,195,138914,1,8,0:0:0:0:
266,195,139014,1,8,0:0:0:0:
266,195,139114,1,8,0:0:0:0:
266,195,139214,1,0,0:0:0:0:
266,195,139314,1,0,0:0:0:0:
266,195,139414,1,8,0:0:0:0:
266,195,139514,1,0,0:0:0:0:
260,252,139614,1,8,0:0:0:0:
266,195,139714,1,8,0:0:0:0:
266,236,140014,1,0,0:0:0:0:
214,264,140114,1,0,0:0:0:0:
277,242,140214,1,8,0:0:0:0:
277,242,140314,1,0,0:0:0:0:
277,242,140414,1,0,0:0:0:0:
276,242,140514,1,8,0:0:0:0:
276,242,140614,1,0,0:0:0:0:
300,209,140714,1,8,0:0:0:0:
300,209,140814,1,8,0:0:0:0:
300,209,140914,1,0,0:0:0:0:
300,209,141014,1,0,0:0:0:0:
300,209,141114,1,8,0:0:0:0:
300,209,141214,1,0,0:0:0:0:
299,203,141314,1,8,0:0:0:0:
299,203,141414,1,8,0:0:0:0:
298,201,141514,1,0,0:0:0:0:
298,201,141614,1,8,0:0:0:0:
298,201,141714,1,8,0:0:0:0:
298,201,141814,1,0,0:0:0:0:
323,289,141914,1,0,0:0:0:0:
323,289,142014,1,8,0:0:0:0:
323,289,142114,1,0,0:0:0:0:
318,309,142214,1,8,0:0:0:0:
318,308,142314,1,8,0:0:0:0:
318,306,142414,1,0,0:0:0:0:
318,306,142514,1,8,0:0:0:0:
318,306,142614,1,8,0:0:0:0:
318,305,142714,1,0,0:0:0:0:
318,305,142814,1,8,0:0:0:0:
318,309,142914,1,8,0:0:0:0:
318,309,143014,1,0,0:0:0:0:
318,306,143114,1,8,0:0:0:0:
300,285,143214,1,8,0:0:0:0:
300,285,143314,1,0,0:0:0:0:
315,290,143414,1,0,0:0:0:0:
315,290,143514,1,8,0:0:0:0:
315,290,143614,1,0,0:0:0:0:
315,290,143714,1,8,0:0:0:0:
315,290,143814,1,8,0:0:0:0:
316,289,143914,1,0,0:0:0:0:
316,289,144014,1,0,0:0:0:0:
322,287,144114,1,8,0:0:0:0:
220,250,144214,1,0,0:0:0:0:
236,232,144314,1,8,0:0:0:0:
236,232,144414,1,8,0:0:0:0:
244,224,144514,1,0,0:0:0:0:
244,224,144614,1,0,0:0:0:0:
244,224,144714,1,8,0:0:0:0:
270,228,144814,1,0,0:0:0:0:
270,228,144914,1,8,0:0:0:0:
270,228,145014,1,8,0:0:0:0:
269,226,145114,1,0,0:0:0:0:
269,226,145214,1,8,0:0:0:0:
269,226,145314,1,8,0:0:0:0:
314,145,150214,1,0,0:0:0:0:
341,134,150314,1,0,0:0:0:0:
306,148,150414,1,8,0:0:0:0:
303,293,150514,1,0,0:0:0:0:
302,284,150614,1,0,0:0:0:0:
302,284,150714,1,8,0:0:0:0:
319,265,150814,1,0,0:0:0:0:
319,264,150914,1,8,0:0:0:0:
319,264,151014,1,8,0:0:0:0:
319,264,151114,1,0,0:0:0:0:
319,264,151214,1,0,0:0:0:0:
319,265,151314,1,8,0:0:0:0:
320,258,151414,1,0,0:0:0:0:
318,254,151514,1,8,0:0:0:0:
319,251,151614,1,8,0:0:0:0:
405,222,151714,1,0,0:0:0:0:
405,222,151814,1,0,0:0:0:0:
405,222,151914,1,8,0:0:0:0:
341,276,152014,1,0,0:0:0:0:
341,276,152114,1,8,0:0:0:0:
341,276,152214,1,8,0:0:0:0:
330,290,152314,1,0,0:0:0:0:
330,289,152414,1,8,0:0:0:0:
330,289,152514,1,8,0:0:0:0:
288,263,152614,1,0,0:0:0:0:
288,263,152714,1,0,0:0:0:0:
285,277,152814,1,8,0:0:0:0:
285,277,152914,1,0,0:0:0:0:
278,264,153014,1,0,0:0:0:0:
278,264,153114,1,8,0:0:0:0:
215,251,153214,1,0,0:0:0:0:
215,251,153314,1,8,0:0:0:0:
215,251,153414,1,8,0:0:0:0:
215,251,153514,1,0,0:0:0:0:
215,251,153614,1,0,0:0:0:0:
215,251,153714,1,8,0:0:0:0:
215,251,153814,1,0,0:0:0:0:
215,251,153914,1,8,0:0:0:0:
215,251,154014,1,8,0:0:0:0:
215,251,154114,1,0,0:0:0:0:
215,251,154214,1,8,0:0:0:0:
215,251,154314,1,8,0:0:0:0:
220,249,154414,1,0,0:0:0:0:
220,249,154514,1,0,0:0:0:0:
223,249,154614,1,8,0:0:0:0:
223,249,154714,1,0,0:0:0:0:
223,249,154814,1,8,0:0:0:0:
223,249,154914,1,8,0:0:0:0:
224,249,155014,1,4,0:0:0:0:
256,192,155164,12,0,159214,0:0:0:0:
366,160,159514,5,8,0:0:0:0:
366,160,159639,1,0,0:0:0:0:
202,154,159764,1,0,0:0:0:0:
139,145,159889,1,8,0:0:0:0:
322,183,160139,1,8,0:0:0:0:
322,183,160389,1,8,0:0:0:0:
322,183,160639,1,8,0:0:0:0:
330,161,160889,1,8,0:0:0:0:
247,183,161014,1,0,0:0:0:0:
247,183,161139,1,0,0:0:0:0:
247,183,161264,1,0,0:0:0:0:
246,176,161389,1,0,0:0:0:0:
259,268,161764,1,0,0:0:0:0:
259,268,161889,1,0,0:0:0:0:
259,268,162014,1,0,0:0:0:0:
259,268,162139,1,0,0:0:0:0:
274,231,162514,1,4,0:0:0:0:
274,231,162764,1,4,0:0:0:0:
274,231,163014,1,4,0:0:0:0:
273,200,163264,1,8,0:0:0:0:
273,200,163389,1,0,0:0:0:0:
255,167,163514,1,0,0:0:0:0:
255,167,163639,1,8,0:0:0:0:
255,236,163764,1,0,0:0:0:0:
277,175,163889,1,8,0:0:0:0:
276,209,164014,1,0,0:0:0:0:
276,209,164139,1,0,0:0:0:0:
276,209,164264,1,0,0:0:0:0:
276,209,164389,1,0,0:0:0:0:
295,202,164764,1,0,0:0:0:0:
294,201,164889,1,0,0:0:0:0:
294,201,165014,1,0,0:0:0:0:
290,186,165139,1,0,0:0:0:0:
242,216,165514,1,8,0:0:0:0:
277,175,165639,1,0,0:0:0:0:
277,175,165764,1,0,0:0:0:0:
248,215,165889,1,8,0:0:0:0:
255,209,166014,1,0,0:0:0:0:
254,208,166139,1,8,0:0:0:0:
254,208,166264,1,8,0:0:0:0:
260,90,166389,1,0,0:0:0:0:
108,158,166451,1,0,0:0:0:0:
108,158,166514,1,0,0:0:0:0:
267,251,166639,1,8,0:0:0:0:
285,208,166764,1,0,0:0:0:0:
285,208,166826,1,0,0:0:0:0:
285,260,166889,1,8,0:0:0:0:
283,216,167014,1,0,0:0:0:0:
283,216,167139,1,0,0:0:0:0:
283,216,167264,1,0,0:0:0:0:
256,165,167389,1,8,0:0:0:0:
359,242,167764,1,0,0:0:0:0:
281,115,167889,1,0,0:0:0:0:
281,115,168014,1,0,0:0:0:0:
281,115,168139,1,12,0:0:0:0:
334,231,168514,1,4,0:0:0:0:
334,231,168764,1,4,0:0:0:0:
277,210,169014,1,4,0:0:0:0:
270,189,169264,1,12,0:0:0:0:
286,194,169389,1,0,0:0:0:0:
287,195,169514,1,0,0:0:0:0:
285,180,169639,1,12,0:0:0:0:
288,179,170014,1,0,0:0:0:0:
288,179,170139,1,0,0:0:0:0:
288,179,170264,1,0,0:0:0:0:
284,169,170389,1,8,0:0:0:0:
284,169,170764,1,0,0:0:0:0:
284,169,170889,1,0,0:0:0:0:
284,169,171014,1,0,0:0:0:0:
284,169,171139,1,12,0:0:0:0:
284,169,171514,1,0,0:0:0:0:
284,169,171639,1,0,0:0:0:0:
284,169,171764,1,8,0:0:0:0:
284,169,171889,1,8,0:0:0:0:
294,178,172014,1,0,0:0:0:0:
293,176,172139,1,0,0:0:0:0:
296,178,172264,1,8,0:0:0:0:
315,180,172389,1,0,0:0:0:0:
314,180,172514,1,0,0:0:0:0:
314,180,172639,1,8,0:0:0:0:
314,179,172764,1,0,0:0:0:0:
314,179,172889,1,8,0:0:0:0:
264,193,173014,1,4,0:0:0:0:
264,193,173264,1,0,0:0:0:0:
270,192,173389,1,8,0:0:0:0:
276,189,173764,1,0,0:0:0:0:
276,189,173889,1,0,0:0:0:0:
276,189,174014,1,0,0:0:0:0:
274,187,174139,1,12,0:0:0:0:
276,172,174514,1,4,0:0:0:0:
276,171,174764,1,4,0:0:0:0:
276,172,175014,1,4,0:0:0:0:
271,159,175264,1,12,0:0:0:0:
280,136,175389,1,0,0:0:0:0:
280,136,175451,1,0,0:0:0:0:
280,136,175514,1,0,0:0:0:0:
169,183,175639,1,12,0:0:0:0:
282,158,176014,1,4,0:0:0:0:
280,150,176264,1,0,0:0:0:0:
279,151,176389,1,8,0:0:0:0:
253,157,176764,1,0,0:0:0:0:
256,143,176889,1,0,0:0:0:0:
247,129,177014,1,0,0:0:0:0:
247,129,177139,1,12,0:0:0:0:
306,172,177264,1,0,0:0:0:0:
306,172,177389,1,0,0:0:0:0:
213,135,177514,1,8,0:0:0:0:
213,135,177576,1,8,0:0:0:0:
213,135,177639,1,0,0:0:0:0:
212,128,177764,1,8,0:0:0:0:
251,157,177889,1,0,0:0:0:0:
252,147,177951,1,0,0:0:0:0:
251,145,178014,1,0,0:0:0:0:
250,142,178139,1,8,0:0:0:0:
279,211,178264,1,0,0:0:0:0:
292,199,178326,1,0,0:0:0:0:
271,188,178389,1,8,0:0:0:0:
150,164,178514,1,0,0:0:0:0:
334,151,178639,1,8,0:0:0:0:
334,151,178764,1,8,0:0:0:0:
325,130,178889,1,8,0:0:0:0:
315,98,179014,1,4,0:0:0:0:
306,61,179264,1,0,0:0:0:0:
203,173,179389,1,8,0:0:0:0:
282,271,179514,1,0,0:0:0:0:
282,271,179639,1,0,0:0:0:0:
229,106,179764,1,8,0:0:0:0:
321,173,179826,1,0,0:0:0:0:
229,106,179889,1,0,0:0:0:0:
229,106,180014,1,0,0:0:0:0:
329,208,180139,1,8,0:0:0:0:
298,240,180201,1,8,0:0:0:0:
321,174,180264,1,0,0:0:0:0:
297,230,180389,1,0,0:0:0:0:
220,171,180514,1,8,0:0:0:0:
220,171,180576,1,0,0:0:0:0:
219,164,180639,1,8,0:0:0:0:
219,164,180764,1,0,0:0:0:0:
375,243,180889,1,8,0:0:0:0:
375,237,180951,1,8,0:0:0:0:
375,236,181014,1,0,0:0:0:0:
375,227,181139,1,8,0:0:0:0:
374,228,181264,1,0,0:0:0:0:
376,226,181326,1,0,0:0:0:0:
376,225,181389,1,0,0:0:0:0:
379,254,181514,1,8,0:0:0:0:
389,252,181639,1,0,0:0:0:0:
389,244,181701,1,0,0:0:0:0:
389,244,181764,1,8,0:0:0:0:
389,244,181889,1,0,0:0:0:0:
72,192,182014,2,4,L|176:176,11,70.0000026702882
220,174,183514,1,0,0:0:0:0:
340,232,183639,1,0,0:0:0:0:
339,210,183764,1,8,0:0:0:0:
339,210,183889,1,0,0:0:0:0:
339,210,184014,1,0,0:0:0:0:
338,209,184139,1,8,0:0:0:0:
440,296,184264,1,0,0:0:0:0:
307,267,184389,1,8,0:0:0:0:
310,261,184514,1,8,0:0:0:0:
310,261,184639,1,0,0:0:0:0:
314,257,184764,1,0,0:0:0:0:
314,257,184889,1,8,0:0:0:0:
295,189,185014,1,0,0:0:0:0:
289,172,185076,1,0,0:0:0:0:
288,168,185139,1,8,0:0:0:0:
288,168,185201,1,0,0:0:0:0:
288,160,185264,1,8,0:0:0:0:
288,160,185326,1,0,0:0:0:0:
288,160,185389,1,8,0:0:0:0:
288,160,185451,1,8,0:0:0:0:
288,160,185514,1,0,0:0:0:0:
360,256,185639,1,8,0:0:0:0:
336,240,185764,1,0,0:0:0:0:
360,248,185826,1,0,0:0:0:0:
360,248,185889,1,8,0:0:0:0:
232,160,186014,1,0,0:0:0:0:
232,160,186139,1,8,0:0:0:0:
232,152,186201,1,8,0:0:0:0:
232,152,186264,1,0,0:0:0:0:
312,176,186326,1,8,0:0:0:0:
312,176,186389,1,0,0:0:0:0:
288,184,186514,1,8,0:0:0:0:
272,216,186576,1,0,0:0:0:0:
320,160,186639,1,8,0:0:0:0:
320,160,186701,1,8,0:0:0:0:
320,160,186764,1,0,0:0:0:0:
320,160,186826,1,8,0:0:0:0:
320,160,186889,1,0,0:0:0:0:
320,160,186951,1,0,0:0:0:0:
320,160,187014,1,8,0:0:0:0:
304,208,187139,1,0,0:0:0:0:
232,232,187264,1,8,0:0:0:0:
256,200,187326,1,8,0:0:0:0:
256,200,187389,1,0,0:0:0:0:
248,192,187514,1,8,0:0:0:0:
248,192,187639,1,0,0:0:0:0:
264,192,187701,1,0,0:0:0:0:
248,192,187764,1,0,0:0:0:0:
264,192,187889,1,8,0:0:0:0:
192,152,188014,1,0,0:0:0:0:
192,152,188076,1,0,0:0:0:0:
192,152,188139,1,8,0:0:0:0:
192,144,188201,1,0,0:0:0:0:
192,144,188264,1,8,0:0:0:0:
192,144,188326,1,8,0:0:0:0:
192,136,188389,1,0,0:0:0:0:
192,136,188451,1,0,0:0:0:0:
192,136,188514,1,8,0:0:0:0:
192,136,188576,1,0,0:0:0:0:
192,136,188639,1,8,0:0:0:0:
192,136,188701,1,8,0:0:0:0:
192,136,188764,1,0,0:0:0:0:
304,232,188889,1,8,0:0:0:0:
304,232,188951,1,8,0:0:0:0:
304,232,189014,1,0,0:0:0:0:
304,232,189139,1,8,0:0:0:0:
232,168,189264,1,0,0:0:0:0:
240,168,189389,1,0,0:0:0:0:
384,288,189514,1,8,0:0:0:0:
248,192,189639,1,0,0:0:0:0:
248,192,189701,1,0,0:0:0:0:
248,192,189764,1,8,0:0:0:0:
248,192,189889,1,0,0:0:0:0:
224,160,190014,1,8,0:0:0:0:
224,160,190076,1,0,0:0:0:0:
224,160,190139,1,8,0:0:0:0:
368,288,190264,1,0,0:0:0:0:
368,280,190326,1,0,0:0:0:0:
368,280,190389,1,8,0:0:0:0:
352,272,190514,1,0,0:0:0:0:
328,256,190639,1,8,0:0:0:0:
328,256,190701,1,8,0:0:0:0:
328,256,190764,1,0,0:0:0:0:
328,256,190826,1,8,0:0:0:0:
320,256,190889,1,0,0:0:0:0:
264,248,190951,1,0,0:0:0:0:
320,256,191014,1,8,0:0:0:0:
136,192,191314,1,8,0:0:0:0:
288,264,191464,1,8,0:0:0:0:
376,256,191614,1,0,0:0:0:0:
376,256,191689,1,0,0:0:0:0:
376,248,191764,1,8,0:0:0:0:
376,240,191839,1,0,0:0:0:0:
376,240,191914,1,8,0:0:0:0:
376,240,191989,1,8,0:0:0:0:
376,240,192064,1,0,0:0:0:0:
336,320,192139,1,8,0:0:0:0:
328,312,192214,1,0,0:0:0:0:
328,304,192289,1,0,0:0:0:0:
328,304,192364,1,0,0:0:0:0:
328,304,192439,1,0,0:0:0:0:
328,304,192514,1,8,0:0:0:0:
328,296,192814,1,0,0:0:0:0:
328,296,192964,1,0,0:0:0:0:
304,272,193039,1,0,0:0:0:0:
280,224,193114,1,8,0:0:0:0:
280,224,193189,1,0,0:0:0:0:
280,224,193264,1,8,0:0:0:0:
280,224,193339,1,0,0:0:0:0:
280,224,193414,1,8,0:0:0:0:
328,312,193489,1,0,0:0:0:0:
280,224,193564,1,0,0:0:0:0:
384,312,193714,1,8,0:0:0:0:
304,256,193789,1,8,0:0:0:0:
304,256,193864,1,0,0:0:0:0:
280,264,194014,1,8,0:0:0:0:
280,256,194089,1,0,0:0:0:0:
280,256,194164,1,0,0:0:0:0:
248,272,194239,1,8,0:0:0:0:
280,256,194314,1,8,0:0:0:0:
240,264,194389,1,0,0:0:0:0:
240,264,194464,1,8,0:0:0:0:
240,256,194539,1,8,0:0:0:0:
240,288,194614,1,0,0:0:0:0:
320,64,194714,1,8,0:0:0:0:
320,64,194814,1,0,0:0:0:0:
320,64,194914,1,8,0:0:0:0:
320,64,195014,1,0,0:0:0:0:
320,64,195114,1,8,0:0:0:0:
328,240,195214,1,0,0:0:0:0:
320,224,195314,1,8,0:0:0:0:
320,224,195414,1,0,0:0:0:0:
320,224,195514,1,8,0:0:0:0:
320,224,195614,1,0,0:0:0:0:
368,224,195964,1,0,0:0:0:0:
240,256,196039,1,0,0:0:0:0:
200,224,196114,1,8,0:0:0:0:
232,240,196264,1,8,0:0:0:0:
312,232,196414,1,0,0:0:0:0:
312,232,196489,1,8,0:0:0:0:
336,312,196564,1,0,0:0:0:0:
360,288,196639,1,0,0:0:0:0:
336,312,196714,1,8,0:0:0:0:
248,232,196789,1,8,0:0:0:0:
336,312,196864,1,0,0:0:0:0:
336,312,196939,1,8,0:0:0:0:
336,312,197014,1,8,0:0:0:0:
336,312,197089,1,0,0:0:0:0:
248,272,197164,1,0,0:0:0:0:
344,272,197239,1,0,0:0:0:0:
176,264,197314,1,8,0:0:0:0:
328,272,197389,1,8,0:0:0:0:
288,208,197464,1,0,0:0:0:0:
384,288,197539,1,8,0:0:0:0:
240,296,197614,1,8,0:0:0:0:
240,296,197689,1,0,0:0:0:0:
328,216,197764,1,8,0:0:0:0:
328,216,197839,1,8,0:0:0:0:
256,216,197914,1,0,0:0:0:0:
256,216,197989,1,0,0:0:0:0:
256,216,198064,1,8,0:0:0:0:
256,216,198139,1,0,0:0:0:0:
248,288,198214,1,8,0:0:0:0:
344,304,198364,1,0,0:0:0:0:
344,304,198514,1,8,0:0:0:0:
344,304,198664,1,0,0:0:0:0:
344,304,198739,1,0,0:0:0:0:
344,304,198814,1,0,0:0:0:0:
344,296,198964,1,0,0:0:0:0:
304,224,199039,1,0,0:0:0:0:
304,224,199114,1,8,0:0:0:0:
304,224,199264,1,4,0:0:0:0:
224,200,199714,1,12,0:0:0:0:
224,200,200014,1,12,0:0:0:0:
224,192,200464,1,4,0:0:0:0:
144,136,200764,1,0,0:0:0:0:
168,120,200914,1,8,0:0:0:0:
256,160,201064,1,0,0:0:0:0:
256,160,201139,1,0,0:0:0:0:
256,160,201214,1,0,0:0:0:0:
264,160,201364,1,0,0:0:0:0:
264,160,201514,1,8,0:0:0:0:
312,264,201664,1,4,0:0:0:0:
312,264,201964,1,0,0:0:0:0:
312,264,202114,1,8,0:0:0:0:
312,264,202264,1,0,0:0:0:0:
312,264,202339,1,0,0:0:0:0:
312,264,202414,1,8,0:0:0:0:
312,264,202564,1,0,0:0:0:0:
312,264,202714,1,8,0:0:0:0:
312,264,202789,1,8,0:0:0:0:
312,256,202864,1,0,0:0:0:0:
312,256,203014,1,8,0:0:0:0:
312,256,203164,1,0,0:0:0:0:
312,248,203239,1,0,0:0:0:0:
312,248,203314,1,8,0:0:0:0:
312,248,203464,1,8,0:0:0:0:
312,240,203614,1,0,0:0:0:0:
336,192,203689,1,0,0:0:0:0:
336,192,203764,1,8,0:0:0:0:
336,192,203839,1,0,0:0:0:0:
352,216,203914,1,8,0:0:0:0:
336,192,203989,1,8,0:0:0:0:
336,192,204064,1,0,0:0:0:0:
328,280,204289,1,8,0:0:0:0:
320,232,204364,1,0,0:0:0:0:
320,280,204439,1,8,0:0:0:0:
320,272,204514,1,8,0:0:0:0:
320,272,204589,1,0,0:0:0:0:
312,272,204664,1,8,0:0:0:0:
224,152,204814,1,0,0:0:0:0:
248,184,204889,1,8,0:0:0:0:
248,184,204964,1,8,0:0:0:0:
248,176,205039,1,0,0:0:0:0:
248,176,205114,1,8,0:0:0:0:
232,264,205189,1,8,0:0:0:0:
280,208,205264,1,0,0:0:0:0:
280,208,205339,1,0,0:0:0:0:
280,208,205414,1,8,0:0:0:0:
232,240,205489,1,0,0:0:0:0:
336,184,205564,1,8,0:0:0:0:
336,184,205639,1,0,0:0:0:0:
336,184,205714,1,0,0:0:0:0:
216,192,205789,1,8,0:0:0:0:
216,192,205864,1,8,0:0:0:0:
216,192,205939,1,0,0:0:0:0:
216,192,206014,1,8,0:0:0:0:
288,232,206089,1,8,0:0:0:0:
288,232,206164,1,0,0:0:0:0:
320,264,206239,1,0,0:0:0:0:
288,176,206314,1,8,0:0:0:0:
328,264,206389,1,0,0:0:0:0:
328,264,206464,1,8,0:0:0:0:
328,264,206539,1,8,0:0:0:0:
176,160,206614,1,0,0:0:0:0:
288,176,206689,1,0,0:0:0:0:
176,304,206764,1,8,0:0:0:0:
288,232,206839,1,0,0:0:0:0:
288,232,206914,1,0,0:0:0:0:
288,232,206989,1,0,0:0:0:0:
288,232,207064,1,8,0:0:0:0:
336,272,207139,1,0,0:0:0:0:
336,272,207214,1,8,0:0:0:0:
344,272,207289,1,8,0:0:0:0:
304,328,207364,1,0,0:0:0:0:
256,288,207439,1,0,0:0:0:0:
256,288,207514,1,8,0:0:0:0:
272,304,207589,1,8,0:0:0:0:
264,296,207664,1,0,0:0:0:0:
264,288,207739,1,8,0:0:0:0:
264,288,207814,1,8,0:0:0:0:
256,272,207889,1,8,0:0:0:0:
264,224,207964,1,0,0:0:0:0:
264,216,208039,1,0,0:0:0:0:
264,216,208114,1,8,0:0:0:0:
264,216,208189,1,0,0:0:0:0:
264,216,208264,1,8,0:0:0:0:
264,216,208339,1,8,0:0:0:0:
264,216,208414,1,0,0:0:0:0:
264,192,208714,1,4,0:0:0:0:
264,184,209014,1,12,0:0:0:0:
266,236,209614,1,0,0:0:0:0:
214,264,209714,1,0,0:0:0:0:
277,242,209814,1,8,0:0:0:0:
277,242,209914,1,0,0:0:0:0:
277,242,210014,1,0,0:0:0:0:
276,242,210114,1,8,0:0:0:0:
276,242,210214,1,0,0:0:0:0:
300,209,210314,1,8,0:0:0:0:
300,209,210414,1,8,0:0:0:0:
300,209,210514,1,0,0:0:0:0:
300,209,210614,1,0,0:0:0:0:
300,209,210714,1,8,0:0:0:0:
300,209,210814,1,0,0:0:0:0:
299,203,210914,1,8,0:0:0:0:
299,203,211014,1,8,0:0:0:0:
298,201,211114,1,0,0:0:0:0:
298,201,211214,1,8,0:0:0:0:
298,201,211314,1,8,0:0:0:0:
298,201,211414,1,0,0:0:0:0:
323,289,211514,1,0,0:0:0:0:
323,289,211614,1,8,0:0:0:0:
323,289,211714,1,0,0:0:0:0:
318,309,211814,1,8,0:0:0:0:
318,308,211914,1,8,0:0:0:0:
318,306,212014,1,0,0:0:0:0:
318,306,212114,1,8,0:0:0:0:
318,306,212214,1,8,0:0:0:0:
318,305,212314,1,0,0:0:0:0:
318,305,212414,1,8,0:0:0:0:
318,309,212514,1,8,0:0:0:0:
318,309,212614,1,0,0:0:0:0:
318,306,212714,1,8,0:0:0:0:
300,285,212814,1,8,0:0:0:0:
300,285,212914,1,0,0:0:0:0:
315,290,213014,1,0,0:0:0:0:
315,290,213114,1,8,0:0:0:0:
315,290,213214,1,0,0:0:0:0:
315,290,213314,1,8,0:0:0:0:
315,290,213414,1,8,0:0:0:0:
316,289,213514,1,0,0:0:0:0:
316,289,213614,1,0,0:0:0:0:
322,287,213714,1,8,0:0:0:0:
220,250,213814,1,0,0:0:0:0:
236,232,213914,1,8,0:0:0:0:
236,232,214014,1,8,0:0:0:0:
244,224,214114,1,0,0:0:0:0:
244,224,214214,1,0,0:0:0:0:
244,224,214314,1,8,0:0:0:0:
270,228,214414,1,0,0:0:0:0:
270,228,214514,1,8,0:0:0:0:
270,228,214614,1,8,0:0:0:0:
269,226,214714,1,0,0:0:0:0:
269,226,214814,1,8,0:0:0:0:
269,226,214914,1,8,0:0:0:0:
328,240,215014,1,0,0:0:0:0:
312,176,215314,1,0,0:0:0:0:
312,176,215414,1,0,0:0:0:0:
312,176,215514,1,0,0:0:0:0:
312,176,215614,1,8,0:0:0:0:
384,288,215914,1,0,0:0:0:0:
384,208,216214,1,0,0:0:0:0:
352,232,216314,1,0,0:0:0:0:
376,208,216414,1,0,0:0:0:0:
376,208,216514,1,0,0:0:0:0:
352,232,216614,1,0,0:0:0:0:
352,232,216714,1,0,0:0:0:0:
336,208,216814,1,8,0:0:0:0:
264,152,217114,1,0,0:0:0:0:
264,152,217214,1,0,0:0:0:0:
272,152,217314,1,0,0:0:0:0:
272,152,217414,1,8,0:0:0:0:
272,88,217489,1,8,0:0:0:0:
272,88,217564,1,0,0:0:0:0:
272,88,217639,1,0,0:0:0:0:
272,88,217714,1,0,0:0:0:0:
240,160,217864,1,0,0:0:0:0:
240,160,218014,1,8,0:0:0:0:
64,176,218314,1,0,0:0:0:0:
64,168,218464,1,0,0:0:0:0:
232,72,218614,1,0,0:0:0:0:
240,72,218714,1,0,0:0:0:0:
240,72,218814,1,0,0:0:0:0:
240,72,218914,1,12,0:0:0:0:
240,72,219214,1,0,0:0:0:0:
240,72,219314,1,0,0:0:0:0:
240,72,219414,1,0,0:0:0:0:
240,72,219514,1,12,0:0:0:0:
328,192,219814,1,8,0:0:0:0:
304,176,219914,1,0,0:0:0:0:
312,192,220014,1,0,0:0:0:0:
232,176,220114,1,0,0:0:0:0:
256,304,220214,1,8,0:0:0:0:
216,72,220314,1,0,0:0:0:0:
224,208,220414,1,8,0:0:0:0:
208,176,220514,1,0,0:0:0:0:
232,176,220614,1,0,0:0:0:0:
256,296,220714,1,8,0:0:0:0:
256,208,220814,1,0,0:0:0:0:
256,208,220914,1,0,0:0:0:0:
256,280,221014,1,8,0:0:0:0:
208,224,221114,1,8,0:0:0:0:
152,216,221214,1,0,0:0:0:0:
232,112,221314,1,8,0:0:0:0:
232,112,221364,1,0,0:0:0:0:
232,112,221414,1,8,0:0:0:0:
288,184,221514,1,0,0:0:0:0:
288,184,221614,1,0,0:0:0:0:
352,248,221714,1,0,0:0:0:0:
360,248,221814,1,8,0:0:0:0:
272,72,221864,1,0,0:0:0:0:
368,256,221914,1,8,0:0:0:0:
176,112,222014,1,0,0:0:0:0:
296,104,222114,1,0,0:0:0:0:
288,192,222214,1,8,0:0:0:0:
288,192,222314,1,0,0:0:0:0:
288,192,222414,1,0,0:0:0:0:
288,192,222514,1,8,0:0:0:0:
288,192,222614,1,0,0:0:0:0:
368,264,222714,1,8,0:0:0:0:
368,264,222814,1,8,0:0:0:0:
368,264,222914,1,0,0:0:0:0:
368,264,223014,1,0,0:0:0:0:
344,248,223114,1,8,0:0:0:0:
272,136,223214,1,0,0:0:0:0:
272,136,223314,1,0,0:0:0:0:
320,96,223414,1,12,0:0:0:0:
400,224,223680,1,0,0:0:0:0:
224,208,223814,1,12,0:0:0:0:
264,200,224080,1,8,0:0:0:0:
280,168,224214,1,4,0:0:0:0:
264,200,224480,1,0,0:0:0:0:
280,168,224614,1,4,0:0:0:0:
224,168,224880,1,0,0:0:0:0:
280,168,225014,1,12,0:0:0:0:
280,160,225614,1,4,0:0:0:0:
312,136,226214,1,4,0:0:0:0:
368,144,226614,1,0,0:0:0:0:
368,144,226714,1,0,0:0:0:0:
368,144,226814,1,8,0:0:0:0:
392,232,227414,1,4,0:0:0:0:
336,272,228337,1,8,0:0:0:0:
336,256,229260,1,4,0:0:0:0:
328,232,230183,1,8,0:0:0:0:
128,160,230644,1,0,0:0:0:0:
224,272,230721,1,0,0:0:0:0:
168,136,230798,1,8,0:0:0:0:
152,160,230952,1,8,0:0:0:0:
240,208,231106,1,0,0:0:0:0:
280,240,231183,1,0,0:0:0:0:
240,208,231260,1,0,0:0:0:0:
288,216,231414,1,0,0:0:0:0:
280,200,231567,1,8,0:0:0:0:
288,192,232029,1,8,0:0:0:0:
280,192,232336,1,0,0:0:0:0:
280,200,232413,1,0,0:0:0:0:
280,192,232490,1,0,0:0:0:0:
152,200,232644,1,8,0:0:0:0:
328,200,232798,1,0,0:0:0:0:
328,192,232952,1,8,0:0:0:0:
320,192,233029,1,8,0:0:0:0:
304,216,233106,1,0,0:0:0:0:
304,208,233260,1,8,0:0:0:0:
304,208,233414,1,8,0:0:0:0:
320,232,233567,1,0,0:0:0:0:
344,216,233721,1,0,0:0:0:0:
344,216,233875,1,8,0:0:0:0:
344,216,234029,1,0,0:0:0:0:
344,216,234106,1,0,0:0:0:0:
344,216,234183,1,8,0:0:0:0:
344,216,234337,1,8,0:0:0:0:
336,264,234490,1,0,0:0:0:0:
336,264,234644,1,0,0:0:0:0:
336,264,234798,1,4,0:0:0:0:
320,248,235106,1,0,0:0:0:0:
320,248,235260,1,8,0:0:0:0:
320,272,235567,1,0,0:0:0:0:
320,272,235721,1,0,0:0:0:0:
320,264,236029,1,0,0:0:0:0:
320,264,236183,1,8,0:0:0:0:
280,288,236337,1,0,0:0:0:0:
280,288,236490,1,0,0:0:0:0:
280,280,236644,1,12,0:0:0:0:
352,216,236952,1,12,0:0:0:0:
280,280,237260,1,4,0:0:0:0:
208,208,237567,1,12,0:0:0:0:
208,200,237875,1,4,0:0:0:0:
208,200,238183,1,4,0:0:0:0:
208,200,238490,1,12,0:0:0:0:
304,208,238798,1,0,0:0:0:0:
304,208,238952,1,8,0:0:0:0:
304,208,239106,1,0,0:0:0:0:
328,216,239260,1,0,0:0:0:0:
328,216,239414,1,8,0:0:0:0:
312,240,239721,1,0,0:0:0:0:
304,240,239875,1,0,0:0:0:0:
304,240,240029,1,8,0:0:0:0:
304,224,240337,1,4,0:0:0:0:
304,224,240644,1,0,0:0:0:0:
304,224,240798,1,8,0:0:0:0:
304,224,240952,1,0,0:0:0:0:
304,224,241106,1,0,0:0:0:0:
232,168,241260,1,8,0:0:0:0:
184,160,241567,1,0,0:0:0:0:
184,160,241875,1,0,0:0:0:0:
200,176,242183,1,0,0:0:0:0:
200,168,242333,1,0,0:0:0:0:
240,128,242483,1,8,0:0:0:0:
240,128,242558,1,8,0:0:0:0:
240,128,242633,1,0,0:0:0:0:
240,128,242708,1,0,0:0:0:0:
240,128,242783,1,8,0:0:0:0:
336,280,242933,1,8,0:0:0:0:
272,248,243083,1,0,0:0:0:0:
272,240,243158,1,0,0:0:0:0:
272,240,243233,1,0,0:0:0:0:
272,232,243383,1,8,0:0:0:0:
272,232,243458,1,8,0:0:0:0:
272,232,243533,1,0,0:0:0:0:
272,232,243608,1,0,0:0:0:0:
272,232,243683,1,8,0:0:0:0:
240,160,243983,1,0,0:0:0:0:
240,152,244083,1,0,0:0:0:0:
240,152,244183,1,0,0:0:0:0:
240,152,244283,1,8,0:0:0:0:
240,152,244383,1,8,0:0:0:0:
240,152,244483,1,0,0:0:0:0:
240,152,244583,1,12,0:0:0:0:
288,168,245183,1,4,0:0:0:0:
240,80,245333,1,8,0:0:0:0:
224,96,245408,1,8,0:0:0:0:
320,160,245483,1,0,0:0:0:0:
224,96,245558,1,0,0:0:0:0:
224,96,245633,1,8,0:0:0:0:
336,280,245783,1,0,0:0:0:0:
368,240,245933,1,8,0:0:0:0:
304,176,246008,1,8,0:0:0:0:
296,160,246083,1,0,0:0:0:0:
296,160,246233,1,8,0:0:0:0:
288,152,246308,1,8,0:0:0:0:
264,168,246383,1,0,0:0:0:0:
264,168,246458,1,0,0:0:0:0:
264,168,246533,1,8,0:0:0:0:
264,168,246683,1,8,0:0:0:0:
200,160,246983,1,0,0:0:0:0:
336,136,247083,1,0,0:0:0:0:
336,128,247183,1,0,0:0:0:0:
336,128,247283,1,8,0:0:0:0:
336,120,247383,1,0,0:0:0:0:
296,264,247483,1,0,0:0:0:0:
288,240,247583,1,12,0:0:0:0:
288,240,247783,1,12,0:0:0:0:
288,240,247983,1,12,0:0:0:0:
280,200,248183,1,8,0:0:0:0:
320,128,248258,1,0,0:0:0:0:
280,208,248933,1,0,0:0:0:0:
264,192,249008,1,8,0:0:0:0:
232,208,249383,1,8,0:0:0:0:
272,248,249458,1,0,0:0:0:0:
272,232,250058,1,8,0:0:0:0:
272,232,250133,1,8,0:0:0:0:
288,192,250433,1,0,0:0:0:0:
272,208,250508,1,8,0:0:0:0:
288,192,250583,1,0,0:0:0:0:
264,208,250733,1,8,0:0:0:0:
264,200,250883,1,0,0:0:0:0:
264,200,250958,1,0,0:0:0:0:
248,192,251033,1,8,0:0:0:0:
248,192,251183,1,0,0:0:0:0:
248,192,251333,1,8,0:0:0:0:
248,192,251408,1,8,0:0:0:0:
248,192,251483,1,0,0:0:0:0:
248,184,251633,1,8,0:0:0:0:
288,168,251783,1,4,0:0:0:0:
288,168,252008,1,4,0:0:0:0:
288,168,252233,1,12,0:0:0:0:
368,240,252383,1,0,0:0:0:0:
368,240,252458,1,8,0:0:0:0:
368,240,252533,1,8,0:0:0:0:
368,240,252608,1,0,0:0:0:0:
368,240,252683,1,0,0:0:0:0:
368,240,252758,1,8,0:0:0:0:
368,240,252833,1,0,0:0:0:0:
368,256,252983,1,12,0:0:0:0:
368,256,253208,1,12,0:0:0:0:
368,256,253433,1,12,0:0:0:0:
256,192,253583,12,12,254033,0:0:0:0:
88,144,254183,5,4,0:0:0:0:
168,152,254333,1,8,0:0:0:0:
168,152,254483,1,0,0:0:0:0:
168,152,254558,1,0,0:0:0:0:
168,152,254633,1,8,0:0:0:0:
392,296,254783,1,0,0:0:0:0:
368,256,254933,1,8,0:0:0:0:
368,256,255008,1,8,0:0:0:0:
288,152,255083,1,0,0:0:0:0:
288,152,255158,1,0,0:0:0:0:
288,152,255233,1,8,0:0:0:0:
288,152,255383,1,0,0:0:0:0:
344,280,255533,1,8,0:0:0:0:
192,96,255608,1,0,0:0:0:0:
344,280,255683,1,0,0:0:0:0:
344,280,255758,1,0,0:0:0:0:
344,280,255833,1,8,0:0:0:0:
352,224,255983,1,0,0:0:0:0:
352,224,256058,1,0,0:0:0:0:
352,224,256133,1,8,0:0:0:0:
352,224,256208,1,0,0:0:0:0:
352,224,256283,1,0,0:0:0:0:
352,224,256358,1,0,0:0:0:0:
352,224,256433,1,8,0:0:0:0:
352,224,256508,1,8,0:0:0:0:
352,224,256583,1,0,0:0:0:0:
376,248,256733,1,8,0:0:0:0:
376,248,256883,1,0,0:0:0:0:
376,248,256958,1,0,0:0:0:0:
376,248,257033,1,8,0:0:0:0:
376,248,257183,1,0,0:0:0:0:
376,248,257333,1,8,0:0:0:0:
376,240,257408,1,0,0:0:0:0:
376,240,257483,1,0,0:0:0:0:
376,240,257558,1,0,0:0:0:0:
376,240,257633,1,8,0:0:0:0:
328,264,257783,1,0,0:0:0:0:
264,208,257858,1,0,0:0:0:0:
304,232,257933,1,8,0:0:0:0:
328,192,258008,1,8,0:0:0:0:
328,192,258083,1,0,0:0:0:0:
272,208,258233,1,8,0:0:0:0:
224,168,258383,1,0,0:0:0:0:
224,168,258458,1,0,0:0:0:0:
224,168,258533,1,8,0:0:0:0:
224,168,258608,1,8,0:0:0:0:
224,168,258683,1,0,0:0:0:0:
224,168,258758,1,8,0:0:0:0:
224,168,258833,1,8,0:0:0:0:
224,168,258908,1,8,0:0:0:0:
224,216,258983,1,0,0:0:0:0:
224,216,259058,1,0,0:0:0:0:
224,216,259133,1,8,0:0:0:0:
152,160,259208,1,0,0:0:0:0:
152,160,259283,1,0,0:0:0:0:
152,160,259358,1,0,0:0:0:0:
240,216,259433,1,8,0:0:0:0:
240,232,259508,1,0,0:0:0:0:
264,248,259583,1,0,0:0:0:0:
232,216,259658,1,0,0:0:0:0:
240,216,259733,1,8,0:0:0:0:
184,256,259808,1,0,0:0:0:0:
224,224,259883,1,0,0:0:0:0:
240,200,259958,1,0,0:0:0:0:
240,216,260033,1,8,0:0:0:0:
408,296,260108,1,0,0:0:0:0:
216,224,260183,1,0,0:0:0:0:
216,216,260258,1,0,0:0:0:0:
224,208,260333,1,8,0:0:0:0:
408,296,260408,1,8,0:0:0:0:
184,256,260483,1,0,0:0:0:0:
184,256,260558,1,0,0:0:0:0:
224,208,260633,1,8,0:0:0:0:
408,296,260708,1,0,0:0:0:0:
192,272,260783,1,0,0:0:0:0:
200,280,260858,1,0,0:0:0:0:
256,184,260933,1,8,0:0:0:0:
192,240,261008,1,8,0:0:0:0:
184,256,261083,1,0,0:0:0:0:
184,256,261158,1,0,0:0:0:0:
256,184,261233,1,8,0:0:0:0:
184,256,261308,1,0,0:0:0:0:
272,224,261383,1,8,0:0:0:0:
312,224,261458,1,8,0:0:0:0:
336,240,261533,1,0,0:0:0:0:
376,248,261608,1,8,0:0:0:0:
256,184,261683,1,8,0:0:0:0:
376,256,261758,1,0,0:0:0:0:
376,256,261833,1,8,0:0:0:0:
352,232,261908,1,0,0:0:0:0:
256,184,261983,1,8,0:0:0:0:
312,272,262058,1,8,0:0:0:0:
288,296,262133,1,0,0:0:0:0:
288,288,262208,1,0,0:0:0:0:
256,184,262283,1,8,0:0:0:0:
288,288,262358,1,0,0:0:0:0:
288,288,262433,1,0,0:0:0:0:
288,288,262508,1,0,0:0:0:0:
256,184,262583,1,8,0:0:0:0:
240,216,262658,1,0,0:0:0:0:
288,280,262733,1,0,0:0:0:0:
272,264,262808,1,8,0:0:0:0:
256,184,262883,1,8,0:0:0:0:
272,264,262958,1,0,0:0:0:0:
272,264,263033,1,8,0:0:0:0:
288,280,263108,1,0,0:0:0:0:
256,184,263183,1,8,0:0:0:0:
288,280,263258,1,8,0:0:0:0:
288,280,263333,1,0,0:0:0:0:
288,280,263408,1,0,0:0:0:0:
288,280,263483,1,8,0:0:0:0:
288,280,263558,1,8,0:0:0:0:
288,280,263633,1,8,0:0:0:0:
288,280,263708,1,8,0:0:0:0:
256,184,263783,1,0,0:0:0:0:
320,232,263933,1,8,0:0:0:0:
320,232,264083,1,0,0:0:0:0:
320,224,264158,1,0,0:0:0:0:
320,224,264233,1,8,0:0:0:0:
320,224,264383,1,0,0:0:0:0:
320,224,264533,1,8,0:0:0:0:
320,224,264608,1,8,0:0:0:0:
320,224,264683,1,0,0:0:0:0:
320,224,264758,1,0,0:0:0:0:
320,224,264833,1,8,0:0:0:0:
320,224,264983,1,0,0:0:0:0:
320,224,265133,1,8,0:0:0:0:
136,144,265208,1,0,0:0:0:0:
304,216,265283,1,0,0:0:0:0:
312,240,265358,1,0,0:0:0:0:
312,240,265433,1,8,0:0:0:0:
304,232,265583,1,0,0:0:0:0:
304,232,265658,1,0,0:0:0:0:
304,232,265733,1,8,0:0:0:0:
304,232,265808,1,0,0:0:0:0:
304,232,265883,1,0,0:0:0:0:
304,224,265958,1,0,0:0:0:0:
304,224,266033,1,8,0:0:0:0:
208,232,266108,1,8,0:0:0:0:
208,232,266183,1,0,0:0:0:0:
208,232,266333,1,8,0:0:0:0:
208,208,266483,1,0,0:0:0:0:
208,208,266558,1,0,0:0:0:0:
208,208,266633,1,8,0:0:0:0:
208,208,266783,1,0,0:0:0:0:
208,208,266933,1,8,0:0:0:0:
208,208,267008,1,0,0:0:0:0:
208,208,267083,1,0,0:0:0:0:
208,208,267158,1,0,0:0:0:0:
208,208,267233,1,8,0:0:0:0:
216,200,267383,1,0,0:0:0:0:
208,192,267533,1,8,0:0:0:0:
168,144,267608,1,8,0:0:0:0:
208,168,267683,1,0,0:0:0:0:
208,168,267758,1,0,0:0:0:0:
208,168,267833,1,8,0:0:0:0:
208,168,267983,1,0,0:0:0:0:
184,152,268058,1,0,0:0:0:0:
208,168,268133,1,8,0:0:0:0:
208,168,268208,1,8,0:0:0:0:
208,168,268283,1,8,0:0:0:0:
208,168,268358,1,8,0:0:0:0:
208,168,268433,1,8,0:0:0:0:
208,168,268508,1,8,0:0:0:0:
200,136,268583,1,0,0:0:0:0:
200,136,268733,1,8,0:0:0:0:
344,232,268883,1,0,0:0:0:0:
344,232,268958,1,0,0:0:0:0:
344,232,269033,1,8,0:0:0:0:
344,232,269183,1,0,0:0:0:0:
344,232,269258,1,0,0:0:0:0:
344,232,269333,1,8,0:0:0:0:
344,232,269483,1,0,0:0:0:0:
360,280,269633,1,8,0:0:0:0:
360,280,269708,1,8,0:0:0:0:
360,280,269783,1,0,0:0:0:0:
360,280,269933,1,8,0:0:0:0:
312,272,270083,1,0,0:0:0:0:
304,264,270158,1,0,0:0:0:0:
200,200,270233,1,8,0:0:0:0:
200,200,270383,1,0,0:0:0:0:
200,200,270458,1,0,0:0:0:0:
200,200,270533,1,8,0:0:0:0:
200,200,270683,1,0,0:0:0:0:
200,200,270758,1,0,0:0:0:0:
200,200,270833,1,8,0:0:0:0:
200,200,270983,1,0,0:0:0:0:
328,224,271058,1,0,0:0:0:0:
328,224,271133,1,0,0:0:0:0:
328,224,271208,1,0,0:0:0:0:
328,224,271283,1,8,0:0:0:0:
368,248,271358,1,0,0:0:0:0:
368,248,271433,1,0,0:0:0:0:
368,248,271508,1,0,0:0:0:0:
368,248,271583,1,0,0:0:0:0:
368,248,271658,1,0,0:0:0:0:
368,248,271733,1,0,0:0:0:0:
368,248,271808,1,0,0:0:0:0:
368,248,271883,1,8,0:0:0:0:
368,248,271958,1,0,0:0:0:0:
368,248,272033,1,0,0:0:0:0:
368,248,272108,1,0,0:0:0:0:
176,200,272183,1,8,0:0:0:0:
184,192,272283,1,0,0:0:0:0:
184,192,272383,1,0,0:0:0:0:
184,176,272483,1,8,0:0:0:0:
184,176,272583,1,8,0:0:0:0:
184,176,272683,1,0,0:0:0:0:
360,280,272783,1,8,0:0:0:0:
344,264,272983,1,0,0:0:0:0:
344,264,273083,1,8,0:0:0:0:
344,264,273183,1,8,0:0:0:0:
344,264,273283,1,8,0:0:0:0:
344,248,273383,1,4,0:0:0:0:
336,240,273683,1,0,0:0:0:0:
336,240,273783,1,0,0:0:0:0:
336,224,273983,1,12,0:0:0:0:
336,224,274283,1,0,0:0:0:0:
336,224,274383,1,0,0:0:0:0:
328,200,274583,1,4,0:0:0:0:
328,200,274883,1,0,0:0:0:0:
328,200,274983,1,0,0:0:0:0:
328,200,275183,1,12,0:0:0:0:
328,200,275383,1,0,0:0:0:0:
328,200,275483,1,8,0:0:0:0:
320,200,275583,1,0,0:0:0:0:
320,200,275783,1,4,0:0:0:0:
320,200,275983,1,0,0:0:0:0:
320,192,276083,1,8,0:0:0:0:
320,192,276183,1,0,0:0:0:0:
320,192,276383,1,0,0:0:0:0:
320,192,276583,1,0,0:0:0:0:
320,192,276683,1,8,0:0:0:0:
320,192,276883,1,0,0:0:0:0:
320,192,276983,1,8,0:0:0:0:
320,192,277083,1,0,0:0:0:0:
320,192,277183,1,0,0:0:0:0:
320,192,277283,1,8,0:0:0:0:
320,192,277383,1,8,0:0:0:0:
320,192,277483,1,8,0:0:0:0:
232,128,277583,1,0,0:0:0:0:
392,96,277633,1,0,0:0:0:0:
376,120,277683,1,8,0:0:0:0:
376,224,277783,1,0,0:0:0:0:
240,240,277883,1,8,0:0:0:0:
240,240,277983,1,8,0:0:0:0:
240,240,278083,1,8,0:0:0:0:
328,216,278183,1,4,0:0:0:0:
312,224,278483,1,0,0:0:0:0:
344,232,278583,1,0,0:0:0:0:
280,208,278783,1,12,0:0:0:0:
336,200,279083,1,0,0:0:0:0:
336,200,279183,1,0,0:0:0:0:
328,192,279383,1,4,0:0:0:0:
328,192,279683,1,0,0:0:0:0:
328,192,279783,1,0,0:0:0:0:
328,192,279983,1,12,0:0:0:0:
328,184,280183,1,0,0:0:0:0:
328,184,280283,1,0,0:0:0:0:
328,184,280583,1,0,0:0:0:0:
208,184,280716,1,0,0:0:0:0:
208,176,280849,1,0,0:0:0:0:
208,184,280983,1,8,0:0:0:0:
208,184,281116,1,0,0:0:0:0:
208,184,281249,1,0,0:0:0:0:
208,184,281383,1,8,0:0:0:0:
355,274,281516,1,0,0:0:0:0:
353,263,281649,1,8,0:0:0:0:
355,213,281783,1,4,0:0:0:0:
355,213,281916,1,12,0:0:0:0:
343,233,282183,1,0,0:0:0:0:
354,246,282316,1,0,0:0:0:0:
355,239,282449,1,0,0:0:0:0:
357,234,282583,1,8,0:0:0:0:
357,235,282716,1,0,0:0:0:0:
357,235,282849,1,0,0:0:0:0:
344,255,282983,1,8,0:0:0:0:
346,244,283116,1,0,0:0:0:0:
346,243,283249,1,0,0:0:0:0:
341,240,283383,1,8,0:0:0:0:
341,239,283516,1,8,0:0:0:0:
341,239,283649,1,8,0:0:0:0:
338,236,283783,1,4,0:0:0:0:
288,274,284316,1,0,0:0:0:0:
300,92,284383,1,0,0:0:0:0:
295,101,284449,1,0,0:0:0:0:
295,101,284516,1,0,0:0:0:0:
300,92,284583,1,8,0:0:0:0:
365,147,285116,1,0,0:0:0:0:
365,147,285383,1,4,0:0:0:0:
287,171,286183,1,12,0:0:0:0:
256,192,286983,12,0,290327,0:0:0:0:
355,237,290543,5,8,0:0:0:0:
355,237,290979,1,0,0:0:0:0:
355,237,291415,1,0,0:0:0:0:
272,176,292096,1,0,0:0:0:0:
272,176,292167,1,0,0:0:0:0:
272,176,292238,1,0,0:0:0:0:
272,176,292310,1,8,0:0:0:0:
263,290,292739,1,8,0:0:0:0:
263,290,293183,1,8,0:0:0:0:
248,257,293627,1,0,0:0:0:0:
248,257,294072,1,0,0:0:0:0:
248,256,294960,1,0,0:0:0:0:
248,256,295257,1,0,0:0:0:0:
248,256,295553,1,0,0:0:0:0:
248,256,295849,1,8,0:0:0:0:
307,210,296738,1,8,0:0:0:0:
344,144,297460,1,0,0:0:0:0:
365,266,297516,1,0,0:0:0:0:
365,266,297572,1,0,0:0:0:0:
365,266,297627,1,8,0:0:0:0:
330,251,298072,1,0,0:0:0:0:
330,251,298220,1,0,0:0:0:0:
330,251,298368,1,0,0:0:0:0:
330,251,298516,1,8,0:0:0:0:
333,235,298960,1,0,0:0:0:0:
330,219,299405,1,12,0:0:0:0:
331,203,299849,1,0,0:0:0:0:
331,195,300283,1,0,0:0:0:0:
331,195,300428,1,0,0:0:0:0:
331,195,300573,1,0,0:0:0:0:
359,210,300718,1,8,0:0:0:0:
359,210,300795,1,8,0:0:0:0:
359,210,300873,1,8,0:0:0:0:
359,210,300950,1,0,0:0:0:0:
359,210,301028,1,0,0:0:0:0:
359,210,301105,1,0,0:0:0:0:
359,210,301183,1,8,0:0:0:0:
347,316,301627,1,0,0:0:0:0:
347,316,301856,1,8,0:0:0:0:
263,221,302085,1,0,0:0:0:0:
263,221,302308,1,8,0:0:0:0:
269,191,302531,1,0,0:0:0:0:
269,191,302754,1,8,0:0:0:0:
264,120,303200,1,8,0:0:0:0:
264,104,303423,1,0,0:0:0:0:
264,104,303646,1,8,0:0:0:0:
264,104,303869,1,0,0:0:0:0:
264,104,304092,1,8,0:0:0:0:
264,104,304315,1,0,0:0:0:0:
264,104,304538,1,8,0:0:0:0:
264,104,304761,1,0,0:0:0:0:
312,112,305100,1,0,0:0:0:0:
264,272,305415,1,0,0:0:0:0:
264,272,305715,1,8,0:0:0:0:
264,272,306029,1,8,0:0:0:0:
288,152,306333,1,8,0:0:0:0:
208,152,306573,1,0,0:0:0:0:
344,192,306721,1,0,0:0:0:0:
344,192,306869,1,0,0:0:0:0:
304,144,307017,1,8,0:0:0:0:
304,144,307167,1,8,0:0:0:0:
304,144,307318,1,0,0:0:0:0:
304,144,307468,1,8,0:0:0:0:
304,144,307619,1,0,0:0:0:0:
304,144,307770,1,0,0:0:0:0:
192,176,307920,1,0,0:0:0:0:
192,176,308071,1,0,0:0:0:0:
192,176,308222,1,8,0:0:0:0:
192,168,308372,1,8,0:0:0:0:
240,176,308522,1,0,0:0:0:0:
240,176,308672,1,8,0:0:0:0:
240,176,308822,1,8,0:0:0:0:
240,176,308972,1,8,0:0:0:0:
240,176,309122,1,0,0:0:0:0:
240,176,309272,1,8,0:0:0:0:
240,176,309422,1,0,0:0:0:0:
240,176,309572,1,0,0:0:0:0:
240,176,309722,1,8,0:0:0:0:
240,176,309872,1,8,0:0:0:0:
240,176,310023,1,0,0:0:0:0:
240,176,310173,1,8,0:0:0:0:
240,176,310323,1,0,0:0:0:0:
304,272,310398,1,8,0:0:0:0:
280,152,310473,1,0,0:0:0:0:
152,176,310624,1,8,0:0:0:0:
152,176,310774,1,0,0:0:0:0:
312,272,310849,1,0,0:0:0:0:
152,176,310924,1,0,0:0:0:0:
152,176,311075,1,8,0:0:0:0:
376,232,311225,1,8,0:0:0:0:
376,232,311300,1,8,0:0:0:0:
376,232,311376,1,0,0:0:0:0:
376,232,311451,1,8,0:0:0:0:
376,232,311526,1,8,0:0:0:0:
376,232,311601,1,0,0:0:0:0:
376,232,311676,1,0,0:0:0:0:
376,232,311751,1,8,0:0:0:0:
376,232,311827,1,0,0:0:0:0:
352,240,311977,1,8,0:0:0:0:
248,184,312128,1,0,0:0:0:0:
136,96,312279,1,8,0:0:0:0:
360,272,312430,1,0,0:0:0:0:
184,208,312581,1,8,0:0:0:0:
184,208,312733,1,0,0:0:0:0:
272,128,312884,1,8,0:0:0:0:
184,192,313035,1,8,0:0:0:0:
184,192,313186,1,0,0:0:0:0:
184,192,313338,1,8,0:0:0:0:
192,184,313490,1,8,0:0:0:0:
192,184,313643,1,8,0:0:0:0:
208,160,313796,1,0,0:0:0:0:
208,160,313909,1,0,0:0:0:0:
208,160,314023,1,0,0:0:0:0:
184,96,314136,1,0,0:0:0:0:
352,176,314250,1,8,0:0:0:0:
352,168,314358,1,0,0:0:0:0:
256,240,314467,1,8,0:0:0:0:
344,160,314576,1,8,0:0:0:0:
256,200,314684,1,0,0:0:0:0:
304,248,314796,1,8,0:0:0:0:
304,248,314909,1,8,0:0:0:0:
304,248,315022,1,8,0:0:0:0:
304,224,315135,1,0,0:0:0:0:
304,224,315247,1,0,0:0:0:0:
304,224,315360,1,8,0:0:0:0:
288,248,315435,1,0,0:0:0:0:
168,136,315511,1,0,0:0:0:0:
304,216,315586,1,8,0:0:0:0:
296,168,315737,1,0,0:0:0:0:
344,176,315889,1,0,0:0:0:0:
344,176,316041,1,8,0:0:0:0:
336,272,316193,1,8,0:0:0:0:
336,272,316345,1,0,0:0:0:0:
224,216,316496,1,8,0:0:0:0:
144,136,316648,1,0,0:0:0:0:
144,136,316800,1,8,0:0:0:0:
144,136,316952,1,0,0:0:0:0:
144,136,317104,1,8,0:0:0:0:
144,136,317255,1,0,0:0:0:0:
312,240,317407,1,8,0:0:0:0:
288,264,317559,1,0,0:0:0:0:
288,264,317711,1,0,0:0:0:0:
296,256,317863,1,8,0:0:0:0:
296,256,318014,1,8,0:0:0:0:
296,248,318166,1,0,0:0:0:0:
296,248,318318,1,8,0:0:0:0:
296,232,318470,1,0,0:0:0:0:
136,104,318622,1,0,0:0:0:0:
136,104,318773,1,8,0:0:0:0:
336,256,318925,1,0,0:0:0:0:
336,256,319077,1,0,0:0:0:0:
336,240,319229,1,8,0:0:0:0:
336,232,319380,1,0,0:0:0:0:
336,232,319532,1,0,0:0:0:0:
216,264,319683,1,8,0:0:0:0:
216,264,319835,1,8,0:0:0:0:
216,248,319986,1,0,0:0:0:0:
216,240,320138,1,8,0:0:0:0:
216,240,320289,1,0,0:0:0:0:
216,240,320441,1,0,0:0:0:0:
216,232,320592,1,8,0:0:0:0:
216,224,320748,1,0,0:0:0:0:
272,280,320826,1,0,0:0:0:0:
328,232,320904,1,0,0:0:0:0:
328,232,320982,1,0,0:0:0:0:
328,232,321060,1,8,0:0:0:0:
368,216,321207,1,0,0:0:0:0:
368,216,321354,1,0,0:0:0:0:
352,112,321501,1,8,0:0:0:0:
248,256,321652,1,8,0:0:0:0:
208,176,321804,1,0,0:0:0:0:
256,192,321955,1,8,0:0:0:0:
248,256,322107,1,0,0:0:0:0:
232,192,322258,1,0,0:0:0:0:
240,176,322410,1,8,0:0:0:0:
240,176,322561,1,8,0:0:0:0:
240,176,322713,1,0,0:0:0:0:
240,176,322864,1,12,0:0:0:0:
240,176,323318,1,0,0:0:0:0:
240,168,323808,1,0,0:0:0:0:
304,112,324095,1,0,0:0:0:0:
304,112,324400,1,8,0:0:0:0:
304,104,324696,1,8,0:0:0:0:
296,200,325154,1,0,0:0:0:0:
296,200,325612,1,8,0:0:0:0:
296,184,326070,1,0,0:0:0:0:
296,184,326222,1,0,0:0:0:0:
296,184,326375,1,0,0:0:0:0:
296,184,326528,1,8,0:0:0:0:
296,176,326986,1,0,0:0:0:0:
296,176,327440,1,8,0:0:0:0:
240,136,327901,1,0,0:0:0:0:
240,136,328055,1,0,0:0:0:0:
240,136,328209,1,0,0:0:0:0:
240,136,328363,1,8,0:0:0:0:
112,160,328863,1,8,0:0:0:0:
264,144,329018,1,0,0:0:0:0:
264,144,329173,1,0,0:0:0:0:
264,144,329328,1,8,0:0:0:0:
264,144,329494,1,0,0:0:0:0:
264,144,329661,1,0,0:0:0:0:
264,128,329828,1,8,0:0:0:0:
264,128,330011,1,8,0:0:0:0:
264,128,330194,1,0,0:0:0:0:
160,184,330528,1,12,0:0:0:0:
256,192,330758,12,0,335604,0:0:0:0:
